osu file format v14

[General]
AudioFilename: audio.mp3
AudioLeadIn: 0
PreviewTime: 61071
Countdown: 0
SampleSet: None
StackLeniency: 0.4
Mode: 0
LetterboxInBreaks: 0
WidescreenStoryboard: 0

[Editor]
DistanceSpacing: 1.2
BeatDivisor: 4
GridSize: 4
TimelineZoom: 1

[Metadata]
Title:Mysterious Messenger ver. Korean
TitleUnicode:Mysterious Messenger ver. Korean
Artist:Han
ArtistUnicode:Han
Creator:Yahuri
Version:Modem's Hard
Source:Mystic Messenger
Tags:Modem DoubleTO Zen Yoosung Jaehee Jumin Luciel Saeyoung Saeran Unknown Rika Cheritz 수상한 메신저 visual novel
BeatmapID:1513076
BeatmapSetID:670478

[Difficulty]
HPDrainRate:5
CircleSize:3.8
OverallDifficulty:6
ApproachRate:7
SliderMultiplier:1.3
SliderTickRate:1

[Events]
//Background and Video events
Video,0,"Mysterious Messenger.avi"
0,0,"707.jpg",0,0
//Break Periods
//Storyboard Layer 0 (Background)
//Storyboard Layer 1 (Fail)
//Storyboard Layer 2 (Pass)
//Storyboard Layer 3 (Foreground)
//Storyboard Sound Samples

[TimingPoints]
1189,468.75,4,3,1,60,1,0
8689,-83.3333333333333,4,3,1,60,0,0
14079,-142.857142857143,4,3,1,60,0,0
14196,-142.857142857143,4,3,1,20,0,0
15251,-142.857142857143,4,3,1,60,0,0
15485,-100,4,3,1,50,0,0
31189,-100,4,3,1,55,0,0
44314,-83.3333333333333,4,3,1,55,0,0
44665,-83.3333333333333,4,3,1,5,0,0
44782,-83.3333333333333,4,3,1,55,0,0
45134,-83.3333333333333,4,3,1,5,0,0
45251,-83.3333333333333,4,3,1,55,0,0
45603,-83.3333333333333,4,2,1,45,0,0
45720,-83.3333333333333,4,3,1,55,0,0
46189,-125,4,3,1,40,0,0
52985,-100,4,3,1,40,0,0
53689,-100,4,3,1,60,0,0
59314,-83.3333333333333,4,3,1,60,0,0
61189,-76.9230769230769,4,3,1,70,0,1
76071,-76.9230769230769,4,3,1,70,0,0
76189,-76.9230769230769,4,3,1,70,0,1
85329,-76.9230769230769,4,3,1,50,0,0

[Colours]
Combo1 : 255,0,0
Combo2 : 198,198,198
Combo3 : 56,247,47
Combo4 : 210,213,108
Combo5 : 173,124,222

[HitObjects]
97,79,1189,6,0,P|77:150|118:220,1,130,4|0,1:3|0:0,0:0:0:0:
152,256,1892,1,0,0:0:0:0:
158,333,2126,2,0,P|202:316|215:215,1,130,4|4,1:3|1:3,0:0:0:0:
188,132,2946,1,2,0:0:0:0:
188,132,3064,6,0,B|220:120|220:120|308:136,1,97.5,4|8,1:3|0:0,0:0:0:0:
364,48,3767,1,0,0:0:0:0:
364,48,3884,1,0,0:0:0:0:
364,48,4001,2,0,L|264:29,1,97.5,4|0,1:3|0:0,0:0:0:0:
221,37,4470,2,0,L|146:68,1,65,4|8,1:3|0:0,0:0:0:0:
173,98,4821,1,8,0:0:0:0:
188,132,4939,6,0,B|228:116|228:116|340:137,1,130,0|0,1:3|1:0,0:0:0:0:
392,268,5876,2,0,P|360:300|360:372,2,97.5,0|0|8,1:0|0:0|0:0,0:0:0:0:
428,256,6696,1,10,0:0:0:0:
428,256,6814,6,0,L|408:176,1,65,4|0,1:3|0:0,0:0:0:0:
368,68,7282,2,0,L|348:148,1,65,4|0,1:3|0:0,0:0:0:0:
309,256,7751,2,0,L|289:176,1,65,4|0,1:3|0:0,0:0:0:0:
249,68,8220,2,0,L|229:148,1,65,12|8,0:0|0:0,0:0:0:0:
204,156,8571,1,8,0:0:0:0:
204,156,8689,6,0,P|128:161|94:223,1,116.999996429443,4|0,1:3|0:0,0:0:0:0:
85,230,9157,1,8,0:0:0:0:
132,311,9392,1,0,0:0:0:0:
212,358,9626,2,0,P|218:275|149:218,1,155.999995239258,0|8,1:0|0:0,0:0:0:0:
76,64,10564,6,0,L|194:90,1,116.999996429443,4|0,1:3|0:0,0:0:0:0:
232,64,11032,1,8,0:0:0:0:
325,52,11267,2,0,P|321:103|237:161,1,155.999995239258,4|0,1:3|1:0,0:0:0:0:
184,232,11970,2,0,L|93:212,1,77.999997619629,8|0,0:0|1:0,0:0:0:0:
179,308,12439,6,0,P|231:293|259:220,1,116.999996429443,4|0,0:0|0:0,0:0:0:0:
304,224,12907,1,8,0:0:0:0:
352,304,13142,1,0,1:0:0:0:
379,214,13376,2,0,P|346:161|247:175,1,155.999995239258,0|8,1:0|0:0,0:0:0:0:
128,224,14079,6,0,B|159:207|202:219|202:219|170:183|186:131|186:131|152:124|123:144,1,227.499993057251,4|0,1:3|0:0,0:0:0:0:
60,108,15485,2,0,L|16:40,2,65,0|0|0,0:0|0:0|0:0,0:0:0:0:
60,188,16189,6,0,P|63:266|123:301,1,130,4|8,1:3|0:0,0:0:0:0:
128,224,16892,1,0,1:0:0:0:
199,254,17126,2,0,L|268:240,1,65,0|0,1:0|0:0,0:0:0:0:
292,168,17595,2,0,L|352:192,1,65,8|0,0:0|1:0,0:0:0:0:
300,93,18064,6,0,P|248:106|217:163,1,97.5,0|0,1:0|0:0,0:0:0:0:
188,156,18532,2,0,L|128:132,1,65,8|0,0:0|1:0,0:0:0:0:
220,260,19235,5,0,1:0:0:0:
220,260,19470,2,0,L|280:284,1,65,8|0,0:0|1:0,0:0:0:0:
300,93,19939,6,0,P|248:106|217:163,1,97.5,0|0,1:0|0:0,0:0:0:0:
188,156,20407,1,8,0:0:0:0:
140,92,20642,1,0,1:0:0:0:
112,164,20876,2,0,B|117:200|146:220|146:220|88:280,1,130,0|8,1:0|0:0,0:0:0:0:
48,320,21579,1,0,1:0:0:0:
176,304,21814,6,0,L|238:241,1,65,0|0,1:0|0:0,0:0:0:0:
260,268,22165,1,0,0:0:0:0:
260,268,22282,1,8,0:0:0:0:
324,308,22517,2,0,P|334:253|277:194,1,130,0|0,1:0|1:0,0:0:0:0:
214,179,23220,1,8,0:0:0:0:
269,123,23454,1,2,0:0:0:0:
221,257,23689,6,0,L|176:304,1,65,4|0,1:3|0:0,0:0:0:0:
184,344,24040,1,0,0:0:0:0:
184,344,24157,1,8,0:0:0:0:
109,367,24392,1,0,1:0:0:0:
71,298,24626,2,0,L|116:251,1,65,0|0,1:0|0:0,0:0:0:0:
94,176,25095,1,8,0:0:0:0:
156,130,25329,1,0,1:0:0:0:
24,206,25564,6,0,P|26:142|58:109,1,97.5,0|0,1:0|0:0,0:0:0:0:
28,84,26032,2,0,L|73:37,1,65,8|0,0:0|1:0,0:0:0:0:
200,128,26735,1,0,1:0:0:0:
260,180,26970,1,8,0:0:0:0:
328,140,27204,1,0,1:0:0:0:
186,206,27439,6,0,L|141:253,1,65,0|0,1:0|0:0,0:0:0:0:
188,312,27907,2,0,L|188:392,1,65,8|0,0:0|1:0,0:0:0:0:
264,356,28376,2,0,L|340:376,1,65,0|0,1:0|0:0,0:0:0:0:
340,296,28845,2,0,L|385:249,1,65,8|0,0:0|1:0,0:0:0:0:
211,207,29314,6,0,B|259:243|259:243|307:227|307:227|341:260|395:247,1,195,4|0,1:3|0:0,0:0:0:0:
420,232,30134,1,0,0:0:0:0:
420,232,30251,1,0,0:0:0:0:
424,77,30485,2,0,L|363:41,2,65,0|2|0,0:0|0:0|0:0,0:0:0:0:
272,123,31189,6,0,L|211:87,1,65,4|0,1:3|0:0,0:0:0:0:
180,108,31540,1,0,0:0:0:0:
180,108,31657,1,8,0:0:0:0:
204,184,31892,1,0,1:0:0:0:
130,211,32126,2,0,P|161:250|252:246,1,130,0|8,1:0|0:0,0:0:0:0:
300,300,32829,1,0,1:0:0:0:
204,184,33064,6,0,L|249:137,1,65,0|0,1:0|0:0,0:0:0:0:
288,140,33415,1,0,0:0:0:0:
288,140,33532,2,0,L|333:93,1,65,8|0,0:0|1:0,0:0:0:0:
416,224,34235,1,0,1:0:0:0:
368,284,34470,1,8,0:0:0:0:
296,256,34704,1,0,1:0:0:0:
389,154,34939,6,0,P|440:153|489:205,1,97.5,0|0,1:0|0:0,0:0:0:0:
492,216,35407,1,8,0:0:0:0:
416,224,35642,1,0,1:0:0:0:
368,284,35876,1,0,1:0:0:0:
296,256,36110,1,0,0:0:0:0:
238,309,36345,2,0,L|246:373,1,65,8|0,0:0|0:0,0:0:0:0:
127,272,36814,6,0,B|163:304|163:304|172:378,1,97.5,0|0,1:0|0:0,0:0:0:0:
132,372,37282,1,8,0:0:0:0:
70,323,37517,2,0,P|51:264|110:197,1,130,0|0,1:0|1:0,0:0:0:0:
132,148,38220,2,0,L|124:84,1,65,8|2,0:0|0:0,0:0:0:0:
280,84,38689,6,0,L|272:148,1,65,4|0,1:3|0:0,0:0:0:0:
292,180,39040,1,0,0:0:0:0:
292,180,39157,1,8,0:0:0:0:
232,228,39392,1,0,1:0:0:0:
280,288,39626,2,0,B|288:300|288:300|281:357,2,65,0|0|8,1:0|0:0|0:0,0:0:0:0:
208,316,40329,1,0,1:0:0:0:
172,180,40564,6,0,B|164:168|164:168|171:111,1,65,0|0,1:0|0:0,0:0:0:0:
140,92,40915,1,0,0:0:0:0:
140,92,41032,2,0,B|132:80|132:80|139:23,1,65,8|0,0:0|1:0,0:0:0:0:
217,32,41501,1,0,0:0:0:0:
296,30,41735,2,0,B|302:80|302:80|294:92,2,65,0|8|0,0:0|0:0|1:0,0:0:0:0:
225,123,42439,6,0,P|272:164|352:140,1,130,0|8,1:0|0:0,0:0:0:0:
412,136,43142,1,0,1:0:0:0:
444,208,43376,2,0,L|436:272,2,65,0|0|8,1:0|0:0|0:0,0:0:0:0:
492,144,44079,1,0,1:0:0:0:
372,38,44314,6,0,P|408:70|408:142,1,116.999996429443,4|0,1:3|0:0,0:0:0:0:
372,160,44782,2,0,B|348:144|348:144|360:252,1,116.999996429443,4|0,1:3|0:0,0:0:0:0:
316,256,45251,2,0,B|276:228|276:228|228:244|181:211,1,116.999996429443,4|8,1:3|0:3,0:0:0:0:
164,216,45720,1,0,1:0:0:0:
68,296,46189,6,0,L|55:182,2,104,4|0|0,1:3|1:0|1:0,0:0:0:0:
152,356,47595,1,0,0:0:0:0:
244,312,48064,2,0,P|282:303|335:323,2,78,0|0|0,1:0|0:0|0:0,0:0:0:0:
196,288,49001,2,0,P|188:244|168:276,1,104,0|0,1:0|1:0,0:0:0:0:
185,169,49939,6,0,P|245:186|282:237,2,104,0|0|0,1:0|1:0|1:0,0:0:0:0:
80,164,51345,1,0,1:0:0:0:
165,95,51814,6,0,B|225:75|225:75|277:87,2,104,0|0|0,1:0|1:0|1:0,0:0:0:0:
96,128,52985,1,8,0:0:0:0:
80,164,53103,1,8,0:0:0:0:
63,200,53220,1,0,0:0:0:0:
172,236,53454,1,8,0:0:0:0:
188,272,53572,1,8,0:0:0:0:
208,308,53689,6,0,B|262:320|262:320|333:296,2,130,4|8|0,1:3|0:0|0:0,0:0:0:0:
132,326,54860,1,0,0:0:0:0:
97,256,55095,2,0,L|9:236,1,65,8|0,0:0|0:0,0:0:0:0:
76,80,55564,6,0,B|86:119|128:134|128:134|95:147|81:182,1,130,0|8,1:0|0:0,0:0:0:0:
154,208,56267,1,0,0:0:0:0:
216,161,56501,2,0,P|230:225|182:282,1,130,0|8,0:0|0:0,0:0:0:0:
117,278,57204,1,0,0:0:0:0:
150,123,57439,6,0,P|199:87|282:125,1,130,4|8,1:3|0:0,0:0:0:0:
315,159,58142,1,0,0:0:0:0:
380,116,58376,2,0,L|456:92,2,65,0|0|8,1:0|0:0|0:0,0:0:0:0:
326,58,59079,1,8,0:0:0:0:
326,58,59196,1,8,0:0:0:0:
326,58,59314,6,0,P|278:66|238:50,2,77.999997619629,0|12|12,1:0|0:0|0:0,0:0:0:0:
416,36,60017,1,4,0:1:0:0:
416,36,60134,1,8,0:0:0:0:
416,36,60251,2,0,P|464:28|504:44,1,77.999997619629,4|8,1:3|0:0,0:0:0:0:
452,120,60720,2,0,L|436:172,3,38.9999988098145,8|8|8|8,0:0|0:0|0:0|0:0,0:0:0:0:
472,196,61189,6,0,P|416:204|364:296,1,168.999992263794,4|8,1:3|0:0,0:0:0:0:
296,372,61892,1,0,0:0:0:0:
204,332,62126,2,0,L|116:280,2,84.4999961318971,0|0|8,1:0|0:0|0:0,0:0:0:0:
272,256,62829,1,0,0:0:0:0:
128,212,63064,6,0,P|59:264|91:355,2,168.999992263794,0|8|0,1:0|0:0|0:0,0:0:0:0:
144,112,64235,1,0,1:0:0:0:
202,195,64470,2,0,P|197:246|166:278,1,84.4999961318971,8|0,0:0|1:0,0:0:0:0:
260,348,64939,6,0,B|228:316|228:316|200:188,1,168.999992263794,0|8,1:0|0:0,0:0:0:0:
256,108,65642,1,0,1:0:0:0:
336,168,65876,2,0,L|356:260,1,84.4999961318971,0|0,1:0|0:0,0:0:0:0:
456,252,66345,1,8,0:0:0:0:
436,152,66579,1,0,0:0:0:0:
404,308,66814,6,0,P|332:323|278:242,1,168.999992263794,0|8,1:0|0:0,0:0:0:0:
238,161,67517,1,0,1:0:0:0:
336,168,67751,2,0,L|356:260,1,84.4999961318971,0|0,0:0|1:0,0:0:0:0:
404,236,68103,1,0,0:0:0:0:
404,236,68220,1,8,0:0:0:0:
496,192,68454,1,0,0:0:0:0:
382,107,68689,6,0,P|301:100|260:176,1,168.999992263794,4|8,1:3|0:0,0:0:0:0:
254,269,69392,1,0,0:0:0:0:
353,250,69626,2,0,L|336:168,2,84.4999961318971,0|0|8,1:0|0:0|0:0,0:0:0:0:
320,348,70329,1,0,0:0:0:0:
184,313,70564,6,0,B|148:265|148:265|210:297|288:253,1,168.999992263794,0|8,1:0|0:0,0:0:0:0:
320,348,71267,1,0,1:0:0:0:
412,304,71501,2,0,P|460:272|468:164,1,168.999992263794,0|8,0:0|0:0,0:0:0:0:
408,88,72204,1,0,1:0:0:0:
276,172,72439,6,0,B|316:190|360:176|360:176|344:212|344:212|344:276,1,168.999992263794,0|8,1:0|0:0,0:0:0:0:
244,268,73142,1,0,0:0:0:0:
200,175,73376,2,0,P|210:133|247:102,2,84.4999961318971,0|0|8,1:0|0:0|0:0,0:0:0:0:
112,228,74079,1,0,0:0:0:0:
214,337,74314,6,0,P|283:332|317:247,2,168.999992263794,0|8|0,1:0|0:0|0:0,0:0:0:0:
113,329,75485,1,0,1:0:0:0:
112,228,75720,2,0,L|180:156,1,84.4999961318971,8|0,0:0|1:0,0:0:0:0:
272,76,76189,6,0,P|188:94|172:171,1,168.999992263794,4|8,1:3|0:0,0:0:0:0:
208,260,76892,1,0,0:0:0:0:
297,210,77126,2,0,L|237:138,1,84.4999961318971,0|0,1:0|0:0,0:0:0:0:
426,124,77595,2,0,P|384:133|344:124,1,84.4999961318971,8|0,0:0|0:0,0:0:0:0:
468,60,78064,6,0,P|503:122|416:201,1,168.999992263794,0|8,1:0|0:0,0:0:0:0:
352,200,78767,1,0,1:0:0:0:
352,200,79001,2,0,L|364:304,2,84.4999961318971,0|0|8,0:0|1:0|0:0,0:0:0:0:
252,216,79704,1,0,1:0:0:0:
127,129,79939,6,0,B|158:140|191:129|191:129|223:145|223:145|268:126|323:168,1,168.999992263794,0|8,1:0|0:0,0:0:0:0:
380,100,80642,1,0,1:0:0:0:
352,200,80876,2,0,L|364:304,1,84.4999961318971,0|0,1:0|0:0,0:0:0:0:
248,372,81345,2,0,L|260:268,1,84.4999961318971,8|0,0:0|0:0,0:0:0:0:
152,360,81814,6,0,B|159:298|159:298|184:268|184:268|195:172,2,168.999992263794,0|8|0,1:0|0:0|0:0,0:0:0:0:
56,324,82985,1,0,1:0:0:0:
64,224,83220,2,0,L|128:148,1,84.4999961318971,8|0,0:0|1:0,0:0:0:0:
213,64,83689,6,0,B|182:100|182:100|162:68|162:68|114:88|58:54,1,168.999992263794,4|8,1:3|0:0,0:0:0:0:
118,159,84392,1,0,1:0:0:0:
216,176,84626,2,0,L|280:100,2,84.4999961318971,0|0|4,1:0|0:0|0:1,0:0:0:0:
248,272,85329,1,8,0:0:0:0:
248,272,85798,5,12,0:0:0:0:
118,159,86032,1,12,0:0:0:0:
118,159,87439,6,0,B|138:143|138:143|230:143,1,84.4999961318971,4|0,1:3|0:0,0:0:0:0:
260,224,87907,2,0,L|291:186,3,42.2499980659486,0|0|0|0,1:0|0:0|0:0|0:0,0:0:0:0:
290,141,88376,2,0,L|358:141,3,42.2499980659486,0|0|0|0,1:0|0:0|0:0|0:0,0:0:0:0:
374,113,88846,2,0,P|415:123|481:95,1,84.4999961318971,0|0,1:0|0:0,0:0:0:0:
464,12,89314,6,0,B|444:28|444:28|352:28,1,84.4999961318971,0|0,1:0|0:0,0:0:0:0:
288,52,89782,2,0,L|257:90,3,42.2499980659486,0|0|0|0,1:0|0:0|0:0|0:0,0:0:0:0:
258,135,90251,2,0,L|190:135,3,42.2499980659486,0|0|0|0,1:0|0:0|0:0|0:0,0:0:0:0:
174,163,90721,2,0,P|133:153|67:181,1,84.4999961318971,0|0,1:0|0:0,0:0:0:0:
93,264,91189,6,0,P|134:274|200:246,1,84.4999961318971,4|0,1:3|0:0,0:0:0:0:
268,300,91657,2,0,L|294:267,3,42.2499980659486,0|0|0|0,1:0|0:0|0:0|0:0,0:0:0:0:
344,252,92126,2,0,L|344:188,3,42.2499980659486,0|0|0|0,1:0|0:0|0:0|0:0,0:0:0:0:
312,172,92595,2,0,L|372:97,1,84.4999961318971,2|0,0:0|0:0,0:0:0:0:
192,32,93064,5,12,0:0:0:0:
