osu file format v14

[General]
AudioFilename: audio.mp3
AudioLeadIn: 0
PreviewTime: 47102
Countdown: 0
SampleSet: Soft
StackLeniency: 0.7
Mode: 2
LetterboxInBreaks: 0
WidescreenStoryboard: 0

[Editor]
DistanceSpacing: 1.5
BeatDivisor: 4
GridSize: 32
TimelineZoom: 2

[Metadata]
Title:Innocent Letter
TitleUnicode:Innocent Letter
Artist:Hamu feat. yuiko
ArtistUnicode:ハム feat. yuiko
Creator:-Hex-
Version:Envelope
Source:
Tags:ゆいこんぬ ゆいこ yuikonnu Japanese Pop J-Pop JPop Foxtail-Grass Studio Featured Artist FA Mappers' Guild MG MPG Hinsvar oml4 osu! master league qf quarterfinals quarter finals dt1 doubletime1 double time コミケット97 コミックマーケット97 comiket comic market 97 原田樹季 Itsuki Harada イノセントレター
BeatmapID:4519388
BeatmapSetID:2145703

[Difficulty]
HPDrainRate:5
CircleSize:3.6
OverallDifficulty:8.6
ApproachRate:8.6
SliderMultiplier:1.8
SliderTickRate:2

[Events]
//Background and Video events
0,0,"hamu1200.jpg",0,0
//Break Periods
2,144162,146047
//Storyboard Layer 0 (Background)
//Storyboard Layer 1 (Fail)
//Storyboard Layer 2 (Pass)
//Storyboard Layer 3 (Foreground)
//Storyboard Layer 4 (Overlay)
//Storyboard Sound Samples

[TimingPoints]
548,365.853658536585,4,2,1,60,1,0
6401,-100,4,2,1,60,0,0
12255,-100,4,2,2,50,0,0
23962,-100,4,2,1,60,0,0
35669,-100,4,2,1,70,0,0
47377,-90.9090909090909,4,2,1,80,0,1
58352,-90.9090909090909,4,2,1,80,0,0
59084,-90.9090909090909,4,2,1,80,0,1
62560,-90.9090909090909,4,2,1,80,0,0
63291,-90.9090909090909,4,2,1,80,0,1
70791,-100,4,2,1,70,0,0
75913,-66.6666666666667,4,2,1,70,0,0
76645,-100,4,2,1,70,0,0
82499,-100,4,2,1,60,0,0
94206,-100,4,2,1,65,0,0
105913,-100,4,2,1,70,0,0
117621,-90.9090909090909,4,2,1,80,0,1
128596,-90.9090909090909,4,2,1,80,0,0
129328,-90.9090909090909,4,2,1,80,0,1
132804,-90.9090909090909,4,2,1,80,0,0
133535,-90.9090909090909,4,2,1,80,0,1
141035,-100,4,2,2,50,0,0
152743,-100,4,2,1,60,0,0
162987,-100,4,2,1,70,0,0
179084,-90.9090909090909,4,2,1,80,0,1
190060,-90.9090909090909,4,2,1,80,0,0
190791,-90.9090909090909,4,2,1,80,0,1
194267,-90.9090909090909,4,2,1,80,0,0
194999,-90.9090909090909,4,2,1,80,0,1
206889,-83.3333333333333,4,2,1,70,0,0
207621,-100,4,2,1,70,0,0
208352,-100,4,2,1,70,0,1
208444,-100,4,2,1,70,0,0
213474,-66.6666666666667,4,2,1,70,0,0
214206,-100,4,2,1,70,0,0
220060,-100,4,2,1,80,0,1
231767,-100,4,2,1,70,0,0

[Colours]
Combo1 : 223,157,159
Combo2 : 238,170,96
Combo3 : 234,135,102
Combo4 : 220,97,100

[HitObjects]
192,341,548,5,2,0:2:0:0:
155,257,730,1,2,0:2:0:0:
204,180,913,1,2,0:2:0:0:
295,179,1096,1,2,0:2:0:0:
453,164,1279,2,0,L|462:62,1,90,2|0,0:2|0:0,0:0:0:0:
302,116,1645,2,0,L|297:17,1,90,2|0,0:2|0:0,0:0:0:0:
456,155,2011,6,0,P|510:219|434:277,1,180,2|2,0:2|0:2,0:0:0:0:
364,277,2560,1,2,0:2:0:0:
206,336,2743,2,0,P|146:300|139:186,1,180,2|2,0:2|0:2,0:0:0:0:
408,29,3474,5,2,0:2:0:0:
444,111,3657,1,2,0:2:0:0:
397,188,3840,1,2,0:2:0:0:
308,194,4023,1,2,0:2:0:0:
150,198,4206,2,0,L|146:302,1,90,2|0,0:2|0:0,0:0:0:0:
304,270,4572,2,0,L|309:371,1,90,2|0,0:2|0:0,0:0:0:0:
149,356,4938,5,2,0:2:0:0:
32,337,5669,2,0,P|108:247|14:139,1,270
302,93,6401,6,0,L|504:83,1,180,4|0,3:2|3:0,0:0:0:0:
325,177,6950,2,0,P|275:250|334:296,1,180,2|2,0:0|0:2,0:0:0:0:
491,310,7499,1,2,3:2:0:0:
306,56,7865,6,0,L|412:55,1,90,0|0,3:0|0:0,0:0:0:0:
306,143,8230,2,0,L|307:259,1,90,2|0,3:2|0:0,0:0:0:0:
465,337,8596,2,0,L|346:337,2,90,2|2|2,3:2|3:2|3:2,0:0:0:0:
32,24,9328,6,0,L|28:214,1,180,4|2,3:2|3:2,0:0:0:0:
120,205,9877,1,0,0:0:0:0:
278,206,10060,2,0,L|278:334,1,90,2|0,3:2|0:0,0:0:0:0:
120,340,10426,2,0,L|230:341,1,90,2|0,3:2|0:0,0:0:0:0:
458,205,10791,5,6,3:2:0:0:
314,210,10974,1,0,3:0:0:0:
171,210,11157,1,0,3:0:0:0:
314,210,11340,1,0,3:0:0:0:
458,205,11523,1,0,3:0:0:0:
187,345,11706,2,0,P|140:304|207:215,1,180,14|0,0:0|0:0,0:0:0:0:
434,130,12255,6,0,P|487:87|418:18,1,180,2|10,3:2|0:0,0:0:0:0:
337,23,12804,2,0,P|286:56|353:141,1,180,2|2,0:0|0:0,0:0:0:0:
426,191,13352,2,0,L|317:195,1,90,8|2,0:2|0:0,0:0:0:0:
178,183,13718,6,0,P|118:222|192:294,1,180,10|10,0:0|0:0,0:0:0:0:
257,346,14267,2,0,L|63:342,1,180,2|2,0:0|0:0,0:0:0:0:
168,273,14816,1,10,0:2:0:0:
79,197,14999,1,2,3:2:0:0:
237,64,15182,6,0,L|346:63,1,90,2|2,3:2|0:2,0:0:0:0:
238,129,15547,2,0,L|135:129,1,90,10|0,0:0|0:0,0:0:0:0:
238,198,15913,2,0,P|292:239|220:308,1,180,8|10,0:0|0:0,0:0:0:0:
142,305,16462,1,2,0:0:0:0:
300,241,16645,6,0,P|354:197|289:126,1,180,10|0,0:0|0:0,0:0:0:0:
114,9,17377,2,0,L|213:9,1,90,2|2,0:0|0:0,0:0:0:0:
204,9,17743,1,8,0:0:0:0:
47,155,17926,1,2,3:2:0:0:
290,150,18108,6,0,P|349:215|262:250,1,180,2|10,3:2|0:0,0:0:0:0:
202,263,18657,2,0,L|393:255,1,180,2|2,0:0|0:0,0:0:0:0:
291,194,19206,2,0,L|171:196,1,90,8|2,0:2|0:0,0:0:0:0:
362,313,19572,6,0,P|424:309|411:201,1,180,10|10,0:0|0:0,0:0:0:0:
336,195,20121,2,0,P|275:173|311:76,1,180,2|0,0:0|0:0,0:0:0:0:
389,60,20669,1,10,0:0:0:0:
298,37,20852,1,2,3:2:0:0:
140,129,21035,6,0,L|337:130,1,180,2|10,3:2|0:0,0:0:0:0:
229,185,21584,2,0,P|172:244|243:297,1,180,2|2,0:2|0:0,0:0:0:0:
323,302,22133,1,10,0:0:0:0:
233,349,22316,1,2,0:0:0:0:
390,318,22499,6,0,L|392:115,1,180,10|0,0:0|0:0,0:0:0:0:
297,121,23047,1,2,0:0:0:0:
139,120,23230,1,2,0:0:0:0:
297,121,23413,2,0,L|406:126,2,90,0|2|0,3:0|0:0|3:0,0:0:0:0:
25,18,23962,6,0,L|19:219,1,180,2|2,3:2|3:2,0:0:0:0:
179,216,24511,2,0,P|241:260|152:311,1,180,2|0,0:0|0:0,0:0:0:0:
96,328,25060,1,0,3:0:0:0:
186,324,25243,1,2,0:0:0:0:
430,322,25426,6,0,P|437:256|326:191,1,180,0|2,3:0|3:2,0:0:0:0:
200,197,25974,2,0,P|125:187|133:79,1,180,2|0,0:0|0:0,0:0:0:0:
275,18,26523,2,0,L|162:17,1,90,10|2,0:0|0:0,0:0:0:0:
430,113,26889,6,0,L|432:240,1,90,2|0,3:2|0:0,0:0:0:0:
339,284,27255,2,0,L|452:283,1,90,2|0,3:2|0:0,0:0:0:0:
271,218,27621,2,0,L|176:217,1,90,2|0,3:2|0:0,0:0:0:0:
339,146,27987,2,0,L|338:30,1,90,0|2,3:0|0:0,0:0:0:0:
95,26,28352,6,0,P|45:43|40:180,1,180,2|2,3:2|3:2,0:0:0:0:
110,166,28901,1,2,0:0:0:0:
268,191,29084,2,0,P|273:262|163:307,1,180,0|8,3:0|0:0,0:0:0:0:
30,306,29633,1,2,3:2:0:0:
274,341,29816,6,0,L|373:336,1,90,2|0,3:2|0:0,0:0:0:0:
205,245,30182,1,2,3:2:0:0:
363,242,30365,2,0,L|365:128,1,90,2|0,0:0|3:0,0:0:0:0:
273,87,30730,2,0,L|391:87,2,90,2|0|2,0:0|3:0|0:0,0:0:0:0:
114,167,31279,6,0,L|108:274,1,90,2|0,3:2|0:0,0:0:0:0:
267,330,31645,2,0,L|157:330,1,90,2|0,3:2|0:0,0:0:0:0:
423,225,32011,1,8,0:0:0:0:
176,204,32194,2,0,L|172:88,1,90,10|0,0:0|0:0,0:0:0:0:
457,36,32560,6,0,P|503:107|436:183,1,180,6|0,0:0|0:0,0:0:0:0:
303,278,33108,2,0,L|91:255,2,180,2|8|0,3:2|0:0|3:0,0:0:0:0:
390,290,34023,1,8,0:0:0:0:
119,339,34206,6,0,L|20:336,1,90,4|2,3:2|0:0,0:0:0:0:
467,52,34755,2,0,L|268:53,1,180,14|0,0:0|3:0,0:0:0:0:
198,56,35304,1,2,0:0:0:0:
356,174,35487,1,0,3:0:0:0:
113,110,35669,6,0,L|3:102,2,90,4|2|8,3:2|0:0|0:0,0:0:0:0:
271,115,36218,1,2,0:0:0:0:
114,28,36401,2,0,L|319:44,1,180,2|8,3:2|0:0,0:0:0:0:
135,160,36950,1,2,0:0:0:0:
378,128,37133,6,0,P|437:175|366:242,1,180,2|10,3:2|0:0,0:0:0:0:
225,250,37682,2,0,L|220:377,1,90,2|0,0:0|3:0,0:0:0:0:
311,353,38047,2,0,L|410:351,2,90,2|8|2,0:0|0:0|3:2,0:0:0:0:
66,337,38596,5,2,3:2:0:0:
39,248,38779,1,2,0:0:0:0:
82,166,38962,1,10,0:0:0:0:
171,139,39145,1,2,0:0:0:0:
335,133,39328,2,0,L|335:30,1,90,2|0,3:2|0:0,0:0:0:0:
172,19,39694,2,0,L|285:18,1,90,8|0,0:0|3:0,0:0:0:0:
311,13,39968,1,0,3:0:0:0:
465,26,40060,6,0,L|471:127,1,90,6|0,3:2|0:0,0:0:0:0:
313,173,40426,2,0,L|309:295,1,90,8|0,0:0|0:0,0:0:0:0:
467,352,40791,2,0,L|349:351,2,90,14|0|0,0:0|3:0|3:0,0:0:0:0:
18,20,41523,6,0,L|12:147,1,90,4|0,3:2|0:0,0:0:0:0:
173,213,41889,2,0,L|74:215,1,90,8|0,0:0|3:0,0:0:0:0:
241,316,42255,2,0,L|242:200,1,90,8|0,0:0|3:0,0:0:0:0:
83,97,42621,1,8,0:0:0:0:
239,90,42804,1,0,3:2:0:0:
483,84,42987,6,0,L|485:198,1,90,8|2,0:0|0:0,0:0:0:0:
326,260,43352,2,0,L|438:260,1,90,8|2,0:0|3:2,0:0:0:0:
257,43,43718,2,0,L|256:157,1,90,8|0,0:0|3:0,0:0:0:0:
416,189,44084,2,0,L|288:189,1,90,8|0,0:0|3:0,0:0:0:0:
80,182,44450,6,0,P|33:225|99:311,1,180,6|8,3:2|0:0,0:0:0:0:
244,338,44999,1,0,3:0:0:0:
146,200,45090,1,0,3:0:0:0:
47,141,45182,1,10,0:0:0:0:
47,141,45365,1,0,3:0:0:0:
146,200,45456,1,0,3:0:0:0:
244,338,45547,1,8,0:0:0:0:
244,338,45730,1,0,3:0:0:0:
190,335,45822,1,0,3:0:0:0:
351,249,45913,6,0,L|357:131,1,90,2|0,3:2|3:0,0:0:0:0:
84,30,46279,1,14,0:0:0:0:
210,33,46462,2,0,P|239:121|153:152,1,180,2|0,0:0|0:0,0:0:0:0:
17,96,47011,1,2,0:2:0:0:
10,143,47102,1,2,0:2:0:0:
10,190,47194,1,2,0:2:0:0:
12,237,47285,1,2,0:2:0:0:
197,319,47377,6,0,L|303:320,2,99.0000030212403,6|2|10,3:2|0:2|0:0,0:0:0:0:
446,258,47926,2,0,P|499:197|421:111,1,198.000006042481,2|2,0:0|0:0,0:0:0:0:
281,77,48474,1,10,0:0:0:0:
440,17,48657,1,2,0:0:0:0:
192,53,48840,6,0,P|122:68|113:202,1,198.000006042481,2|10,3:2|0:0,0:0:0:0:
344,182,49389,2,0,P|344:270|236:289,1,198.000006042481,2|0,0:0|0:0,0:0:0:0:
410,334,49938,1,10,0:0:0:0:
160,340,50121,6,0,P|97:325|57:196,1,198.000006042481,2|2,0:0|0:0,0:0:0:0:
149,185,50669,1,10,0:0:0:0:
49,191,50852,1,2,0:0:0:0:
208,101,51035,1,2,3:2:0:0:
48,20,51218,2,0,L|42:128,1,99.0000030212403,2|8,0:0|0:0,0:0:0:0:
143,122,51584,1,2,0:0:0:0:
392,288,51767,6,0,L|537:291,3,99.0000030212403,2|2|10|2,3:2|0:0|0:0|0:0,0:0:0:0:
212,38,52682,2,0,L|206:165,1,99.0000030212403,2|8,0:2|0:0,0:0:0:0:
366,140,53047,1,2,0:0:0:0:
89,265,53230,6,0,L|209:265,2,99.0000030212403,6|2|10,3:2|0:0|0:0,0:0:0:0:
341,175,53779,2,0,P|401:234|331:304,1,198.000006042481,2|2,0:0|0:2,0:0:0:0:
177,298,54328,1,10,0:0:0:0:
336,352,54511,6,0,P|393:341|401:210,1,198.000006042481,2|2,0:0|0:0,0:0:0:0:
251,124,55060,1,10,0:0:0:0:
499,21,55243,1,2,0:0:0:0:
499,21,55608,1,2,0:0:0:0:
341,17,55791,1,10,0:0:0:0:
499,21,55974,1,2,0:0:0:0:
221,147,56157,6,0,L|99:146,1,99.0000030212403,6|0,3:2|0:0,0:0:0:0:
280,231,56523,1,10,0:0:0:0:
122,228,56706,2,0,L|114:283,2,49.5000015106202,2|0|0,3:2|3:0|3:0,0:0:0:0:
371,94,57072,2,0,L|477:94,2,99.0000030212403,10|0|10,0:0|3:0|0:0,0:0:0:0:
432,91,57529,1,8,0:0:0:0:
491,92,57621,5,0,3:0:0:0:
243,191,57804,1,10,0:0:0:0:
491,328,57987,1,10,0:0:0:0:
367,321,58169,1,0,3:0:0:0:
491,328,58352,2,0,L|492:213,1,99.0000030212403,2|0,3:2|0:0,0:0:0:0:
242,62,58718,2,0,L|128:61,1,99.0000030212403,8|2,0:0|0:0,0:0:0:0:
181,119,58993,1,2,0:0:0:0:
376,96,59084,6,0,L|480:97,2,99.0000030212403,6|2|10,3:2|0:0|0:0,0:0:0:0:
126,112,59633,2,0,P|62:158|138:231,1,198.000006042481,2|2,0:0|0:0,0:0:0:0:
283,268,60182,1,10,0:0:0:0:
124,333,60365,1,2,0:0:0:0:
370,108,60547,5,2,3:2:0:0:
245,101,60730,2,0,L|238:223,1,99.0000030212403,2|8,0:2|0:0,0:0:0:0:
489,345,61096,2,0,L|269:336,1,198.000006042481,2|0,0:0|0:0,0:0:0:0:
440,263,61645,2,0,L|440:149,1,99.0000030212403,10|2,0:0|0:0,0:0:0:0:
190,32,62011,5,2,3:2:0:0:
314,161,62194,2,0,L|396:162,2,49.5000015106202,0|0|8,3:0|3:0|0:0,0:0:0:0:
64,292,62560,2,0,L|61:186,1,99.0000030212403,2|0,3:2|0:0,0:0:0:0:
310,136,62926,2,0,L|315:26,1,99.0000030212403,2|0,3:2|0:0,0:0:0:0:
50,28,63291,6,0,L|262:27,1,198.000006042481,6|0,3:2|0:0,0:0:0:0:
90,114,63840,2,0,L|86:250,1,99.0000030212403,8|0,0:0|0:0,0:0:0:0:
247,307,64206,2,0,L|121:307,1,99.0000030212403,10|0,0:0|0:0,0:0:0:0:
306,215,64572,2,0,L|431:211,1,99.0000030212403,8|2,0:0|0:0,0:0:0:0:
159,25,64938,6,0,P|33:23|-6:25,1,148.50000453186,4|0,3:2|0:0,0:0:0:0:
174,106,65304,2,0,L|174:229,1,99.0000030212403,10|0,0:0|3:0,0:0:0:0:
16,283,65669,1,10,0:0:0:0:
173,279,65852,1,2,3:2:0:0:
16,283,66035,2,0,L|14:162,1,99.0000030212403,10|2,0:0|3:2,0:0:0:0:
263,48,66401,6,0,L|387:47,1,99.0000030212403
203,148,66767,2,0,L|198:271,1,99.0000030212403,8|2,0:0|3:2,0:0:0:0:
448,351,67133,2,0,L|451:242,1,99.0000030212403,0|0,0:0|3:0,0:0:0:0:
291,189,67499,1,10,0:0:0:0:
448,109,67682,1,2,3:2:0:0:
152,39,67865,6,0,P|97:92|173:184,1,198.000006042481,6|8,3:2|0:0,0:0:0:0:
251,183,68413,1,2,0:0:0:0:
409,180,68596,1,2,3:2:0:0:
251,183,68779,1,8,0:0:0:0:
409,180,68962,2,0,L|410:306,1,99.0000030212403,0|8,3:0|0:0,0:0:0:0:
359,276,69237,1,8,0:0:0:0:
206,44,69328,5,6,3:2:0:0:
104,117,69511,2,0,L|74:182,2,49.5000015106202,0|0|8,3:0|3:0|0:0,0:0:0:0:
205,242,69877,1,2,3:2:0:0:
155,242,69968,1,0,3:0:0:0:
106,243,70060,1,0,3:0:0:0:
265,135,70243,1,2,0:0:0:0:
16,81,70426,2,0,L|9:193,1,99.0000030212403,10|0,0:0|3:0,0:0:0:0:
60,178,70700,1,0,3:0:0:0:
250,263,70791,6,0,P|296:214|224:128,1,180,6|10,3:2|0:2,0:0:0:0:
86,123,71340,1,2,0:0:0:0:
243,117,71523,2,0,L|244:230,1,90,2|0,3:2|0:0,0:0:0:0:
85,310,71889,2,0,L|200:307,1,90,10|0,0:2|0:0,0:0:0:0:
420,311,72255,6,0,P|484:298|479:192,1,180,2|10,3:2|0:2,0:0:0:0:
329,110,72804,2,0,L|443:111,1,90,2|0,0:2|3:0,0:0:0:0:
261,199,73169,2,0,L|258:331,1,90,2|8,0:2|0:0,0:0:0:0:
418,321,73535,1,2,0:2:0:0:
173,338,73718,6,0,L|169:138,1,180,2|10,3:2|0:2,0:0:0:0:
329,114,74267,1,2,0:2:0:0:
171,85,74450,2,0,L|168:205,1,90,2|0,3:2|0:0,0:0:0:0:
327,303,74816,2,0,L|439:305,1,90,10|0,0:2|0:0,0:0:0:0:
172,234,75182,6,0,P|118:195|193:129,1,180,2|10,3:2|0:2,0:0:0:0:
268,125,75730,1,2,0:2:0:0:
431,258,75913,2,0,P|339:212|484:27,1,405.000015449525,2|0,0:2|0:0,0:0:0:0:
191,17,76645,6,0,L|-6:16,1,180,6|8,3:2|0:2,0:0:0:0:
170,106,77194,2,0,P|228:156|165:221,1,180,2|2,0:2|0:2,0:0:0:0:
15,221,77743,1,2,3:2:0:0:
447,359,78108,6,0,L|316:356,1,90,2|0,3:2|0:0,0:0:0:0:
200,245,78474,2,0,L|312:245,1,90,10|0,0:2|0:0,0:0:0:0:
449,116,78840,2,0,L|338:117,2,90,2|2|10,3:2|0:0|0:0,0:0:0:0:
18,21,79572,6,0,L|16:210,1,180,4|8,3:2|0:0,0:0:0:0:
109,200,80121,2,0,L|0:203,1,90,2|0,0:0|3:0,0:0:0:0:
176,298,80487,1,12,0:0:0:0:
18,299,80669,1,0,3:0:0:0:
176,298,80852,1,10,0:0:0:0:
358,143,81218,5,10,0:0:0:0:
200,139,81401,1,10,0:0:0:0:
200,139,81767,1,2,3:2:0:0:
444,148,81950,1,2,3:2:0:0:
444,148,82316,1,2,0:0:0:0:
173,190,82499,6,0,P|92:158|127:55,1,180,6|2,3:2|3:2,0:0:0:0:
256,134,83047,2,0,P|313:91|247:26,1,180,2|0,0:0|0:0,0:0:0:0:
165,125,83596,1,0,3:0:0:0:
323,228,83779,1,2,0:0:0:0:
80,191,83962,6,0,L|66:372,1,180,2|2,3:2|3:2,0:0:0:0:
226,356,84511,2,0,P|279:317|213:244,1,180,2|0,0:0|0:0,0:0:0:0:
63,125,85060,2,0,L|181:125,1,90,10|2,0:0|0:0,0:0:0:0:
399,124,85426,6,0,L|496:125,1,90,2|0,3:2|0:0,0:0:0:0:
398,204,85791,2,0,L|400:311,1,90,2|0,3:2|0:0,0:0:0:0:
242,343,86157,2,0,P|168:316|181:223,1,180,2|2,3:2|3:2,0:0:0:0:
336,168,86706,1,2,0:2:0:0:
93,32,86889,5,2,3:2:0:0:
41,101,87072,1,2,0:2:0:0:
70,182,87255,1,2,3:2:0:0:
161,185,87438,1,2,0:2:0:0:
212,254,87621,1,2,3:2:0:0:
183,335,87804,1,2,0:0:0:0:
24,346,87987,2,0,L|131:347,1,90,8|2,0:0|0:0,0:0:0:0:
358,354,88352,6,0,P|407:320|339:238,1,180,2|2,3:2|3:2,0:0:0:0:
196,150,88901,2,0,L|379:150,1,180,2|0,0:0|0:0,0:0:0:0:
285,75,89450,1,0,3:0:0:0:
443,68,89633,1,2,0:0:0:0:
197,205,89816,6,0,P|125:219|117:332,1,180,2|0,3:2|3:0,0:0:0:0:
264,359,90365,2,0,L|73:355,1,180,2|0,0:0|0:0,0:0:0:0:
240,270,90913,2,0,L|352:270,1,90,10|2,0:0|0:0,0:0:0:0:
82,245,91279,6,0,L|80:124,1,90,2|0,3:2|0:0,0:0:0:0:
240,29,91645,2,0,L|147:29,1,90,2|0,3:2|0:0,0:0:0:0:
240,103,92011,2,0,L|240:209,1,90,0|2,3:0|0:0,0:0:0:0:
82,257,92377,1,8,0:0:0:0:
327,346,92560,5,2,3:2:0:0:
327,346,93291,2,0,L|265:347,1,45,2|2,0:2|0:2,0:0:0:0:
169,343,93474,2,0,P|126:314|189:230,1,180,0|8,3:0|0:0,0:0:0:0:
342,220,94023,1,2,0:0:0:0:
70,28,94206,6,0,P|23:85|76:176,1,180,6|10,3:2|0:0,0:0:0:0:
222,174,94755,2,0,L|224:272,1,90,2|0,0:0|3:0,0:0:0:0:
131,264,95121,1,0,3:0:0:0:
221,328,95304,1,8,0:0:0:0:
62,362,95487,1,2,0:2:0:0:
305,360,95669,6,0,L|495:369,1,180,2|10,3:2|0:0,0:0:0:0:
326,279,96218,2,0,P|280:219|342:144,1,180,2|0,3:2|3:0,0:0:0:0:
493,74,96767,2,0,L|385:72,1,90,10|2,0:0|3:2,0:0:0:0:
156,59,97133,6,0,L|146:161,1,90,2|0,3:2|3:0,0:0:0:0:
236,214,97499,2,0,L|139:210,1,90,10|0,0:0|0:0,0:0:0:0:
304,361,97865,2,0,L|307:264,1,90,2|2,3:2|3:2,0:0:0:0:
150,185,98230,2,0,L|253:185,1,90,10|0,0:0|0:0,0:0:0:0:
487,85,98596,6,0,L|363:83,2,90,2|0|8,3:2|3:0|0:0,0:0:0:0:
327,227,99145,2,0,L|116:215,1,180,2|0,3:2|3:0,0:0:0:0:
307,154,99694,2,0,L|307:50,1,90,8|2,0:0|0:2,0:0:0:0:
62,22,100060,6,0,L|169:23,1,90,6|0,3:2|0:0,0:0:0:0:
309,18,100426,1,10,0:0:0:0:
151,112,100608,2,0,L|140:238,1,90,2|0,0:0|3:0,0:0:0:0:
231,286,100974,2,0,L|334:288,2,90,2|8|2,3:2|0:0|0:2,0:0:0:0:
477,201,101523,6,0,L|480:97,1,90,2|2,3:2|0:0,0:0:0:0:
320,62,101889,2,0,L|444:63,1,90,10|0,0:0|3:0,0:0:0:0:
254,159,102255,1,2,0:0:0:0:
410,167,102438,2,0,L|413:269,1,90,2|8,3:2|0:0,0:0:0:0:
140,323,102804,6,0,L|336:319,1,180,6|0,3:2|3:0,0:0:0:0:
162,34,103352,2,0,L|151:136,1,90,10|0,0:0|0:0,0:0:0:0:
312,147,103718,2,0,L|312:246,1,90,10|0,0:0|0:0,0:0:0:0:
67,339,104084,2,0,L|180:339,1,90,10|0,0:0|0:0,0:0:0:0:
407,326,104450,5,4,3:2:0:0:
308,274,104633,2,0,L|306:158,1,90,8|0,0:0|0:0,0:0:0:0:
465,143,104999,2,0,P|464:60|362:25,1,180,10|0,0:0|3:0,0:0:0:0:
335,21,105456,1,0,3:0:0:0:
448,22,105547,2,0,L|450:123,1,90,2|0,3:2|3:0,0:0:0:0:
178,207,105913,6,0,L|52:207,2,90,4|2|8,3:2|0:0|0:0,0:0:0:0:
336,305,106462,1,2,0:0:0:0:
178,343,106645,2,0,L|390:328,1,180,2|8,3:2|0:0,0:0:0:0:
201,211,107194,1,2,0:0:0:0:
447,214,107377,6,0,P|477:174|386:106,1,180,2|10,3:2|0:0,0:0:0:0:
242,28,107926,2,0,L|349:27,1,90,2|0,0:0|3:0,0:0:0:0:
421,97,108291,2,0,L|292:97,2,90,2|8|2,0:0|0:0|3:2,0:0:0:0:
176,146,108840,5,2,3:2:0:0:
139,224,109023,1,2,0:0:0:0:
182,299,109206,1,10,0:0:0:0:
269,307,109389,1,2,0:0:0:0:
427,309,109572,2,0,L|430:199,1,90,2|0,3:2|0:0,0:0:0:0:
270,96,109938,2,0,L|378:94,1,90,8|0,0:0|3:0,0:0:0:0:
310,154,110212,1,0,3:0:0:0:
153,253,110304,6,0,L|55:254,1,90,6|0,3:2|0:0,0:0:0:0:
220,56,110669,2,0,L|223:157,1,90,8|0,0:0|0:0,0:0:0:0:
64,198,111035,2,0,L|160:196,2,90,14|0|0,0:0|3:0|3:0,0:0:0:0:
497,326,111767,6,0,L|501:216,1,90,4|0,3:2|0:0,0:0:0:0:
344,145,112133,2,0,L|467:142,1,90,8|0,0:0|3:0,0:0:0:0:
276,207,112499,2,0,L|277:315,1,90,8|0,0:0|3:0,0:0:0:0:
119,323,112865,1,8,0:0:0:0:
274,357,113047,1,0,3:2:0:0:
28,200,113230,6,0,L|23:99,1,90,8|2,0:0|0:0,0:0:0:0:
181,50,113596,2,0,L|84:45,1,90,8|2,0:0|3:2,0:0:0:0:
251,154,113962,2,0,L|348:164,1,90,8|0,0:0|3:0,0:0:0:0:
181,249,114328,2,0,L|176:350,1,90,8|0,0:0|3:0,0:0:0:0:
424,361,114694,6,0,P|478:319|408:256,1,180,6|8,3:2|0:0,0:0:0:0:
256,141,115243,1,0,3:0:0:0:
355,145,115334,1,0,3:0:0:0:
455,151,115426,1,10,0:0:0:0:
455,151,115608,1,0,3:0:0:0:
356,155,115700,1,0,3:0:0:0:
256,161,115791,1,8,0:0:0:0:
254,163,115974,1,0,3:0:0:0:
306,161,116066,1,0,3:0:0:0:
144,343,116157,6,0,L|140:252,1,90,2|0,3:2|3:0,0:0:0:0:
415,118,116523,1,14,0:0:0:0:
289,38,116706,2,0,P|253:112|331:144,1,180,2|0,0:0|0:0,0:0:0:0:
482,199,117255,1,2,0:2:0:0:
495,241,117346,1,2,0:2:0:0:
496,286,117438,1,2,0:2:0:0:
485,329,117529,1,2,0:2:0:0:
300,343,117621,6,0,L|164:333,2,99.0000030212403,6|2|10,3:2|0:2|0:0,0:0:0:0:
53,229,118169,2,0,P|23:168|116:86,1,198.000006042481,2|2,0:0|0:0,0:0:0:0:
263,66,118718,1,10,0:0:0:0:
105,17,118901,1,2,0:0:0:0:
354,261,119084,6,0,L|362:152,1,99.0000030212403,2|2,3:2|0:2,0:0:0:0:
270,147,119450,1,10,0:2:0:0:
27,160,119633,2,0,P|77:245|188:264,1,198.000006042481,2|0,0:0|0:0,0:0:0:0:
18,341,120182,1,10,0:0:0:0:
267,350,120365,6,0,P|331:339|324:214,1,198.000006042481,2|2,0:0|0:0,0:0:0:0:
239,201,120913,1,10,0:0:0:0:
338,173,121096,1,2,0:0:0:0:
497,155,121279,1,2,3:2:0:0:
337,20,121462,2,0,L|331:148,1,99.0000030212403,2|8,0:0|0:0,0:0:0:0:
432,125,121828,1,2,0:0:0:0:
183,223,122011,6,0,P|130:204|89:223,3,99.0000030212403,2|2|10|2,3:2|0:0|0:0|0:0,0:0:0:0:
372,199,122926,2,0,L|370:314,1,99.0000030212403,2|8,0:2|0:0,0:0:0:0:
211,299,123291,1,2,0:0:0:0:
488,352,123474,6,0,L|372:345,2,99.0000030212403,6|2|10,3:2|0:0|0:0,0:0:0:0:
239,232,124023,2,0,P|151:253|148:366,1,198.000006042481,2|2,0:0|0:2,0:0:0:0:
297,337,124572,1,10,0:0:0:0:
138,343,124755,6,0,P|124:283|236:207,1,198.000006042481,2|2,0:0|0:0,0:0:0:0:
377,92,125304,1,10,0:0:0:0:
127,41,125487,1,2,0:0:0:0:
127,41,125852,1,2,0:0:0:0:
270,40,126035,1,10,0:0:0:0:
413,32,126218,1,2,0:0:0:0:
135,170,126401,6,0,L|20:168,1,99.0000030212403,6|0,3:2|0:0,0:0:0:0:
195,241,126767,1,10,0:0:0:0:
38,328,126950,2,0,L|15:270,2,49.5000015106202,2|0|0,3:2|3:0|3:0,0:0:0:0:
287,141,127316,2,0,L|162:140,2,99.0000030212403,10|0|10,0:0|3:0|0:0,0:0:0:0:
232,215,127773,1,8,0:0:0:0:
176,216,127865,5,0,3:0:0:0:
422,332,128047,1,10,0:0:0:0:
174,314,128230,1,10,0:0:0:0:
300,312,128413,1,0,3:0:0:0:
174,314,128596,2,0,L|169:200,1,99.0000030212403,2|0,3:2|0:0,0:0:0:0:
419,112,128962,2,0,L|519:112,1,99.0000030212403,8|2,0:0|0:0,0:0:0:0:
462,43,129237,1,2,0:0:0:0:
275,45,129328,6,0,L|142:43,2,99.0000030212403,6|2|10,3:2|0:0|0:0,0:0:0:0:
26,117,129877,2,0,P|8:186|26:313,1,198.000006042481,2|2,0:0|0:0,0:0:0:0:
185,302,130426,1,10,0:0:0:0:
27,354,130608,1,2,0:0:0:0:
276,353,130791,5,2,3:2:0:0:
150,343,130974,2,0,L|146:240,1,99.0000030212403,2|8,0:2|0:0,0:0:0:0:
398,184,131340,2,0,P|450:155|371:75,1,198.000006042481,2|0,0:0|0:0,0:0:0:0:
226,17,131889,2,0,L|362:14,1,99.0000030212403,10|2,0:0|0:0,0:0:0:0:
73,120,132255,5,2,3:2:0:0:
197,230,132438,1,0,3:0:0:0:
147,229,132529,1,0,3:0:0:0:
98,228,132621,1,8,0:0:0:0:
349,343,132804,2,0,L|351:238,1,99.0000030212403,2|0,3:2|0:0,0:0:0:0:
102,139,133169,2,0,L|215:140,1,99.0000030212403,2|0,3:2|0:0,0:0:0:0:
482,143,133535,6,0,L|271:141,1,198.000006042481,6|0,3:2|0:0,0:0:0:0:
444,225,134084,2,0,L|446:335,1,99.0000030212403,8|0,0:0|0:0,0:0:0:0:
285,350,134450,2,0,L|183:345,1,99.0000030212403,10|0,0:0|0:0,0:0:0:0:
344,261,134816,2,0,L|464:252,1,99.0000030212403,8|2,0:0|0:0,0:0:0:0:
190,32,135182,6,0,P|149:64|200:140,1,148.50000453186,4|0,3:2|0:0,0:0:0:0:
339,140,135547,2,0,L|344:256,1,99.0000030212403,10|0,0:0|3:0,0:0:0:0:
184,228,135913,1,10,0:0:0:0:
342,236,136096,1,2,3:2:0:0:
184,228,136279,2,0,L|70:227,1,99.0000030212403,10|2,0:0|3:2,0:0:0:0:
336,346,136645,6,0,L|337:236,1,99.0000030212403,0|0,0:0|0:0,0:0:0:0:
179,111,137011,2,0,L|297:110,1,99.0000030212403,8|2,0:0|3:2,0:0:0:0:
25,21,137377,2,0,L|24:148,1,99.0000030212403,0|0,0:0|3:0,0:0:0:0:
183,157,137743,1,10,0:0:0:0:
24,245,137926,1,2,3:2:0:0:
301,335,138108,6,0,P|360:324|388:190,1,198.000006042481,6|8,3:2|0:0,0:0:0:0:
298,168,138657,1,2,0:0:0:0:
139,69,138840,1,2,3:2:0:0:
296,28,139023,1,8,0:0:0:0:
139,69,139206,2,0,L|131:187,1,99.0000030212403,0|8,3:0|0:0,0:0:0:0:
186,168,139480,1,8,0:0:0:0:
343,246,139572,5,6,3:2:0:0:
444,167,139755,1,0,3:0:0:0:
394,166,139846,1,0,3:0:0:0:
345,165,139938,1,8,0:0:0:0:
245,243,140121,1,2,3:2:0:0:
294,243,140212,1,0,3:0:0:0:
344,243,140304,1,0,3:0:0:0:
184,340,140487,1,2,0:0:0:0:
430,353,140669,2,0,L|433:243,1,99.0000030212403,10|0,0:0|3:0,0:0:0:0:
380,246,140944,1,0,3:0:0:0:
198,114,141035,5,6,0:2:0:0:
256,192,141218,12,2,143962,0:0:0:0:
399,283,146706,5,0,3:0:0:0:
154,278,146889,6,0,P|103:223|174:153,1,180,10|8,0:0|0:0,0:0:0:0:
250,154,147438,2,0,P|297:116|233:35,1,180,2|2,0:0|0:0,0:0:0:0:
149,34,147987,1,10,0:0:0:0:
237,32,148169,1,2,0:0:0:0:
394,120,148352,6,0,P|446:151|465:281,1,180,10|8,0:0|0:0,0:0:0:0:
382,253,148901,2,0,P|329:274|318:403,1,180,2|2,0:0|0:0,0:0:0:0:
396,330,149450,1,10,0:0:0:0:
306,372,149633,1,2,3:2:0:0:
148,267,149816,6,0,L|361:252,1,180,10|10,0:0|0:0,0:0:0:0:
237,176,150365,2,0,L|33:152,1,180,2|2,0:0|0:0,0:0:0:0:
149,80,150913,1,10,0:0:0:0:
59,74,151096,1,2,0:0:0:0:
217,19,151279,6,0,L|413:23,1,180,10|8,0:0|0:0,0:0:0:0:
305,87,151828,1,0,0:0:0:0:
462,87,152011,2,0,P|473:170|464:297,1,180,10|8,0:0|0:0,0:0:0:0:
35,280,152743,6,0,L|144:267,2,90,2|2|2,3:2|0:0|3:2,0:0:0:0:
193,206,153291,2,0,L|193:9,1,180,2|0,0:0|0:0,0:0:0:0:
101,14,153840,1,0,3:2:0:0:
190,15,154023,1,0,0:0:0:0:
349,21,154206,6,0,P|400:33|447:81,2,90,2|2|0,3:2|0:0|3:0,0:0:0:0:
190,22,154755,2,0,P|134:78|211:130,1,180,2|2,0:0|0:0,0:0:0:0:
353,123,155304,2,0,L|356:234,1,90,8|0,0:0|0:0,0:0:0:0:
110,289,155669,6,0,L|-17:280,2,90,2|2|2,3:2|0:0|3:2,0:0:0:0:
265,300,156218,2,0,L|474:287,1,180,2|2,0:0|0:0,0:0:0:0:
354,210,156767,1,0,3:0:0:0:
445,202,156950,1,0,0:0:0:0:
287,123,157133,6,0,L|183:112,2,90,2|2|2,3:2|0:0|3:2,0:0:0:0:
319,203,157682,1,2,0:0:0:0:
276,279,157865,1,2,3:2:0:0:
191,293,158047,1,2,0:0:0:0:
33,342,158230,2,0,L|136:343,1,90,8|0,0:0|0:0,0:0:0:0:
369,338,158596,6,0,L|254:327,2,90,2|2|2,3:2|0:0|3:2,0:0:0:0:
212,236,159145,2,0,P|187:178|292:117,1,180,2|0,0:2|0:0,0:0:0:0:
423,44,159694,2,0,L|430:137,1,90,0|0,3:0|0:0,0:0:0:0:
183,343,160060,5,2,3:2:0:0:
158,259,160243,1,2,0:2:0:0:
205,185,160426,1,2,0:0:0:0:
292,173,160608,1,2,0:0:0:0:
46,44,160791,2,0,L|42:154,1,90,8|8,0:0|0:0,0:0:0:0:
480,326,161340,6,0,L|273:314,1,180,6|0,3:2|0:0,0:0:0:0:
456,254,161889,2,0,L|460:153,1,90,2|0,3:2|0:0,0:0:0:0:
212,27,162255,2,0,L|209:130,1,90,10|0,0:2|0:0,0:0:0:0:
365,111,162621,1,2,3:2:0:0:
207,192,162804,1,10,0:0:0:0:
451,343,162987,5,4,3:2:0:0:
352,308,163169,2,0,L|350:209,1,90,2|0,0:0|0:0,0:0:0:0:
105,34,163535,2,0,L|2:34,1,90,14|0,0:0|0:0,0:0:0:0:
171,143,163901,2,0,L|235:142,2,45,2|0|0,3:2|3:0|3:0,0:0:0:0:
82,142,164267,1,0,3:0:0:0:
325,330,164450,5,4,3:2:0:0:
399,282,164633,1,2,0:2:0:0:
422,198,164816,1,2,0:2:0:0:
381,120,164999,1,2,0:2:0:0:
299,90,165182,2,0,L|491:87,1,180,2|2,0:2|3:2,0:0:0:0:
387,29,165730,1,2,0:0:0:0:
229,23,165913,5,2,3:2:0:0:
140,19,166096,1,2,0:2:0:0:
229,23,166279,1,2,0:2:0:0:
140,19,166462,1,2,0:2:0:0:
50,12,166645,2,0,L|48:209,1,180,2|2,0:0|3:2,0:0:0:0:
138,198,167194,1,2,0:0:0:0:
293,322,167377,5,2,0:0:0:0:
76,116,168108,1,2,0:0:0:0:
404,56,168840,6,0,L|407:187,1,90,6|0,3:2|0:0,0:0:0:0:
160,279,169206,2,0,L|278:280,1,90,8|0,0:0|0:0,0:0:0:0:
495,194,169572,2,0,L|382:192,2,90,14|0|0,0:0|3:0|3:0,0:0:0:0:
26,62,170304,6,0,L|132:64,2,90,6|2|10,3:2|0:0|0:0,0:0:0:0:
184,146,170852,2,0,L|183:250,1,90,2|8,3:2|0:0,0:0:0:0:
342,341,171218,2,0,L|343:229,1,90,2|8,0:0|0:0,0:0:0:0:
185,217,171584,1,2,3:2:0:0:
433,88,171767,6,0,L|307:89,2,90,10|2|10,0:0|0:0|0:0,0:0:0:0:
276,229,172316,2,0,L|274:131,1,90,2|8,3:2|0:0,0:0:0:0:
434,48,172682,2,0,L|337:47,1,90,2|8,3:2|0:0,0:0:0:0:
187,47,173047,1,2,3:2:0:0:
458,162,173230,6,0,P|480:254|444:355,1,180,6|10,3:2|0:0,0:0:0:0:
297,338,173779,1,0,3:0:0:0:
392,338,173871,1,0,3:0:0:0:
486,337,173962,1,10,0:0:0:0:
486,337,174145,1,0,3:0:0:0:
391,337,174237,1,0,3:0:0:0:
297,336,174328,1,8,0:0:0:0:
297,338,174511,1,0,3:0:0:0:
342,336,174602,1,0,3:0:0:0:
496,220,174694,6,0,L|502:108,1,90,2|0,3:2|3:0,0:0:0:0:
229,26,175060,2,0,L|430:28,1,180,12|0,0:0|0:0,0:0:0:0:
318,95,175608,1,0,3:0:0:0:
476,91,175791,1,2,3:2:0:0:
483,135,175883,1,2,0:2:0:0:
485,180,175974,1,2,0:2:0:0:
481,225,176066,1,2,0:2:0:0:
326,32,176157,6,0,L|219:33,1,90,6|0,3:2|0:0,0:0:0:0:
394,145,176523,2,0,L|396:259,1,90,10|0,0:0|0:0,0:0:0:0:
150,318,176889,2,0,L|144:214,1,90,10|0,0:0|0:0,0:0:0:0:
303,174,177255,1,10,0:0:0:0:
144,175,177438,1,0,3:0:0:0:
390,348,177621,5,2,3:2:0:0:
431,271,177804,1,2,0:2:0:0:
397,192,177987,1,2,0:2:0:0:
312,171,178169,1,2,0:2:0:0:
154,167,178352,2,0,L|269:165,1,90,8|0,0:0|3:0,0:0:0:0:
296,163,178627,1,0,3:0:0:0:
143,268,178718,2,0,L|2:269,1,135,8|0,0:0|0:0,0:0:0:0:
208,354,179084,6,0,L|336:354,2,99.0000030212403,6|2|10,3:2|0:2|0:0,0:0:0:0:
457,285,179633,2,0,P|509:227|432:148,1,198.000006042481,2|2,0:0|0:0,0:0:0:0:
285,80,180182,1,10,0:0:0:0:
444,24,180365,1,2,0:0:0:0:
194,229,180547,6,0,L|414:230,1,198.000006042481,2|10,3:2|0:0,0:0:0:0:
143,107,181096,2,0,P|81:134|162:203,1,198.000006042481,2|0,0:0|0:0,0:0:0:0:
300,212,181645,1,10,0:0:0:0:
51,312,181828,6,0,P|47:221|147:179,1,198.000006042481,2|2,0:0|0:0,0:0:0:0:
233,181,182377,1,10,0:0:0:0:
134,104,182560,1,2,0:0:0:0:
294,44,182743,1,2,3:2:0:0:
134,104,182926,2,0,L|247:105,2,99.0000030212403,2|8|2,0:0|0:0|0:0,0:0:0:0:
384,270,183474,6,0,L|504:271,3,99.0000030212403,2|2|10|2,3:2|0:0|0:0|0:0,0:0:0:0:
202,43,184389,2,0,L|201:161,1,99.0000030212403,2|8,0:2|0:0,0:0:0:0:
360,123,184755,1,2,0:0:0:0:
82,250,184938,6,0,L|212:252,2,99.0000030212403,6|2|10,3:2|0:0|0:0,0:0:0:0:
331,332,185487,2,0,L|122:334,1,198.000006042481,2|2,0:0|0:2,0:0:0:0:
290,252,186035,1,10,0:0:0:0:
131,248,186218,6,0,P|87:206|156:104,1,198.000006042481,2|2,0:0|0:0,0:0:0:0:
305,45,186767,1,10,0:0:0:0:
57,26,186950,1,2,0:0:0:0:
57,26,187316,1,2,0:0:0:0:
213,23,187499,1,10,0:0:0:0:
57,26,187682,1,2,0:0:0:0:
335,210,187865,6,0,L|441:210,1,99.0000030212403,6|0,3:2|0:0,0:0:0:0:
270,117,188230,1,10,0:0:0:0:
109,118,188413,2,0,L|60:187,2,49.5000015106202,2|0|0,3:2|3:0|3:0,0:0:0:0:
359,309,188779,2,0,L|219:305,2,99.0000030212403,10|0|10,0:0|3:0|0:0,0:0:0:0:
415,310,189237,1,8,0:0:0:0:
359,309,189328,5,0,3:0:0:0:
111,306,189511,1,10,0:0:0:0:
360,128,189694,1,10,0:0:0:0:
241,132,189877,1,0,3:0:0:0:
360,128,190060,2,0,L|480:127,1,99.0000030212403,2|0,3:2|0:0,0:0:0:0:
209,287,190426,2,0,L|87:288,1,99.0000030212403,8|2,0:0|0:0,0:0:0:0:
165,211,190700,1,2,0:0:0:0:
349,217,190791,6,0,L|469:219,2,99.0000030212403,6|2|10,3:2|0:0|0:0,0:0:0:0:
100,223,191340,2,0,P|56:184|129:82,1,198.000006042481,2|2,0:0|0:0,0:0:0:0:
273,36,191889,1,10,0:0:0:0:
114,35,192072,1,2,0:0:0:0:
363,156,192255,5,2,3:2:0:0:
240,145,192438,2,0,L|233:265,1,99.0000030212403,2|8,0:2|0:0,0:0:0:0:
484,345,192804,2,0,L|258:346,1,198.000006042481,2|0,0:0|0:0,0:0:0:0:
127,239,193352,2,0,L|236:239,1,99.0000030212403,10|2,0:0|0:0,0:0:0:0:
478,83,193718,5,2,3:2:0:0:
353,156,193901,1,0,3:0:0:0:
402,156,193993,1,0,3:0:0:0:
451,157,194084,1,8,0:0:0:0:
202,323,194267,2,0,L|200:215,1,99.0000030212403,2|0,3:2|0:0,0:0:0:0:
449,92,194633,2,0,L|319:92,1,99.0000030212403,2|0,3:2|0:0,0:0:0:0:
69,25,194999,6,0,L|275:25,1,198.000006042481,6|0,3:2|0:0,0:0:0:0:
107,111,195547,2,0,L|100:219,1,99.0000030212403,8|0,0:0|0:0,0:0:0:0:
259,289,195913,2,0,L|140:290,1,99.0000030212403,10|0,0:0|0:0,0:0:0:0:
320,183,196279,2,0,L|458:183,1,99.0000030212403,8|2,0:0|0:0,0:0:0:0:
169,47,196645,6,0,L|-24:45,1,148.50000453186,4|0,3:2|0:0,0:0:0:0:
176,156,197011,2,0,L|295:156,1,99.0000030212403,10|0,0:0|3:0,0:0:0:0:
434,153,197377,1,10,0:0:0:0:
276,159,197560,1,2,3:2:0:0:
434,153,197743,2,0,L|436:277,1,99.0000030212403,10|2,0:0|3:2,0:0:0:0:
186,322,198108,6,0,L|182:210,1,99.0000030212403,0|0,0:0|0:0,0:0:0:0:
342,128,198474,2,0,L|474:131,1,99.0000030212403,8|2,0:0|3:2,0:0:0:0:
193,39,198840,2,0,L|58:40,1,99.0000030212403,0|0,0:0|3:0,0:0:0:0:
253,170,199206,1,10,0:0:0:0:
93,284,199389,1,2,3:2:0:0:
370,325,199572,6,0,P|425:285|347:202,1,198.000006042481,6|8,3:2|0:0,0:0:0:0:
265,192,200121,1,2,0:0:0:0:
424,26,200304,1,2,3:2:0:0:
265,192,200487,1,8,0:0:0:0:
424,26,200669,2,0,L|427:156,1,99.0000030212403,0|8,3:0|0:0,0:0:0:0:
372,124,200944,1,8,0:0:0:0:
216,127,201035,5,6,3:2:0:0:
118,201,201218,1,0,3:0:0:0:
167,201,201310,1,0,3:0:0:0:
216,202,201401,1,8,0:0:0:0:
120,285,201584,2,0,L|42:285,2,49.5000015106202,2|0|0,3:2|3:0|3:0,0:0:0:0:
280,334,201950,1,2,0:0:0:0:
31,26,202133,2,0,L|24:132,1,99.0000030212403,10|0,0:0|3:0,0:0:0:0:
76,119,202407,1,0,3:0:0:0:
259,204,202499,6,0,L|432:202,1,148.50000453186,6|0,3:2|0:0,0:0:0:0:
252,16,202865,2,0,L|251:126,1,99.0000030212403,10|0,0:0|0:0,0:0:0:0:
412,176,203230,2,0,L|287:179,2,99.0000030212403,2|0|8,0:0|3:0|0:0,0:0:0:0:
253,237,203779,5,2,3:2:0:0:
164,269,203962,1,8,0:0:0:0:
165,370,204145,1,0,0:0:0:0:
264,373,204328,1,8,0:0:0:0:
14,310,204511,2,0,L|242:300,1,198.000006042481,2|2,3:2|3:2,0:0:0:0:
360,280,205060,1,10,0:0:0:0:
201,132,205243,1,2,0:2:0:0:
450,35,205426,6,0,P|500:114|440:192,1,198.000006042481,6|8,3:2|0:0,0:0:0:0:
288,216,205974,1,2,3:2:0:0:
381,217,206066,1,0,3:0:0:0:
475,214,206157,1,8,0:0:0:0:
475,214,206340,1,8,0:0:0:0:
381,217,206432,1,8,0:0:0:0:
288,216,206523,1,8,0:0:0:0:
288,216,206706,1,2,3:2:0:0:
343,27,206797,1,0,3:0:0:0:
182,17,206889,6,0,P|68:96|193:319,1,431.999986816407,4|0,3:2|0:0,0:0:0:0:
344,245,207804,1,0,3:0:0:0:
100,339,207987,2,0,L|269:337,1,135,14|0,0:0|0:0,0:0:0:0:
416,333,208352,6,0,P|462:301|400:216,1,180,6|10,3:2|0:2,0:0:0:0:
250,168,208901,1,2,0:0:0:0:
407,46,209084,2,0,L|413:149,1,90,2|0,3:2|0:0,0:0:0:0:
254,230,209450,2,0,L|362:227,1,90,10|0,0:2|0:0,0:0:0:0:
98,30,209816,6,0,L|86:225,1,180,2|10,3:2|0:2,0:0:0:0:
246,315,210365,2,0,L|136:316,1,90,2|0,0:2|3:0,0:0:0:0:
312,61,210730,2,0,L|307:184,1,90,2|8,0:2|0:0,0:0:0:0:
150,151,211096,1,2,0:2:0:0:
393,303,211279,6,0,P|457:281|456:161,1,180,2|10,3:2|0:2,0:0:0:0:
314,157,211828,1,2,0:2:0:0:
473,45,212011,2,0,L|474:156,1,90,2|0,3:2|0:0,0:0:0:0:
317,216,212377,2,0,P|369:234|420:232,1,90,10|0,0:2|0:0,0:0:0:0:
159,336,212743,6,0,P|100:300|184:254,1,180,2|10,3:2|0:2,0:0:0:0:
249,245,213291,1,2,0:2:0:0:
93,16,213474,2,0,P|223:122|78:268,1,405.000015449525,2|0,0:2|0:0,0:0:0:0:
357,342,214206,6,0,L|159:337,1,180,6|8,3:2|0:2,0:0:0:0:
334,263,214755,2,0,L|334:51,1,180,2|2,0:2|0:2,0:0:0:0:
492,65,215304,1,2,3:2:0:0:
60,20,215669,6,0,L|162:23,1,90,2|0,3:2|0:0,0:0:0:0:
309,179,216035,2,0,L|199:193,1,90,10|0,0:2|0:0,0:0:0:0:
60,258,216401,2,0,L|153:270,2,90,2|2|10,3:2|0:0|0:0,0:0:0:0:
492,344,217133,6,0,L|492:246,1,90,6|0,3:2|0:0,0:0:0:0:
399,195,217499,2,0,L|505:192,1,90,8|0,0:0|0:0,0:0:0:0:
331,72,217865,1,2,0:0:0:0:
489,72,218047,1,8,0:0:0:0:
331,72,218230,2,0,L|224:71,1,90,2|8,3:2|0:0,0:0:0:0:
286,143,218505,1,8,0:0:0:0:
439,314,218596,5,2,3:2:0:0:
439,314,218779,2,0,L|438:253,1,45,8|8,0:0|0:0,0:0:0:0:
314,227,218962,1,8,0:0:0:0:
314,227,219145,2,0,L|237:229,1,45
114,232,219328,2,0,L|109:130,1,90,2|0,3:2|0:0,0:0:0:0:
356,29,219694,2,0,L|358:134,1,90,8|0,0:0|0:0,0:0:0:0:
82,330,220060,6,0,L|305:330,1,180,6|10,3:2|0:0,0:0:0:0:
420,328,220608,1,2,3:2:0:0:
262,219,220791,1,10,0:0:0:0:
253,81,220974,1,0,3:0:0:0:
411,21,221157,1,10,0:0:0:0:
320,23,221340,1,0,3:0:0:0:
77,60,221523,6,0,P|58:121|149:185,1,180,10|10,0:0|0:0,0:0:0:0:
295,203,222072,1,2,3:2:0:0:
136,288,222255,1,10,0:2:0:0:
228,331,222438,1,2,3:2:0:0:
71,111,222621,1,10,0:0:0:0:
58,228,222804,1,2,3:2:0:0:
303,148,222987,6,0,L|502:165,1,180,10|10,0:0|0:0,0:0:0:0:
323,23,223535,1,2,3:2:0:0:
479,122,223718,1,10,0:0:0:0:
389,161,223901,1,0,3:0:0:0:
233,233,224084,1,10,0:0:0:0:
327,270,224267,1,0,3:0:0:0:
81,329,224450,6,0,P|64:280|152:197,1,180,10|10,0:0|0:0,0:0:0:0:
236,195,224999,1,2,3:2:0:0:
79,42,225182,1,10,0:0:0:0:
169,92,225365,1,0,3:0:0:0:
11,186,225547,1,8,0:0:0:0:
462,184,225913,6,0,L|267:180,1,180,6|8,3:2|0:0,0:0:0:0:
124,191,226462,2,0,L|125:294,1,90,2|8,3:2|0:0,0:0:0:0:
215,287,226828,1,2,3:2:0:0:
57,347,227011,1,10,0:0:0:0:
491,360,227377,6,0,L|358:360,1,90,10|0,0:0|0:0,0:0:0:0:
242,264,227743,2,0,L|350:265,1,90,10|0,0:0|0:0,0:0:0:0:
491,109,228108,2,0,L|372:110,2,90,10|2|10,0:0|3:2|0:0,0:0:0:0:
54,27,228840,6,0,P|9:72|69:164,1,180,4|8,3:2|0:0,0:0:0:0:
214,163,229389,2,0,L|220:352,1,180,2|8,0:2|0:0,0:0:0:0:
378,356,229938,2,0,L|487:356,1,90,8|8,0:0|0:0,0:0:0:0:
420,287,230212,1,8,0:0:0:0:
265,150,230304,5,2,3:2:0:0:
157,151,230487,1,2,3:2:0:0:
400,264,230669,2,0,L|402:163,1,90,12|8,0:0|0:0,0:0:0:0:
356,166,230944,1,8,0:0:0:0:
198,38,231035,1,2,3:2:0:0:
89,34,231218,1,2,3:2:0:0:
335,190,231401,2,0,L|485:193,1,135,12|0,0:0|0:0,0:0:0:0:
289,310,231767,6,0,P|147:238|316:-8,1,540,6|8,3:2|0:0,0:0:0:0:
38,21,233047,1,2,3:2:0:0:
