osu file format v14

[General]
AudioFilename: audio.ogg
AudioLeadIn: 0
PreviewTime: 5091
Countdown: 0
SampleSet: Normal
StackLeniency: 0.7
Mode: 3
LetterboxInBreaks: 0
SpecialStyle: 0
WidescreenStoryboard: 1

[Editor]
DistanceSpacing: 1
BeatDivisor: 4
GridSize: 32
TimelineZoom: 1.6

[Metadata]
Title:Yumemigokochi
TitleUnicode:ゆめみごこち
Artist:Hamu
ArtistUnicode:ハム
Creator:-NoName-
Version:Hard
Source:
Tags:mappers' guild mg mpg featured artist fa long notes ln coordination releases other instrumental piano foxtail-grass studio ぬくもりクレイル nukumori kureiru nukumori claire コミックマーケット85 コミケ85 c85 Comiket 85 Comic Market 85 doujin Junpei Fukuda 福田淳平 FGSO-0002 夢見心地
BeatmapID:3749595
BeatmapSetID:1826998

[Difficulty]
HPDrainRate:6.7
CircleSize:7
OverallDifficulty:7
ApproachRate:5
SliderMultiplier:1.4
SliderTickRate:1

[Events]
//Background and Video events
0,0,"bg.jpg",0,0
//Break Periods
//Storyboard Layer 0 (Background)
//Storyboard Layer 1 (Fail)
//Storyboard Layer 2 (Pass)
//Storyboard Layer 3 (Foreground)
//Storyboard Layer 4 (Overlay)
//Storyboard Sound Samples

[TimingPoints]
6737,1121.4953271028,4,1,1,50,1,0
6737,-99.009900990099,4,1,1,50,0,0
33092,1200,4,1,1,50,1,0
33092,-92.5925925925926,4,1,1,50,0,0
33692,1348.31460674157,4,1,1,50,1,0
33692,-82.6446280991736,4,1,1,50,0,0
34366,1411.76470588235,4,1,1,50,1,0
34366,-78.740157480315,4,1,1,50,0,0
35071,1333.33333333333,4,1,1,50,1,0
35071,-83.3333333333333,4,1,1,50,0,0
36404,1346.80134680135,4,1,1,50,1,0
36404,-82.6446280991736,4,1,1,50,0,0
37750,1538.46153846154,4,1,1,50,1,0
37750,-72.463768115942,4,1,1,50,0,0
39288,1655.1724137931,4,1,1,50,1,0
39288,-67.1140939597315,4,1,1,50,0,0
40115,1454.54545454545,4,1,1,50,1,0
40115,-76.3358778625954,4,1,1,50,0,0
40842,1424.33234421365,4,1,1,50,1,0
40842,-78.125,4,1,1,50,0,0
41554,1090.90909090909,4,1,1,50,1,0
41554,-102.040816326531,4,1,1,50,0,0
42099,1290.32258064516,4,1,1,50,1,0
42099,-86.2068965517241,4,1,1,50,0,0
43389,1131.00848256362,4,1,1,50,1,0
43389,-98.0392156862745,4,1,1,50,0,0
44520,1395.3488372093,4,1,1,50,1,0
44520,-79.3650793650794,4,1,1,50,0,0

[HitObjects]
109,192,5054,128,0,5615:0:0:0:0:
256,192,5615,128,0,6176:0:0:0:0:
329,192,6176,128,0,6737:0:0:0:0:
402,192,6737,128,0,8979:0:0:0:0:
36,192,6737,128,0,7297:0:0:0:0:
109,192,7297,128,0,7858:0:0:0:0:
182,192,7858,128,0,8419:0:0:0:0:
256,192,8419,128,0,8979:0:0:0:0:
329,192,8979,128,0,10101:0:0:0:0:
475,192,9540,128,0,10101:0:0:0:0:
182,192,10101,128,0,11222:0:0:0:0:
36,192,10101,128,0,10662:0:0:0:0:
402,192,10101,128,0,10662:0:0:0:0:
256,192,10662,128,0,11222:0:0:0:0:
475,192,11222,128,0,13465:0:0:0:0:
109,192,11222,128,0,11783:0:0:0:0:
182,192,11783,128,0,12344:0:0:0:0:
256,192,12344,128,0,12905:0:0:0:0:
329,192,12905,128,0,13465:0:0:0:0:
402,192,13465,128,0,14587:0:0:0:0:
182,192,13465,128,0,14026:0:0:0:0:
36,192,14026,128,0,14587:0:0:0:0:
256,192,14026,128,0,14587:0:0:0:0:
182,192,14587,128,0,15708:0:0:0:0:
109,192,14587,128,0,15148:0:0:0:0:
329,192,14587,128,0,15148:0:0:0:0:
475,192,15148,128,0,15708:0:0:0:0:
402,192,15148,128,0,15708:0:0:0:0:
256,192,15708,128,0,16830:0:0:0:0:
36,192,15708,128,0,16269:0:0:0:0:
329,192,15708,128,0,16830:0:0:0:0:
109,192,16269,128,0,16830:0:0:0:0:
182,192,16830,128,0,17951:0:0:0:0:
475,192,17391,128,0,17951:0:0:0:0:
329,192,17391,128,0,17951:0:0:0:0:
36,192,17951,128,0,19073:0:0:0:0:
256,192,17951,128,0,18512:0:0:0:0:
402,192,17951,128,0,18512:0:0:0:0:
329,192,18512,128,0,19073:0:0:0:0:
182,192,18512,128,0,19073:0:0:0:0:
109,192,19073,128,0,19634:0:0:0:0:
256,192,19073,128,0,19634:0:0:0:0:
402,192,19073,128,0,20194:0:0:0:0:
182,192,19634,128,0,20194:0:0:0:0:
329,192,19634,128,0,20194:0:0:0:0:
256,192,20194,128,0,22437:0:0:0:0:
36,192,20194,128,0,22437:0:0:0:0:
475,192,20194,128,0,22437:0:0:0:0:
109,192,22437,128,0,24680:0:0:0:0:
182,192,23559,128,0,24680:0:0:0:0:
329,192,24120,128,0,24680:0:0:0:0:
402,192,24680,128,0,26923:0:0:0:0:
36,192,24680,128,0,25241:0:0:0:0:
256,192,24680,128,0,25802:0:0:0:0:
109,192,25241,128,0,25802:0:0:0:0:
182,192,25802,128,0,26363:0:0:0:0:
475,192,26363,128,0,26923:0:0:0:0:
36,192,26363,128,0,26923:0:0:0:0:
256,192,26923,128,0,28045:0:0:0:0:
329,192,26923,128,0,27484:0:0:0:0:
182,192,26923,128,0,28045:0:0:0:0:
109,192,27484,128,0,28045:0:0:0:0:
36,192,27484,128,0,28045:0:0:0:0:
402,192,28045,128,0,29166:0:0:0:0:
475,192,28045,128,0,29166:0:0:0:0:
329,192,28045,128,0,28606:0:0:0:0:
109,192,28606,128,0,29166:0:0:0:0:
182,192,28606,128,0,29166:0:0:0:0:
256,192,29166,128,0,31409:0:0:0:0:
36,192,29166,128,0,29727:0:0:0:0:
329,192,29166,128,0,30288:0:0:0:0:
109,192,29727,128,0,30288:0:0:0:0:
402,192,30288,128,0,30849:0:0:0:0:
475,192,30849,128,0,31409:0:0:0:0:
182,192,30849,128,0,31409:0:0:0:0:
329,192,31409,128,0,32531:0:0:0:0:
36,192,31409,128,0,32531:0:0:0:0:
109,192,31409,128,0,31970:0:0:0:0:
182,192,31970,128,0,32531:0:0:0:0:
402,192,32531,128,0,33092:0:0:0:0:
256,192,32531,128,0,33692:0:0:0:0:
475,192,33092,128,0,33692:0:0:0:0:
182,192,33092,128,0,33692:0:0:0:0:
329,192,33692,128,0,35071:0:0:0:0:
109,192,33692,128,0,35071:0:0:0:0:
402,192,33692,128,0,35071:0:0:0:0:
36,192,34366,128,0,35071:0:0:0:0:
182,192,35071,128,0,36404:0:0:0:0:
256,192,35071,128,0,36404:0:0:0:0:
36,192,36404,128,0,39288:0:0:0:0:
329,192,36404,128,0,37750:0:0:0:0:
109,192,36404,128,0,37750:0:0:0:0:
182,192,37750,128,0,39288:0:0:0:0:
475,192,37750,128,0,39288:0:0:0:0:
256,192,39288,128,0,42099:0:0:0:0:
402,192,39288,128,0,40115:0:0:0:0:
109,192,40115,128,0,42099:0:0:0:0:
182,192,40842,128,0,42099:0:0:0:0:
329,192,41554,128,0,42099:0:0:0:0:
475,192,42099,128,0,44520:0:0:0:0:
329,192,43389,128,0,45915:0:0:0:0:
182,192,43389,128,0,45915:0:0:0:0:
109,192,44520,128,0,45915:0:0:0:0:
402,192,44520,128,0,45915:0:0:0:0:
