osu file format v14

[General]
AudioFilename: audio.mp3
AudioLeadIn: 0
PreviewTime: 82415
Countdown: 0
SampleSet: Soft
StackLeniency: 0.3
Mode: 0
LetterboxInBreaks: 0
EpilepsyWarning: 1
WidescreenStoryboard: 1

[Editor]
DistanceSpacing: 1.6
BeatDivisor: 1
GridSize: 32
TimelineZoom: 2.3

[Metadata]
Title:Sora no Koe, Yousei no Shirabe
TitleUnicode:空の声、妖精の調べ
Artist:Hamu
ArtistUnicode:ハム
Creator:- Solar -
Version:Tabi~
Source:
Tags:BlastTheKidd honne Saturnalize VenerableNyanta Nyanta Cathy petite lumière 君と風にのって foxtail-grass studio bongo drum folk adventure french eastern featuring electronic instrumental
BeatmapID:3024187
BeatmapSetID:1473402

[Difficulty]
HPDrainRate:5.5
CircleSize:4.5
OverallDifficulty:8
ApproachRate:9
SliderMultiplier:2.2
SliderTickRate:1

[Events]
//Background and Video events
0,0,"bg.jpg",0,0
//Break Periods
//Storyboard Layer 0 (Background)
//Storyboard Layer 1 (Fail)
//Storyboard Layer 2 (Pass)
//Storyboard Layer 3 (Foreground)
Sprite,Foreground,Centre,"sb\THICC\0053.png",276.275,262.44 F,0,10995,11485,0,1 S,0,10995,11485,0.495,0.33 F,0,14339,14829,1,0
Sprite,Foreground,Centre,"sb\THICC\006f.png",298.715,262.44 F,0,11107,11597,0,1 S,0,11107,11597,0.495,0.33 F,0,14339,14829,1,0
Sprite,Foreground,Centre,"sb\THICC\006c.png",320,262.44 F,0,10839,11329,0,1 S,0,10839,11329,0.495,0.33 F,0,14339,14829,1,0
Sprite,Foreground,Centre,"sb\THICC\0061.png",340.295,262.44 F,0,10535,11025,0,1 S,0,10535,11025,0.495,0.33 F,0,14339,14829,1,0
Sprite,Foreground,Centre,"sb\THICC\0072.png",363.56,262.44 F,0,10957,11447,0,1 S,0,10957,11447,0.495,0.33 F,0,14339,14829,1,0
Sprite,Foreground,Centre,"sb\THICC\0053.png",276.275,262.44 F,0,14566,15056,0,1 S,0,14566,15056,0.495,0.33 F,0,18477,18967,1,0
Sprite,Foreground,Centre,"sb\THICC\006f.png",298.715,262.44 F,0,14789,15279,0,1 S,0,14789,15279,0.495,0.33 F,0,18477,18967,1,0
Sprite,Foreground,Centre,"sb\THICC\006c.png",320,262.44 F,0,14658,15148,0,1 S,0,14658,15148,0.495,0.33 F,0,18477,18967,1,0
Sprite,Foreground,Centre,"sb\THICC\0061.png",340.295,262.44 F,0,15239,15729,0,1 S,0,15239,15729,0.495,0.33 F,0,18477,18967,1,0
Sprite,Foreground,Centre,"sb\THICC\0072.png",363.56,262.44 F,0,14948,15438,0,1 S,0,14948,15438,0.495,0.33 F,0,18477,18967,1,0
//Storyboard Layer 4 (Overlay)
//Storyboard Sound Samples

[TimingPoints]
347,517.241379310345,2,2,1,5,1,0
6553,-120.481927710843,3,2,1,35,0,0
47933,-97.0873786407764,3,2,2,45,0,0
72502,-97.0873786407764,3,2,2,5,0,0
72588,-97.0873786407764,3,2,2,45,0,0
72674,-97.0873786407764,3,2,2,5,0,0
72760,-97.0873786407764,3,2,3,45,0,0
73105,-97.0873786407764,3,2,2,45,0,0
76898,-136.986301369863,3,2,1,40,0,0
77415,-188.679245283019,3,2,1,35,0,0
77933,-188.679245283019,3,2,1,35,0,0
78450,-188.679245283019,3,2,1,35,0,0
78967,-188.679245283019,3,2,1,35,0,0
80519,-232.558139534884,3,2,1,35,0,0
81036,-769.230769230769,3,2,2,40,0,0
81122,-769.230769230769,3,2,2,5,0,0
82415,-769.230769230769,3,2,2,40,0,0
83105,-81.3008130081301,3,2,2,50,0,1
86553,-88.4955752212389,3,2,2,50,0,1
86898,-97.0873786407767,3,2,2,50,0,1
87243,-81.3008130081301,3,2,2,50,0,1
94829,-88.4955752212389,3,2,2,50,0,1
95174,-97.0873786407767,3,2,2,50,0,1
95519,-81.3008130081301,3,2,2,50,0,1
97933,-69.9300699300699,3,2,2,50,0,1
98622,-81.3008130081301,3,2,2,50,0,1
99657,-81.3008130081301,3,2,2,45,0,0
116209,-136.986301369863,3,2,4,40,0,0
116295,-136.986301369863,3,2,2,25,0,0
124484,-136.986301369863,3,2,2,20,0,0
126553,-136.986301369863,3,2,2,15,0,0
128622,-136.986301369863,3,2,2,10,0,0
130691,-136.986301369863,3,2,2,5,0,0
132760,-136.986301369863,3,2,2,20,0,0

[Colours]
Combo1 : 226,90,75
Combo2 : 175,207,231
Combo3 : 233,221,180
Combo4 : 209,156,156

[HitObjects]
400,320,6553,6,0,P|454:332|459:275,1,121.733335097961,10|0,0:3|0:0,0:0:0:0:
336,368,7071,2,0,P|277:369|197:377,1,121.733335097961,10|0,0:3|0:0,0:0:0:0:
96,272,7588,6,0,P|111:294|165:292,1,60.8666675489807,10|0,0:3|0:0,0:0:0:0:
24,224,7933,2,0,P|8:245|28:295,1,60.8666675489807,0|0,0:0|1:2,0:0:0:0:
18,298,8191,1,0,1:2:0:0:
18,298,8278,1,14,2:3:0:0:
104,184,8450,1,12,2:3:0:0:
113,8,8622,6,0,P|161:49|134:112,1,121.733335097961,10|0,0:3|0:0,0:0:0:0:
272,8,9140,2,0,P|368:12|419:11,1,121.733335097961,10|0,0:3|0:0,0:0:0:0:
296,136,9657,6,0,P|283:165|287:211,1,60.8666675489807,10|0,0:3|0:0,0:0:0:0:
379,89,10002,2,0,P|389:59|388:14,1,60.8666675489807,0|0,0:0|1:0,0:0:0:0:
393,11,10260,1,0,1:0:0:0:
393,11,10347,1,14,0:3:0:0:
512,112,10519,1,12,0:3:0:0:
416,256,10691,6,0,P|472:254|496:182,1,121.733335097961,10|0,0:3|0:0,0:0:0:0:
328,184,11209,2,0,L|348:319,1,121.733335097961,10|0,0:3|0:0,0:0:0:0:
208,376,11726,6,0,P|235:381|280:362,1,60.8666675489807,10|0,0:3|0:0,0:0:0:0:
152,296,12071,2,0,P|121:302|80:282,1,60.8666675489807,0|0,0:0|1:0,0:0:0:0:
77,288,12329,1,0,1:0:0:0:
77,288,12415,1,14,0:3:0:0:
104,160,12588,1,12,0:3:0:0:
240,64,12760,6,0,P|183:77|143:15,1,121.733335097961,10|0,0:3|0:0,0:0:0:0:
304,8,13278,2,0,B|335:30|335:30|323:117,1,121.733335097961,10|0,0:3|0:0,0:0:0:0:
240,247,13795,6,0,P|234:211|217:165,1,60.8666675489807,10|0,0:3|0:0,0:0:0:0:
128,288,14140,2,0,P|134:252|151:206,1,60.8666675489807,0|0,0:0|1:0,0:0:0:0:
152,212,14398,1,0,1:0:0:0:
152,212,14484,1,14,0:3:0:0:
304,200,14657,1,12,0:3:0:0:
272,384,14829,6,0,P|237:340|160:359,1,121.733335097961,10|0,0:3|0:0,0:0:0:0:
7,308,15347,2,0,P|64:306|132:295,1,121.733335097961,10|0,0:3|0:0,0:0:0:0:
200,112,15864,6,0,P|163:134|142:160,1,60.8666675489807,10|0,0:3|0:0,0:0:0:0:
264,64,16209,2,0,P|230:36|199:25,1,60.8666675489807,0|0,0:0|1:0,0:0:0:0:
197,28,16467,1,0,1:0:0:0:
197,28,16553,1,14,0:3:0:0:
273,144,16726,1,12,0:3:0:0:
376,8,16898,6,0,B|356:66|356:66|386:131,1,121.733335097961,10|0,0:3|0:0,0:0:0:0:
480,264,17415,2,0,P|488:193|490:141,1,121.733335097961,10|0,0:3|0:0,0:0:0:0:
352,240,17933,6,0,P|375:232|428:229,1,60.8666675489807,10|0,0:3|0:0,0:0:0:0:
512,328,18278,2,0,P|483:337|452:340,1,60.8666675489807,0|0,0:0|1:0,0:0:0:0:
428,331,18536,1,0,1:0:0:0:
428,331,18622,1,14,0:3:0:0:
416,208,18795,1,12,0:3:0:0:
280,328,18967,6,0,P|248:320|252:230,1,121.733335097961,10|0,0:3|0:0,0:0:0:0:
344,128,19484,2,0,P|295:155|219:163,1,121.733335097961,10|0,0:3|0:0,0:0:0:0:
80,112,20002,6,0,P|84:83|74:44,1,60.8666675489807,10|0,0:3|0:0,0:0:0:0:
0,168,20347,2,0,P|-4:197|6:236,1,60.8666675489807,0|0,0:0|1:0,0:0:0:0:
15,250,20605,1,0,1:0:0:0:
15,250,20691,1,14,0:3:0:0:
136,176,20864,1,12,0:3:0:0:
72,336,21036,6,0,P|123:361|168:308,1,121.733335097961,10|0,0:3|0:0,0:0:0:0:
304,232,21553,2,0,P|248:249|159:251,1,121.733335097961,10|0,0:3|0:0,0:0:0:0:
256,120,22071,6,0,P|240:160|239:194,1,60.8666675489807,10|0,0:3|0:0,0:0:0:0:
344,96,22415,2,0,P|360:56|361:22,1,60.8666675489807,0|0,0:0|1:0,0:0:0:0:
368,14,22674,1,0,1:0:0:0:
368,14,22760,1,14,0:3:0:0:
248,40,22933,1,12,0:3:0:0:
464,0,23105,6,0,B|493:19|493:19|474:112,1,121.733335097961,10|2,0:3|0:0,0:0:0:0:
448,192,23622,1,10,0:3:0:0:
336,303,23795,2,0,P|378:280|441:291,1,91.3000013234711,2|0,0:0|0:0,0:0:0:0:
376,376,24140,6,0,P|341:384|304:360,1,60.8666675489807,10|0,0:3|0:0,0:0:0:0:
232,280,24484,2,0,P|226:233|218:206,1,60.8666675489807,2|0,0:0|1:0,0:0:0:0:
219,203,24743,1,0,1:0:0:0:
219,203,24829,1,14,0:3:0:0:
112,288,25002,1,12,0:3:0:0:
0,160,25174,6,0,B|43:173|78:150|55:129|95:103|136:121,1,152.166668872452,10|0,0:3|0:0,0:0:0:0:
168,56,25691,2,0,P|156:29|131:8,2,60.8666675489807,10|2|2,0:3|0:0|0:0,0:0:0:0:
112,208,26209,6,0,P|85:226|70:255,1,60.8666675489807,10|0,0:3|0:0,0:0:0:0:
0,288,26553,2,0,P|2:320|19:347,1,60.8666675489807,0|0,0:0|1:0,0:0:0:0:
35,362,26812,1,0,1:0:0:0:
35,362,26898,1,14,0:3:0:0:
144,280,27071,1,12,0:3:0:0:
280,384,27243,6,0,B|292:289|292:289|269:265,1,121.733335097961,10|2,0:3|0:0,0:0:0:0:
360,320,27760,1,10,0:3:0:0:
488,216,27933,2,0,B|446:211|446:211|441:214|441:214|386:208,1,91.3000013234711,2|0,0:0|0:0,0:0:0:0:
328,144,28278,6,0,P|366:137|407:110,1,60.8666675489807,10|0,0:3|0:0,0:0:0:0:
504,56,28622,2,0,P|466:49|425:22,1,60.8666675489807,2|0,0:0|1:0,0:0:0:0:
432,29,28881,1,0,1:0:0:0:
432,29,28967,1,14,0:3:0:0:
488,152,29140,1,12,0:3:0:0:
328,64,29312,6,0,L|341:-3,2,60.8666675489807,10|2|2,0:3|0:0|0:0,0:0:0:0:
168,40,29829,2,0,P|203:60|235:135,1,121.733335097961,10|0,0:3|0:0,0:0:0:0:
144,256,30347,6,0,P|137:223|126:191,1,60.8666675489807,10|0,0:3|0:0,0:0:0:0:
32,152,30691,2,0,P|39:185|50:217,1,60.8666675489807,0|0,0:0|1:0,0:0:0:0:
59,233,30950,1,0,1:0:0:0:
59,233,31036,1,14,0:3:0:0:
112,104,31209,1,12,0:3:0:0:
240,240,31381,6,0,B|263:226|263:226|358:235,1,121.733335097961,10|2,0:3|0:0,0:0:0:0:
416,312,31898,1,10,0:3:0:0:
256,384,32071,2,0,P|241:341|206:307,1,91.3000013234711,2|0,0:0|0:0,0:0:0:0:
128,264,32415,6,0,L|135:338,1,60.8666675489807,10|0,0:3|0:0,0:0:0:0:
48,208,32760,2,0,L|41:282,1,60.8666675489807,2|0,0:0|1:0,0:0:0:0:
44,293,33019,1,0,1:0:0:0:
44,293,33105,1,14,0:3:0:0:
128,176,33278,1,12,0:3:0:0:
244,76,33450,6,0,B|228:68|219:57|219:57|272:11|339:60,1,152.166668872452,10|0,0:3|0:0,0:0:0:0:
376,112,33967,2,0,P|396:86|425:69,2,60.8666675489807,10|2|2,0:3|0:0|0:0,0:0:0:0:
352,256,34484,6,0,P|386:262|428:253,1,60.8666675489807,10|0,0:3|0:0,0:0:0:0:
480,176,34829,2,0,P|446:170|404:179,1,60.8666675489807,0|0,0:0|1:0,0:0:0:0:
403,184,35088,1,0,1:0:0:0:
403,184,35174,1,14,0:3:0:0:
488,296,35347,1,12,0:3:0:0:
344,360,35519,6,0,P|307:329|218:330,1,121.733335097961,10|0,0:3|0:0,0:0:0:0:
152,368,36036,1,10,0:3:0:0:
168,200,36209,2,0,L|160:304,1,91.3000013234711,2|0,0:0|0:0,0:0:0:0:
64,328,36553,6,0,P|34:308|26:267,1,60.8666675489807,10|0,0:3|0:0,0:0:0:0:
64,152,36898,2,0,P|72:186|78:223,1,60.8666675489807,2|0,0:0|1:0,0:0:0:0:
81,236,37157,1,0,1:0:0:0:
81,236,37243,1,14,0:3:0:0:
144,112,37415,1,12,0:3:0:0:
8,16,37588,6,0,L|76:22,2,60.8666675489807,10|2|2,0:3|0:0|0:0,0:0:0:0:
176,32,38105,2,0,L|302:43,1,121.733335097961,10|0,0:3|0:0,0:0:0:0:
432,128,38622,6,0,P|394:136|370:157,1,60.8666675489807,10|0,0:3|0:0,0:0:0:0:
312,216,38967,2,0,P|274:208|250:187,1,60.8666675489807,0|0,0:0|1:0,0:0:0:0:
245,182,39226,1,0,1:0:0:0:
245,182,39312,1,14,0:3:0:0:
288,304,39484,1,12,0:3:0:0:
440,232,39657,6,0,P|393:277|384:355,1,121.733335097961,10|0,0:3|0:0,0:0:0:0:
492,151,40174,2,0,P|429:132|357:164,1,121.733335097961,10|0,0:3|0:0,0:0:0:0:
240,232,40691,6,0,P|230:193|211:151,1,60.8666675489807,10|0,0:3|0:0,0:0:0:0:
208,32,41036,2,0,P|198:71|179:113,1,60.8666675489807,0|0,0:0|1:0,0:0:0:0:
187,113,41295,1,0,1:0:0:0:
187,113,41381,1,14,0:3:0:0:
96,216,41553,1,12,0:3:0:0:
0,80,41726,6,0,P|66:113|37:158,1,121.733335097961,10|0,0:3|0:0,0:0:0:0:
32,304,42243,2,0,P|22:242|-18:182,1,121.733335097961,10|0,0:3|0:0,0:0:0:0:
5,370,42760,6,0,P|38:377|73:362,1,60.8666675489807,10|0,0:3|0:0,0:0:0:0:
184,296,43105,2,0,P|151:289|116:304,1,60.8666675489807,0|0,0:0|1:0,0:0:0:0:
106,307,43364,1,0,1:0:0:0:
106,307,43450,1,14,0:3:0:0:
224,374,43622,1,12,0:3:0:0:
335,256,43795,6,0,L|306:386,1,121.733335097961,10|0,0:3|0:0,0:0:0:0:
416,252,44312,2,0,P|398:201|328:173,1,121.733335097961,10|0,0:3|0:0,0:0:0:0:
192,80,44829,6,0,P|227:93|249:130,1,60.8666675489807,10|0,0:3|0:0,0:0:0:0:
129,36,45174,2,0,P|157:12|200:11,1,60.8666675489807,0|0,0:0|1:0,0:0:0:0:
204,8,45433,1,0,1:0:0:0:
204,8,45519,1,14,0:3:0:0:
120,112,45691,1,12,0:3:0:0:
64,256,45864,6,0,P|10:268|5:211,1,121.733335097961,10|0,0:3|0:0,0:0:0:0:
128,304,46382,2,0,P|187:305|267:313,1,121.733335097961,10|0,0:3|0:0,0:0:0:0:
392,384,46898,6,0,P|395:349|406:295,1,60.8666675489807,10|0,0:3|0:0,0:0:0:0:
328,208,47243,2,0,P|325:173|314:119,1,60.8666675489807,0|0,0:0|1:0,0:0:0:0:
318,130,47502,1,0,1:0:0:0:
318,130,47588,1,14,0:3:0:0:
232,240,47760,1,12,0:3:0:0:
168,48,47933,6,0,P|215:40|262:29,1,75.5333326994324,6|0,0:0|0:0,0:0:0:0:
148,163,48278,1,0,0:0:0:0:
242,33,48450,2,0,P|279:39|316:46,1,75.5333326994324,8|0,0:0|0:0,0:0:0:0:
117,0,48795,1,0,0:0:0:0:
21,129,48967,6,0,B|18:96|18:96|15:92|15:92|11:54,1,75.5333326994324,10|0,0:0|0:0,0:0:0:0:
117,169,49312,1,0,0:0:0:0:
247,271,49484,2,0,L|252:224,1,37.7666663497162,8|0,0:0|0:0,0:0:0:0:
268,212,49657,1,8,2:3:0:0:
274,383,49829,1,12,2:3:0:0:
431,264,50002,6,0,B|410:258|410:258|335:269,1,75.5333326994324,2|0,0:0|0:0,0:0:0:0:
484,351,50347,1,0,0:0:0:0:
432,195,50519,2,0,B|411:189|411:189|336:200,1,75.5333326994324,8|0,0:0|0:0,0:0:0:0:
224,327,50864,1,0,0:0:0:0:
202,123,51036,6,0,P|232:156|250:209,1,75.5333326994324,10|0,0:0|0:0,0:0:0:0:
216,339,51381,1,0,0:0:0:0:
98,225,51553,2,0,P|104:208|132:184,1,37.7666663497162,8|0,0:0|0:0,0:0:0:0:
140,184,51726,1,8,2:3:0:0:
8,288,51898,1,12,2:3:0:0:
0,96,52071,6,0,B|32:93|32:93|36:90|36:90|79:86,1,75.5333326994324,2|0,0:0|0:0,0:0:0:0:
232,64,52415,1,0,0:0:0:0:
256,225,52588,2,0,B|253:192|253:192|250:188|250:188|246:150,1,75.5333326994324,8|0,0:0|0:0,0:0:0:0:
272,339,52933,1,0,0:0:0:0:
408,192,53105,6,0,P|371:197|336:168,1,75.5333326994324,10|0,0:0|0:0,0:0:0:0:
493,111,53450,1,0,0:0:0:0:
421,253,53622,2,0,P|410:238|408:220,1,37.7666663497162,8|0,0:0|0:0,0:0:0:0:
408,192,53795,1,8,2:3:0:0:
392,360,53967,1,12,2:3:0:0:
224,280,54140,6,0,B|258:268|258:268|308:278,1,75.5333326994324,2|0,0:0|0:0,0:0:0:0:
179,384,54484,1,0,0:0:0:0:
311,265,54657,2,0,B|323:231|323:231|313:181,1,75.5333326994324,8|0,0:0|0:0,0:0:0:0:
194,45,55002,1,0,0:0:0:0:
112,232,55174,6,0,P|146:269|166:314,1,75.5333326994324,10|0,0:0|0:0,0:0:0:0:
8,224,55519,1,0,0:0:0:0:
176,190,55691,2,0,P|197:179|220:160,1,37.7666663497162,8|0,0:0|0:0,0:0:0:0:
228,152,55864,1,8,2:3:0:0:
324,16,56036,1,12,2:3:0:0:
416,152,56209,6,0,P|377:144|314:207,1,113.299999049149,2|0,0:0|0:0,0:0:0:0:
314,209,56553,1,2,0:0:0:0:
272,96,56726,1,10,0:0:0:0:
400,232,56898,2,0,L|384:369,1,113.299999049149,2|0,0:0|0:0,0:0:0:0:
320,384,57243,6,0,P|288:368|234:375,1,75.5333326994324,10|0,0:0|2:3,0:0:0:0:
232,224,57588,2,0,P|202:243|181:293,1,75.5333326994324,2|8,2:3|0:0,0:0:0:0:
72,312,57933,2,0,P|74:347|107:390,1,75.5333326994324,10|8,2:3|2:3,0:0:0:0:
144,127,58278,6,0,P|102:186|31:177,1,151.066665398865,2|0,0:0|0:0,0:0:0:0:
152,40,58795,2,0,P|191:70|228:104,1,75.5333326994324,10|2,2:0|0:0,0:0:0:0:
288,192,59140,1,2,0:0:0:0:
400,0,59312,6,0,P|361:30|324:68,1,75.5333326994324,10|0,2:0|0:0,0:0:0:0:
284,112,59657,1,0,0:0:0:0:
296,120,59829,1,8,0:0:0:0:
400,96,60002,1,8,2:3:0:0:
480,200,60174,1,8,2:3:0:0:
384,360,60347,6,0,B|403:338|403:338|377:244,1,113.299999049149,2|0,0:0|0:0,0:0:0:0:
372,231,60691,1,2,0:0:0:0:
286,326,60864,1,10,0:0:0:0:
104,296,61036,2,0,B|159:290|159:290|166:285|166:285|240:278,1,113.299999049149,2|0,0:0|0:0,0:0:0:0:
270,222,61381,6,0,P|252:196|205:196,1,75.5333326994324,10|0,0:0|0:0,0:0:0:0:
49,333,61726,2,0,P|80:330|104:289,1,75.5333326994324,2|8,0:0|2:0,0:0:0:0:
68,83,62071,2,0,P|54:111|77:152,1,75.5333326994324,10|8,2:3|2:3,0:0:0:0:
180,10,62415,1,2,0:0:0:0:
68,83,62588,1,2,0:0:0:0:
185,138,62760,1,2,0:0:0:0:
288,0,62933,6,0,P|297:48|301:83,2,75.5333326994324,8|0|0,0:0|0:0|0:0,0:0:0:0:
400,112,63450,2,0,P|391:160|387:195,1,75.5333326994324,8|0,0:0|0:0,0:0:0:0:
368,344,63795,1,0,0:0:0:0:
448,280,63967,1,8,2:0:0:0:
360,352,64140,2,0,P|308:359|278:328,1,75.5333326994324,10|8,2:3|2:3,0:0:0:0:
192,192,64484,6,0,B|212:181|212:181|191:278,1,113.299999049149,2|0,0:0|0:0,0:0:0:0:
190,295,64829,1,2,0:0:0:0:
88,224,65002,1,10,0:0:0:0:
248,112,65174,2,0,B|193:106|193:106|186:101|186:101|112:94,1,113.299999049149,2|0,0:0|0:0,0:0:0:0:
96,23,65519,6,0,P|146:20|205:29,1,75.5333326994324,10|0,0:0|0:0,0:0:0:0:
317,58,65864,2,0,P|271:39|211:30,1,75.5333326994324,2|8,0:0|2:0,0:0:0:0:
177,174,66209,2,0,L|202:70,1,75.5333326994324,10|8,2:3|2:3,0:0:0:0:
272,280,66553,6,0,B|315:293|350:270|327:249|367:223|408:241,1,151.066665398865,2|0,0:0|0:0,0:0:0:0:
248,352,67071,2,0,P|213:329|203:286,1,75.5333326994324,10|2,0:0|0:0,0:0:0:0:
192,176,67415,1,2,0:0:0:0:
37,322,67588,6,0,P|72:299|82:256,1,75.5333326994324,10|0,0:0|0:0,0:0:0:0:
72,176,67933,1,0,0:0:0:0:
66,190,68105,1,8,2:0:0:0:
152,120,68278,1,8,2:3:0:0:
103,1,68450,1,8,2:3:0:0:
288,16,68622,6,0,P|280:68|272:143,1,113.299999049149,2|0,0:0|0:0,0:0:0:0:
272,154,68967,1,2,0:0:0:0:
376,80,69140,1,10,0:0:0:0:
248,229,69312,2,0,P|290:234|344:184,1,113.299999049149,2|0,0:0|0:0,0:0:0:0:
377,265,69657,6,0,P|368:317|373:366,1,75.5333326994324,10|0,0:0|0:0,0:0:0:0:
200,176,70002,2,0,P|229:221|267:230,1,75.5333326994324,2|8,0:0|2:0,0:0:0:0:
144,384,70347,2,0,P|141:338|128:248,1,113.299999049149,10|0,2:3|0:0,0:0:0:0:
95,184,70691,6,0,P|81:220|21:218,2,75.5333326994324,2|2|2,0:0|0:0|0:0,0:0:0:0:
8,56,71209,2,0,B|-21:85|-21:85|99:67,1,151.066665398865,8|0,0:0|0:0,0:0:0:0:
272,128,71726,2,0,B|301:99|301:99|181:117,1,151.066665398865,8|0,0:0|0:0,0:0:0:0:
95,184,72243,5,8,0:0:0:0:
175,279,72415,2,0,P|208:284|230:271,1,37.7666663497162,10|0,2:3|0:0,0:0:0:0:
288,216,72588,2,0,P|319:203|332:181,1,37.7666663497162,10|0,2:3|0:0,0:0:0:0:
440,56,72760,6,0,B|405:82|405:82|437:203,1,151.066665398865,6|0,0:0|0:0,0:0:0:0:
360,288,73278,2,0,P|405:279|469:360,1,151.066665398865,8|0,0:0|0:0,0:0:0:0:
320,384,73795,2,0,B|250:377|250:377|241:370|241:370|148:362,1,151.066665398865,10|0,0:0|0:0,0:0:0:0:
80,352,74312,1,8,2:0:0:0:
76,366,74484,1,8,2:3:0:0:
132,242,74657,1,8,2:3:0:0:
17,112,74829,6,0,B|-7:114|-7:114|10:126|10:126|149:114,1,151.066665398865,2|0,0:0|0:0,0:0:0:0:
258,32,75347,2,0,P|234:71|147:26,1,151.066665398865,8|0,0:0|0:0,0:0:0:0:
296,112,75864,2,0,P|301:162|306:291,1,151.066665398865,10|0,0:0|0:0,0:0:0:0:
304,384,76381,2,0,P|322:344|358:314,1,75.5333326994324,8|8,2:0|2:3,0:0:0:0:
419,252,76726,1,8,2:3:0:0:
240,328,76898,6,0,P|201:329|122:335,1,107.066669607341,10|0,0:3|0:0,0:0:0:0:
16,296,77415,2,0,P|46:289|65:233,1,77.733333451945,10|0,0:3|0:0,0:0:0:0:
0,136,77933,2,0,P|14:163|73:167,1,77.733333451945,10|0,0:3|0:0,0:0:0:0:
160,144,78450,2,0,L|166:115,2,19.4333333629863,0|0|14,1:0|1:0|0:3,0:0:0:0:
160,232,78795,1,12,2:3:0:0:
273,119,78967,6,0,P|266:157|263:197,1,77.733333451945,10|0,0:3|0:0,0:0:0:0:
344,288,79484,2,0,P|351:250|354:210,1,77.733333451945,10|0,0:3|0:0,0:0:0:0:
239,288,80002,2,0,P|261:279|274:268,2,38.8666667259725,10|0|8,0:3|0:0|0:3,0:0:0:0:
149,251,80519,2,0,L|156:296,1,31.5333338144938,8|2,0:1|0:3,0:0:0:0:
96,352,80864,1,8,0:3:0:0:
168,112,81036,6,0,P|163:142|159:180,1,66.7333329260254,2|0,0:0|0:0,0:0:0:0:
248,72,82415,5,2,0:0:0:0:
88,96,82588,1,2,0:0:0:0:
263,51,82760,5,2,0:0:0:0:
72,116,82933,1,2,0:0:0:0:
344,128,83105,6,0,B|347:87|347:87|351:82|351:82|356:29,1,90.2000013763428,6|0,0:0|0:0,0:0:0:0:
392,224,83450,1,0,0:0:0:0:
304,352,83622,2,0,B|320:328|336:320|336:320|288:296|224:304|216:376,1,180.400002752686,8|0,0:0|0:0,0:0:0:0:
96,256,84140,6,0,P|148:275|186:238,1,90.2000013763428,10|0,0:0|0:0,0:0:0:0:
0,72,84484,2,0,P|12:190|24:344,1,270.600004129028,2|8,0:0|2:3,0:0:0:0:
88,384,85088,1,0,0:0:0:0:
98,369,85174,6,0,P|150:350|188:387,1,90.2000013763428,2|0,0:0|0:0,0:0:0:0:
360,320,85519,2,0,P|308:339|270:302,1,90.2000013763428,0|8,0:0|0:0,0:0:0:0:
216,248,85864,6,0,P|210:210|195:172,1,45.1000006881714,2|0,0:0|0:0,0:0:0:0:
264,136,86036,2,0,P|270:98|285:60,1,45.1000006881714,2|0,0:0|0:0,0:0:0:0:
216,8,86209,2,0,P|261:12|324:16,1,90.2000013763428,10|0,0:0|0:0,0:0:0:0:
136,96,86553,2,0,P|91:100|28:104,1,82.8666669195557,2|8,0:0|2:0,0:0:0:0:
208,203,86898,2,0,P|253:207|316:211,1,75.5333326994324,10|8,2:3|2:3,0:0:0:0:
368,176,87157,1,0,0:0:0:0:
357,160,87243,6,0,P|333:267|380:307,1,180.400002752686,2|0,0:0|0:0,0:0:0:0:
488,360,87760,1,8,0:0:0:0:
360,296,87933,2,0,P|314:300|257:371,1,135.300002064514
184,384,88278,6,0,P|183:337|171:278,1,90.2000013763428,10|0,0:0|0:0,0:0:0:0:
72,176,88622,2,0,P|105:209|163:200,1,90.2000013763428,2|8,0:0|2:0,0:0:0:0:
166,206,88881,1,0,0:0:0:0:
166,206,88967,1,10,2:3:0:0:
24,272,89140,1,8,2:3:0:0:
152,96,89312,6,0,P|159:40|150:3,1,90.2000013763428,2|0,0:0|0:0,0:0:0:0:
24,96,89657,1,2,0:0:0:0:
216,144,89829,2,0,P|265:137|317:137,1,90.2000013763428,8|0,0:0|0:0,0:0:0:0:
151,7,90174,1,0,0:0:0:0:
328,144,90347,2,0,B|328:102|328:102|332:97|332:97|334:44,1,90.2000013763428,8|0,0:0|0:0,0:0:0:0:
216,144,90691,5,2,0:0:0:0:
390,264,90864,1,10,2:0:0:0:
456,128,91036,5,10,2:3:0:0:
307,302,91209,1,10,2:3:0:0:
480,256,91381,6,0,P|436:256|362:274,1,90.2000013763428,6|0,0:0|0:0,0:0:0:0:
282,384,91726,1,0,0:0:0:0:
144,248,91898,2,0,P|159:298|172:358,1,90.2000013763428,8|0,0:0|0:0,0:0:0:0:
208,176,92243,1,0,0:0:0:0:
0,240,92415,6,0,P|49:225|35:123,1,135.300002064514,10|0,0:0|0:0,0:0:0:0:
8,95,92760,2,0,P|91:137|149:67,1,180.400002752686,2|8,0:0|2:3,0:0:0:0:
56,0,93278,1,10,2:3:0:0:
192,152,93450,6,0,P|171:94|124:62,1,90.2000013763428,2|0,0:0|0:0,0:0:0:0:
280,16,93795,1,0,0:0:0:0:
216,224,93967,1,8,0:0:0:0:
344,136,94140,6,0,P|341:108|366:60,1,45.1000006881714,2|0,0:0|0:0,0:0:0:0:
424,48,94312,2,0,P|427:76|402:124,1,45.1000006881714,2|0,0:0|0:0,0:0:0:0:
384,200,94484,2,0,P|345:213|267:144,1,135.300002064514,10|0,0:0|0:0,0:0:0:0:
176,16,94829,2,0,P|206:43|186:145,1,124.300000379334,2|0,0:0|0:0,0:0:0:0:
120,272,95174,2,0,P|126:237|208:209,1,113.299999049149,10|0,2:3|0:0,0:0:0:0:
152,368,95519,6,0,P|104:360|23:350,1,90.2000013763428,2|0,0:0|0:0,0:0:0:0:
216,304,95864,1,0,0:0:0:0:
360,360,96036,2,0,P|312:368|231:378,1,90.2000013763428,8|0,0:0|0:0,0:0:0:0:
440,344,96381,1,0,0:0:0:0:
368,168,96553,6,0,B|345:183|345:183|383:286,1,135.300002064514,10|0,0:0|0:0,0:0:0:0:
504,184,96898,2,0,B|527:169|527:169|500:102,1,90.2000013763428,2|8,0:0|0:0,0:0:0:0:
344,0,97243,2,0,P|317:5|283:11,1,45.1000006881714,10|0,2:3|0:0,0:0:0:0:
208,48,97415,2,0,P|181:43|147:37,1,45.1000006881714,8|0,2:3|0:0,0:0:0:0:
8,0,97588,6,0,B|14:63|14:63|21:70|21:70|29:131,1,135.300002064514,2|0,0:0|0:0,0:0:0:0:
0,224,97933,2,0,B|59:241|106:210|75:181|129:145|186:169,1,209.733336213582,2|2,0:0|0:0,0:0:0:0:
260,308,98450,1,2,0:0:0:0:
352,184,98622,6,0,P|307:205|259:182,1,90.2000013763428,10|0,0:0|0:0,0:0:0:0:
416,80,98967,1,0,0:0:0:0:
432,168,99140,1,8,2:0:0:0:
336,96,99312,1,10,2:3:0:0:
400,0,99484,1,8,2:3:0:0:
512,232,99657,6,0,P|505:271|499:335,1,90.2000013763428,6|0,0:0|0:0,0:0:0:0:
360,376,100002,1,0,0:0:0:0:
217,241,100174,2,0,P|263:271|306:245,1,90.2000013763428,8|0,0:0|0:0,0:0:0:0:
176,152,100519,1,0,0:0:0:0:
88,360,100691,6,0,P|83:315|76:270,1,90.2000013763428,10|0,0:0|0:0,0:0:0:0:
4,126,101036,1,0,0:0:0:0:
88,272,101209,2,0,P|95:316|99:361,1,90.2000013763428,8|8,2:0|2:3,0:0:0:0:
176,152,101553,1,8,2:3:0:0:
16,16,101726,6,0,B|57:13|57:13|62:9|62:9|115:4,1,90.2000013763428,2|0,0:0|0:0,0:0:0:0:
232,96,102071,1,0,0:0:0:0:
368,24,102243,2,0,P|317:22|264:61,1,90.2000013763428,8|0,0:0|0:0,0:0:0:0:
176,152,102588,1,0,0:0:0:0:
336,304,102760,6,0,B|339:263|339:263|343:257|343:257|348:205,1,90.2000013763428,10|0,0:0|0:0,0:0:0:0:
280,360,103105,1,0,0:0:0:0:
416,304,103278,2,0,B|419:263|419:263|423:257|423:257|428:205,1,90.2000013763428,8|8,2:0|2:3,0:0:0:0:
264,208,103622,1,8,2:3:0:0:
262,226,103709,1,0,0:0:0:0:
260,243,103795,6,0,P|220:265|169:235,1,90.2000013763428,2|0,0:0|0:0,0:0:0:0:
64,144,104140,1,0,0:0:0:0:
232,32,104312,2,0,P|174:80|156:120,1,90.2000013763428,8|0,0:0|0:0,0:0:0:0:
88,240,104657,1,0,0:0:0:0:
166,91,104829,6,0,P|138:55|100:31,1,90.2000013763428,10|0,0:0|0:0,0:0:0:0:
200,184,105174,1,0,0:0:0:0:
88,16,105347,1,8,2:0:0:0:
0,192,105519,6,0,P|0:220|11:249,1,45.1000006881714,10|0,2:3|0:0,0:0:0:0:
0,327,105691,2,0,P|24:341|54:345,1,45.1000006881714,10|0,2:3|0:0,0:0:0:0:
200,376,105864,6,0,P|255:369|279:242,1,180.400002752686,2|0,0:0|0:0,0:0:0:0:
184,136,106381,2,0,P|239:128|300:109,1,90.2000013763428,8|0,0:0|0:0,0:0:0:0:
416,32,106726,1,0,0:0:0:0:
240,24,106898,6,0,P|263:73|280:135,1,90.2000013763428,10|0,0:0|0:0,0:0:0:0:
292,263,107243,1,0,0:0:0:0:
376,96,107415,2,0,P|321:104|260:123,1,90.2000013763428,8|8,2:0|2:3,0:0:0:0:
488,16,107760,1,8,2:3:0:0:
485,34,107847,1,0,0:0:0:0:
482,51,107933,6,0,P|474:113|476:184,1,90.2000013763428,6|0,0:0|0:0,0:0:0:0:
504,296,108278,1,0,0:0:0:0:
328,376,108450,2,0,P|388:380|414:342,1,90.2000013763428,8|0,0:0|0:0,0:0:0:0:
292,263,108795,1,0,0:0:0:0:
176,376,108967,6,0,P|116:380|90:342,1,90.2000013763428,10|0,0:0|0:0,0:0:0:0:
280,248,109312,1,0,0:0:0:0:
272,80,109484,1,8,2:0:0:0:
160,176,109657,6,0,L|237:164,1,45.1000006881714,10|0,2:3|0:0,0:0:0:0:
344,160,109829,2,0,L|421:172,1,45.1000006881714,10|0,2:3|0:0,0:0:0:0:
280,64,110002,6,0,B|243:48|243:48|79:67,1,180.400002752686,2|0,0:0|0:0,0:0:0:0:
24,200,110519,2,0,P|16:152|-2:108,1,90.2000013763428,8|0,0:0|0:0,0:0:0:0:
104,248,110864,1,0,0:0:0:0:
0,384,111036,6,0,P|8:336|26:292,1,90.2000013763428,10|0,0:0|0:0,0:0:0:0:
184,248,111381,1,0,0:0:0:0:
352,248,111553,2,0,B|310:247|310:247|305:250|305:250|252:251,1,90.2000013763428,8|8,2:0|2:3,0:0:0:0:
416,368,111898,1,8,2:3:0:0:
431,358,111984,1,0,0:0:0:0:
446,348,112071,6,0,L|460:167,1,180.400002752686,2|0,0:0|0:0,0:0:0:0:
344,64,112588,2,0,P|377:103|469:40,1,180.400002752686,8|0,0:0|0:0,0:0:0:0:
272,8,113105,6,0,P|223:-5|171:6,1,90.2000013763428,10|0,0:0|0:0,0:0:0:0:
48,88,113450,1,0,0:0:0:0:
216,72,113622,1,8,2:0:0:0:
80,192,113795,6,0,P|110:184|137:190,1,45.1000006881714,10|0,2:3|0:0,0:0:0:0:
224,232,113967,2,0,P|194:240|167:234,1,45.1000006881714,10|0,2:3|0:0,0:0:0:0:
328,184,114140,6,0,B|343:234|316:276|291:249|260:296|281:345,1,180.400002752686,2|0,0:0|0:0,0:0:0:0:
88,360,114657,2,0,P|151:384|199:287,1,180.400002752686,8|0,0:0|0:0,0:0:0:0:
444,241,115174,2,0,P|381:265|333:168,1,180.400002752686,8|0,0:0|0:0,0:0:0:0:
416,0,115691,2,0,B|449:37|449:37|402:193,1,180.400002752686,8|8,2:0|2:3,0:0:0:0:
234,48,116209,6,0,L|127:46,1,107.066669607341,6|0,0:0|0:0,0:0:0:0:
50,78,116726,2,0,L|175:81,1,107.066669607341,2|0,0:0|0:0,0:0:0:0:
217,163,117243,1,2,0:0:0:0:
157,80,117588,1,2,0:0:0:0:
97,163,117933,1,2,0:0:0:0:
80,288,118278,6,0,P|115:301|185:261,1,107.066669607341,2|0,0:0|0:0,0:0:0:0:
168,200,118795,2,0,P|133:187|63:227,1,107.066669607341,2|0,0:0|0:0,0:0:0:0:
0,280,119312,1,2,0:0:0:0:
104,368,119657,1,2,0:0:0:0:
232,320,120002,1,2,0:0:0:0:
360,168,120347,6,0,B|384:177|384:177|370:271,1,107.066669607341,2|0,0:0|0:0,0:0:0:0:
488,160,120864,2,0,B|464:169|464:169|478:263,1,107.066669607341,2|0,0:0|0:0,0:0:0:0:
416,104,121381,1,2,0:0:0:0:
258,111,121726,1,2,0:0:0:0:
268,269,122071,1,2,0:0:0:0:
422,263,122415,5,2,0:0:0:0:
256,192,122502,12,2,132760,0:0:0:0:
