osu file format v14

[General]
AudioFilename: audio.mp3
AudioLeadIn: 0
PreviewTime: 82415
Countdown: 0
SampleSet: Soft
StackLeniency: 0.3
Mode: 0
LetterboxInBreaks: 0
EpilepsyWarning: 1
WidescreenStoryboard: 1

[Editor]
DistanceSpacing: 1.2
BeatDivisor: 6
GridSize: 32
TimelineZoom: 2.2

[Metadata]
Title:Sora no Koe, Yousei no Shirabe
TitleUnicode:空の声、妖精の調べ
Artist:Hamu
ArtistUnicode:ハム
Creator:- Solar -
Version:Saturnalize's Easy~
Source:
Tags:BlastTheKidd honne Saturnalize VenerableNyanta Nyanta Cathy petite lumière 君と風にのって foxtail-grass studio bongo drum folk adventure french eastern featuring electronic instrumental
BeatmapID:3138750
BeatmapSetID:1473402

[Difficulty]
HPDrainRate:3
CircleSize:3
OverallDifficulty:3
ApproachRate:3
SliderMultiplier:1.1
SliderTickRate:1

[Events]
//Background and Video events
0,0,"bg.jpg",0,0
//Break Periods
2,48133,54769
//Storyboard Layer 0 (Background)
//Storyboard Layer 1 (Fail)
//Storyboard Layer 2 (Pass)
//Storyboard Layer 3 (Foreground)
Sprite,Foreground,Centre,"sb\THICC\0053.png",216.875,262.44 F,0,10995,11485,0,1 S,0,10995,11485,0.495,0.33 F,0,14339,14829,1,0
Sprite,Foreground,Centre,"sb\THICC\0061.png",239.315,262.44 F,0,11107,11597,0,1 S,0,11107,11597,0.495,0.33 F,0,14339,14829,1,0
Sprite,Foreground,Centre,"sb\THICC\0074.png",261.26,262.44 F,0,10839,11329,0,1 S,0,10839,11329,0.495,0.33 F,0,14339,14829,1,0
Sprite,Foreground,Centre,"sb\THICC\0075.png",283.205,262.605 F,0,10535,11025,0,1 S,0,10535,11025,0.495,0.33 F,0,14339,14829,1,0
Sprite,Foreground,Centre,"sb\THICC\0072.png",306.47,262.44 F,0,10957,11447,0,1 S,0,10957,11447,0.495,0.33 F,0,14339,14829,1,0
Sprite,Foreground,Centre,"sb\THICC\006e.png",329.24,262.44 F,0,10983,11473,0,1 S,0,10983,11473,0.495,0.33 F,0,14339,14829,1,0
Sprite,Foreground,Centre,"sb\THICC\0061.png",352.835,262.44 F,0,11104,11594,0,1 S,0,11104,11594,0.495,0.33 F,0,14339,14829,1,0
Sprite,Foreground,Centre,"sb\THICC\006c.png",374.45,262.44 F,0,10298,10788,0,1 S,0,10298,10788,0.495,0.33 F,0,14339,14829,1,0
Sprite,Foreground,Centre,"sb\THICC\0069.png",388.145,262.44 F,0,10858,11348,0,1 S,0,10858,11348,0.495,0.33 F,0,14339,14829,1,0
Sprite,Foreground,Centre,"sb\THICC\007a.png",403.655,262.44 F,0,10713,11203,0,1 S,0,10713,11203,0.495,0.33 F,0,14339,14829,1,0
Sprite,Foreground,Centre,"sb\THICC\0065.png",424.445,262.44 F,0,11055,11545,0,1 S,0,11055,11545,0.495,0.33 F,0,14339,14829,1,0
Sprite,Foreground,Centre,"sb\THICC\0053.png",216.875,262.44 F,0,14434,14924,0,1 S,0,14434,14924,0.495,0.33 F,0,18477,18967,1,0
Sprite,Foreground,Centre,"sb\THICC\0061.png",239.315,262.44 F,0,14729,15219,0,1 S,0,14729,15219,0.495,0.33 F,0,18477,18967,1,0
Sprite,Foreground,Centre,"sb\THICC\0074.png",261.26,262.44 F,0,14697,15187,0,1 S,0,14697,15187,0.495,0.33 F,0,18477,18967,1,0
Sprite,Foreground,Centre,"sb\THICC\0075.png",283.205,262.605 F,0,15213,15703,0,1 S,0,15213,15703,0.495,0.33 F,0,18477,18967,1,0
Sprite,Foreground,Centre,"sb\THICC\0072.png",306.47,262.44 F,0,14833,15323,0,1 S,0,14833,15323,0.495,0.33 F,0,18477,18967,1,0
Sprite,Foreground,Centre,"sb\THICC\006e.png",329.24,262.44 F,0,15010,15500,0,1 S,0,15010,15500,0.495,0.33 F,0,18477,18967,1,0
Sprite,Foreground,Centre,"sb\THICC\0061.png",352.835,262.44 F,0,14508,14998,0,1 S,0,14508,14998,0.495,0.33 F,0,18477,18967,1,0
Sprite,Foreground,Centre,"sb\THICC\006c.png",374.45,262.44 F,0,14638,15128,0,1 S,0,14638,15128,0.495,0.33 F,0,18477,18967,1,0
Sprite,Foreground,Centre,"sb\THICC\0069.png",388.145,262.44 F,0,15170,15660,0,1 S,0,15170,15660,0.495,0.33 F,0,18477,18967,1,0
Sprite,Foreground,Centre,"sb\THICC\007a.png",403.655,262.44 F,0,15076,15566,0,1 S,0,15076,15566,0.495,0.33 F,0,18477,18967,1,0
Sprite,Foreground,Centre,"sb\THICC\0065.png",424.445,262.44 F,0,14692,15182,0,1 S,0,14692,15182,0.495,0.33 F,0,18477,18967,1,0
//Storyboard Layer 4 (Overlay)
//Storyboard Sound Samples

[TimingPoints]
347,517.241379310345,2,2,1,5,1,0
6553,-100,3,2,53,30,0,0
47933,-100,3,2,53,40,0,0
76898,-100,3,2,53,30,0,0
83105,-100,3,2,53,50,0,0

[Colours]
Combo1 : 226,90,75
Combo2 : 175,207,231
Combo3 : 233,221,180
Combo4 : 209,156,156

[HitObjects]
269,179,6553,6,0,P|322:166|367:136,2,110,0|8|8,0:1|0:1|0:3,0:0:0:0:
239,352,8277,5,2,0:3:0:0:
326,348,8622,1,0,0:0:0:0:
367,221,9139,2,0,P|322:191|269:179,1,110,8|8,0:1|0:3,0:0:0:0:
127,198,10346,5,2,0:3:0:0:
42,175,10691,2,0,P|47:118|32:59,2,110,0|8|8,0:0|0:1|0:3,0:0:0:0:
56,350,12415,5,2,0:3:0:0:
140,322,12760,1,0,0:0:0:0:
261,377,13277,2,0,P|306:347|360:334,1,110,8|8,0:1|0:3,0:0:0:0:
329,160,14484,5,2,0:3:0:0:
243,179,14829,2,0,P|189:166|144:136,2,110,0|8|8,0:1|0:1|0:3,0:0:0:0:
273,352,16553,5,2,0:3:0:0:
186,348,16898,1,0,0:0:0:0:
144,221,17415,2,0,P|189:191|243:179,1,110,8|8,0:1|0:3,0:0:0:0:
385,198,18622,5,2,0:3:0:0:
470,175,18967,2,0,P|465:118|480:59,2,110,0|8|8,0:0|0:1|0:3,0:0:0:0:
456,350,20691,5,2,0:3:0:0:
372,322,21036,1,0,0:0:0:0:
251,377,21553,2,0,P|206:347|152:334,1,110,8|8,0:1|0:3,0:0:0:0:
155,158,22760,5,2,0:3:0:0:
233,117,23105,2,0,P|250:58|247:2,2,110,0|8|8,0:0|0:1|0:3,0:0:0:0:
320,125,24484,1,0,0:0:0:0:
391,176,24829,1,2,0:3:0:0:
434,252,25174,6,0,P|411:324|404:362,1,110,0|8,0:0|0:1,0:0:0:0:
274,382,26209,2,0,P|263:310|234:243,1,146.666666666667,8|2,0:3|0:3,0:0:0:0:
163,191,27243,6,0,L|53:201,2,110,0|8|8,0:0|0:1|0:3,0:0:0:0:
181,104,28622,1,0,0:0:0:0:
240,39,28967,1,2,0:3:0:0:
324,13,29312,6,0,L|440:27,1,110,0|8,0:0|0:1,0:0:0:0:
502,140,30347,2,0,L|348:158,1,146.666666666667,8|2,0:3|0:3,0:0:0:0:
279,117,31381,6,0,P|262:58|265:2,2,110,0|8|8,0:0|0:1|0:3,0:0:0:0:
192,125,32760,1,0,0:0:0:0:
121,176,33105,1,2,0:3:0:0:
78,252,33450,6,0,P|101:324|108:362,1,110,0|8,0:0|0:1,0:0:0:0:
237,382,34484,2,0,P|248:310|277:243,1,146.666666666667,8|2,0:3|0:3,0:0:0:0:
349,191,35518,6,0,L|459:201,2,110,0|8|8,0:0|0:1|0:3,0:0:0:0:
331,104,36897,1,0,0:0:0:0:
272,39,37242,1,2,0:3:0:0:
188,13,37587,6,0,L|72:27,1,110,0|8,0:0|0:1,0:0:0:0:
10,140,38622,2,0,L|164:158,1,146.666666666667,8|2,0:3|0:3,0:0:0:0:
235,120,39657,6,0,P|243:68|231:3,2,110,0|8|8,0:0|0:1|0:3,0:0:0:0:
153,276,41381,1,2,0:3:0:0:
77,322,41726,1,0,0:0:0:0:
0,214,42243,2,0,P|42:179|93:159,1,110,8|8,0:1|0:3,0:0:0:0:
264,199,43450,1,2,0:3:0:0:
324,262,43795,6,0,P|319:348|319:389,2,110,0|8|8,0:0|0:1|0:3,0:0:0:0:
385,97,45519,1,2,0:3:0:0:
302,65,45864,1,0,0:0:0:0:
204,154,46381,2,0,P|118:159|77:159,1,110,8|8,0:1|0:3,0:0:0:0:
86,335,47588,5,2,0:3:0:0:
173,340,47933,1,4,3:2:0:0:
131,155,56209,6,0,P|96:168|60:173,2,73.3333333333333,0|2|2,3:0|0:0|0:2,0:0:0:0:
196,96,57243,1,8,0:2:0:0:
237,18,57588,1,2,0:2:0:0:
293,85,57933,1,2,0:2:0:0:
370,127,58278,6,0,P|428:135|491:117,1,110,2|10,3:2|0:2,0:0:0:0:
417,6,59312,2,0,L|270:15,1,146.666666666667,10|0,0:2|0:0,0:0:0:0:
201,70,60347,6,0,P|161:79|108:71,2,73.3333333333333,0|2|2,3:0|0:2|0:2,0:0:0:0:
268,126,61381,1,8,0:2:0:0:
306,205,61726,1,2,0:2:0:0:
268,284,62071,1,2,0:2:0:0:
194,332,62415,6,0,P|156:298|89:278,1,110,2|8,3:2|0:2,0:0:0:0:
164,163,63450,2,0,L|305:204,1,146.666666666667,8|0,0:2|0:0,0:0:0:0:
381,155,64484,6,0,P|415:168|451:173,2,73.3333333333333,0|2|2,3:0|0:0|0:2,0:0:0:0:
316,96,65518,1,8,0:2:0:0:
275,18,65863,1,2,0:2:0:0:
219,85,66208,1,2,0:2:0:0:
141,127,66553,6,0,P|83:135|20:117,1,110,2|10,3:2|0:2,0:0:0:0:
95,6,67588,2,0,L|241:15,1,146.666666666667,10|0,0:2|0:0,0:0:0:0:
311,70,68623,6,0,P|351:79|404:71,2,73.3333333333333,0|2|2,3:0|0:2|0:2,0:0:0:0:
244,126,69657,1,8,0:2:0:0:
206,205,70002,1,2,0:2:0:0:
244,284,70347,1,2,0:2:0:0:
318,332,70691,6,0,P|372:323|409:279,1,110,2|8,3:2|0:2,0:0:0:0:
299,209,71726,2,0,P|227:226|164:261,1,146.666666666667,8|0,0:2|0:0,0:0:0:0:
94,315,72760,5,2,0:2:0:0:
65,185,73278,1,8,0:2:0:0:
26,58,73795,2,0,B|65:41|65:41|97:27|130:42|130:42|163:58,1,146.666666666667,8|0,0:2|0:0,0:0:0:0:
244,92,74829,5,0,0:0:0:0:
215,222,75347,1,8,0:2:0:0:
176,349,75864,2,0,B|215:366|215:366|247:380|280:365|280:365|317:348,1,146.666666666667,8|0,0:2|0:0,0:0:0:0:
377,288,76898,5,0,3:3:0:0:
368,156,77415,1,8,0:1:0:0:
359,24,77933,1,8,0:3:0:0:
183,29,78622,5,2,0:3:0:0:
95,34,78967,1,0,3:3:0:0:
104,166,79485,1,8,0:1:0:0:
113,298,80002,1,8,0:3:0:0:
287,279,80691,5,0,0:3:0:0:
374,270,81036,1,0,0:0:0:0:
461,261,82415,6,0,P|467:217|480:187,1,73.3333333333333,2|2,0:2|0:2,0:0:0:0:
449,106,83105,6,0,P|365:38|257:39,1,220,4|8,3:3|0:2,0:0:0:0:
179,79,84484,1,2,0:2:0:0:
147,253,85174,6,0,P|211:285|283:277,1,146.666666666667,2|2,3:2|0:2,0:0:0:0:
372,288,86209,2,0,P|368:324|374:360,2,73.3333333333333,10|0|2,0:2|0:0|3:2,0:0:0:0:
428,220,87243,6,0,B|410:128|462:166|443:72,1,146.666666666667,2|0,3:2|0:0,0:0:0:0:
371,28,88278,1,8,0:0:0:0:
288,56,88622,2,0,L|201:47,1,73.3333333333333,2|2,0:2|3:2,0:0:0:0:
146,104,89312,5,2,3:2:0:0:
195,176,89657,2,0,P|269:178|344:160,1,146.666666666667,2|8,0:2|0:0,0:0:0:0:
404,221,90691,2,0,P|398:262|398:303,1,73.3333333333333,2|2,0:2|0:2,0:0:0:0:
343,363,91381,6,0,B|217:358|217:358|161:353|139:306,1,220,2|10,3:2|0:2,0:0:0:0:
115,226,92760,1,2,0:2:0:0:
201,72,93450,6,0,B|286:70|265:105|343:101,1,146.666666666667,2|0,3:2|0:0,0:0:0:0:
425,71,94484,2,0,P|433:34|425:-5,2,73.3333333333333,10|0|2,0:2|0:0|3:2,0:0:0:0:
494,127,95519,6,0,L|478:272,1,146.666666666667,2|0,3:2|0:0,0:0:0:0:
396,232,96553,1,8,3:2:0:0:
308,225,96898,2,0,P|272:239|240:264,1,73.3333333333333,2|2,0:2|0:2,0:0:0:0:
194,332,97588,1,0,3:0:0:0:
106,339,97933,2,0,P|70:325|38:300,1,73.3333333333333,2|0,0:2|0:2,0:0:0:0:
12,221,98622,2,0,L|27:62,1,146.666666666667,10|0,0:2|0:0,0:0:0:0:
113,69,99657,6,0,P|175:39|214:4,2,110,4|8|8,3:3|0:2|0:2,0:0:0:0:
21,219,101381,1,2,0:3:0:0:
77,286,101726,2,0,P|133:324|183:340,2,110,0|8|8,3:3|0:2|0:2,0:0:0:0:
31,115,103450,1,2,3:2:0:0:
9,29,103795,1,2,3:2:0:0:
272,16,104829,6,0,B|355:3|330:40|415:27,1,146.666666666667,10|2,0:2|3:2,0:2:0:0:
503,43,105864,2,0,B|473:121|454:81|422:161,1,146.666666666667,2|2,0:2|0:2,0:2:0:0:
366,229,106898,2,0,B|314:163|358:166|305:99,1,146.666666666667,10|2,0:2|3:2,0:2:0:0:
272,16,107933,6,0,P|224:59|171:81,2,110,4|8|8,3:1|0:2|0:2,0:0:0:0:
307,188,109657,1,2,3:3:0:0:
229,230,110002,2,0,P|167:209|122:175,2,110,0|8|8,3:1|0:2|0:2,0:0:0:0:
373,128,111726,1,2,3:2:0:0:
460,140,112071,1,2,3:2:0:0:
349,379,113105,6,0,P|298:343|217:324,1,146.666666666667,10|2,0:2|3:2,0:0:0:0:
129,330,114140,2,0,P|235:256|276:174,1,220,2|8,3:2|0:2,0:0:0:0:
112,110,115864,5,2,0:2:0:0:
53,175,116209,1,4,3:3:0:0:
