osu file format v14

[General]
AudioFilename: audio.mp3
AudioLeadIn: 0
PreviewTime: 82415
Countdown: 0
SampleSet: Soft
StackLeniency: 0.3
Mode: 0
LetterboxInBreaks: 0
EpilepsyWarning: 1
WidescreenStoryboard: 1

[Editor]
DistanceSpacing: 1
BeatDivisor: 6
GridSize: 32
TimelineZoom: 2.3

[Metadata]
Title:Sora no Koe, Yousei no Shirabe
TitleUnicode:空の声、妖精の調べ
Artist:Hamu
ArtistUnicode:ハム
Creator:- Solar -
Version:Normal feat. honne~
Source:
Tags:BlastTheKidd honne Saturnalize VenerableNyanta Nyanta Cathy petite lumière 君と風にのって foxtail-grass studio bongo drum folk adventure french eastern featuring electronic instrumental
BeatmapID:3034094
BeatmapSetID:1473402

[Difficulty]
HPDrainRate:3.5
CircleSize:3
OverallDifficulty:4
ApproachRate:5
SliderMultiplier:1.5
SliderTickRate:1

[Events]
//Background and Video events
0,0,"bg.jpg",0,0
//Break Periods
2,39657,46733
//Storyboard Layer 0 (Background)
//Storyboard Layer 1 (Fail)
//Storyboard Layer 2 (Pass)
//Storyboard Layer 3 (Foreground)
Sprite,Foreground,Centre,"sb\THICC\0053.png",201,262 F,0,10995,11485,0,1 S,0,10995,11485,0.495,0.33 F,0,14339,14829,1,0
Sprite,Foreground,Centre,"sb\THICC\006f.png",224,262 F,0,11107,11597,0,1 S,0,11107,11597,0.495,0.33 F,0,14339,14829,1,0
Sprite,Foreground,Centre,"sb\THICC\006c.png",245,262 F,0,10839,11329,0,1 S,0,10839,11329,0.495,0.33 F,0,14339,14829,1,0
Sprite,Foreground,Centre,"sb\THICC\0061.png",265,262 F,0,10535,11025,0,1 S,0,10535,11025,0.495,0.33 F,0,14339,14829,1,0
Sprite,Foreground,Centre,"sb\THICC\0072.png",288,262 F,0,10957,11447,0,1 S,0,10957,11447,0.495,0.33 F,0,14339,14829,1,0
Sprite,Foreground,Centre,"sb\THICC\0026.png",318,262 F,0,10983,11473,0,1 S,0,10983,11473,0.495,0.33 F,0,14339,14829,1,0
Sprite,Foreground,Centre,"sb\THICC\0048.png",347,262 F,0,11104,11594,0,1 S,0,11104,11594,0.495,0.33 F,0,14339,14829,1,0
Sprite,Foreground,Centre,"sb\THICC\006f.png",371,262 F,0,10298,10788,0,1 S,0,10298,10788,0.495,0.33 F,0,14339,14829,1,0
Sprite,Foreground,Centre,"sb\THICC\006e.png",394,262 F,0,10858,11348,0,1 S,0,10858,11348,0.495,0.33 F,0,14339,14829,1,0
Sprite,Foreground,Centre,"sb\THICC\006e.png",418,262 F,0,10713,11203,0,1 S,0,10713,11203,0.495,0.33 F,0,14339,14829,1,0
Sprite,Foreground,Centre,"sb\THICC\0065.png",440,262 F,0,11055,11545,0,1 S,0,11055,11545,0.495,0.33 F,0,14339,14829,1,0
Sprite,Foreground,Centre,"sb\THICC\0053.png",276,262 F,0,14434,14924,0,1 S,0,14434,14924,0.495,0.33 F,0,18477,18967,1,0
Sprite,Foreground,Centre,"sb\THICC\006f.png",299,262 F,0,14729,15219,0,1 S,0,14729,15219,0.495,0.33 F,0,18477,18967,1,0
Sprite,Foreground,Centre,"sb\THICC\006c.png",320,262 F,0,14697,15187,0,1 S,0,14697,15187,0.495,0.33 F,0,18477,18967,1,0
Sprite,Foreground,Centre,"sb\THICC\0061.png",340,262 F,0,15213,15703,0,1 S,0,15213,15703,0.495,0.33 F,0,18477,18967,1,0
Sprite,Foreground,Centre,"sb\THICC\0072.png",364,262 F,0,14833,15323,0,1 S,0,14833,15323,0.495,0.33 F,0,18477,18967,1,0
//Storyboard Layer 4 (Overlay)
//Storyboard Sound Samples

[TimingPoints]
347,517.241379310345,2,2,1,5,1,0
6553,-100,5,2,1,35,0,0
47933,-100,5,2,2,45,0,0
72502,-100,5,2,2,5,0,0
72588,-100,5,2,2,45,0,0
72674,-100,5,2,2,5,0,0
72760,-100,5,2,3,45,0,0
73105,-100,5,2,2,45,0,0
76898,-100,5,2,1,40,0,0
77415,-100,5,2,1,35,0,0
77933,-100,5,2,1,35,0,0
78450,-100,5,2,1,35,0,0
80519,-100,5,2,1,35,0,0
81036,-100,5,2,2,40,0,0
81122,-100,5,2,2,5,0,0
82415,-100,5,2,2,40,0,0
83105,-100,5,2,2,50,0,1
99657,-100,5,2,2,45,0,0
116209,-100,5,2,4,40,0,0
116295,-100,5,2,2,25,0,0
124484,-100,5,2,2,20,0,0
126553,-100,5,2,2,15,0,0
128622,-100,5,2,2,10,0,0
130691,-100,5,2,2,5,0,0
132760,-100,5,2,2,20,0,0

[Colours]
Combo1 : 226,90,75
Combo2 : 175,207,231
Combo3 : 233,221,180
Combo4 : 209,156,156

[HitObjects]
397,91,6553,6,0,P|362:117|313:96,1,100,10|0,0:3|0:0,0:0:0:0:
264,105,7071,1,10,0:3:0:0:
170,88,7415,1,0,0:0:0:0:
170,88,7588,2,0,P|142:52|93:20,2,100,10|0|14,0:3|0:0|2:3,0:0:0:0:
113,170,8622,6,0,B|96:182|96:182|104:266,1,100,10|0,0:3|0:0,0:0:0:0:
114,310,9140,2,0,P|175:324|221:357,1,100,10|0,0:3|0:0,0:0:0:0:
250,368,9657,1,10,0:3:0:0:
286,274,10002,1,0,0:0:0:0:
384,294,10347,1,14,0:3:0:0:
462,232,10691,6,0,B|485:190|485:190|469:130,1,100,10|0,0:3|0:0,0:0:0:0:
449,94,11209,2,0,P|405:90|345:92,1,100,10|0,0:3|0:0,0:0:0:0:
302,75,11726,2,0,B|272:92|272:92|255:162,1,100,10|0,0:3|0:0,0:0:0:0:
162,190,12415,1,14,0:3:0:0:
64,166,12760,6,0,B|69:141|69:141|22:67,1,100,10|0,0:3|0:0,0:0:0:0:
32,27,13278,2,0,P|77:20|137:15,1,100,10|0,0:3|0:0,0:0:0:0:
181,15,13795,1,10,0:3:0:0:
219,108,14140,1,0,0:0:0:0:
317,130,14484,1,14,0:3:0:0:
394,65,14829,6,0,P|439:72|481:133,1,100,10|0,0:3|0:0,0:0:0:0:
471,160,15347,1,10,0:3:0:0:
433,252,15691,1,0,0:0:0:0:
433,252,15864,2,0,P|490:271|522:306,2,100,10|0|14,0:3|0:0|0:3,0:0:0:0:
342,294,16898,6,0,B|326:289|326:289|240:322,1,100,10|0,0:3|0:0,0:0:0:0:
215,341,17415,2,0,P|200:289|180:240,1,100,10|0,0:3|0:0,0:0:0:0:
133,238,17933,2,0,P|108:198|110:133,1,100,10|0,0:3|0:0,0:0:0:0:
166,66,18622,1,14,0:3:0:0:
260,98,18967,6,0,B|305:110|305:110|355:85,1,100,10|0,0:3|0:0,0:0:0:0:
396,61,19484,2,0,P|406:111|415:171,1,100,10|0,0:3|0:0,0:0:0:0:
423,209,20002,1,10,0:3:0:0:
481,290,20347,1,0,0:0:0:0:
410,360,20691,1,14,0:3:0:0:
329,299,21036,6,0,P|294:255|267:220,1,100,10|0,0:3|0:0,0:0:0:0:
217,212,21553,2,0,B|188:204|188:204|146:141,1,100,10|0,0:3|0:0,0:0:0:0:
109,115,22071,2,0,P|128:82|151:24,2,100,10|0|14,0:3|0:0|0:3,0:0:0:0:
25,170,23105,5,10,0:3:0:0:
48,267,23450,2,0,P|20:271|-14:282,2,50,2|10|2,0:0|0:3|0:0,0:0:0:0:
138,309,24140,2,0,B|182:304|182:304|187:307|187:307|243:300,1,100,10|2,0:3|0:0,0:0:0:0:
307,371,24829,1,14,0:3:0:0:
398,331,25174,2,0,P|434:300|448:240,1,100,10|0,0:3|0:0,0:0:0:0:
463,203,25691,1,10,0:3:0:0:
463,203,25864,2,0,P|451:183|426:160,1,50,2|2,0:0|0:0,0:0:0:0:
416,116,26209,2,0,P|378:99|318:90,1,100,10|0,0:3|0:0,0:0:0:0:
227,129,26898,1,14,0:3:0:0:
148,190,27243,6,0,P|101:190|38:164,1,100,10|2,0:3|0:0,0:0:0:0:
5,192,27760,2,0,P|0:237|1:260,1,50,10|2,0:3|0:0,0:0:0:0:
27,338,28278,1,10,0:3:0:0:
125,353,28622,1,2,0:0:0:0:
192,279,28967,1,14,0:3:0:0:
291,286,29312,2,0,P|316:288|355:301,1,50,10|2,0:3|0:0,0:0:0:0:
383,319,29657,2,0,P|392:241|416:154,1,150,2|0,0:0|0:0,0:0:0:0:
438,130,30347,1,10,0:3:0:0:
483,40,30691,1,0,0:0:0:0:
389,5,31036,1,14,0:3:0:0:
335,89,31381,5,10,0:3:0:0:
242,49,31726,2,0,P|244:20|243:-10,2,50,2|10|2,0:0|0:3|0:0,0:0:0:0:
176,124,32415,1,10,0:3:0:0:
232,206,32760,1,2,0:0:0:0:
329,182,33105,1,14,0:3:0:0:
400,251,33450,2,0,P|379:329|364:345,1,100,10|0,0:3|0:0,0:0:0:0:
328,370,33967,1,10,0:3:0:0:
328,370,34140,2,0,L|278:361,1,50,2|2,0:0|0:0,0:0:0:0:
230,352,34484,1,10,0:3:0:0:
138,311,34829,1,0,0:0:0:0:
129,211,35174,1,14,0:3:0:0:
65,134,35519,6,0,P|103:110|150:75,1,100,10|0,0:3|0:0,0:0:0:0:
190,51,36036,2,0,L|231:91,1,50,10|2,0:3|0:0,0:0:0:0:
295,157,36553,1,10,0:3:0:0:
386,116,36898,1,2,0:0:0:0:
464,178,37243,1,14,0:3:0:0:
439,275,37588,2,0,P|434:310|437:337,2,50,10|2|2,0:3|0:0|0:0,0:0:0:0:
32,64,47933,6,0,P|72:53|116:91,1,100,6|0,0:0|0:0,0:0:0:0:
137,131,48450,2,0,B|132:173|132:173|136:178|136:178|129:242,1,100,8|0,0:0|0:0,0:0:0:0:
128,279,48967,1,10,0:0:0:0:
268,331,49484,1,8,0:0:0:0:
353,277,49829,1,12,2:3:0:0:
353,277,50002,6,0,B|406:272|406:272|445:224,1,100,2|0,0:0|0:0,0:0:0:0:
476,207,50519,2,0,P|467:161|460:101,1,100,8|0,0:0|0:0,0:0:0:0:
447,59,51036,1,10,0:0:0:0:
305,8,51553,1,8,0:0:0:0:
239,83,51898,1,12,2:3:0:0:
239,83,52071,6,0,L|255:182,1,100,2|0,0:0|0:0,0:0:0:0:
263,231,52588,2,0,P|259:266|177:347,1,150,8|10,0:0|0:0,0:0:0:0:
33,345,53622,1,8,0:0:0:0:
16,246,53967,1,12,2:3:0:0:
16,246,54140,6,0,B|44:238|44:238|78:164,1,100,2|0,0:0|0:0,0:0:0:0:
98,130,54657,1,8,0:0:0:0:
228,161,55174,2,0,L|333:164,1,100,10|0,0:0|0:0,0:0:0:0:
378,166,55691,1,8,0:0:0:0:
468,208,56036,1,12,2:3:0:0:
468,208,56209,6,0,P|449:256|445:318,1,100,2|2,0:0|0:0,0:0:0:0:
414,344,56726,2,0,L|353:350,1,50,10|2,0:0|0:0,0:0:0:0:
265,330,57243,1,10,0:0:0:0:
165,341,57588,1,2,2:3:0:0:
97,267,57933,1,10,2:3:0:0:
147,180,58278,6,0,P|150:138|149:81,1,100,2|0,0:0|0:0,0:0:0:0:
120,39,58795,1,10,2:0:0:0:
120,39,58967,2,0,P|89:30|58:28,2,50,2|2|10,0:0|0:0|2:0,0:0:0:0:
215,70,59657,1,0,0:0:0:0:
247,164,60002,1,8,2:3:0:0:
202,253,60347,6,0,B|126:263|126:263|109:249,1,100,2|2,0:0|0:0,0:0:0:0:
66,219,60864,2,0,P|42:232|19:256,1,50,10|2,0:0|0:0,0:0:0:0:
21,347,61381,1,10,0:0:0:0:
117,373,61726,1,2,0:0:0:0:
201,319,62071,1,10,2:3:0:0:
300,307,62415,6,0,P|337:309|355:316,1,50,2|2,0:0|0:0,0:0:0:0:
394,334,62760,2,0,P|485:288|496:191,1,200,2|8,0:0|0:0,0:0:0:0:
410,151,63795,1,0,0:0:0:0:
332,214,64140,1,10,2:3:0:0:
232,218,64484,6,0,B|216:201|217:201|230:107,1,100,2|2,0:0|0:0,0:0:0:0:
242,73,65002,2,0,P|270:67|297:65,1,50,10|2,0:0|0:0,0:0:0:0:
382,23,65519,1,10,0:0:0:0:
468,72,65864,1,2,0:0:0:0:
472,171,66209,1,10,2:3:0:0:
417,254,66553,6,0,B|379:283|379:283|316:270,1,100,2|0,0:0|0:0,0:0:0:0:
283,285,67071,1,10,0:0:0:0:
283,285,67243,2,0,L|233:277,1,50,2|2,0:0|0:0,0:0:0:0:
184,268,67588,1,10,0:0:0:0:
99,322,67933,1,0,0:0:0:0:
7,282,68278,1,8,2:3:0:0:
2,182,68622,6,0,P|36:141|72:95,1,100,2|2,0:0|0:0,0:0:0:0:
99,67,69140,2,0,P|123:83|143:95,1,50,10|2,0:0|0:0,0:0:0:0:
211,165,69657,1,10,0:0:0:0:
308,189,70002,1,2,0:0:0:0:
371,111,70347,1,10,2:3:0:0:
326,21,70691,6,0,P|300:16|267:13,1,50,2|2,0:0|0:0,0:0:0:0:
229,29,71036,2,0,P|215:105|163:229,1,200,2|8,0:0|0:0,0:0:0:0:
66,206,72071,1,0,0:0:0:0:
22,295,72415,1,10,2:3:0:0:
105,349,72760,6,0,B|121:372|121:372|197:354,1,100,6|0,0:0|0:0,0:0:0:0:
240,344,73278,1,8,0:0:0:0:
378,372,73795,2,0,B|399:333|399:333|397:327|397:327|424:277,1,100,10|0,0:0|0:0,0:0:0:0:
447,240,74312,1,8,2:0:0:0:
493,151,74657,1,8,2:3:0:0:
493,151,74829,6,0,B|451:129|451:129|399:149,1,100,2|0,0:0|0:0,0:0:0:0:
363,180,75347,1,8,0:0:0:0:
220,133,75864,1,10,0:0:0:0:
149,265,76381,1,8,2:0:0:0:
61,230,76726,1,8,2:3:0:0:
61,230,76898,5,10,0:3:0:0:
256,192,76984,12,2,81036,0:0:0:0:
416,32,83105,6,0,P|457:72|478:118,1,100,6|0,0:0|0:0,0:0:0:0:
480,159,83622,2,0,B|465:177|465:177|376:167,1,100,8|0,0:0|0:0,0:0:0:0:
339,160,84140,1,10,0:0:0:0:
262,96,84484,1,2,0:0:0:0:
116,89,85002,1,8,2:3:0:0:
116,89,85174,6,0,B|114:150|114:150|109:156|109:156|106:236,1,150,2|8,0:0|0:0,0:0:0:0:
74,275,85864,2,0,P|52:271|14:264,2,50,2|2|10,0:0|0:0|0:0,0:0:0:0:
149,341,86553,1,2,0:0:0:0:
246,318,86898,1,10,2:3:0:0:
341,348,87243,6,0,P|394:350|428:384,1,100,2|0,0:0|0:0,0:0:0:0:
471,359,87760,2,0,P|495:304|509:261,1,100,8|0,0:0|0:0,0:0:0:0:
491,218,88278,1,10,0:0:0:0:
395,188,88622,1,2,0:0:0:0:
415,90,88967,2,0,L|350:70,1,50,10|8,2:3|2:3,0:0:0:0:
317,65,89312,6,0,P|273:90|222:105,1,100,2|2,0:0|0:0,0:0:0:0:
194,143,89829,2,0,P|153:142|92:125,1,100,8|0,0:0|0:0,0:0:0:0:
47,137,90347,1,8,0:0:0:0:
31,235,90691,2,0,B|38:260|38:260|30:286,1,50,2|10,0:0|2:0,0:0:0:0:
56,326,91036,2,0,B|81:333|81:333|109:322,1,50,10|10,2:3|2:3,0:0:0:0:
151,311,91381,6,0,B|221:308|221:308|247:325,1,100,6|0,0:0|0:0,0:0:0:0:
294,336,91898,2,0,L|286:223,1,100,8|0,0:0|0:0,0:0:0:0:
280,186,92415,1,10,0:0:0:0:
378,167,92760,1,2,0:0:0:0:
341,26,93278,1,10,2:3:0:0:
341,26,93450,6,0,B|274:33|274:33|211:87,1,150,2|8,0:0|0:0,0:0:0:0:
176,124,94140,2,0,L|112:126,1,50,2|2,0:0|0:0,0:0:0:0:
83,151,94484,2,0,P|76:119|61:50,2,100,10|2|10,0:0|0:0|2:3,0:0:0:0:
99,249,95519,6,0,B|116:232|116:232|194:256,1,100,2|0,0:0|0:0,0:0:0:0:
235,271,96036,2,0,P|292:278|359:231,1,100,8|0,0:0|0:0,0:0:0:0:
368,230,96553,1,10,0:0:0:0:
386,131,96898,1,2,0:0:0:0:
485,137,97243,2,0,P|487:171|492:191,1,50,10|8,2:3|2:3,0:0:0:0:
489,236,97588,5,2,0:0:0:0:
441,323,97933,1,2,0:0:0:0:
342,311,98278,2,0,P|336:288|328:244,1,50,2|2,0:0|0:0,0:0:0:0:
318,213,98622,2,0,B|290:184|224:221|234:221|170:258|127:226,1,200,10|10,0:0|2:3,0:0:0:0:
55,157,99657,6,0,P|40:134|46:58,1,100,6|0,0:0|0:0,0:0:0:0:
82,33,100174,1,8,0:0:0:0:
228,63,100691,1,10,0:0:0:0:
373,99,101209,1,8,2:0:0:0:
456,42,101553,1,8,2:3:0:0:
456,42,101726,6,0,B|481:107|481:107|523:122,1,100,2|0,0:0|0:0,0:0:0:0:
502,167,102243,1,8,0:0:0:0:
482,315,102760,1,10,0:0:0:0:
336,284,103278,1,8,2:0:0:0:
265,354,103622,1,8,2:3:0:0:
265,354,103795,6,0,B|207:345|207:345|171:302,1,100,2|0,0:0|0:0,0:0:0:0:
145,278,104312,1,8,0:0:0:0:
231,155,104829,1,10,0:0:0:0:
143,32,105347,1,8,2:0:0:0:
47,59,105691,1,10,2:3:0:0:
47,59,105864,6,0,B|22:69|22:69|33:146,1,100,2|0,0:0|0:0,0:0:0:0:
44,190,106381,1,8,0:0:0:0:
66,292,106726,1,0,0:0:0:0:
66,292,106898,1,10,0:0:0:0:
173,290,107243,1,0,0:0:0:0:
173,290,107415,2,0,P|206:289|264:319,1,100,8|8,2:0|2:3,0:0:0:0:
312,336,107933,6,0,P|344:304|365:232,1,100,6|0,0:0|0:0,0:0:0:0:
366,203,108450,1,8,0:0:0:0:
243,116,108967,1,10,0:0:0:0:
120,29,109484,1,8,2:0:0:0:
120,29,109657,2,0,L|67:39,1,50,10|10,2:3|2:3,0:0:0:0:
25,59,110002,6,0,P|5:103|30:145,1,100,2|0,0:0|0:0,0:0:0:0:
72,170,110519,1,8,0:0:0:0:
211,225,111036,1,10,0:0:0:0:
350,280,111553,1,8,2:0:0:0:
443,243,111898,1,8,2:3:0:0:
443,243,112071,6,0,B|420:222|420:222|429:141,1,100,2|0,0:0|0:0,0:0:0:0:
444,106,112588,2,0,P|401:87|332:60,1,100,8|0,0:0|0:0,0:0:0:0:
301,64,113105,1,10,0:0:0:0:
161,9,113622,1,8,2:0:0:0:
161,9,113795,2,0,P|154:35|141:64,1,50,10|10,2:3|2:3,0:0:0:0:
118,99,114140,6,0,B|103:125|103:125|125:197,1,100,2|0,0:0|0:0,0:0:0:0:
120,242,114657,1,8,0:0:0:0:
245,324,115174,2,0,P|311:331|351:345,1,100,8|0,0:0|0:0,0:0:0:0:
390,325,115691,1,8,2:0:0:0:
464,256,116036,1,8,2:3:0:0:
464,256,116209,6,0,P|455:209|454:139,1,100,6|0,0:0|0:0,0:0:0:0:
461,107,116726,2,0,B|441:87|441:87|357:82,1,100,2|0,0:0|0:0,0:0:0:0:
322,101,117243,2,0,P|313:57|303:-11,2,100,2|2|2,0:0|0:0|0:0,0:0:0:0:
330,200,118278,5,2,0:0:0:0:
267,278,118622,1,0,0:0:0:0:
267,278,118795,2,0,P|248:256|169:235,1,100,2|0,0:0|0:0,0:0:0:0:
132,239,119312,2,0,P|135:187|139:134,2,100,2|2|2,0:0|0:0|0:0,0:0:0:0:
146,338,120347,6,0,B|103:337|103:337|98:333|98:333|42:331,1,100,2|0,0:0|0:0,0:0:0:0:
7,300,120864,1,2,0:0:0:0:
15,200,121209,1,0,0:0:0:0:
15,200,121381,2,0,P|17:143|42:99,1,100,2|2,0:0|0:0,0:0:0:0:
119,49,122071,1,2,0:0:0:0:
214,78,122415,5,2,0:0:0:0:
256,192,122502,12,2,132760,0:0:0:0:
