osu file format v14

[General]
AudioFilename: audio.mp3
AudioLeadIn: 0
PreviewTime: 82415
Countdown: 0
SampleSet: Soft
StackLeniency: 0.4
Mode: 0
LetterboxInBreaks: 0
EpilepsyWarning: 1
WidescreenStoryboard: 1

[Editor]
DistanceSpacing: 1.6
BeatDivisor: 6
GridSize: 32
TimelineZoom: 2.3

[Metadata]
Title:Sora no Koe, Yousei no Shirabe
TitleUnicode:空の声、妖精の調べ
Artist:Hamu
ArtistUnicode:ハム
Creator:- Solar -
Version:Hard~
Source:
Tags:BlastTheKidd honne Saturnalize VenerableNyanta Nyanta Cathy petite lumière 君と風にのって foxtail-grass studio bongo drum folk adventure french eastern featuring electronic instrumental
BeatmapID:3024185
BeatmapSetID:1473402

[Difficulty]
HPDrainRate:4.5
CircleSize:3.5
OverallDifficulty:6
ApproachRate:7
SliderMultiplier:1.9
SliderTickRate:1

[Events]
//Background and Video events
0,0,"bg.jpg",0,0
//Break Periods
//Storyboard Layer 0 (Background)
//Storyboard Layer 1 (Fail)
//Storyboard Layer 2 (Pass)
//Storyboard Layer 3 (Foreground)
Sprite,Foreground,Centre,"sb\THICC\0053.png",276,262 F,0,10995,11485,0,1 S,0,10995,11485,0.495,0.33 F,0,14339,14829,1,0
Sprite,Foreground,Centre,"sb\THICC\006f.png",299,262 F,0,11107,11597,0,1 S,0,11107,11597,0.495,0.33 F,0,14339,14829,1,0
Sprite,Foreground,Centre,"sb\THICC\006c.png",320,262 F,0,10839,11329,0,1 S,0,10839,11329,0.495,0.33 F,0,14339,14829,1,0
Sprite,Foreground,Centre,"sb\THICC\0061.png",340,262 F,0,10535,11025,0,1 S,0,10535,11025,0.495,0.33 F,0,14339,14829,1,0
Sprite,Foreground,Centre,"sb\THICC\0072.png",364,262 F,0,10957,11447,0,1 S,0,10957,11447,0.495,0.33 F,0,14339,14829,1,0
Sprite,Foreground,Centre,"sb\THICC\0053.png",276,262 F,0,14566,15056,0,1 S,0,14566,15056,0.495,0.33 F,0,18477,18967,1,0
Sprite,Foreground,Centre,"sb\THICC\006f.png",299,262 F,0,14789,15279,0,1 S,0,14789,15279,0.495,0.33 F,0,18477,18967,1,0
Sprite,Foreground,Centre,"sb\THICC\006c.png",320,262 F,0,14658,15148,0,1 S,0,14658,15148,0.495,0.33 F,0,18477,18967,1,0
Sprite,Foreground,Centre,"sb\THICC\0061.png",340,262 F,0,15239,15729,0,1 S,0,15239,15729,0.495,0.33 F,0,18477,18967,1,0
Sprite,Foreground,Centre,"sb\THICC\0072.png",364,262 F,0,14948,15438,0,1 S,0,14948,15438,0.495,0.33 F,0,18477,18967,1,0
//Storyboard Layer 4 (Overlay)
//Storyboard Sound Samples

[TimingPoints]
347,517.241379310345,2,2,1,5,1,0
6553,-120.481927710843,3,2,1,35,0,0
47933,-97.0873786407764,3,2,2,45,0,0
72502,-97.0873786407764,3,2,2,5,0,0
72588,-97.0873786407764,3,2,2,45,0,0
72674,-97.0873786407764,3,2,2,5,0,0
72760,-97.0873786407764,3,2,3,45,0,0
73105,-97.0873786407764,3,2,2,45,0,0
76898,-136.986301369863,3,2,1,40,0,0
77415,-188.679245283019,3,2,1,35,0,0
77933,-188.679245283019,3,2,1,35,0,0
78450,-188.679245283019,3,2,1,35,0,0
80519,-232.558139534884,3,2,1,35,0,0
81036,-769.230769230769,3,2,2,40,0,0
81122,-769.230769230769,3,2,2,5,0,0
82415,-769.230769230769,3,2,2,40,0,0
83105,-97.0873786407767,3,2,2,50,0,1
99657,-97.0873786407767,3,2,2,45,0,0
116209,-136.986301369863,3,2,4,40,0,0
116295,-136.986301369863,3,2,2,25,0,0
124484,-136.986301369863,3,2,2,20,0,0
126553,-136.986301369863,3,2,2,15,0,0
128622,-136.986301369863,3,2,2,10,0,0
130691,-136.986301369863,3,2,2,5,0,0
132760,-136.986301369863,3,2,2,20,0,0

[Colours]
Combo1 : 226,90,75
Combo2 : 175,207,231
Combo3 : 233,221,180
Combo4 : 209,156,156

[HitObjects]
48,48,6553,6,0,P|110:57|159:87,1,105.13333485733,10|0,0:3|0:0,0:0:0:0:
241,42,7071,2,0,P|303:33|352:3,1,105.13333485733,10|0,0:3|0:0,0:0:0:0:
437,34,7588,1,10,0:3:0:0:
358,146,7933,1,0,0:0:0:0:
358,146,8105,2,0,L|393:138,2,26.2833337143326,0|0|14,1:2|1:2|2:3,0:0:0:0:
453,175,8450,1,12,2:3:0:0:
403,261,8622,6,0,P|412:309|424:384,1,105.13333485733,10|0,0:3|0:0,0:0:0:0:
321,350,9140,2,0,P|311:301|300:227,1,105.13333485733,10|0,0:3|0:0,0:0:0:0:
284,148,9657,1,10,0:3:0:0:
196,253,10002,1,0,0:0:0:0:
196,253,10174,2,0,L|200:292,2,26.2833337143326,0|0|14,1:0|1:0|0:3,0:0:0:0:
168,349,10519,1,12,0:3:0:0:
89,288,10691,6,0,B|79:308|79:308|-16:276,1,105.13333485733,10|0,0:3|0:0,0:0:0:0:
21,182,11209,2,0,B|31:162|31:162|126:194,1,105.13333485733,10|0,0:3|0:0,0:0:0:0:
79,92,11726,1,10,0:3:0:0:
193,15,12071,1,0,0:0:0:0:
193,15,12243,2,0,L|228:23,2,26.2833337143326,0|0|14,1:0|1:0|0:3,0:0:0:0:
162,110,12588,1,12,0:3:0:0:
240,171,12760,6,0,B|327:154|327:154|344:164,1,105.13333485733,10|0,0:3|0:0,0:0:0:0:
377,256,13278,2,0,B|290:239|290:239|273:249,1,105.13333485733,10|0,0:3|0:0,0:0:0:0:
322,335,13795,1,10,0:3:0:0:
457,301,14140,1,0,0:0:0:0:
457,301,14312,2,0,L|461:266,2,26.2833337143326,0|0|14,1:0|1:0|0:3,0:0:0:0:
439,202,14657,1,12,0:3:0:0:
403,109,14829,6,0,P|353:135|308:112,1,105.13333485733,10|0,0:3|0:0,0:0:0:0:
259,30,15347,2,0,P|209:4|164:27,1,105.13333485733,10|0,0:3|0:0,0:0:0:0:
70,45,15864,1,10,0:3:0:0:
14,171,16209,1,0,0:0:0:0:
14,171,16381,2,0,L|11:213,2,26.2833337143326,0|0|14,1:0|1:0|0:3,0:0:0:0:
11,271,16726,1,12,0:3:0:0:
69,351,16898,6,0,L|185:313,1,105.13333485733,10|0,0:3|0:0,0:0:0:0:
268,311,17415,2,0,L|152:273,1,105.13333485733,10|0,0:3|0:0,0:0:0:0:
126,186,17933,1,10,0:3:0:0:
264,163,18278,1,0,0:0:0:0:
264,163,18450,2,0,L|273:124,2,26.2833337143326,0|0|14,1:0|1:0|0:3,0:0:0:0:
322,81,18795,1,12,0:3:0:0:
392,152,18967,6,0,B|422:195|422:195|412:267,1,105.13333485733,10|0,0:3|0:0,0:0:0:0:
350,324,19484,2,0,B|320:281|320:281|330:209,1,105.13333485733,10|0,0:3|0:0,0:0:0:0:
392,152,20002,1,10,0:3:0:0:
472,42,20347,1,0,0:0:0:0:
472,42,20519,2,0,L|440:39,2,26.2833337143326,0|0|14,1:0|1:0|0:3,0:0:0:0:
380,2,20864,1,12,0:3:0:0:
287,39,21036,6,0,P|293:87|307:160,1,105.13333485733,10|0,0:3|0:0,0:0:0:0:
233,214,21553,2,0,P|227:262|213:335,1,105.13333485733,10|0,0:3|0:0,0:0:0:0:
120,287,22071,1,10,0:3:0:0:
34,187,22415,1,0,0:0:0:0:
34,187,22588,2,0,L|68:183,2,26.2833337143326,0|0|14,1:0|1:0|0:3,0:0:0:0:
110,122,22933,1,12,0:3:0:0:
52,40,23105,6,0,B|78:28|78:28|170:40,1,105.13333485733,10|2,0:3|0:0,0:0:0:0:
230,102,23622,1,10,0:3:0:0:
322,63,23795,2,0,P|314:93|312:122,1,52.5666674286652,2|0,0:0|0:0,0:0:0:0:
384,183,24140,2,0,P|435:179|470:232,1,105.13333485733,10|2,0:3|0:0,0:0:0:0:
497,322,24657,1,0,1:0:0:0:
497,322,24743,1,0,1:0:0:0:
497,322,24829,2,0,L|432:321,1,52.5666674286652,14|12,0:3|0:3,0:0:0:0:
344,328,25174,6,0,B|269:366|269:366|234:349,1,105.13333485733,10|0,0:3|0:0,0:0:0:0:
193,273,25691,2,0,P|219:267|263:274,2,52.5666674286652,10|2|2,0:3|0:0|0:0,0:0:0:0:
248,188,26209,2,0,L|232:79,1,105.13333485733,10|0,0:3|0:0,0:0:0:0:
152,43,26726,1,0,1:0:0:0:
152,43,26812,1,0,1:0:0:0:
152,43,26898,2,0,P|124:51|94:60,1,52.5666674286652,14|12,0:3|0:3,0:0:0:0:
38,135,27243,6,0,P|90:133|135:162,1,105.13333485733,10|2,0:3|0:0,0:0:0:0:
183,242,27760,1,10,0:3:0:0:
272,196,27933,2,0,P|296:190|336:192,1,52.5666674286652,2|0,0:0|0:0,0:0:0:0:
412,224,28278,2,0,P|436:204|440:172,1,52.5666674286652,10|0,0:3|0:0,0:0:0:0:
500,112,28622,2,0,P|480:88|448:84,1,52.5666674286652,2|0,0:0|1:0,0:0:0:0:
440,88,28881,1,0,1:0:0:0:
420,96,28967,2,0,P|388:100|360:88,1,52.5666674286652,14|12,0:3|0:3,0:0:0:0:
280,52,29312,2,0,L|272:-12,2,52.5666674286652,10|2|2,0:3|0:0|0:0,0:0:0:0:
328,168,29829,6,0,L|320:296,1,105.13333485733,10|0,0:3|0:0,0:0:0:0:
276,356,30347,2,0,P|220:376|168:344,1,105.13333485733,10|0,0:3|0:0,0:0:0:0:
160,276,30864,1,0,1:0:0:0:
160,276,30950,1,0,1:0:0:0:
160,276,31036,2,0,L|168:200,1,52.5666674286652,14|12,0:3|0:3,0:0:0:0:
224,148,31381,6,0,B|170:135|170:135|105:155,1,105.13333485733,10|2,0:3|0:0,0:0:0:0:
76,232,31898,1,10,0:3:0:0:
4,168,32071,2,0,P|8:129|2:98,1,52.5666674286652,2|0,0:0|0:0,0:0:0:0:
60,35,32415,2,0,L|115:44,1,52.5666674286652,10|0,0:3|0:0,0:0:0:0:
201,88,32760,2,0,L|256:79,1,52.5666674286652,2|0,0:0|1:0,0:0:0:0:
271,68,33019,1,0,1:0:0:0:
288,56,33105,2,0,L|365:54,1,52.5666674286652,14|12,0:3|0:3,0:0:0:0:
439,72,33450,6,0,P|403:105|366:153,1,105.13333485733,10|0,0:3|0:0,0:0:0:0:
403,243,33967,2,0,P|443:239|466:232,2,52.5666674286652,10|2|2,0:3|0:0|0:0,0:0:0:0:
309,280,34484,2,0,P|305:246|288:160,1,105.13333485733,10|0,0:3|0:0,0:0:0:0:
240,96,35002,1,0,1:0:0:0:
240,96,35088,1,0,1:0:0:0:
240,96,35174,2,0,P|196:108|180:124,1,52.5666674286652,14|12,0:3|0:3,0:0:0:0:
140,192,35519,6,0,B|92:195|92:195|87:199|87:199|25:203,1,105.13333485733,10|0,0:3|0:0,0:0:0:0:
0,292,36036,1,10,0:3:0:0:
56,368,36209,2,0,L|120:356,1,52.5666674286652,2|0,0:0|0:0,0:0:0:0:
200,337,36553,2,0,L|210:276,1,52.5666674286652,10|0,0:3|0:0,0:0:0:0:
292,236,36898,2,0,L|302:297,1,52.5666674286652,2|0,0:0|1:0,0:0:0:0:
316,300,37157,1,0,1:0:0:0:
334,310,37243,2,0,P|362:310|395:294,1,52.5666674286652,14|12,0:3|0:3,0:0:0:0:
440,224,37588,2,0,P|467:225|503:247,2,52.5666674286652,10|2|2,0:3|0:0|0:0,0:0:0:0:
400,136,38105,6,0,P|346:106|287:119,1,105.13333485733,10|0,0:3|0:0,0:0:0:0:
228,168,38622,2,0,P|215:111|195:42,1,105.13333485733,10|0,0:3|0:0,0:0:0:0:
117,31,39140,1,0,1:0:0:0:
117,31,39226,1,0,1:0:0:0:
117,31,39312,2,0,P|107:62|119:98,1,52.5666674286652,14|12,0:3|0:3,0:0:0:0:
137,177,39657,6,0,P|87:171|30:208,1,105.13333485733,10|0,0:3|0:0,0:0:0:0:
64,292,40174,2,0,P|114:298|171:261,1,105.13333485733,10|0,0:3|0:0,0:0:0:0:
230,200,40691,1,10,0:3:0:0:
339,290,41036,1,0,0:0:0:0:
339,290,41209,2,0,L|313:295,2,26.2833337143326,0|0|14,1:0|1:0|0:3,0:0:0:0:
251,338,41553,1,12,0:3:0:0:
343,377,41726,6,0,B|426:356|426:356|430:337,1,105.13333485733,10|0,0:3|0:0,0:0:0:0:
465,243,42243,2,0,B|446:239|446:239|425:156,1,105.13333485733,10|0,0:3|0:0,0:0:0:0:
399,58,42760,1,10,0:3:0:0:
274,15,43105,1,0,0:0:0:0:
274,15,43278,2,0,L|279:57,2,26.2833337143326,0|0|14,1:0|1:0|0:3,0:0:0:0:
176,34,43622,1,12,0:3:0:0:
141,128,43795,6,0,P|177:147|197:223,1,105.13333485733,10|0,0:3|0:0,0:0:0:0:
258,286,44312,2,0,P|273:236|317:209,1,105.13333485733,10|0,0:3|0:0,0:0:0:0:
411,178,44829,1,10,0:3:0:0:
499,289,45174,1,0,0:0:0:0:
499,289,45347,2,0,L|466:293,2,26.2833337143326,0|0|14,1:0|1:0|0:3,0:0:0:0:
400,302,45691,1,12,0:3:0:0:
314,353,45864,6,0,B|231:340|231:340|207:353,1,105.13333485733,10|0,0:3|0:0,0:0:0:0:
151,270,46381,2,0,B|234:257|234:257|258:270,1,105.13333485733,10|0,0:3|0:0,0:0:0:0:
200,181,46898,1,10,0:3:0:0:
100,95,47243,1,0,0:0:0:0:
100,95,47415,2,0,L|140:86,2,26.2833337143326,0|0|14,1:0|1:0|0:3,0:0:0:0:
170,23,47760,1,12,0:3:0:0:
294,14,47933,6,0,P|321:36|322:132,1,130.466665571747,6|0,0:0|0:0,0:0:0:0:
280,220,48450,2,0,L|416:208,1,130.466665571747,8|0,0:0|0:0,0:0:0:0:
452,304,48967,2,0,L|316:292,1,130.466665571747,10|0,0:0|0:0,0:0:0:0:
244,364,49484,1,8,0:0:0:0:
148,320,49657,2,0,L|56:328,1,65.2333327858734,8|12,2:3|2:3,0:0:0:0:
8,252,50002,6,0,B|80:248|56:204|136:208,1,130.466665571747,2|0,0:0|0:0,0:0:0:0:
216,264,50519,2,0,L|208:116,1,130.466665571747,8|0,0:0|0:0,0:0:0:0:
288,64,51036,2,0,P|248:84|156:64,1,130.466665571747,10|0,0:0|0:0,0:0:0:0:
84,8,51553,2,0,B|100:156,1,130.466665571747,8|12,0:0|2:3,0:0:0:0:
136,236,52071,6,0,B|164:260|164:260|280:244,1,130.466665571747,2|0,0:0|0:0,0:0:0:0:
348,300,52588,2,0,B|344:239|344:239|339:232|339:232|333:153,1,130.466665571747,8|0,0:0|0:0,0:0:0:0:
420,112,53105,2,0,P|428:40|360:4,1,130.466665571747,10|0,0:0|0:0,0:0:0:0:
284,4,53622,1,8,0:0:0:0:
196,60,53795,2,0,P|160:68|108:76,1,65.2333327858734,8|12,2:3|2:3,0:0:0:0:
48,132,54140,6,0,B|76:164|76:164|64:264,1,130.466665571747,2|0,0:0|0:0,0:0:0:0:
44,352,54657,2,0,P|84:328|188:332,1,130.466665571747,8|0,0:0|0:0,0:0:0:0:
264,356,55174,2,0,B|260:284|216:308|220:228,1,130.466665571747,10|0,0:0|0:0,0:0:0:0:
277,149,55691,1,8,0:0:0:0:
375,184,55864,2,0,L|367:252,1,65.2333327858734,8|12,2:3|2:3,0:0:0:0:
420,348,56209,6,0,P|389:329|307:391,1,130.466665571747,2|2,0:0|0:0,0:0:0:0:
224,312,56726,1,10,0:0:0:0:
128,356,56898,2,0,L|112:276,1,65.2333327858734,2|0,0:0|0:0,0:0:0:0:
83,192,57243,2,0,P|127:200|159:192,1,65.2333327858734,10|0,0:0|2:3,0:0:0:0:
228,131,57588,2,0,P|272:123|304:131,1,65.2333327858734,2|8,2:3|0:0,0:0:0:0:
380,191,57933,1,10,2:3:0:0:
380,191,58105,1,8,2:3:0:0:
468,135,58278,6,0,B|500:171|500:171|492:263,1,130.466665571747,2|0,0:0|0:0,0:0:0:0:
407,313,58795,2,0,P|381:306|323:309,1,65.2333327858734,10|2,2:0|0:0,0:0:0:0:
244,341,59140,1,2,0:0:0:0:
147,302,59312,2,0,P|95:298|27:370,1,130.466665571747,10|0,2:0|0:0,0:0:0:0:
28,239,59829,2,0,P|22:182|8:95,1,130.466665571747,8|8,0:0|2:3,0:0:0:0:
69,22,60347,6,0,B|141:26|117:70|197:66,1,130.466665571747,2|2,0:0|0:0,0:0:0:0:
288,20,60864,1,10,0:0:0:0:
355,99,61036,2,0,P|362:132|348:170,1,65.2333327858734,2|0,0:0|0:0,0:0:0:0:
290,245,61381,2,0,P|262:249|222:253,1,65.2333327858734,10|0,0:0|0:0,0:0:0:0:
156,176,61726,2,0,P|128:172|88:168,1,65.2333327858734,2|8,0:0|2:0,0:0:0:0:
12,236,62071,1,10,2:3:0:0:
12,236,62243,1,8,2:3:0:0:
76,320,62415,2,0,L|84:388,2,65.2333327858734,2|2|2,0:0|0:0|0:0,0:0:0:0:
176,356,62933,6,0,B|276:372|276:372|324:352,1,130.466665571747,8|0,0:0|0:0,0:0:0:0:
380,288,63450,2,0,B|376:227|376:227|371:220|371:220|365:141,1,130.466665571747,8|0,0:0|0:0,0:0:0:0:
312,68,63967,1,8,2:0:0:0:
232,132,64140,2,0,L|128:116,1,97.8499991788102,10|0,2:3|0:0,0:0:0:0:
96,84,64484,6,0,P|112:104|56:184,1,130.466665571747,2|2,0:0|0:0,0:0:0:0:
0,260,65002,1,10,0:0:0:0:
68,336,65174,2,0,P|108:330|160:324,1,65.2333327858734,2|0,0:0|0:0,0:0:0:0:
220,272,65519,2,0,P|244:244|240:200,1,65.2333327858734,10|0,0:0|0:0,0:0:0:0:
308,132,65864,2,0,P|280:108|236:112,1,65.2333327858734,2|8,0:0|2:0,0:0:0:0:
164,156,66209,1,10,2:3:0:0:
164,156,66381,1,8,2:3:0:0:
246,216,66553,6,0,L|392:200,1,130.466665571747,2|0,0:0|0:0,0:0:0:0:
460,268,67071,1,10,0:0:0:0:
512,176,67243,2,0,P|508:144|468:96,1,65.2333327858734,2|2,0:0|0:0,0:0:0:0:
408,56,67588,2,0,B|336:52|360:8|280:12,1,130.466665571747,10|0,0:0|0:0,0:0:0:0:
204,72,68105,2,0,P|136:76|76:24,1,130.466665571747,8|8,2:0|2:3,0:0:0:0:
20,120,68622,6,0,L|32:256,1,130.466665571747,2|2,0:0|0:0,0:0:0:0:
100,328,69140,1,10,0:0:0:0:
188,272,69312,2,0,P|224:264|276:272,1,65.2333327858734,2|0,0:0|0:0,0:0:0:0:
352,292,69657,2,0,L|344:200,1,65.2333327858734,10|0,0:0|0:0,0:0:0:0:
264,164,70002,2,0,L|272:72,1,65.2333327858734,2|8,0:0|2:0,0:0:0:0:
332,16,70347,1,10,2:3:0:0:
332,16,70519,1,0,0:0:0:0:
228,4,70691,2,0,P|191:9|152:24,2,65.2333327858734,2|2|2,0:0|0:0|0:0,0:0:0:0:
172,96,71209,6,0,B|100:92|124:48|44:52,1,130.466665571747,8|0,0:0|0:0,0:0:0:0:
0,136,71726,2,0,L|20:264,1,130.466665571747,8|0,0:0|0:0,0:0:0:0:
95,338,72243,2,0,P|167:334|175:326,1,65.2333327858734,8|10,0:0|2:3,0:0:0:0:
244,288,72588,1,10,2:3:0:0:
320,216,72760,6,0,B|344:192|344:192|320:80,1,130.466665571747,6|0,0:0|0:0,0:0:0:0:
252,20,73278,2,0,P|304:60|380:28,1,130.466665571747,8|0,0:0|0:0,0:0:0:0:
460,4,73795,2,0,P|448:64|444:148,1,130.466665571747,10|0,0:0|0:0,0:0:0:0:
484,232,74312,1,8,2:0:0:0:
400,292,74484,2,0,L|324:284,1,65.2333327858734,8|8,2:3|2:3,0:0:0:0:
256,216,74829,6,0,B|252:155|252:155|247:148|247:148|241:69,1,130.466665571747,2|0,0:0|0:0,0:0:0:0:
151,33,75347,2,0,B|155:94|155:94|160:101|160:101|166:180,1,130.466665571747,8|0,0:0|0:0,0:0:0:0:
256,216,75864,2,0,P|296:188|384:204,1,130.466665571747,10|0,0:0|0:0,0:0:0:0:
317,284,76381,2,0,P|277:312|189:296,1,130.466665571747,8|8,2:0|2:3,0:0:0:0:
121,239,76898,6,0,P|118:192|137:140,1,92.4666692063396,10|0,0:3|0:0,0:0:0:0:
187,95,77415,2,0,P|229:111|254:114,1,67.1333334357707,10|0,0:3|0:0,0:0:0:0:
307,166,77933,2,0,P|297:206|294:232,1,67.1333334357707,10|0,0:3|0:0,0:0:0:0:
370,244,78450,2,0,L|387:233,2,16.7833333589427,0|0|14,1:0|1:0|0:3,0:0:0:0:
400,315,78795,1,12,2:3:0:0:
340,363,78967,6,0,B|311:376|311:376|276:359,1,67.1333334357707,10|0,0:3|0:0,0:0:0:0:
237,295,79484,2,0,B|208:282|208:282|173:299,1,67.1333334357707,10|0,0:3|0:0,0:0:0:0:
116,347,80002,2,0,P|95:305|102:275,1,67.1333334357707,10|8,0:3|0:3,0:0:0:0:
129,185,80691,1,2,0:3:0:0:
233,205,81036,5,2,0:0:0:0:
0,264,83105,6,0,B|21:249|21:249|131:263,1,130.466665571747,6|0,0:0|0:0,0:0:0:0:
204,332,83622,1,8,0:0:0:0:
283,264,83795,2,0,L|271:184,1,65.2333327858734
180,151,84140,6,0,P|166:130|174:73,1,65.2333327858734,10|0,0:0|0:0,0:0:0:0:
232,11,84484,2,0,P|256:-1|356:31,1,130.466665571747,2|0,0:0|0:0,0:0:0:0:
432,108,85002,1,8,2:3:0:0:
432,108,85088,1,0,0:0:0:0:
432,108,85174,2,0,L|412:308,1,195.69999835762,2|8,0:0|0:0,0:0:0:0:
332,368,85864,5,2,0:0:0:0:
332,368,86036,1,2,0:0:0:0:
232,332,86209,2,0,P|196:323|148:314,1,65.2333327858734,10|0,0:0|0:0,0:0:0:0:
104,236,86553,2,0,P|68:227|20:218,1,65.2333327858734,2|8,0:0|2:0,0:0:0:0:
2,122,86898,2,0,P|-6:81|25:51,1,65.2333327858734,10|8,2:3|2:3,0:0:0:0:
20,48,87157,1,0,0:0:0:0:
40,52,87243,6,0,P|56:80|155:99,1,130.466665571747,2|0,0:0|0:0,0:0:0:0:
232,40,87760,1,8,0:0:0:0:
320,100,87933,2,0,L|303:182,1,65.2333327858734
368,248,88278,6,0,B|398:246|398:246|401:243|401:243|440:240,1,65.2333327858734,10|0,0:0|0:0,0:0:0:0:
376,328,88622,2,0,B|346:329|346:329|342:332|342:332|303:335,1,65.2333327858734,2|8,0:0|2:0,0:0:0:0:
212,324,88967,1,10,2:3:0:0:
212,324,89140,1,8,2:3:0:0:
144,244,89312,2,0,B|146:214|146:214|149:210|149:210|152:171,1,65.2333327858734,2|0,0:0|0:0,0:0:0:0:
104,88,89657,2,0,B|136:58|136:58|252:66,1,130.466665571747,2|0,0:0|0:0,0:0:0:0:
316,112,90174,1,0,0:0:0:0:
396,44,90347,2,0,P|426:51|472:60,1,65.2333327858734,8|0,0:0|0:0,0:0:0:0:
500,156,90691,5,2,0:0:0:0:
500,156,90864,1,10,2:0:0:0:
420,220,91036,1,10,2:3:0:0:
420,220,91209,1,10,2:3:0:0:
320,192,91381,6,0,B|248:196|272:240|192:236,1,130.466665571747,6|0,0:0|0:0,0:0:0:0:
100,200,91898,1,8,0:0:0:0:
156,112,92071,2,0,P|191:114|219:128,1,65.2333327858734
304,72,92415,6,0,L|312:-8,1,65.2333327858734,10|0,0:0|0:0,0:0:0:0:
392,76,92760,2,0,B|384:175|384:175|412:197,1,130.466665571747,2|8,0:0|2:3,0:0:0:0:
456,300,93278,1,10,2:3:0:0:
456,300,93364,1,0,0:0:0:0:
456,300,93450,2,0,P|424:277|280:352,1,195.69999835762,2|8,0:0|0:0,0:0:0:0:
200,376,94140,5,2,0:0:0:0:
200,376,94312,1,2,0:0:0:0:
124,304,94484,2,0,P|160:300|216:280,1,65.2333327858734,10|0,0:0|0:0,0:0:0:0:
264,220,94829,2,0,P|300:224|356:244,1,65.2333327858734,2|0,0:0|0:0,0:0:0:0:
412,168,95174,2,0,P|385:133|352:122,1,65.2333327858734,10|0,2:3|0:0,0:0:0:0:
344,116,95433,1,0,0:0:0:0:
324,128,95519,6,0,P|380:131|401:60,1,130.466665571747,2|0,0:0|0:0,0:0:0:0:
316,16,96036,1,8,0:0:0:0:
220,56,96209,2,0,L|232:140,1,65.2333327858734
264,220,96553,6,0,P|248:248|208:268,1,65.2333327858734,10|0,0:0|0:0,0:0:0:0:
156,348,96898,2,0,P|128:332|108:292,1,65.2333327858734,2|8,0:0|0:0,0:0:0:0:
24,256,97243,1,10,2:3:0:0:
24,256,97415,1,8,2:3:0:0:
68,160,97588,2,0,P|104:160|152:192,1,65.2333327858734,2|0,0:0|0:0,0:0:0:0:
200,252,97933,6,0,B|260:248|260:248|267:243|267:243|346:237,1,130.466665571747,2|2,0:0|0:0,0:0:0:0:
432,228,98450,1,2,0:0:0:0:
360,152,98622,2,0,B|336:226|375:287|413:248|457:316|425:387,1,260.933331143494,10|10,0:0|2:3,0:0:0:0:
220,360,99657,6,0,P|219:300|145:258,1,130.466665571747,6|0,0:0|0:0,0:0:0:0:
80,200,100174,2,0,P|124:220|156:212,1,65.2333327858734,8|0,0:0|0:0,0:0:0:0:
240,192,100519,1,0,0:0:0:0:
312,116,100691,2,0,B|340:80|340:80|304:-4,1,130.466665571747,10|0,0:0|0:0,0:0:0:0:
216,56,101209,2,0,L|136:48,1,65.2333327858734,8|8,2:0|2:3,0:0:0:0:
60,20,101553,1,8,2:3:0:0:
60,20,101640,1,0,0:0:0:0:
60,20,101726,6,0,B|63:80|63:80|68:87|68:87|74:165,1,130.466665571747,2|0,0:0|0:0,0:0:0:0:
92,252,102243,2,0,B|164:248|140:204|220:208,1,130.466665571747,8|0,0:0|0:0,0:0:0:0:
336,280,102760,2,0,P|272:276|240:204,1,130.466665571747,10|0,0:0|0:0,0:0:0:0:
256,120,103278,1,8,2:0:0:0:
336,52,103450,2,0,P|368:48|404:64,1,65.2333327858734,8|8,2:3|2:3,0:0:0:0:
416,72,103709,1,0,0:0:0:0:
424,92,103795,6,0,L|416:228,1,130.466665571747,2|0,0:0|0:0,0:0:0:0:
352,304,104312,2,0,L|264:316,1,65.2333327858734,8|0,0:0|0:0,0:0:0:0:
196,260,104657,1,0,0:0:0:0:
108,312,104829,2,0,P|64:272|-24:272,1,130.466665571747,10|0,0:0|0:0,0:0:0:0:
4,160,105347,2,0,P|36:184|71:192,1,65.2333327858734,8|10,2:0|2:3,0:0:0:0:
104,96,105691,1,10,2:3:0:0:
184,164,105864,6,0,P|209:194|308:170,1,130.466665571747,2|0,0:0|0:0,0:0:0:0:
368,116,106381,2,0,P|343:86|244:110,1,130.466665571747,8|0,0:0|0:0,0:0:0:0:
293,188,106898,2,0,L|306:334,1,130.466665571747,10|0,0:0|0:0,0:0:0:0:
392,376,107415,1,8,2:0:0:0:
464,300,107588,2,0,L|468:216,1,65.2333327858734,8|8,2:3|2:3,0:0:0:0:
480,216,107847,1,0,0:0:0:0:
492,196,107933,6,0,P|504:144|440:76,1,130.466665571747,6|0,0:0|0:0,0:0:0:0:
372,28,108450,2,0,L|280:36,1,65.2333327858734,8|0,0:0|0:0,0:0:0:0:
232,108,108795,1,0,0:0:0:0:
144,52,108967,2,0,L|160:188,1,130.466665571747,10|0,0:0|0:0,0:0:0:0:
120,280,109484,2,0,P|168:284|208:304,1,65.2333327858734,8|10,2:0|2:3,0:0:0:0:
264,356,109829,1,10,2:3:0:0:
264,356,109915,1,0,0:0:0:0:
264,356,110002,6,0,B|296:368|296:368|404:344,1,130.466665571747,2|0,0:0|0:0,0:0:0:0:
492,368,110519,2,0,B|488:296|444:320|448:240,1,130.466665571747,8|0,0:0|0:0,0:0:0:0:
484,152,111036,2,0,L|340:180,1,130.466665571747,10|0,0:0|0:0,0:0:0:0:
268,120,111553,1,8,2:0:0:0:
180,180,111726,2,0,P|144:192|96:184,1,65.2333327858734,8|8,2:3|2:3,0:0:0:0:
96,184,111984,1,0,0:0:0:0:
76,172,112071,6,0,L|92:324,1,130.466665571747,2|0,0:0|0:0,0:0:0:0:
172,368,112588,2,0,P|204:372|256:340,1,65.2333327858734,8|0,0:0|0:0,0:0:0:0:
300,276,112933,1,0,0:0:0:0:
244,188,113105,2,0,L|256:48,1,130.466665571747,10|0,0:0|0:0,0:0:0:0:
348,8,113622,2,0,P|380:4|424:24,1,65.2333327858734,8|10,2:0|2:3,0:0:0:0:
484,88,113967,1,10,2:3:0:0:
416,168,114140,6,0,B|356:165|356:165|349:160|349:160|271:154,1,130.466665571747,2|0,0:0|0:0,0:0:0:0:
216,80,114657,2,0,L|136:88,1,65.2333327858734,8|0,0:0|0:0,0:0:0:0:
52,124,115002,1,0,0:0:0:0:
108,212,115174,2,0,P|176:236|228:288,1,130.466665571747,8|0,0:0|0:0,0:0:0:0:
312,324,115691,2,0,B|240:328|264:372|184:368,1,130.466665571747,8|8,2:0|2:3,0:0:0:0:
104,384,116209,6,0,L|96:276,1,92.4666692063396,6|0,0:0|0:0,0:0:0:0:
44,220,116726,2,0,L|52:112,1,92.4666692063396,2|0,0:0|0:0,0:0:0:0:
112,64,117243,1,2,0:0:0:0:
112,64,117588,1,2,0:0:0:0:
184,112,117933,1,2,0:0:0:0:
256,60,118278,6,0,B|276:52|276:52|360:56,1,92.4666692063396,2|0,0:0|0:0,0:0:0:0:
420,104,118795,2,0,L|412:200,1,92.4666692063396,2|0,0:0|0:0,0:0:0:0:
404,284,119312,1,2,0:0:0:0:
404,284,119657,1,2,0:0:0:0:
344,348,120002,1,2,0:0:0:0:
256,336,120347,6,0,P|244:288|260:248,1,92.4666692063396,2|0,0:0|0:0,0:0:0:0:
320,184,120864,2,0,P|268:200|216:192,1,92.4666692063396,2|0,0:0|0:0,0:0:0:0:
144,164,121381,1,2,0:0:0:0:
80,84,121726,1,2,0:0:0:0:
144,20,122071,1,2,0:0:0:0:
216,52,122415,5,2,0:0:0:0:
256,192,122502,12,2,132760,0:0:0:0:
