osu file format v14

[General]
AudioFilename: audio.mp3
AudioLeadIn: 0
PreviewTime: 69664
Countdown: 0
SampleSet: Normal
StackLeniency: 0.2
Mode: 1
LetterboxInBreaks: 0
WidescreenStoryboard: 0

[Editor]
Bookmarks: 110498
DistanceSpacing: 1.2
BeatDivisor: 4
GridSize: 4
TimelineZoom: 2.499999

[Metadata]
Title:Apotosis
TitleUnicode:Apotosis
Artist:Hamu
ArtistUnicode:ハム
Creator:Hynix
Version:Rein
Source:
Tags:classical orchestral instrumental 福田淳平 Junpei Fukuda Diverse system AD:PIANO AD PIANO VII 7 adp7 Alternative DVSP-0231 C97 Comic Market 97
BeatmapID:2515409
BeatmapSetID:1207986

[Difficulty]
HPDrainRate:7
CircleSize:5
OverallDifficulty:6
ApproachRate:9
SliderMultiplier:1.4
SliderTickRate:1

[Events]
//Background and Video events
0,0,"bg.jpg",0,-50
//Break Periods
//Storyboard Layer 0 (Background)
//Storyboard Layer 1 (Fail)
//Storyboard Layer 2 (Pass)
//Storyboard Layer 3 (Foreground)
//Storyboard Layer 4 (Overlay)
//Storyboard Sound Samples

[TimingPoints]
498,416.666666666667,3,1,0,30,1,0
498,-133.333333333333,3,1,0,30,0,0
10029,-133.333333333333,3,1,0,40,0,0
10445,-133.333333333333,3,1,0,50,0,0
10498,-100,3,1,0,50,0,0
20862,-100,3,1,0,45,0,0
30445,-100,3,1,0,50,0,0
30602,-133.333333333333,3,1,0,30,0,0
50445,-133.333333333333,3,1,0,40,0,0
60081,-158.730158730159,3,1,0,40,0,0
60445,-175.438596491228,3,1,0,30,0,0
60602,-200,3,1,0,30,0,0
65445,-200,3,1,0,50,0,0
65498,-100,3,1,0,50,0,0
69143,-100,3,1,0,30,0,0
70029,-100,3,1,0,40,0,0
70445,-100,3,1,0,50,0,0
70498,-100,3,1,0,60,0,1
79664,-100,3,1,0,60,0,0
80445,-100,3,1,0,60,0,0
80498,-100,3,1,0,60,0,1
90498,-100,3,1,0,60,0,0
90602,-133.333333333333,3,1,0,30,0,0
100237,-133.333333333333,3,1,0,40,0,0
110445,-133.333333333333,3,1,0,30,0,0
110498,-200,3,1,0,30,0,0
120445,-200,3,1,0,50,0,0
120498,-100,3,1,0,50,0,0
130550,-100,3,1,0,40,0,0
140445,-100,3,1,0,50,0,0
140602,-133.333333333333,3,1,0,30,0,0
160445,-133.333333333333,3,1,0,40,0,0
170081,-158.730158730159,3,1,0,40,0,0
170445,-175.438596491228,3,1,0,30,0,0
170602,-200,3,1,0,30,0,0
175445,-200,3,1,0,50,0,0
175498,-100,3,1,0,50,0,0
179143,-100,3,1,0,30,0,0
180029,-100,3,1,0,40,0,0
180445,-100,3,1,0,50,0,0
180498,-100,3,1,0,60,0,1
189664,-100,3,1,0,60,0,0
190445,-100,3,1,0,60,0,0
190498,-100,3,1,0,60,0,1
200445,-100,3,1,0,50,0,1
200498,-100,3,1,0,50,0,0
200550,-133.333333333333,3,1,0,30,0,0
210498,-133.333333333333,3,1,0,30,0,0
211748,-142.857142857143,3,1,0,27,0,0
212998,-153.846153846154,3,1,0,25,0,0
214248,-166.666666666667,3,1,0,22,0,0
215498,-181.818181818182,3,1,0,20,0,0
216748,-200,3,1,0,17,0,0
217998,-222.222222222222,3,1,0,15,0,0
219248,-250,3,1,0,12,0,0

[HitObjects]
253,193,498,5,0,0:0:0:0:
259,192,1748,1,2,0:0:0:0:
258,192,2998,1,0,0:0:0:0:
258,192,4248,1,0,0:0:0:0:
256,206,5498,1,0,0:0:0:0:
256,205,6748,1,2,0:0:0:0:
255,201,7998,1,0,0:0:0:0:
255,201,9248,1,2,0:0:0:0:
269,208,10081,1,0,0:0:0:0:
269,208,10498,1,4,0:0:0:0:
259,200,11123,1,0,0:0:0:0:
258,205,11331,1,0,0:0:0:0:
259,200,11748,1,2,0:0:0:0:
259,200,12581,1,2,0:0:0:0:
259,200,12998,1,4,0:0:0:0:
259,200,13623,1,0,0:0:0:0:
258,207,13831,1,0,0:0:0:0:
259,200,14248,1,2,0:0:0:0:
259,200,15081,1,2,0:0:0:0:
259,200,15498,1,4,0:0:0:0:
213,141,16123,1,0,0:0:0:0:
257,208,16331,1,2,0:0:0:0:
253,174,16748,1,2,0:0:0:0:
253,174,17581,1,2,0:0:0:0:
245,223,17998,1,4,0:0:0:0:
220,166,18623,1,0,0:0:0:0:
257,208,18831,1,2,0:0:0:0:
220,166,19248,1,2,0:0:0:0:
220,166,20081,1,0,0:0:0:0:
233,205,20289,1,2,0:0:0:0:
242,186,20498,1,4,0:0:0:0:
246,200,20914,1,0,0:0:0:0:
246,200,21123,1,2,0:0:0:0:
246,200,21331,1,0,0:0:0:0:
246,200,21539,1,0,0:0:0:0:
246,200,21748,1,2,0:0:0:0:
246,200,22164,1,0,0:0:0:0:
246,200,22373,1,2,0:0:0:0:
246,200,22581,1,0,0:0:0:0:
246,200,22789,1,0,0:0:0:0:
246,200,22998,1,2,0:0:0:0:
246,200,23414,1,2,0:0:0:0:
246,200,23623,1,0,0:0:0:0:
246,200,23831,1,0,0:0:0:0:
246,200,24039,1,0,0:0:0:0:
246,200,24248,1,2,0:0:0:0:
246,200,24664,1,2,0:0:0:0:
246,200,24873,1,0,0:0:0:0:
246,200,25081,1,0,0:0:0:0:
246,200,25289,1,0,0:0:0:0:
246,200,25498,1,2,0:0:0:0:
245,153,26123,1,2,0:0:0:0:
245,153,26331,1,0,0:0:0:0:
245,153,26539,1,0,0:0:0:0:
245,153,26748,1,2,0:0:0:0:
251,181,27164,1,0,0:0:0:0:
264,200,27373,1,2,0:0:0:0:
264,200,27581,1,0,0:0:0:0:
264,200,27789,1,0,0:0:0:0:
264,200,27998,1,2,0:0:0:0:
272,172,28623,1,0,0:0:0:0:
272,172,28831,1,0,0:0:0:0:
272,172,29039,1,0,0:0:0:0:
272,172,29248,1,2,0:0:0:0:
272,172,29664,1,0,0:0:0:0:
272,172,29873,1,0,0:0:0:0:
272,172,30081,1,0,0:0:0:0:
272,172,30289,1,0,0:0:0:0:
272,172,30498,1,6,0:0:0:0:
203,180,31123,1,0,0:0:0:0:
203,180,31331,1,0,0:0:0:0:
203,180,31539,1,2,0:0:0:0:
203,180,31748,1,0,0:0:0:0:
266,202,32581,1,0,0:0:0:0:
266,202,32789,1,2,0:0:0:0:
266,202,32998,1,2,0:0:0:0:
212,191,33623,1,2,0:0:0:0:
212,191,33831,1,2,0:0:0:0:
212,191,34039,1,2,0:0:0:0:
212,191,34248,1,0,0:0:0:0:
212,191,35081,1,0,0:0:0:0:
212,191,35498,1,2,0:0:0:0:
217,202,36331,1,0,0:0:0:0:
217,202,36748,1,2,0:0:0:0:
217,202,37581,1,0,0:0:0:0:
217,202,37789,1,0,0:0:0:0:
217,202,37998,1,2,0:0:0:0:
217,202,38623,1,0,0:0:0:0:
217,202,38831,1,2,0:0:0:0:
217,202,39039,1,2,0:0:0:0:
217,202,39248,1,2,0:0:0:0:
240,179,39456,1,0,0:0:0:0:
240,179,39664,1,0,0:0:0:0:
240,179,40081,1,2,0:0:0:0:
240,179,40498,1,0,0:0:0:0:
240,179,41748,1,2,0:0:0:0:
240,179,42998,1,2,0:0:0:0:
240,179,44248,1,0,0:0:0:0:
244,151,45081,1,2,0:0:0:0:
240,179,45498,1,0,0:0:0:0:
246,200,46748,1,0,0:0:0:0:
246,200,47581,1,2,0:0:0:0:
246,200,47998,1,0,0:0:0:0:
170,197,49248,1,0,0:0:0:0:
170,197,49664,1,0,0:0:0:0:
170,197,50081,1,2,0:0:0:0:
170,197,50498,1,0,0:0:0:0:
229,192,51123,1,0,0:0:0:0:
229,192,51331,1,2,0:0:0:0:
229,192,51748,1,0,0:0:0:0:
229,192,52581,1,2,0:0:0:0:
229,192,52789,1,2,0:0:0:0:
261,180,52998,1,2,0:0:0:0:
261,180,53414,1,2,0:0:0:0:
261,180,53831,1,0,0:0:0:0:
259,185,54248,1,0,0:0:0:0:
258,192,55289,1,2,0:0:0:0:
258,192,55393,1,2,0:0:0:0:
258,192,55498,1,0,0:0:0:0:
258,192,56331,1,0,0:0:0:0:
258,192,56539,1,2,0:0:0:0:
258,192,56748,1,0,0:0:0:0:
258,192,57164,1,0,0:0:0:0:
258,192,57581,1,2,0:0:0:0:
258,192,57998,1,0,0:0:0:0:
258,192,58831,1,2,0:0:0:0:
258,192,58970,1,2,0:0:0:0:
258,192,59109,1,2,0:0:0:0:
258,192,59248,1,0,0:0:0:0:
239,181,60081,1,2,0:0:0:0:
247,196,60498,1,0,0:0:0:0:
261,187,61748,1,2,0:0:0:0:
261,188,62998,1,2,0:0:0:0:
261,188,63831,1,0,0:0:0:0:
261,188,64248,1,2,0:0:0:0:
261,188,65498,1,4,0:0:0:0:
231,194,66123,1,0,0:0:0:0:
241,189,66331,1,0,0:0:0:0:
241,189,66539,1,2,0:0:0:0:
231,194,66748,1,2,0:0:0:0:
311,201,66956,1,0,0:0:0:0:
183,207,67164,1,0,0:0:0:0:
183,207,67581,1,2,0:0:0:0:
209,214,67789,1,2,0:0:0:0:
241,189,67998,1,0,0:0:0:0:
241,189,69195,1,2,0:0:0:0:
241,189,69248,1,2,0:0:0:0:
251,202,70081,1,0,0:0:0:0:
251,202,70185,1,0,0:0:0:0:
251,202,70289,1,2,0:0:0:0:
251,202,70393,1,2,0:0:0:0:
251,202,70498,1,4,0:0:0:0:
197,247,71123,1,0,0:0:0:0:
241,184,71331,1,2,0:0:0:0:
241,184,71748,1,0,0:0:0:0:
241,184,72373,1,0,0:0:0:0:
241,184,72581,1,0,0:0:0:0:
241,184,72789,1,2,0:0:0:0:
241,184,72998,1,0,0:0:0:0:
310,142,73414,1,2,0:0:0:0:
310,142,73831,1,2,0:0:0:0:
310,142,74248,1,2,0:0:0:0:
310,142,75081,1,0,0:0:0:0:
256,131,75220,1,2,0:0:0:0:
256,131,75359,1,2,0:0:0:0:
256,131,75498,1,0,0:0:0:0:
262,199,75914,1,0,0:0:0:0:
262,199,76123,1,0,0:0:0:0:
262,199,76331,1,2,0:0:0:0:
266,219,76748,1,2,0:0:0:0:
243,207,77164,1,0,0:0:0:0:
243,207,77581,1,2,0:0:0:0:
243,207,77789,1,2,0:0:0:0:
243,207,77998,1,0,0:0:0:0:
243,207,78414,1,0,0:0:0:0:
243,207,78831,1,2,0:0:0:0:
237,221,79248,1,0,0:0:0:0:
237,221,79664,1,2,0:0:0:0:
245,236,80081,1,2,0:0:0:0:
181,162,80185,1,2,0:0:0:0:
181,162,80289,1,0,0:0:0:0:
181,162,80393,1,0,0:0:0:0:
237,221,80498,1,6,0:0:0:0:
234,241,80914,1,0,0:0:0:0:
234,241,81123,1,0,0:0:0:0:
234,241,81331,1,2,0:0:0:0:
238,233,81748,1,0,0:0:0:0:
265,193,82373,1,0,0:0:0:0:
265,193,82581,1,2,0:0:0:0:
265,193,82789,1,2,0:0:0:0:
265,193,82998,1,2,0:0:0:0:
265,193,83414,1,0,0:0:0:0:
265,193,83831,1,2,0:0:0:0:
265,193,84248,1,2,0:0:0:0:
252,181,85081,1,2,0:0:0:0:
252,181,85498,1,0,0:0:0:0:
252,181,86123,1,0,0:0:0:0:
252,181,86331,1,0,0:0:0:0:
252,181,86539,1,2,0:0:0:0:
252,181,86748,1,2,0:0:0:0:
254,204,87164,1,0,0:0:0:0:
254,204,87581,1,2,0:0:0:0:
254,204,87998,1,0,0:0:0:0:
254,204,88414,1,2,0:0:0:0:
254,204,88831,1,2,0:0:0:0:
254,204,89248,1,0,0:0:0:0:
254,204,89664,1,2,0:0:0:0:
254,204,90081,1,0,0:0:0:0:
254,204,90498,1,6,0:0:0:0:
254,203,91748,1,2,0:0:0:0:
254,203,92998,1,2,0:0:0:0:
254,203,94248,1,2,0:0:0:0:
260,205,95081,1,2,0:0:0:0:
260,205,95289,1,2,0:0:0:0:
254,203,95498,1,2,0:0:0:0:
254,203,96748,1,2,0:0:0:0:
249,200,97998,1,2,0:0:0:0:
250,200,99248,1,2,0:0:0:0:
250,200,99664,1,2,0:0:0:0:
250,200,100081,1,2,0:0:0:0:
250,200,100289,1,2,0:0:0:0:
250,200,100498,1,6,0:0:0:0:
252,181,100914,1,0,0:0:0:0:
250,200,101123,1,0,0:0:0:0:
252,181,101331,1,2,0:0:0:0:
250,200,101748,1,2,0:0:0:0:
238,173,102164,1,0,0:0:0:0:
242,215,102373,1,0,0:0:0:0:
238,173,102581,1,2,0:0:0:0:
212,214,102998,1,2,0:0:0:0:
229,160,103414,1,0,0:0:0:0:
250,221,103623,1,0,0:0:0:0:
250,221,103831,1,2,0:0:0:0:
250,221,104248,1,2,0:0:0:0:
251,186,104664,1,0,0:0:0:0:
251,186,104873,1,0,0:0:0:0:
251,186,105081,1,2,0:0:0:0:
251,186,105289,1,0,0:0:0:0:
251,186,105498,1,2,0:0:0:0:
251,186,105914,1,0,0:0:0:0:
251,186,106123,1,2,0:0:0:0:
251,186,106331,1,2,0:0:0:0:
251,186,106748,1,2,0:0:0:0:
251,186,107164,1,0,0:0:0:0:
251,186,107373,1,2,0:0:0:0:
251,186,107581,1,2,0:0:0:0:
251,186,107998,1,2,0:0:0:0:
251,186,108414,1,0,0:0:0:0:
251,186,108623,1,2,0:0:0:0:
251,186,108831,1,2,0:0:0:0:
251,186,109248,1,2,0:0:0:0:
251,186,109664,1,0,0:0:0:0:
250,191,110498,1,0,0:0:0:0:
250,191,111748,1,2,0:0:0:0:
250,191,112998,1,0,0:0:0:0:
250,191,114248,1,0,0:0:0:0:
250,191,115498,1,0,0:0:0:0:
250,192,116748,1,2,0:0:0:0:
250,192,117998,1,0,0:0:0:0:
250,192,119248,1,2,0:0:0:0:
244,185,120081,1,2,0:0:0:0:
250,192,120498,1,4,0:0:0:0:
250,192,121331,1,0,0:0:0:0:
273,208,121539,1,0,0:0:0:0:
250,192,121748,1,2,0:0:0:0:
267,207,122581,1,2,0:0:0:0:
250,192,122998,1,4,0:0:0:0:
268,193,123831,1,2,0:0:0:0:
314,213,124039,1,2,0:0:0:0:
250,192,124248,1,2,0:0:0:0:
295,225,125081,1,0,0:0:0:0:
250,193,125498,1,4,0:0:0:0:
250,193,126331,1,0,0:0:0:0:
291,197,126539,1,0,0:0:0:0:
250,193,126748,1,2,0:0:0:0:
282,198,127581,1,2,0:0:0:0:
250,193,127998,1,4,0:0:0:0:
242,197,128831,1,2,0:0:0:0:
284,210,129039,1,0,0:0:0:0:
250,193,129248,1,2,0:0:0:0:
242,197,130081,1,2,0:0:0:0:
284,189,130289,1,2,0:0:0:0:
250,193,130498,1,4,0:0:0:0:
250,193,131748,1,0,0:0:0:0:
250,193,132998,1,0,0:0:0:0:
250,193,134248,1,0,0:0:0:0:
250,193,135498,1,0,0:0:0:0:
250,193,136748,1,0,0:0:0:0:
250,193,137998,1,0,0:0:0:0:
250,193,139248,1,0,0:0:0:0:
250,193,140498,1,6,0:0:0:0:
260,195,141331,1,0,0:0:0:0:
260,195,141539,1,2,0:0:0:0:
250,193,141748,1,0,0:0:0:0:
248,191,142581,1,2,0:0:0:0:
250,193,142789,1,2,0:0:0:0:
248,191,142998,1,2,0:0:0:0:
248,191,143623,1,2,0:0:0:0:
250,193,143831,1,0,0:0:0:0:
248,191,144039,1,2,0:0:0:0:
248,191,144248,1,0,0:0:0:0:
248,191,145081,1,0,0:0:0:0:
248,191,145498,1,2,0:0:0:0:
248,191,146331,1,0,0:0:0:0:
248,191,146748,1,2,0:0:0:0:
248,191,147581,1,0,0:0:0:0:
248,191,147789,1,0,0:0:0:0:
248,191,147998,1,2,0:0:0:0:
144,184,148623,1,0,0:0:0:0:
144,184,148831,1,2,0:0:0:0:
144,184,149039,1,2,0:0:0:0:
144,184,149248,1,2,0:0:0:0:
241,193,149456,1,2,0:0:0:0:
241,193,149664,1,0,0:0:0:0:
241,193,150081,1,0,0:0:0:0:
241,193,150498,1,2,0:0:0:0:
242,193,151748,1,2,0:0:0:0:
242,193,152998,1,0,0:0:0:0:
242,193,154248,1,0,0:0:0:0:
242,193,155081,1,2,0:0:0:0:
242,193,155498,1,0,0:0:0:0:
257,196,156748,1,0,0:0:0:0:
256,188,157581,1,2,0:0:0:0:
257,196,157998,1,0,0:0:0:0:
275,188,159248,1,0,0:0:0:0:
275,188,159664,1,2,0:0:0:0:
275,188,160081,1,2,0:0:0:0:
275,188,160498,1,2,0:0:0:0:
236,193,161331,1,2,0:0:0:0:
236,193,161748,1,0,0:0:0:0:
236,193,162581,1,2,0:0:0:0:
236,193,162789,1,2,0:0:0:0:
253,191,162998,1,2,0:0:0:0:
236,193,163414,1,2,0:0:0:0:
236,193,163831,1,0,0:0:0:0:
236,193,164248,1,0,0:0:0:0:
268,171,165289,1,2,0:0:0:0:
268,171,165498,1,0,0:0:0:0:
268,171,166331,1,0,0:0:0:0:
268,171,166539,1,2,0:0:0:0:
268,171,166748,1,0,0:0:0:0:
284,177,167164,1,2,0:0:0:0:
284,177,167581,1,2,0:0:0:0:
266,164,167998,1,0,0:0:0:0:
251,147,168831,1,2,0:0:0:0:
256,132,168970,1,2,0:0:0:0:
256,132,169109,1,2,0:0:0:0:
256,132,169248,1,0,0:0:0:0:
263,152,170081,1,2,0:0:0:0:
263,152,170498,1,0,0:0:0:0:
263,152,171748,1,2,0:0:0:0:
263,152,172998,1,2,0:0:0:0:
263,152,173831,1,0,0:0:0:0:
263,152,174248,1,2,0:0:0:0:
263,152,175498,1,4,0:0:0:0:
263,152,175914,1,0,0:0:0:0:
263,152,176123,1,0,0:0:0:0:
263,152,176331,1,2,0:0:0:0:
263,152,176539,1,0,0:0:0:0:
263,152,176748,1,0,0:0:0:0:
248,123,177164,1,2,0:0:0:0:
263,152,177581,1,0,0:0:0:0:
241,116,177789,1,2,0:0:0:0:
241,116,177998,1,0,0:0:0:0:
248,116,179195,1,2,0:0:0:0:
248,116,179248,1,2,0:0:0:0:
265,88,180081,1,0,0:0:0:0:
265,88,180185,1,0,0:0:0:0:
265,88,180289,1,2,0:0:0:0:
265,88,180393,1,2,0:0:0:0:
265,88,180498,1,4,0:0:0:0:
250,142,181123,1,0,0:0:0:0:
250,142,181331,1,2,0:0:0:0:
250,142,181748,1,2,0:0:0:0:
250,142,182581,1,0,0:0:0:0:
251,209,182789,1,2,0:0:0:0:
250,142,182998,1,0,0:0:0:0:
250,142,183414,1,0,0:0:0:0:
250,142,183831,1,2,0:0:0:0:
250,142,184248,1,2,0:0:0:0:
215,183,185081,1,0,0:0:0:0:
215,183,185220,1,2,0:0:0:0:
215,183,185359,1,2,0:0:0:0:
215,183,185498,1,0,0:0:0:0:
246,212,185914,1,0,0:0:0:0:
246,212,186123,1,0,0:0:0:0:
254,199,186331,1,2,0:0:0:0:
254,199,186539,1,2,0:0:0:0:
246,212,186748,1,0,0:0:0:0:
246,212,187164,1,2,0:0:0:0:
246,212,187581,1,0,0:0:0:0:
246,212,187789,1,2,0:0:0:0:
246,212,187998,1,0,0:0:0:0:
246,212,188414,1,0,0:0:0:0:
246,212,188831,1,2,0:0:0:0:
246,212,189248,1,0,0:0:0:0:
246,212,189664,1,2,0:0:0:0:
246,212,190081,1,2,0:0:0:0:
233,213,190185,1,2,0:0:0:0:
229,213,190289,1,0,0:0:0:0:
229,213,190393,1,0,0:0:0:0:
229,213,190498,1,6,0:0:0:0:
223,203,191123,1,0,0:0:0:0:
229,213,191331,1,2,0:0:0:0:
224,215,191748,1,0,0:0:0:0:
217,235,192373,1,0,0:0:0:0:
217,235,192581,1,0,0:0:0:0:
217,235,192789,1,2,0:0:0:0:
217,235,192998,1,0,0:0:0:0:
217,235,193414,1,2,0:0:0:0:
217,235,193831,1,2,0:0:0:0:
217,235,194248,1,2,0:0:0:0:
217,235,195081,1,0,0:0:0:0:
196,235,195220,1,2,0:0:0:0:
196,235,195359,1,2,0:0:0:0:
217,235,195498,1,0,0:0:0:0:
219,193,196123,1,0,0:0:0:0:
219,193,196331,1,2,0:0:0:0:
219,193,196539,1,2,0:0:0:0:
211,203,196748,1,0,0:0:0:0:
211,203,197164,1,2,0:0:0:0:
211,203,197581,1,2,0:0:0:0:
211,203,197998,1,0,0:0:0:0:
225,227,198414,1,2,0:0:0:0:
225,227,198831,1,0,0:0:0:0:
225,227,199248,1,0,0:0:0:0:
225,227,199664,1,2,0:0:0:0:
225,209,200081,1,0,0:0:0:0:
225,227,200498,1,6,0:0:0:0:
245,200,201748,1,2,0:0:0:0:
245,200,202998,1,2,0:0:0:0:
245,200,204248,1,2,0:0:0:0:
267,193,205081,1,2,0:0:0:0:
245,200,205498,1,2,0:0:0:0:
245,200,206748,1,2,0:0:0:0:
245,200,207998,1,2,0:0:0:0:
245,200,209248,1,2,0:0:0:0:
280,188,210081,1,2,0:0:0:0:
245,200,210498,1,2,0:0:0:0:
245,200,211748,1,2,0:0:0:0:
245,200,212998,1,2,0:0:0:0:
245,200,214248,1,2,0:0:0:0:
245,200,215498,1,2,0:0:0:0:
245,200,216748,1,2,0:0:0:0:
245,200,217998,1,2,0:0:0:0:
245,200,219248,1,2,0:0:0:0:
