osu file format v14

[General]
AudioFilename: audio.mp3
AudioLeadIn: 0
PreviewTime: 69664
Countdown: 0
SampleSet: Normal
StackLeniency: 0.2
Mode: 1
LetterboxInBreaks: 0
WidescreenStoryboard: 1

[Editor]
Bookmarks: 110498
DistanceSpacing: 1.2
BeatDivisor: 4
GridSize: 4
TimelineZoom: 2.599999

[Metadata]
Title:Apotosis
TitleUnicode:Apotosis
Artist:Hamu
ArtistUnicode:ハム
Creator:Hynix
Version:Muzukashii
Source:
Tags:classical orchestral instrumental 福田淳平 Junpei Fukuda Diverse system AD:PIANO AD PIANO VII 7 adp7 Alternative DVSP-0231 C97 Comic Market 97
BeatmapID:2515511
BeatmapSetID:1207986

[Difficulty]
HPDrainRate:8
CircleSize:5
OverallDifficulty:5
ApproachRate:9
SliderMultiplier:1.4
SliderTickRate:1

[Events]
//Background and Video events
0,0,"bg.jpg",0,-50
//Break Periods
//Storyboard Layer 0 (Background)
//Storyboard Layer 1 (Fail)
//Storyboard Layer 2 (Pass)
//Storyboard Layer 3 (Foreground)
//Storyboard Layer 4 (Overlay)
//Storyboard Sound Samples

[TimingPoints]
498,416.666666666667,3,1,0,30,1,0
10029,-100,3,1,0,40,0,0
10445,-100,3,1,0,50,0,0
20862,-100,3,1,0,45,0,0
30445,-100,3,1,0,50,0,0
30602,-100,3,1,0,30,0,0
50445,-100,3,1,0,40,0,0
60445,-100,3,1,0,30,0,0
65445,-100,3,1,0,50,0,0
69143,-100,3,1,0,30,0,0
70029,-100,3,1,0,40,0,0
70445,-100,3,1,0,50,0,0
70498,-100,3,1,0,60,0,1
79664,-100,3,1,0,60,0,0
80445,-100,3,1,0,60,0,0
80498,-100,3,1,0,60,0,1
90498,-100,3,1,0,60,0,0
90602,-100,3,1,0,30,0,0
100237,-100,3,1,0,40,0,0
110445,-100,3,1,0,30,0,0
120445,-100,3,1,0,50,0,0
130550,-100,3,1,0,40,0,0
140445,-100,3,1,0,50,0,0
140602,-100,3,1,0,30,0,0
160445,-100,3,1,0,40,0,0
170445,-100,3,1,0,30,0,0
175445,-100,3,1,0,50,0,0
179143,-100,3,1,0,30,0,0
180029,-100,3,1,0,40,0,0
180445,-100,3,1,0,50,0,0
180498,-100,3,1,0,60,0,1
189664,-100,3,1,0,60,0,0
190445,-100,3,1,0,60,0,0
190498,-100,3,1,0,60,0,1
200445,-100,3,1,0,50,0,1
200498,-100,3,1,0,50,0,0
200550,-100,3,1,0,30,0,0
210498,-100,3,1,0,30,0,0
211748,-100,3,1,0,27,0,0
212998,-100,3,1,0,25,0,0
214248,-100,3,1,0,22,0,0
215498,-100,3,1,0,20,0,0
216748,-100,3,1,0,17,0,0
217998,-100,3,1,0,15,0,0
219248,-100,3,1,0,12,0,0

[HitObjects]
250,207,498,5,0,0:0:0:0:
250,207,1748,1,2,0:0:0:0:
250,207,2998,1,0,0:0:0:0:
250,207,4248,1,0,0:0:0:0:
250,207,5498,1,0,0:0:0:0:
250,207,6748,1,2,0:0:0:0:
250,207,7998,1,0,0:0:0:0:
250,207,9248,1,2,0:0:0:0:
250,207,10081,1,0,0:0:0:0:
250,207,10498,1,4,0:0:0:0:
250,207,11748,1,2,0:0:0:0:
250,207,12998,1,4,0:0:0:0:
250,207,14248,1,2,0:0:0:0:
260,209,15498,1,4,0:0:0:0:
260,209,16748,1,2,0:0:0:0:
260,209,17998,1,4,0:0:0:0:
260,209,19248,1,2,0:0:0:0:
260,209,20498,1,4,0:0:0:0:
248,193,21748,1,2,0:0:0:0:
248,193,22581,1,0,0:0:0:0:
248,193,22998,1,2,0:0:0:0:
248,194,24248,1,2,0:0:0:0:
248,194,25081,1,0,0:0:0:0:
248,194,25498,1,2,0:0:0:0:
261,216,26748,1,2,0:0:0:0:
261,216,27581,1,0,0:0:0:0:
261,216,27998,1,2,0:0:0:0:
261,216,29248,1,2,0:0:0:0:
261,216,30081,1,0,0:0:0:0:
261,216,30498,1,6,0:0:0:0:
261,216,31748,1,0,0:0:0:0:
261,216,32581,1,0,0:0:0:0:
261,216,32998,1,2,0:0:0:0:
252,217,33831,1,2,0:0:0:0:
252,217,34248,1,0,0:0:0:0:
253,228,35081,1,0,0:0:0:0:
253,228,35498,1,2,0:0:0:0:
275,224,36331,1,0,0:0:0:0:
253,227,36748,1,2,0:0:0:0:
253,227,37581,1,0,0:0:0:0:
253,227,37998,1,2,0:0:0:0:
253,227,38831,1,0,0:0:0:0:
253,227,39248,1,2,0:0:0:0:
258,219,39664,1,2,0:0:0:0:
248,233,40081,1,0,0:0:0:0:
248,233,40498,1,0,0:0:0:0:
248,233,41748,1,2,0:0:0:0:
248,233,42998,1,2,0:0:0:0:
248,233,44248,1,0,0:0:0:0:
248,233,45081,1,2,0:0:0:0:
248,233,45498,1,0,0:0:0:0:
248,233,46748,1,0,0:0:0:0:
257,195,47581,1,2,0:0:0:0:
257,195,47998,1,0,0:0:0:0:
224,201,49248,1,0,0:0:0:0:
224,201,49664,1,2,0:0:0:0:
224,201,50081,1,2,0:0:0:0:
224,201,50498,1,2,0:0:0:0:
224,201,51331,1,2,0:0:0:0:
224,201,51748,1,0,0:0:0:0:
224,201,52581,1,0,0:0:0:0:
224,201,52998,1,2,0:0:0:0:
224,201,53414,1,2,0:0:0:0:
224,201,53831,1,0,0:0:0:0:
224,201,54248,1,0,0:0:0:0:
224,201,55498,1,0,0:0:0:0:
224,212,56331,1,0,0:0:0:0:
224,212,56748,1,0,0:0:0:0:
224,212,57164,1,2,0:0:0:0:
224,212,57581,1,2,0:0:0:0:
224,212,57998,1,0,0:0:0:0:
224,212,58831,1,2,0:0:0:0:
224,212,59248,1,2,0:0:0:0:
224,212,60081,1,2,0:0:0:0:
224,212,60498,1,0,0:0:0:0:
224,211,61748,1,2,0:0:0:0:
224,211,62998,1,2,0:0:0:0:
224,211,63831,1,0,0:0:0:0:
224,211,64248,1,2,0:0:0:0:
224,211,65498,1,6,0:0:0:0:
215,219,66123,1,2,0:0:0:0:
215,219,66748,1,0,0:0:0:0:
218,211,67581,1,0,0:0:0:0:
232,189,67998,1,0,0:0:0:0:
232,189,69248,1,2,0:0:0:0:
171,122,70081,1,0,0:0:0:0:
190,134,70289,1,2,0:0:0:0:
171,122,70498,1,4,0:0:0:0:
231,177,71331,1,2,0:0:0:0:
231,177,71748,1,0,0:0:0:0:
231,177,72581,1,0,0:0:0:0:
250,178,72789,1,0,0:0:0:0:
231,177,72998,1,2,0:0:0:0:
231,177,73414,1,0,0:0:0:0:
231,177,73831,1,2,0:0:0:0:
231,177,74248,1,2,0:0:0:0:
231,177,75081,1,2,0:0:0:0:
231,177,75498,1,0,0:0:0:0:
227,188,76123,1,0,0:0:0:0:
231,177,76748,1,2,0:0:0:0:
231,183,77581,1,2,0:0:0:0:
231,183,77998,1,0,0:0:0:0:
231,183,78414,1,0,0:0:0:0:
231,183,78831,1,2,0:0:0:0:
231,183,79248,1,0,0:0:0:0:
231,183,79664,1,2,0:0:0:0:
231,183,80081,1,0,0:0:0:0:
252,190,80289,1,0,0:0:0:0:
231,183,80498,1,6,0:0:0:0:
231,183,81331,1,2,0:0:0:0:
231,183,81748,1,0,0:0:0:0:
239,201,82581,1,2,0:0:0:0:
247,207,82789,1,2,0:0:0:0:
239,201,82998,1,0,0:0:0:0:
239,201,83414,1,0,0:0:0:0:
239,201,83831,1,2,0:0:0:0:
239,201,84248,1,2,0:0:0:0:
239,201,85081,1,2,0:0:0:0:
239,201,85498,1,0,0:0:0:0:
358,67,86123,1,0,0:0:0:0:
239,201,86331,1,2,0:0:0:0:
358,67,86539,1,2,0:0:0:0:
239,201,86748,1,0,0:0:0:0:
234,207,87164,1,0,0:0:0:0:
234,207,87581,1,2,0:0:0:0:
234,207,87998,1,0,0:0:0:0:
234,207,88414,1,0,0:0:0:0:
234,207,88831,1,2,0:0:0:0:
234,207,89248,1,0,0:0:0:0:
234,207,89664,1,2,0:0:0:0:
257,223,90081,1,0,0:0:0:0:
234,207,90498,1,6,0:0:0:0:
261,216,91748,1,2,0:0:0:0:
261,216,92998,1,2,0:0:0:0:
261,216,94248,1,2,0:0:0:0:
261,216,95081,1,2,0:0:0:0:
261,216,95498,1,2,0:0:0:0:
261,215,96748,1,2,0:0:0:0:
261,215,97998,1,2,0:0:0:0:
261,215,99248,1,2,0:0:0:0:
261,215,100081,1,2,0:0:0:0:
261,229,100498,1,6,0:0:0:0:
261,229,101123,1,0,0:0:0:0:
261,229,101748,1,2,0:0:0:0:
261,229,102373,1,0,0:0:0:0:
261,229,102998,1,2,0:0:0:0:
261,229,103623,1,0,0:0:0:0:
261,229,104248,1,2,0:0:0:0:
240,216,104664,1,0,0:0:0:0:
261,229,105081,1,2,0:0:0:0:
261,229,105498,1,2,0:0:0:0:
261,229,106123,1,0,0:0:0:0:
261,229,106748,1,2,0:0:0:0:
261,229,107373,1,0,0:0:0:0:
261,229,107998,1,2,0:0:0:0:
261,229,108623,1,0,0:0:0:0:
261,229,109248,1,2,0:0:0:0:
261,241,109664,1,0,0:0:0:0:
261,229,110498,1,0,0:0:0:0:
267,214,111748,1,2,0:0:0:0:
258,226,112998,1,0,0:0:0:0:
258,226,114248,1,0,0:0:0:0:
258,226,115498,1,0,0:0:0:0:
258,226,116748,1,2,0:0:0:0:
258,226,117998,1,0,0:0:0:0:
258,226,119248,1,2,0:0:0:0:
258,226,120498,1,4,0:0:0:0:
260,230,121748,1,2,0:0:0:0:
260,230,122998,1,4,0:0:0:0:
260,230,124248,1,2,0:0:0:0:
260,230,125498,1,4,0:0:0:0:
260,230,126748,1,2,0:0:0:0:
260,230,127998,1,4,0:0:0:0:
260,230,129248,1,2,0:0:0:0:
260,230,130498,1,4,0:0:0:0:
260,230,132998,1,0,0:0:0:0:
260,230,135498,1,0,0:0:0:0:
260,230,137998,1,0,0:0:0:0:
260,230,140498,1,6,0:0:0:0:
260,230,141331,1,0,0:0:0:0:
260,230,141748,1,2,0:0:0:0:
260,230,142581,1,2,0:0:0:0:
260,230,142998,1,2,0:0:0:0:
260,230,143831,1,2,0:0:0:0:
260,230,144248,1,0,0:0:0:0:
255,241,144664,1,0,0:0:0:0:
260,230,145081,1,0,0:0:0:0:
260,230,145498,1,2,0:0:0:0:
260,230,146331,1,0,0:0:0:0:
260,230,146748,1,2,0:0:0:0:
260,230,147581,1,0,0:0:0:0:
260,230,147998,1,2,0:0:0:0:
285,214,148623,1,0,0:0:0:0:
260,230,148831,1,2,0:0:0:0:
260,230,149248,1,2,0:0:0:0:
260,230,149664,1,0,0:0:0:0:
260,230,150081,1,0,0:0:0:0:
260,230,150498,1,2,0:0:0:0:
260,230,151748,1,2,0:0:0:0:
245,233,152998,1,0,0:0:0:0:
268,211,154248,1,0,0:0:0:0:
268,211,155081,1,2,0:0:0:0:
268,211,155498,1,0,0:0:0:0:
268,211,156748,1,0,0:0:0:0:
268,211,157581,1,2,0:0:0:0:
268,211,157998,1,0,0:0:0:0:
268,211,159248,1,0,0:0:0:0:
268,211,159664,1,2,0:0:0:0:
268,211,160081,1,2,0:0:0:0:
268,211,160498,1,0,0:0:0:0:
184,203,161331,1,2,0:0:0:0:
268,211,161748,1,0,0:0:0:0:
213,200,162581,1,0,0:0:0:0:
213,200,162998,1,2,0:0:0:0:
213,200,163414,1,2,0:0:0:0:
213,200,163831,1,0,0:0:0:0:
213,200,164248,1,0,0:0:0:0:
213,200,165498,1,0,0:0:0:0:
260,194,166331,1,0,0:0:0:0:
260,194,166748,1,0,0:0:0:0:
260,194,167164,1,2,0:0:0:0:
260,194,167581,1,2,0:0:0:0:
260,194,167998,1,0,0:0:0:0:
260,194,168831,1,2,0:0:0:0:
260,194,169248,1,0,0:0:0:0:
260,194,170081,1,2,0:0:0:0:
260,194,170498,1,0,0:0:0:0:
260,194,171748,1,2,0:0:0:0:
260,194,172998,1,2,0:0:0:0:
260,194,173831,1,0,0:0:0:0:
260,194,174248,1,2,0:0:0:0:
260,194,175498,1,4,0:0:0:0:
249,193,176123,1,0,0:0:0:0:
242,208,176748,1,0,0:0:0:0:
258,208,177164,1,0,0:0:0:0:
242,208,177581,1,2,0:0:0:0:
242,208,177998,1,0,0:0:0:0:
242,208,179248,1,2,0:0:0:0:
213,199,180081,1,0,0:0:0:0:
221,208,180289,1,0,0:0:0:0:
213,199,180498,1,6,0:0:0:0:
207,197,181331,1,2,0:0:0:0:
207,197,181748,1,2,0:0:0:0:
207,197,182581,1,0,0:0:0:0:
245,141,182789,1,2,0:0:0:0:
207,197,182998,1,0,0:0:0:0:
207,197,183414,1,0,0:0:0:0:
207,197,183831,1,2,0:0:0:0:
207,197,184248,1,2,0:0:0:0:
207,197,185081,1,2,0:0:0:0:
207,197,185498,1,0,0:0:0:0:
199,203,186123,1,0,0:0:0:0:
199,203,186748,1,2,0:0:0:0:
199,203,187581,1,2,0:0:0:0:
199,203,187998,1,0,0:0:0:0:
199,203,188414,1,0,0:0:0:0:
199,203,188831,1,0,0:0:0:0:
199,203,189248,1,0,0:0:0:0:
199,203,189664,1,2,0:0:0:0:
199,203,190081,1,0,0:0:0:0:
241,188,190289,1,0,0:0:0:0:
199,203,190498,1,6,0:0:0:0:
199,203,191331,1,2,0:0:0:0:
199,203,191748,1,0,0:0:0:0:
199,203,192581,1,0,0:0:0:0:
210,197,192789,1,2,0:0:0:0:
229,202,192998,1,2,0:0:0:0:
229,202,193414,1,2,0:0:0:0:
229,202,193831,1,0,0:0:0:0:
229,202,194248,1,2,0:0:0:0:
229,202,195081,1,2,0:0:0:0:
229,202,195498,1,0,0:0:0:0:
252,210,196123,1,0,0:0:0:0:
229,202,196331,1,0,0:0:0:0:
255,203,196539,1,2,0:0:0:0:
229,202,196748,1,0,0:0:0:0:
229,202,197164,1,0,0:0:0:0:
229,202,197581,1,2,0:0:0:0:
229,202,197998,1,0,0:0:0:0:
229,202,198414,1,0,0:0:0:0:
229,202,198831,1,2,0:0:0:0:
229,202,199248,1,0,0:0:0:0:
229,202,199664,1,2,0:0:0:0:
229,202,200081,1,0,0:0:0:0:
229,202,200498,1,2,0:0:0:0:
220,149,201748,1,2,0:0:0:0:
234,178,202998,1,2,0:0:0:0:
234,178,204248,1,2,0:0:0:0:
234,178,205498,1,2,0:0:0:0:
234,178,206748,1,2,0:0:0:0:
234,178,207998,1,2,0:0:0:0:
234,178,209248,1,2,0:0:0:0:
234,178,210498,1,2,0:0:0:0:
234,178,211748,1,2,0:0:0:0:
234,178,212998,1,2,0:0:0:0:
234,178,214248,1,2,0:0:0:0:
258,199,215498,1,2,0:0:0:0:
258,199,216748,1,2,0:0:0:0:
258,199,217998,1,2,0:0:0:0:
258,199,219248,1,2,0:0:0:0:
