osu file format v14

[General]
AudioFilename: audio.mp3
AudioLeadIn: 0
PreviewTime: 46565
Countdown: 0
SampleSet: Normal
StackLeniency: 0.7
Mode: 1
LetterboxInBreaks: 0
WidescreenStoryboard: 1

[Editor]
DistanceSpacing: 1.5
BeatDivisor: 4
GridSize: 32
TimelineZoom: 2.5

[Metadata]
Title:Fubuki Guys
TitleUnicode:Fubuki Guys
Artist:Hamburgaga
ArtistUnicode:Hamburgaga
Creator:duski
Version:gevbiivi5's Light Futsuu
Source:Fall Guys: Ultimate Knockout
Tags:survive the fall shirakami 白上フブキ vtuber virtual youtuber fbk フブキch。 first 1st generation hololive gamers ホロライブゲーマーズ 一期生 ytpmv otoMAD 音MAD novelty electronic instrumental jukio kallio daniel hagström hagstrom hagstroem blackbq gevbiivi5 mtntwarz xavy x_a_v_y
BeatmapID:2610693
BeatmapSetID:1255559

[Difficulty]
HPDrainRate:7.5
CircleSize:6
OverallDifficulty:3.5
ApproachRate:6
SliderMultiplier:1.4
SliderTickRate:1

[Events]
//Background and Video events
0,0,"fbki.jpg",0,50
//Break Periods
//Storyboard Layer 0 (Background)
//Storyboard Layer 1 (Fail)
//Storyboard Layer 2 (Pass)
//Storyboard Layer 3 (Foreground)
//Storyboard Layer 4 (Overlay)
//Storyboard Sound Samples

[TimingPoints]
20,363.636363636364,4,1,0,80,1,0
23383,-100,4,1,0,60,0,0
46565,-100,4,1,0,80,0,0
58201,-100,4,1,0,80,0,1
69838,-100,4,1,0,80,0,0

[HitObjects]
213,161,20,5,12,0:0:0:0:
237,251,383,1,0,0:0:0:0:
261,279,747,1,0,0:0:0:0:
281,301,929,1,0,0:0:0:0:
261,279,1292,1,8,0:0:0:0:
240,234,1656,1,8,0:0:0:0:
150,275,1838,1,8,0:0:0:0:
292,314,2020,1,0,0:0:0:0:
184,259,2383,1,0,0:0:0:0:
184,259,2747,1,8,0:0:0:0:
229,217,3110,1,8,0:0:0:0:
229,217,3292,1,8,0:0:0:0:
301,258,3474,1,0,0:0:0:0:
258,251,3838,1,8,0:0:0:0:
258,251,4201,1,0,0:0:0:0:
256,165,4565,1,0,0:0:0:0:
256,165,4747,1,0,0:0:0:0:
251,184,4929,1,8,0:0:0:0:
213,161,5838,1,8,0:0:0:0:
237,251,6201,1,8,0:0:0:0:
261,279,6565,1,0,0:0:0:0:
281,301,6747,1,0,0:0:0:0:
261,279,7110,1,8,0:0:0:0:
240,234,7474,1,8,0:0:0:0:
150,275,7656,1,8,0:0:0:0:
292,314,7838,1,0,0:0:0:0:
184,259,8201,1,0,0:0:0:0:
184,259,8565,1,8,0:0:0:0:
229,217,8929,1,8,0:0:0:0:
229,217,9110,1,8,0:0:0:0:
301,258,9292,1,0,0:0:0:0:
258,251,10020,1,0,0:0:0:0:
256,165,10383,1,0,0:0:0:0:
256,165,10565,1,0,0:0:0:0:
251,184,10747,1,8,0:0:0:0:
127,253,11110,1,8,0:0:0:0:
127,253,11292,1,8,0:0:0:0:
127,253,11474,1,8,0:0:0:0:
213,161,11656,1,4,0:0:0:0:
237,251,12020,1,8,0:0:0:0:
261,279,12383,1,0,0:0:0:0:
281,301,12565,1,0,0:0:0:0:
261,279,12929,1,8,0:0:0:0:
240,234,13292,1,8,0:0:0:0:
150,275,13474,1,8,0:0:0:0:
292,314,13656,1,0,0:0:0:0:
184,259,14020,1,0,0:0:0:0:
184,259,14383,1,8,0:0:0:0:
229,217,14747,1,8,0:0:0:0:
229,217,14929,1,8,0:0:0:0:
301,258,15110,1,0,0:0:0:0:
258,251,15474,1,8,0:0:0:0:
258,251,15838,1,0,0:0:0:0:
256,165,16201,1,0,0:0:0:0:
256,165,16383,1,0,0:0:0:0:
251,184,16565,1,8,0:0:0:0:
213,161,17474,1,8,0:0:0:0:
237,251,17838,1,8,0:0:0:0:
261,279,18201,1,0,0:0:0:0:
281,301,18383,1,0,0:0:0:0:
261,279,18747,1,8,0:0:0:0:
240,234,19110,1,8,0:0:0:0:
150,275,19292,1,8,0:0:0:0:
292,314,19474,1,0,0:0:0:0:
184,259,19838,1,0,0:0:0:0:
184,259,20201,1,8,0:0:0:0:
229,217,20565,1,8,0:0:0:0:
229,217,20747,1,8,0:0:0:0:
301,258,20929,1,0,0:0:0:0:
258,251,21656,1,0,0:0:0:0:
256,165,22020,1,0,0:0:0:0:
256,165,22201,1,0,0:0:0:0:
251,184,22383,1,8,0:0:0:0:
135,203,22747,1,8,0:0:0:0:
135,203,22929,1,8,0:0:0:0:
135,203,23110,1,8,0:0:0:0:
135,203,23292,1,4,0:0:0:0:
138,194,24020,1,0,0:0:0:0:
168,207,24747,1,8,0:0:0:0:
115,199,25110,1,8,0:0:0:0:
135,216,25474,1,8,0:0:0:0:
242,178,26201,1,0,0:0:0:0:
248,191,26929,1,8,0:0:0:0:
227,207,27838,1,0,0:0:0:0:
227,207,28020,1,0,0:0:0:0:
253,172,28383,1,8,0:0:0:0:
227,207,29110,1,0,0:0:0:0:
261,173,29838,1,8,0:0:0:0:
227,207,30747,1,0,0:0:0:0:
227,207,30929,1,0,0:0:0:0:
234,213,31292,1,8,0:0:0:0:
234,213,32020,1,0,0:0:0:0:
234,213,32747,1,8,0:0:0:0:
234,213,33656,1,0,0:0:0:0:
234,213,33838,1,0,0:0:0:0:
234,213,34201,1,8,0:0:0:0:
234,213,34929,1,0,0:0:0:0:
234,213,35292,1,0,0:0:0:0:
234,213,35656,1,0,0:0:0:0:
121,175,36565,1,0,0:0:0:0:
238,226,36747,1,0,0:0:0:0:
179,183,37838,1,8,0:0:0:0:
163,199,38201,1,8,0:0:0:0:
163,199,38565,1,8,0:0:0:0:
209,201,39474,1,0,0:0:0:0:
209,201,39656,1,0,0:0:0:0:
221,154,40747,1,0,0:0:0:0:
249,169,41110,1,8,0:0:0:0:
221,154,42383,1,0,0:0:0:0:
221,154,42565,1,0,0:0:0:0:
151,193,43110,1,8,0:0:0:0:
220,153,43656,1,0,0:0:0:0:
256,192,43838,12,0,46201,0:0:0:0:
213,161,46565,5,12,0:0:0:0:
237,251,46929,1,8,0:0:0:0:
261,279,47292,1,0,0:0:0:0:
281,301,47474,1,0,0:0:0:0:
261,279,47838,1,8,0:0:0:0:
240,234,48201,1,8,0:0:0:0:
150,275,48383,1,8,0:0:0:0:
292,314,48565,1,0,0:0:0:0:
184,259,48929,1,0,0:0:0:0:
184,259,49292,1,8,0:0:0:0:
229,217,49656,1,8,0:0:0:0:
229,217,49838,1,8,0:0:0:0:
301,258,50020,1,0,0:0:0:0:
258,251,50383,1,8,0:0:0:0:
258,251,50747,1,0,0:0:0:0:
256,165,51110,1,0,0:0:0:0:
256,165,51292,1,0,0:0:0:0:
251,184,51474,1,8,0:0:0:0:
213,161,52383,1,8,0:0:0:0:
237,251,52747,1,8,0:0:0:0:
261,279,53110,1,0,0:0:0:0:
281,301,53292,1,0,0:0:0:0:
261,279,53656,1,8,0:0:0:0:
240,234,54020,1,8,0:0:0:0:
150,275,54201,1,8,0:0:0:0:
292,314,54383,1,0,0:0:0:0:
184,259,54747,1,0,0:0:0:0:
184,259,55110,1,8,0:0:0:0:
229,217,55474,1,8,0:0:0:0:
229,217,55656,1,8,0:0:0:0:
301,258,55838,1,0,0:0:0:0:
258,251,56565,1,0,0:0:0:0:
256,165,56929,1,0,0:0:0:0:
256,165,57110,1,0,0:0:0:0:
251,184,57292,1,0,0:0:0:0:
276,225,57656,1,8,0:0:0:0:
276,225,57838,1,8,0:0:0:0:
120,199,58020,1,8,0:0:0:0:
179,173,58201,1,4,0:0:0:0:
267,204,58565,1,0,0:0:0:0:
249,208,58929,1,0,0:0:0:0:
135,248,59292,1,0,0:0:0:0:
136,236,59474,1,8,0:0:0:0:
113,234,60020,1,8,0:0:0:0:
113,234,60201,1,0,0:0:0:0:
156,186,60565,1,0,0:0:0:0:
404,87,60929,1,8,0:0:0:0:
182,138,61474,1,8,0:0:0:0:
280,201,61656,1,0,0:0:0:0:
206,119,62020,1,0,0:0:0:0:
197,247,62383,1,8,0:0:0:0:
208,252,62747,1,0,0:0:0:0:
181,167,62929,1,0,0:0:0:0:
197,247,63110,1,8,0:0:0:0:
213,161,64020,1,8,0:0:0:0:
237,251,64383,1,8,0:0:0:0:
261,279,64747,1,0,0:0:0:0:
281,301,64929,1,0,0:0:0:0:
261,279,65292,1,8,0:0:0:0:
240,234,65656,1,8,0:0:0:0:
150,275,65838,1,8,0:0:0:0:
292,314,66020,1,0,0:0:0:0:
184,259,66383,1,0,0:0:0:0:
184,259,66747,1,8,0:0:0:0:
229,217,67110,1,8,0:0:0:0:
229,217,67292,1,8,0:0:0:0:
301,258,67474,1,0,0:0:0:0:
258,251,68201,1,0,0:0:0:0:
256,165,68565,1,0,0:0:0:0:
256,165,68747,1,0,0:0:0:0:
251,184,68929,1,0,0:0:0:0:
276,225,69292,1,8,0:0:0:0:
276,225,69474,1,8,0:0:0:0:
120,199,69656,1,8,0:0:0:0:
179,173,69838,1,8,0:0:0:0:
131,221,70201,1,0,0:0:0:0:
158,269,70565,1,8,0:0:0:0:
158,269,70747,1,8,0:0:0:0:
173,278,71110,1,0,0:0:0:0:
160,272,72020,1,0,0:0:0:0:
109,217,72383,1,0,0:0:0:0:
157,276,72747,1,8,0:0:0:0:
157,275,73110,1,8,0:0:0:0:
101,247,73474,1,0,0:0:0:0:
104,251,73656,1,0,0:0:0:0:
331,293,74020,1,0,0:0:0:0:
256,192,74383,1,8,0:0:0:0:
271,257,74565,1,8,0:0:0:0:
239,214,75292,1,8,0:0:0:0:
298,271,75656,1,0,0:0:0:0:
184,240,76020,1,0,0:0:0:0:
184,240,76383,1,0,0:0:0:0:
184,240,76565,1,0,0:0:0:0:
256,192,76929,1,8,0:0:0:0:
112,276,77292,1,8,0:0:0:0:
200,225,78020,1,0,0:0:0:0:
224,192,78201,1,8,0:0:0:0:
78,245,78565,1,0,0:0:0:0:
107,276,78929,1,8,0:0:0:0:
224,192,79292,1,0,0:0:0:0:
224,192,79474,1,0,0:0:0:0:
120,272,79838,1,8,0:0:0:0:
216,292,80201,1,8,0:0:0:0:
223,285,80565,1,8,0:0:0:0:
223,285,80929,1,0,0:0:0:0:
223,285,81110,1,0,0:0:0:0:
216,284,81474,1,12,0:0:0:0:
161,230,82201,1,0,0:0:0:0:
151,222,82383,1,8,0:0:0:0:
175,232,82747,1,0,0:0:0:0:
224,160,83110,1,8,0:0:0:0:
176,256,83474,1,0,0:0:0:0:
100,210,83656,1,8,0:0:0:0:
288,192,84020,1,0,0:0:0:0:
212,238,84383,1,0,0:0:0:0:
218,179,84747,1,8,0:0:0:0:
145,230,84929,1,8,0:0:0:0:
288,160,85292,1,0,0:0:0:0:
256,160,85474,1,0,0:0:0:0:
264,152,85656,1,0,0:0:0:0:
212,133,86201,1,0,0:0:0:0:
168,249,86383,1,8,0:0:0:0:
228,234,87292,1,8,0:0:0:0:
211,249,87656,1,8,0:0:0:0:
180,255,88020,1,0,0:0:0:0:
180,255,88201,1,8,0:0:0:0:
159,261,88565,1,8,0:0:0:0:
231,176,88929,1,8,0:0:0:0:
256,160,89292,1,0,0:0:0:0:
158,254,89474,1,8,0:0:0:0:
158,254,90201,1,0,0:0:0:0:
183,192,90565,1,8,0:0:0:0:
183,192,90747,1,0,0:0:0:0:
247,183,91110,1,0,0:0:0:0:
256,192,91292,1,0,0:0:0:0:
183,192,91474,1,8,0:0:0:0:
276,231,92201,1,8,0:0:0:0:
185,205,92565,1,8,0:0:0:0:
185,205,92747,1,0,0:0:0:0:
181,241,93110,1,12,0:0:0:0:
297,225,93838,1,0,0:0:0:0:
297,225,94020,1,0,0:0:0:0:
292,225,94383,1,8,0:0:0:0:
274,228,94747,1,8,0:0:0:0:
256,192,95110,1,0,0:0:0:0:
274,228,95292,1,8,0:0:0:0:
256,192,95656,1,8,0:0:0:0:
274,228,96020,1,0,0:0:0:0:
258,229,96383,1,8,0:0:0:0:
258,229,96565,1,0,0:0:0:0:
224,160,96929,1,0,0:0:0:0:
224,160,97110,1,0,0:0:0:0:
180,161,97292,1,8,0:0:0:0:
180,161,98020,1,8,0:0:0:0:
256,160,98565,1,8,0:0:0:0:
180,161,98929,1,0,0:0:0:0:
176,163,99292,1,8,0:0:0:0:
201,227,99656,1,0,0:0:0:0:
187,234,99838,1,8,0:0:0:0:
189,236,100201,1,0,0:0:0:0:
187,239,100565,1,8,0:0:0:0:
98,250,101110,1,8,0:0:0:0:
98,250,101292,1,8,0:0:0:0:
256,192,101474,1,8,0:0:0:0:
133,162,101838,1,0,0:0:0:0:
150,223,102201,1,8,0:0:0:0:
180,213,102383,1,8,0:0:0:0:
256,192,102747,1,0,0:0:0:0:
256,192,102929,1,0,0:0:0:0:
141,244,103110,1,0,0:0:0:0:
141,244,103656,1,0,0:0:0:0:
141,244,103838,1,8,0:0:0:0:
125,188,104747,1,12,0:0:0:0:
204,229,105110,1,0,0:0:0:0:
224,192,105474,1,0,0:0:0:0:
224,192,105656,1,8,0:0:0:0:
149,183,106201,1,0,0:0:0:0:
256,192,106565,1,8,0:0:0:0:
191,207,106929,1,8,0:0:0:0:
256,192,107110,1,8,0:0:0:0:
97,206,107292,1,8,0:0:0:0:
215,250,107656,1,0,0:0:0:0:
159,251,108383,1,0,0:0:0:0:
155,256,108565,1,0,0:0:0:0:
256,160,108747,1,8,0:0:0:0:
256,192,109110,1,0,0:0:0:0:
241,203,109292,1,0,0:0:0:0:
241,203,109474,1,0,0:0:0:0:
241,194,109838,1,8,0:0:0:0:
240,194,110201,1,8,0:0:0:0:
241,194,110565,1,0,0:0:0:0:
233,187,111292,1,0,0:0:0:0:
220,199,111474,1,0,0:0:0:0:
256,192,111656,1,8,0:0:0:0:
186,183,112020,1,8,0:0:0:0:
186,183,112383,1,0,0:0:0:0:
160,183,112565,1,0,0:0:0:0:
256,192,112929,1,8,0:0:0:0:
209,167,113110,1,8,0:0:0:0:
175,192,113474,1,8,0:0:0:0:
149,205,113838,1,8,0:0:0:0:
227,227,114201,1,0,0:0:0:0:
227,227,114383,1,8,0:0:0:0:
227,227,114929,1,8,0:0:0:0:
256,192,115292,1,8,0:0:0:0:
87,213,115656,1,8,0:0:0:0:
239,239,116020,1,8,0:0:0:0:
167,223,116383,1,4,0:0:0:0:
