osu file format v14

[General]
AudioFilename: audio.mp3
AudioLeadIn: 0
PreviewTime: 46565
Countdown: 0
SampleSet: Normal
StackLeniency: 0.7
Mode: 1
LetterboxInBreaks: 0
WidescreenStoryboard: 1

[Editor]
DistanceSpacing: 1.5
BeatDivisor: 4
GridSize: 32
TimelineZoom: 2.5

[Metadata]
Title:Fubuki Guys
TitleUnicode:Fubuki Guys
Artist:Hamburgaga
ArtistUnicode:Hamburgaga
Creator:duski
Version:Muzukashii
Source:Fall Guys: Ultimate Knockout
Tags:survive the fall shirakami 白上フブキ vtuber virtual youtuber fbk フブキch。 first 1st generation hololive gamers ホロライブゲーマーズ 一期生 ytpmv otoMAD 音MAD novelty electronic instrumental jukio kallio daniel hagström hagstrom hagstroem blackbq gevbiivi5 mtntwarz xavy x_a_v_y
BeatmapID:2612112
BeatmapSetID:1255559

[Difficulty]
HPDrainRate:6
CircleSize:6
OverallDifficulty:5
ApproachRate:6
SliderMultiplier:1.4
SliderTickRate:1

[Events]
//Background and Video events
0,0,"fbki.jpg",0,50
//Break Periods
//Storyboard Layer 0 (Background)
//Storyboard Layer 1 (Fail)
//Storyboard Layer 2 (Pass)
//Storyboard Layer 3 (Foreground)
//Storyboard Layer 4 (Overlay)
//Storyboard Sound Samples

[TimingPoints]
20,363.636363636364,4,1,0,80,1,0
23383,-100,4,1,0,60,0,0
46565,-100,4,1,0,80,0,0
58201,-95.2380952380952,4,1,0,80,0,1
69838,-95.2380952380952,4,1,0,80,0,0
69929,-100,4,1,0,80,0,0

[HitObjects]
256,192,20,5,12,0:0:0:0:
256,192,383,1,0,0:0:0:0:
256,192,656,1,0,0:0:0:0:
256,192,747,1,8,0:0:0:0:
256,192,929,1,0,0:0:0:0:
256,192,1110,1,0,0:0:0:0:
256,192,1292,1,8,0:0:0:0:
256,192,1656,1,0,0:0:0:0:
256,192,1838,1,8,0:0:0:0:
256,192,2020,1,0,0:0:0:0:
256,192,2383,1,0,0:0:0:0:
256,192,2565,1,8,0:0:0:0:
256,192,2747,1,0,0:0:0:0:
256,192,2838,1,0,0:0:0:0:
256,192,2929,1,0,0:0:0:0:
256,192,3110,1,0,0:0:0:0:
256,192,3292,1,8,0:0:0:0:
256,192,3474,1,0,0:0:0:0:
256,192,3838,1,0,0:0:0:0:
256,192,4020,1,0,0:0:0:0:
256,192,4201,1,8,0:0:0:0:
256,192,4565,1,0,0:0:0:0:
256,192,4747,1,8,0:0:0:0:
256,192,4929,1,8,0:0:0:0:
256,192,5656,1,0,0:0:0:0:
256,192,5838,1,8,0:0:0:0:
256,192,6201,1,8,0:0:0:0:
256,192,6474,1,0,0:0:0:0:
256,192,6565,1,8,0:0:0:0:
256,192,6747,1,0,0:0:0:0:
256,192,6929,1,0,0:0:0:0:
256,192,7110,1,8,0:0:0:0:
256,192,7474,1,0,0:0:0:0:
256,192,7656,1,8,0:0:0:0:
256,192,7838,1,0,0:0:0:0:
256,192,8201,1,0,0:0:0:0:
256,192,8383,1,8,0:0:0:0:
256,192,8565,1,8,0:0:0:0:
256,192,8747,1,0,0:0:0:0:
256,192,8929,1,0,0:0:0:0:
256,192,9110,1,8,0:0:0:0:
256,192,9292,1,0,0:0:0:0:
256,192,9383,1,0,0:0:0:0:
256,192,9474,1,0,0:0:0:0:
256,192,9656,1,0,0:0:0:0:
256,192,9838,1,8,0:0:0:0:
256,192,10020,1,0,0:0:0:0:
256,192,10383,1,0,0:0:0:0:
256,192,10565,1,8,0:0:0:0:
256,192,10747,1,0,0:0:0:0:
256,192,11110,1,8,0:0:0:0:
256,192,11292,1,8,0:0:0:0:
256,192,11474,1,8,0:0:0:0:
256,192,11656,1,4,0:0:0:0:
256,192,12292,1,0,0:0:0:0:
256,192,12383,1,8,0:0:0:0:
256,192,12565,1,0,0:0:0:0:
256,192,12747,1,0,0:0:0:0:
256,192,12929,1,8,0:0:0:0:
256,192,13292,1,0,0:0:0:0:
256,192,13474,1,8,0:0:0:0:
256,192,13656,1,0,0:0:0:0:
256,192,14020,1,0,0:0:0:0:
256,192,14201,1,8,0:0:0:0:
256,192,14383,1,0,0:0:0:0:
256,192,14474,1,0,0:0:0:0:
256,192,14565,1,0,0:0:0:0:
256,192,14747,1,0,0:0:0:0:
256,192,14929,1,8,0:0:0:0:
256,192,15110,1,0,0:0:0:0:
256,192,15474,1,0,0:0:0:0:
256,192,15656,1,8,0:0:0:0:
256,192,15838,1,0,0:0:0:0:
256,192,16201,1,0,0:0:0:0:
256,192,16383,1,8,0:0:0:0:
256,192,16565,1,8,0:0:0:0:
256,192,17292,1,0,0:0:0:0:
256,192,17474,1,8,0:0:0:0:
256,192,17838,1,8,0:0:0:0:
256,192,18110,1,0,0:0:0:0:
256,192,18201,1,8,0:0:0:0:
256,192,18383,1,0,0:0:0:0:
256,192,18565,1,8,0:0:0:0:
256,192,18747,1,0,0:0:0:0:
256,192,19110,1,0,0:0:0:0:
256,192,19292,1,8,0:0:0:0:
256,192,19474,1,0,0:0:0:0:
256,192,19565,1,0,0:0:0:0:
256,192,19656,1,0,0:0:0:0:
256,192,19838,1,8,0:0:0:0:
256,192,20020,1,8,0:0:0:0:
256,192,20201,1,0,0:0:0:0:
256,192,20565,1,8,0:0:0:0:
256,192,20747,1,8,0:0:0:0:
256,192,20929,1,0,0:0:0:0:
256,192,21020,1,0,0:0:0:0:
256,192,21110,1,0,0:0:0:0:
256,192,21292,1,8,0:0:0:0:
256,192,21474,1,8,0:0:0:0:
256,192,21656,1,0,0:0:0:0:
256,192,22020,1,8,0:0:0:0:
256,192,22201,1,8,0:0:0:0:
256,192,22383,1,0,0:0:0:0:
256,192,22747,1,8,0:0:0:0:
256,192,22929,1,8,0:0:0:0:
256,192,23110,1,8,0:0:0:0:
256,192,23292,1,4,0:0:0:0:
256,192,24020,1,8,0:0:0:0:
256,192,24383,1,8,0:0:0:0:
256,192,24565,1,0,0:0:0:0:
256,192,24747,1,8,0:0:0:0:
256,192,24929,1,0,0:0:0:0:
256,192,25110,1,0,0:0:0:0:
256,192,25474,1,8,0:0:0:0:
256,192,25838,1,0,0:0:0:0:
256,192,26020,1,8,0:0:0:0:
256,192,26201,1,0,0:0:0:0:
256,192,26383,1,8,0:0:0:0:
256,192,26565,1,8,0:0:0:0:
256,192,26747,1,0,0:0:0:0:
256,192,26929,1,8,0:0:0:0:
256,192,27292,1,0,0:0:0:0:
256,192,27474,1,8,0:0:0:0:
256,192,27656,1,0,0:0:0:0:
256,192,27838,1,0,0:0:0:0:
256,192,27929,1,0,0:0:0:0:
256,192,28020,1,0,0:0:0:0:
256,192,28201,1,0,0:0:0:0:
256,192,28383,1,8,0:0:0:0:
256,192,28929,1,8,0:0:0:0:
256,192,29110,1,0,0:0:0:0:
256,192,29292,1,0,0:0:0:0:
256,192,29474,1,8,0:0:0:0:
256,192,29656,1,0,0:0:0:0:
256,192,29838,1,8,0:0:0:0:
256,192,30201,1,0,0:0:0:0:
256,192,30383,1,8,0:0:0:0:
256,192,30565,1,8,0:0:0:0:
256,192,30747,1,0,0:0:0:0:
256,192,30929,1,0,0:0:0:0:
256,192,31292,1,8,0:0:0:0:
256,192,32020,1,0,0:0:0:0:
256,192,32383,1,8,0:0:0:0:
256,192,32565,1,0,0:0:0:0:
256,192,32747,1,8,0:0:0:0:
256,192,33110,1,8,0:0:0:0:
256,192,33292,1,0,0:0:0:0:
256,192,33474,1,8,0:0:0:0:
256,192,33656,1,0,0:0:0:0:
256,192,33747,1,0,0:0:0:0:
256,192,33838,1,0,0:0:0:0:
256,192,34020,1,0,0:0:0:0:
256,192,34201,1,8,0:0:0:0:
256,192,34565,1,0,0:0:0:0:
256,192,34747,1,0,0:0:0:0:
256,192,34929,1,8,0:0:0:0:
256,192,35292,1,0,0:0:0:0:
256,192,35656,1,8,0:0:0:0:
256,192,35838,1,8,0:0:0:0:
256,192,36020,1,8,0:0:0:0:
256,192,36565,1,0,0:0:0:0:
256,192,36747,1,0,0:0:0:0:
256,192,36838,1,0,0:0:0:0:
256,192,37110,1,0,0:0:0:0:
256,192,37292,1,8,0:0:0:0:
256,192,37474,1,0,0:0:0:0:
256,192,37656,1,0,0:0:0:0:
256,192,37838,1,8,0:0:0:0:
256,192,38201,1,8,0:0:0:0:
256,192,38383,1,0,0:0:0:0:
256,192,38474,1,0,0:0:0:0:
256,192,38565,1,0,0:0:0:0:
256,192,38747,1,0,0:0:0:0:
256,192,38929,1,8,0:0:0:0:
256,192,39474,1,0,0:0:0:0:
256,192,39656,1,0,0:0:0:0:
256,192,39747,1,0,0:0:0:0:
256,192,40020,1,0,0:0:0:0:
256,192,40201,1,8,0:0:0:0:
256,192,40383,1,0,0:0:0:0:
256,192,40565,1,8,0:0:0:0:
256,192,40747,1,8,0:0:0:0:
256,192,41110,1,8,0:0:0:0:
256,192,41292,1,0,0:0:0:0:
256,192,41383,1,0,0:0:0:0:
256,192,41474,1,0,0:0:0:0:
256,192,41656,1,0,0:0:0:0:
256,192,41838,1,8,0:0:0:0:
256,192,42020,1,0,0:0:0:0:
256,192,42383,1,0,0:0:0:0:
256,192,42565,1,8,0:0:0:0:
256,192,42747,1,0,0:0:0:0:
256,192,42838,1,0,0:0:0:0:
256,192,42929,1,0,0:0:0:0:
256,192,43110,1,8,0:0:0:0:
256,192,43656,1,0,0:0:0:0:
256,192,43838,1,8,0:0:0:0:
256,192,44020,1,8,0:0:0:0:
256,192,44201,1,0,0:0:0:0:
256,192,44383,1,0,0:0:0:0:
256,192,44565,1,8,0:0:0:0:
256,192,44929,1,8,0:0:0:0:
256,192,45110,1,0,0:0:0:0:
256,192,45292,1,0,0:0:0:0:
256,192,45474,1,8,0:0:0:0:
256,192,45656,1,0,0:0:0:0:
256,192,45838,1,8,0:0:0:0:
256,192,46565,1,12,0:0:0:0:
256,192,46929,1,0,0:0:0:0:
256,192,47201,1,0,0:0:0:0:
256,192,47292,1,8,0:0:0:0:
256,192,47474,1,0,0:0:0:0:
256,192,47656,1,0,0:0:0:0:
256,192,47838,1,8,0:0:0:0:
256,192,48201,1,0,0:0:0:0:
256,192,48383,1,8,0:0:0:0:
256,192,48565,1,0,0:0:0:0:
256,192,48929,1,0,0:0:0:0:
256,192,49110,1,8,0:0:0:0:
256,192,49292,1,0,0:0:0:0:
256,192,49383,1,0,0:0:0:0:
256,192,49474,1,0,0:0:0:0:
256,192,49656,1,0,0:0:0:0:
256,192,49838,1,8,0:0:0:0:
256,192,50020,1,0,0:0:0:0:
256,192,50383,1,0,0:0:0:0:
256,192,50565,1,0,0:0:0:0:
256,192,50747,1,8,0:0:0:0:
256,192,51110,1,0,0:0:0:0:
256,192,51292,1,8,0:0:0:0:
256,192,51474,1,8,0:0:0:0:
256,192,52201,1,0,0:0:0:0:
256,192,52383,1,8,0:0:0:0:
256,192,52747,1,8,0:0:0:0:
256,192,53020,1,0,0:0:0:0:
256,192,53110,1,8,0:0:0:0:
256,192,53292,1,0,0:0:0:0:
256,192,53474,1,0,0:0:0:0:
256,192,53656,1,8,0:0:0:0:
256,192,54020,1,0,0:0:0:0:
256,192,54201,1,8,0:0:0:0:
256,192,54383,1,0,0:0:0:0:
256,192,54747,1,0,0:0:0:0:
256,192,54929,1,8,0:0:0:0:
256,192,55110,1,8,0:0:0:0:
256,192,55292,1,0,0:0:0:0:
256,192,55474,1,0,0:0:0:0:
256,192,55656,1,8,0:0:0:0:
256,192,55838,1,0,0:0:0:0:
256,192,55929,1,0,0:0:0:0:
256,192,56020,1,0,0:0:0:0:
256,192,56201,1,0,0:0:0:0:
256,192,56383,1,8,0:0:0:0:
256,192,56565,1,0,0:0:0:0:
256,192,56929,1,0,0:0:0:0:
256,192,57110,1,8,0:0:0:0:
256,192,57292,1,0,0:0:0:0:
256,192,57656,1,8,0:0:0:0:
256,192,57838,1,8,0:0:0:0:
256,192,58020,1,8,0:0:0:0:
256,192,58201,1,4,0:0:0:0:
256,192,58838,1,0,0:0:0:0:
256,192,58929,1,8,0:0:0:0:
256,192,59110,1,0,0:0:0:0:
256,192,59292,1,0,0:0:0:0:
256,192,59474,1,8,0:0:0:0:
256,192,59838,1,0,0:0:0:0:
256,192,60020,1,8,0:0:0:0:
256,192,60201,1,0,0:0:0:0:
256,192,60565,1,0,0:0:0:0:
256,192,60747,1,8,0:0:0:0:
256,192,60929,1,0,0:0:0:0:
256,192,61020,1,0,0:0:0:0:
256,192,61110,1,0,0:0:0:0:
256,192,61292,1,0,0:0:0:0:
256,192,61474,1,8,0:0:0:0:
256,192,61656,1,0,0:0:0:0:
256,192,62020,1,0,0:0:0:0:
256,192,62201,1,8,0:0:0:0:
256,192,62383,1,0,0:0:0:0:
256,192,62747,1,0,0:0:0:0:
256,192,62929,1,8,0:0:0:0:
256,192,63110,1,8,0:0:0:0:
256,192,63838,1,0,0:0:0:0:
256,192,64020,1,8,0:0:0:0:
256,192,64383,1,8,0:0:0:0:
256,192,64656,1,0,0:0:0:0:
256,192,64747,1,8,0:0:0:0:
256,192,64929,1,0,0:0:0:0:
256,192,65110,1,8,0:0:0:0:
256,192,65292,1,0,0:0:0:0:
256,192,65656,1,0,0:0:0:0:
256,192,65838,1,8,0:0:0:0:
256,192,66020,1,0,0:0:0:0:
256,192,66110,1,0,0:0:0:0:
256,192,66201,1,0,0:0:0:0:
256,192,66383,1,8,0:0:0:0:
256,192,66565,1,8,0:0:0:0:
256,192,66747,1,0,0:0:0:0:
256,192,66929,1,12,0:0:0:0:
256,192,67292,1,0,0:0:0:0:
256,192,67656,1,12,0:0:0:0:
256,192,67838,1,0,0:0:0:0:
256,192,68020,1,0,0:0:0:0:
256,192,68383,1,12,0:0:0:0:
256,192,68565,1,0,0:0:0:0:
256,192,68747,1,12,0:0:0:0:
256,192,69110,1,12,0:0:0:0:
256,192,69474,1,8,0:0:0:0:
256,192,69656,1,8,0:0:0:0:
256,192,69838,1,4,0:0:0:0:
256,192,70201,1,8,0:0:0:0:
256,192,70565,1,0,0:0:0:0:
256,192,70747,1,8,0:0:0:0:
256,192,70929,1,0,0:0:0:0:
256,192,71110,1,8,0:0:0:0:
256,192,71474,1,0,0:0:0:0:
256,192,71656,1,0,0:0:0:0:
256,192,71838,1,8,0:0:0:0:
256,192,72020,1,0,0:0:0:0:
256,192,72110,1,0,0:0:0:0:
256,192,72201,1,0,0:0:0:0:
256,192,72383,1,8,0:0:0:0:
256,192,72747,1,0,0:0:0:0:
256,192,73110,1,8,0:0:0:0:
256,192,73474,1,0,0:0:0:0:
256,192,73656,1,8,0:0:0:0:
256,192,73838,1,0,0:0:0:0:
256,192,74020,1,8,0:0:0:0:
256,192,74201,1,0,0:0:0:0:
256,192,74383,1,0,0:0:0:0:
256,192,74565,1,8,0:0:0:0:
256,192,74747,1,0,0:0:0:0:
256,192,74838,1,0,0:0:0:0:
256,192,74929,1,0,0:0:0:0:
256,192,75110,1,0,0:0:0:0:
256,192,75292,1,8,0:0:0:0:
256,192,75656,1,0,0:0:0:0:
256,192,76020,1,8,0:0:0:0:
256,192,76383,1,0,0:0:0:0:
256,192,76474,1,0,0:0:0:0:
256,192,76565,1,0,0:0:0:0:
256,192,76747,1,8,0:0:0:0:
256,192,76929,1,8,0:0:0:0:
256,192,77110,1,0,0:0:0:0:
256,192,77292,1,8,0:0:0:0:
256,192,77383,1,8,0:0:0:0:
256,192,77474,1,8,0:0:0:0:
256,192,77656,1,0,0:0:0:0:
256,192,77838,1,8,0:0:0:0:
256,192,78201,1,8,0:0:0:0:
256,192,78565,1,0,0:0:0:0:
256,192,78929,1,8,0:0:0:0:
256,192,79292,1,0,0:0:0:0:
256,192,79383,1,0,0:0:0:0:
256,192,79474,1,0,0:0:0:0:
256,192,79656,1,8,0:0:0:0:
256,192,79838,1,8,0:0:0:0:
256,192,80020,1,0,0:0:0:0:
256,192,80201,1,8,0:0:0:0:
256,192,80383,1,0,0:0:0:0:
256,192,80565,1,8,0:0:0:0:
256,192,80747,1,0,0:0:0:0:
256,192,80838,1,0,0:0:0:0:
256,192,80929,1,0,0:0:0:0:
256,192,81110,1,8,0:0:0:0:
256,192,81474,1,4,0:0:0:0:
256,192,81838,1,8,0:0:0:0:
256,192,82201,1,0,0:0:0:0:
256,192,82383,1,8,0:0:0:0:
256,192,82565,1,0,0:0:0:0:
256,192,82747,1,8,0:0:0:0:
256,192,83110,1,8,0:0:0:0:
256,192,83292,1,0,0:0:0:0:
256,192,83474,1,0,0:0:0:0:
256,192,83656,1,8,0:0:0:0:
256,192,84020,1,0,0:0:0:0:
256,192,84383,1,0,0:0:0:0:
256,192,84747,1,8,0:0:0:0:
256,192,84929,1,0,0:0:0:0:
256,192,85020,1,0,0:0:0:0:
256,192,85110,1,0,0:0:0:0:
256,192,85292,1,8,0:0:0:0:
256,192,85474,1,0,0:0:0:0:
256,192,85656,1,8,0:0:0:0:
256,192,85838,1,0,0:0:0:0:
256,192,86020,1,0,0:0:0:0:
256,192,86201,1,8,0:0:0:0:
256,192,86383,1,0,0:0:0:0:
256,192,86474,1,0,0:0:0:0:
256,192,86565,1,0,0:0:0:0:
256,192,86747,1,0,0:0:0:0:
256,192,86929,1,8,0:0:0:0:
256,192,87292,1,8,0:0:0:0:
256,192,87656,1,0,0:0:0:0:
256,192,88020,1,0,0:0:0:0:
256,192,88201,1,8,0:0:0:0:
256,192,88383,1,0,0:0:0:0:
256,192,88565,1,8,0:0:0:0:
256,192,88747,1,0,0:0:0:0:
256,192,88929,1,8,0:0:0:0:
256,192,89020,1,8,0:0:0:0:
256,192,89110,1,8,0:0:0:0:
256,192,89292,1,0,0:0:0:0:
256,192,89474,1,8,0:0:0:0:
256,192,89838,1,0,0:0:0:0:
256,192,90201,1,0,0:0:0:0:
256,192,90565,1,8,0:0:0:0:
256,192,90747,1,0,0:0:0:0:
256,192,90838,1,0,0:0:0:0:
256,192,90929,1,0,0:0:0:0:
256,192,91110,1,0,0:0:0:0:
256,192,91292,1,8,0:0:0:0:
256,192,91474,1,8,0:0:0:0:
256,192,91656,1,0,0:0:0:0:
256,192,91838,1,0,0:0:0:0:
256,192,92020,1,8,0:0:0:0:
256,192,92201,1,8,0:0:0:0:
256,192,92383,1,0,0:0:0:0:
256,192,92565,1,8,0:0:0:0:
256,192,92656,1,8,0:0:0:0:
256,192,92747,1,8,0:0:0:0:
256,192,93110,1,4,0:0:0:0:
256,192,93474,1,8,0:0:0:0:
256,192,93838,1,0,0:0:0:0:
256,192,94020,1,8,0:0:0:0:
256,192,94201,1,0,0:0:0:0:
256,192,94383,1,8,0:0:0:0:
256,192,94565,1,0,0:0:0:0:
256,192,94747,1,8,0:0:0:0:
256,192,94838,1,8,0:0:0:0:
256,192,94929,1,8,0:0:0:0:
256,192,95110,1,0,0:0:0:0:
256,192,95292,1,8,0:0:0:0:
256,192,95656,1,0,0:0:0:0:
256,192,96020,1,0,0:0:0:0:
256,192,96383,1,8,0:0:0:0:
256,192,96565,1,0,0:0:0:0:
256,192,96656,1,0,0:0:0:0:
256,192,96747,1,0,0:0:0:0:
256,192,96929,1,0,0:0:0:0:
256,192,97110,1,8,0:0:0:0:
256,192,97292,1,0,0:0:0:0:
256,192,97474,1,0,0:0:0:0:
256,192,97656,1,0,0:0:0:0:
256,192,97838,1,8,0:0:0:0:
256,192,98020,1,8,0:0:0:0:
256,192,98201,1,0,0:0:0:0:
256,192,98292,1,0,0:0:0:0:
256,192,98383,1,0,0:0:0:0:
256,192,98565,1,8,0:0:0:0:
256,192,98929,1,0,0:0:0:0:
256,192,99292,1,8,0:0:0:0:
256,192,99656,1,0,0:0:0:0:
256,192,99838,1,8,0:0:0:0:
256,192,100020,1,0,0:0:0:0:
256,192,100201,1,8,0:0:0:0:
256,192,100383,1,0,0:0:0:0:
256,192,100565,1,0,0:0:0:0:
256,192,100747,1,8,0:0:0:0:
256,192,100929,1,0,0:0:0:0:
256,192,101110,1,8,0:0:0:0:
256,192,101201,1,8,0:0:0:0:
256,192,101292,1,8,0:0:0:0:
256,192,101474,1,0,0:0:0:0:
256,192,101838,1,0,0:0:0:0:
256,192,102201,1,8,0:0:0:0:
256,192,102383,1,0,0:0:0:0:
256,192,102474,1,0,0:0:0:0:
256,192,102565,1,0,0:0:0:0:
256,192,102747,1,0,0:0:0:0:
256,192,102929,1,8,0:0:0:0:
256,192,103292,1,0,0:0:0:0:
256,192,103474,1,0,0:0:0:0:
256,192,103656,1,8,0:0:0:0:
256,192,103838,1,0,0:0:0:0:
256,192,103929,1,0,0:0:0:0:
256,192,104020,1,0,0:0:0:0:
256,192,104201,1,0,0:0:0:0:
256,192,104383,1,8,0:0:0:0:
256,192,104747,1,4,0:0:0:0:
256,192,105110,1,8,0:0:0:0:
256,192,105474,1,0,0:0:0:0:
256,192,105656,1,8,0:0:0:0:
256,192,105838,1,0,0:0:0:0:
256,192,106020,1,8,0:0:0:0:
256,192,106201,1,0,0:0:0:0:
256,192,106383,1,8,0:0:0:0:
256,192,106474,1,8,0:0:0:0:
256,192,106565,1,8,0:0:0:0:
256,192,106747,1,0,0:0:0:0:
256,192,106929,1,8,0:0:0:0:
256,192,107292,1,8,0:0:0:0:
256,192,107656,1,0,0:0:0:0:
256,192,108020,1,8,0:0:0:0:
256,192,108201,1,0,0:0:0:0:
256,192,108292,1,0,0:0:0:0:
256,192,108383,1,0,0:0:0:0:
256,192,108565,1,0,0:0:0:0:
256,192,108747,1,8,0:0:0:0:
256,192,108929,1,8,0:0:0:0:
256,192,109110,1,0,0:0:0:0:
256,192,109474,1,8,0:0:0:0:
256,192,109656,1,0,0:0:0:0:
256,192,109747,1,0,0:0:0:0:
256,192,109838,1,0,0:0:0:0:
256,192,110020,1,8,0:0:0:0:
256,192,110201,1,0,0:0:0:0:
256,192,110383,1,8,0:0:0:0:
256,192,110565,1,0,0:0:0:0:
256,192,110929,1,8,0:0:0:0:
256,192,111110,1,0,0:0:0:0:
256,192,111201,1,0,0:0:0:0:
256,192,111292,1,0,0:0:0:0:
256,192,111474,1,8,0:0:0:0:
256,192,111656,1,0,0:0:0:0:
256,192,111838,1,8,0:0:0:0:
256,192,112020,1,0,0:0:0:0:
256,192,112201,1,0,0:0:0:0:
256,192,112383,1,8,0:0:0:0:
256,192,112565,1,0,0:0:0:0:
256,192,112656,1,0,0:0:0:0:
256,192,112747,1,0,0:0:0:0:
256,192,112929,1,0,0:0:0:0:
256,192,113110,1,8,0:0:0:0:
256,192,113474,1,0,0:0:0:0:
256,192,113838,1,8,0:0:0:0:
256,192,114201,1,0,0:0:0:0:
256,192,114383,1,8,0:0:0:0:
256,192,114565,1,0,0:0:0:0:
256,192,114656,1,0,0:0:0:0:
256,192,114747,1,0,0:0:0:0:
256,192,114929,1,8,0:0:0:0:
256,192,115110,1,0,0:0:0:0:
256,192,115292,1,8,0:0:0:0:
256,192,115474,1,8,0:0:0:0:
256,192,115656,1,0,0:0:0:0:
256,192,115747,1,0,0:0:0:0:
256,192,115838,1,0,0:0:0:0:
256,192,116020,1,8,0:0:0:0:
256,192,116201,1,8,0:0:0:0:
256,192,116383,1,4,0:0:0:0:
