osu file format v14

[General]
AudioFilename: audio.mp3
AudioLeadIn: 0
PreviewTime: 46565
Countdown: 0
SampleSet: Normal
StackLeniency: 0.7
Mode: 1
LetterboxInBreaks: 0
WidescreenStoryboard: 1

[Editor]
DistanceSpacing: 1.5
BeatDivisor: 4
GridSize: 32
TimelineZoom: 2.5

[Metadata]
Title:Fubuki Guys
TitleUnicode:Fubuki Guys
Artist:Hamburgaga
ArtistUnicode:Hamburgaga
Creator:duski
Version:MTNT's Light Muzukashii
Source:Fall Guys: Ultimate Knockout
Tags:survive the fall shirakami 白上フブキ vtuber virtual youtuber fbk フブキch。 first 1st generation hololive gamers ホロライブゲーマーズ 一期生 ytpmv otoMAD 音MAD novelty electronic instrumental jukio kallio daniel hagström hagstrom hagstroem blackbq gevbiivi5 mtntwarz xavy x_a_v_y
BeatmapID:2612426
BeatmapSetID:1255559

[Difficulty]
HPDrainRate:6.5
CircleSize:6
OverallDifficulty:4.5
ApproachRate:6
SliderMultiplier:1.4
SliderTickRate:1

[Events]
//Background and Video events
0,0,"fbki.jpg",0,50
//Break Periods
//Storyboard Layer 0 (Background)
//Storyboard Layer 1 (Fail)
//Storyboard Layer 2 (Pass)
//Storyboard Layer 3 (Foreground)
//Storyboard Layer 4 (Overlay)
//Storyboard Sound Samples

[TimingPoints]
20,363.636363636364,4,1,0,80,1,0
23383,-100,4,1,0,60,0,0
46565,-100,4,1,0,80,0,0
58201,-90.9090909090909,4,1,0,80,0,1
69838,-90.9090909090909,4,1,0,80,0,0
69929,-100,4,1,0,80,0,0

[HitObjects]
256,192,20,5,0,0:0:0:0:
256,192,383,1,2,0:0:0:0:
256,192,656,1,2,0:0:0:0:
256,192,747,1,2,0:0:0:0:
256,192,929,1,2,0:0:0:0:
256,192,1110,1,2,0:0:0:0:
256,192,1292,1,0,0:0:0:0:
256,192,1656,1,0,0:0:0:0:
256,192,1838,1,2,0:0:0:0:
256,192,2020,1,2,0:0:0:0:
256,192,2383,1,0,0:0:0:0:
256,192,2565,1,0,0:0:0:0:
256,192,2747,1,2,0:0:0:0:
256,192,3110,1,2,0:0:0:0:
256,192,3292,1,0,0:0:0:0:
256,192,3474,1,0,0:0:0:0:
256,192,3838,1,0,0:0:0:0:
256,192,4020,1,0,0:0:0:0:
256,192,4201,1,2,0:0:0:0:
256,185,4565,1,2,0:0:0:0:
256,185,4747,1,2,0:0:0:0:
256,185,4929,1,2,0:0:0:0:
256,192,5838,5,0,0:0:0:0:
256,192,6201,1,2,0:0:0:0:
256,192,6474,1,2,0:0:0:0:
256,192,6565,1,2,0:0:0:0:
256,192,6747,1,2,0:0:0:0:
256,192,6929,1,2,0:0:0:0:
256,192,7110,1,0,0:0:0:0:
256,192,7474,1,0,0:0:0:0:
256,192,7656,1,2,0:0:0:0:
256,192,7838,1,2,0:0:0:0:
256,192,8201,1,0,0:0:0:0:
256,192,8292,1,0,0:0:0:0:
256,192,8383,1,0,0:0:0:0:
256,192,8565,1,2,0:0:0:0:
256,192,8929,1,2,0:0:0:0:
256,192,9110,1,0,0:0:0:0:
256,192,9292,1,0,0:0:0:0:
256,192,9656,1,0,0:0:0:0:
256,192,9747,1,0,0:0:0:0:
256,192,9838,1,0,0:0:0:0:
256,192,10020,1,0,0:0:0:0:
256,185,10383,1,0,0:0:0:0:
256,185,10565,1,0,0:0:0:0:
256,185,10747,1,2,0:0:0:0:
256,185,11110,1,2,0:0:0:0:
256,185,11292,1,2,0:0:0:0:
256,185,11474,1,2,0:0:0:0:
256,192,11656,5,0,0:0:0:0:
256,192,12020,1,2,0:0:0:0:
256,192,12292,1,2,0:0:0:0:
256,192,12383,1,2,0:0:0:0:
256,192,12565,1,2,0:0:0:0:
256,192,12747,1,2,0:0:0:0:
256,192,12929,1,0,0:0:0:0:
256,192,13292,1,0,0:0:0:0:
256,192,13474,1,2,0:0:0:0:
256,192,13656,1,2,0:0:0:0:
256,192,14020,1,0,0:0:0:0:
256,192,14201,1,0,0:0:0:0:
256,192,14383,1,2,0:0:0:0:
256,192,14747,1,0,0:0:0:0:
256,192,14929,1,0,0:0:0:0:
256,192,15110,1,2,0:0:0:0:
256,192,15474,1,2,0:0:0:0:
256,192,15656,1,0,0:0:0:0:
256,192,15838,1,2,0:0:0:0:
256,185,16201,1,2,0:0:0:0:
256,192,16292,1,2,0:0:0:0:
256,185,16383,1,2,0:0:0:0:
256,185,16565,1,0,0:0:0:0:
256,192,17474,5,0,0:0:0:0:
256,192,17838,1,2,0:0:0:0:
256,192,18110,1,0,0:0:0:0:
256,192,18201,1,0,0:0:0:0:
256,192,18383,1,2,0:0:0:0:
256,192,18565,1,2,0:0:0:0:
256,192,18747,1,0,0:0:0:0:
256,192,19110,1,0,0:0:0:0:
256,192,19292,1,2,0:0:0:0:
256,192,19474,1,2,0:0:0:0:
256,192,19838,1,0,0:0:0:0:
256,192,19929,1,0,0:0:0:0:
256,192,20020,1,0,0:0:0:0:
256,192,20201,1,2,0:0:0:0:
256,192,20565,1,2,0:0:0:0:
256,192,20747,1,0,0:0:0:0:
256,192,20929,1,0,0:0:0:0:
256,192,21292,1,0,0:0:0:0:
256,192,21383,1,0,0:0:0:0:
256,192,21474,1,0,0:0:0:0:
256,192,21656,1,0,0:0:0:0:
256,185,22020,1,2,0:0:0:0:
256,185,22201,1,2,0:0:0:0:
256,185,22383,1,2,0:0:0:0:
256,185,22747,1,2,0:0:0:0:
256,185,22929,1,2,0:0:0:0:
256,185,23110,1,2,0:0:0:0:
256,185,23292,1,0,0:0:0:0:
256,185,23656,1,2,0:0:0:0:
256,185,24020,1,0,0:0:0:0:
256,185,24383,1,2,0:0:0:0:
256,185,24565,1,2,0:0:0:0:
256,185,24747,1,0,0:0:0:0:
256,185,25110,1,2,0:0:0:0:
256,185,25292,1,0,0:0:0:0:
256,185,25474,1,2,0:0:0:0:
256,185,25838,1,2,0:0:0:0:
256,185,26201,1,0,0:0:0:0:
256,185,26565,1,0,0:0:0:0:
256,185,26747,1,2,0:0:0:0:
256,185,26929,1,0,0:0:0:0:
256,185,27110,1,2,0:0:0:0:
256,185,27292,1,0,0:0:0:0:
256,185,27656,1,0,0:0:0:0:
256,185,28201,1,0,0:0:0:0:
256,185,28383,1,2,0:0:0:0:
256,185,28474,1,2,0:0:0:0:
256,185,28565,1,2,0:0:0:0:
256,185,28747,1,0,0:0:0:0:
256,185,29110,1,0,0:0:0:0:
256,185,29838,1,2,0:0:0:0:
256,185,30020,1,2,0:0:0:0:
256,185,30201,1,2,0:0:0:0:
256,185,30565,1,0,0:0:0:0:
256,185,30929,1,0,0:0:0:0:
256,185,31292,1,0,0:0:0:0:
256,185,31474,1,2,0:0:0:0:
256,185,31656,1,2,0:0:0:0:
256,185,32383,1,2,0:0:0:0:
256,185,32747,1,2,0:0:0:0:
263,185,33110,1,2,0:0:0:0:
263,185,33474,1,2,0:0:0:0:
263,185,34020,1,2,0:0:0:0:
263,185,34201,1,2,0:0:0:0:
263,185,34565,1,0,0:0:0:0:
263,185,34929,1,6,0:0:0:0:
263,185,35656,1,2,0:0:0:0:
263,185,35838,1,0,0:0:0:0:
263,185,36020,1,2,0:0:0:0:
263,185,36110,1,2,0:0:0:0:
263,185,36201,1,2,0:0:0:0:
263,185,36383,1,0,0:0:0:0:
263,185,36747,1,0,0:0:0:0:
263,185,37110,1,0,0:0:0:0:
263,185,37474,1,2,0:0:0:0:
263,185,37838,1,2,0:0:0:0:
263,185,38020,1,2,0:0:0:0:
263,185,38201,1,0,0:0:0:0:
263,185,38565,1,2,0:0:0:0:
263,185,38747,1,2,0:0:0:0:
263,185,38929,1,0,0:0:0:0:
263,185,39292,1,2,0:0:0:0:
263,185,39656,1,0,0:0:0:0:
263,185,40020,1,0,0:0:0:0:
263,185,40747,1,2,0:0:0:0:
263,185,40929,1,2,0:0:0:0:
263,185,41110,1,0,0:0:0:0:
263,185,41292,1,2,0:0:0:0:
263,185,41656,1,0,0:0:0:0:
263,185,41838,1,0,0:0:0:0:
263,185,41929,1,0,0:0:0:0:
263,185,42020,1,0,0:0:0:0:
263,185,42383,1,2,0:0:0:0:
263,185,42747,1,0,0:0:0:0:
263,185,43110,1,2,0:0:0:0:
263,185,43474,1,0,0:0:0:0:
263,185,43838,1,2,0:0:0:0:
263,185,44020,1,0,0:0:0:0:
263,185,44201,1,2,0:0:0:0:
263,185,44565,1,0,0:0:0:0:
263,185,44747,1,2,0:0:0:0:
263,185,44929,1,0,0:0:0:0:
263,185,45292,1,0,0:0:0:0:
263,185,45474,1,2,0:0:0:0:
263,185,45656,1,2,0:0:0:0:
263,185,45838,1,0,0:0:0:0:
263,185,46020,1,2,0:0:0:0:
256,192,46565,5,0,0:0:0:0:
256,192,46929,1,2,0:0:0:0:
256,193,47201,1,0,0:0:0:0:
256,192,47292,1,0,0:0:0:0:
256,192,47656,1,2,0:0:0:0:
256,192,47838,1,0,0:0:0:0:
256,192,48201,1,0,0:0:0:0:
256,192,48383,1,2,0:0:0:0:
256,192,48565,1,2,0:0:0:0:
256,192,48929,1,0,0:0:0:0:
256,192,49110,1,0,0:0:0:0:
256,192,49292,1,2,0:0:0:0:
256,192,49656,1,2,0:0:0:0:
256,192,49838,1,0,0:0:0:0:
256,192,50020,1,0,0:0:0:0:
256,192,50383,1,0,0:0:0:0:
256,192,50565,1,0,0:0:0:0:
256,192,50747,1,2,0:0:0:0:
256,185,51110,1,2,0:0:0:0:
256,185,51292,1,2,0:0:0:0:
256,185,51474,1,2,0:0:0:0:
256,192,52383,5,0,0:0:0:0:
256,192,52747,1,2,0:0:0:0:
256,192,53020,1,2,0:0:0:0:
256,192,53110,1,2,0:0:0:0:
256,192,53474,1,2,0:0:0:0:
256,192,53656,1,0,0:0:0:0:
256,192,54020,1,0,0:0:0:0:
256,192,54201,1,2,0:0:0:0:
256,192,54383,1,2,0:0:0:0:
256,192,54747,1,0,0:0:0:0:
256,192,54929,1,0,0:0:0:0:
256,192,55110,1,2,0:0:0:0:
256,192,55474,1,2,0:0:0:0:
256,192,55656,1,0,0:0:0:0:
256,192,55838,1,0,0:0:0:0:
256,192,56201,1,0,0:0:0:0:
256,192,56383,1,0,0:0:0:0:
256,192,56565,1,0,0:0:0:0:
256,185,56929,1,0,0:0:0:0:
256,185,57110,1,0,0:0:0:0:
256,185,57292,1,2,0:0:0:0:
256,185,57656,1,2,0:0:0:0:
256,185,57838,1,2,0:0:0:0:
256,185,58020,1,2,0:0:0:0:
256,192,58201,5,2,0:0:0:0:
256,192,58565,1,0,0:0:0:0:
256,185,58838,1,2,0:0:0:0:
256,192,58929,1,2,0:0:0:0:
256,192,59110,1,2,0:0:0:0:
256,192,59292,1,2,0:0:0:0:
256,192,59474,1,0,0:0:0:0:
256,192,59838,1,0,0:0:0:0:
256,192,60020,1,2,0:0:0:0:
256,192,60201,1,2,0:0:0:0:
256,192,60565,1,0,0:0:0:0:
256,192,60656,1,0,0:0:0:0:
256,192,60747,1,0,0:0:0:0:
256,192,60929,1,2,0:0:0:0:
256,192,61292,1,2,0:0:0:0:
256,192,61474,1,0,0:0:0:0:
256,192,61656,1,0,0:0:0:0:
256,192,62020,1,0,0:0:0:0:
256,192,62110,1,0,0:0:0:0:
256,192,62201,1,0,0:0:0:0:
256,192,62383,1,2,0:0:0:0:
256,185,62747,1,2,0:0:0:0:
256,185,62929,1,2,0:0:0:0:
256,185,63110,1,2,0:0:0:0:
256,192,64020,5,2,0:0:0:0:
256,192,64383,1,0,0:0:0:0:
224,289,64656,1,0,0:0:0:0:
256,192,64747,1,0,0:0:0:0:
256,192,65110,1,2,0:0:0:0:
256,192,65292,1,0,0:0:0:0:
256,192,65656,1,0,0:0:0:0:
256,192,65838,1,2,0:0:0:0:
256,192,66020,1,2,0:0:0:0:
256,192,66383,1,0,0:0:0:0:
256,192,66474,1,0,0:0:0:0:
256,192,66565,1,0,0:0:0:0:
256,192,66747,1,2,0:0:0:0:
256,192,67110,1,2,0:0:0:0:
256,192,67474,1,0,0:0:0:0:
256,192,67656,1,2,0:0:0:0:
256,192,67838,1,0,0:0:0:0:
256,192,67929,1,0,0:0:0:0:
256,192,68020,1,0,0:0:0:0:
256,192,68201,1,0,0:0:0:0:
256,185,68565,1,2,0:0:0:0:
256,185,68747,1,0,0:0:0:0:
256,185,68929,1,2,0:0:0:0:
256,185,69292,1,2,0:0:0:0:
256,185,69656,1,2,0:0:0:0:
256,185,69838,1,0,0:0:0:0:
256,185,70201,1,2,0:0:0:0:
256,185,70565,1,2,0:0:0:0:
256,185,70747,1,2,0:0:0:0:
256,185,70929,1,0,0:0:0:0:
256,185,71110,1,2,0:0:0:0:
256,185,71656,1,2,0:0:0:0:
256,185,72020,1,0,0:0:0:0:
256,185,72201,1,2,0:0:0:0:
256,185,72383,1,0,0:0:0:0:
256,185,72747,1,0,0:0:0:0:
256,185,73110,1,2,0:0:0:0:
256,185,73474,1,2,0:0:0:0:
256,185,73656,1,0,0:0:0:0:
256,185,73838,1,2,0:0:0:0:
256,185,74020,1,0,0:0:0:0:
256,185,74565,1,2,0:0:0:0:
256,185,74929,1,2,0:0:0:0:
256,185,75110,1,0,0:0:0:0:
256,185,75292,1,2,0:0:0:0:
256,185,75656,1,2,0:0:0:0:
256,185,76020,1,0,0:0:0:0:
256,185,76383,1,2,0:0:0:0:
256,185,76565,1,2,0:0:0:0:
256,185,76747,1,0,0:0:0:0:
256,185,76929,1,0,0:0:0:0:
256,185,77292,1,2,0:0:0:0:
256,185,77656,1,2,0:0:0:0:
256,185,77747,1,2,0:0:0:0:
256,185,77838,1,2,0:0:0:0:
256,185,78020,1,2,0:0:0:0:
256,185,78201,1,0,0:0:0:0:
256,185,78565,1,0,0:0:0:0:
256,185,78929,1,2,0:0:0:0:
256,185,79110,1,2,0:0:0:0:
256,185,79201,1,2,0:0:0:0:
256,185,79292,1,2,0:0:0:0:
256,185,79474,1,0,0:0:0:0:
256,185,79656,1,2,0:0:0:0:
256,185,79838,1,0,0:0:0:0:
256,185,80201,1,2,0:0:0:0:
256,185,80565,1,2,0:0:0:0:
256,185,80929,1,2,0:0:0:0:
256,185,81110,1,2,0:0:0:0:
256,192,81474,5,2,0:0:0:0:
256,185,82110,1,0,0:0:0:0:
256,192,82201,1,0,0:0:0:0:
256,192,82383,1,2,0:0:0:0:
256,192,82565,1,2,0:0:0:0:
256,192,82747,1,0,0:0:0:0:
256,192,83110,1,0,0:0:0:0:
256,192,83292,1,2,0:0:0:0:
256,192,83474,1,2,0:0:0:0:
256,192,83656,1,0,0:0:0:0:
256,192,83747,1,0,0:0:0:0:
256,192,83838,1,0,0:0:0:0:
256,192,84020,1,2,0:0:0:0:
256,192,84383,1,2,0:0:0:0:
256,192,84565,1,0,0:0:0:0:
256,192,84747,1,0,0:0:0:0:
256,192,85110,1,0,0:0:0:0:
256,192,85292,1,0,0:0:0:0:
256,192,85474,1,2,0:0:0:0:
256,192,85838,1,0,0:0:0:0:
256,185,86020,1,2,0:0:0:0:
256,192,86201,1,0,0:0:0:0:
256,192,86565,1,2,0:0:0:0:
256,192,86747,1,0,0:0:0:0:
256,185,86929,1,2,0:0:0:0:
256,192,87292,5,2,0:0:0:0:
256,185,87929,1,0,0:0:0:0:
256,192,88020,1,0,0:0:0:0:
256,192,88201,1,2,0:0:0:0:
256,192,88383,1,2,0:0:0:0:
256,192,88565,1,0,0:0:0:0:
256,192,88929,1,0,0:0:0:0:
256,192,89110,1,2,0:0:0:0:
256,192,89292,1,2,0:0:0:0:
256,192,89474,1,0,0:0:0:0:
256,192,89565,1,0,0:0:0:0:
256,192,89656,1,0,0:0:0:0:
256,192,89838,1,2,0:0:0:0:
256,192,90201,1,2,0:0:0:0:
256,192,90383,1,0,0:0:0:0:
256,192,90565,1,0,0:0:0:0:
256,192,90747,1,2,0:0:0:0:
256,192,91110,1,0,0:0:0:0:
256,192,91292,1,2,0:0:0:0:
256,192,91474,1,0,0:0:0:0:
256,192,91838,1,0,0:0:0:0:
256,185,92020,1,2,0:0:0:0:
256,192,92201,1,2,0:0:0:0:
256,185,92747,1,0,0:0:0:0:
256,192,93110,5,2,0:0:0:0:
256,185,93474,1,0,0:0:0:0:
256,185,93747,1,0,0:0:0:0:
256,192,93838,1,0,0:0:0:0:
256,192,94020,1,2,0:0:0:0:
256,192,94383,1,0,0:0:0:0:
256,192,94747,1,0,0:0:0:0:
256,192,94929,1,2,0:0:0:0:
256,192,95292,1,0,0:0:0:0:
256,192,95383,1,0,0:0:0:0:
256,192,95474,1,0,0:0:0:0:
256,192,95656,1,2,0:0:0:0:
256,192,96020,1,2,0:0:0:0:
256,192,96201,1,0,0:0:0:0:
256,192,96383,1,2,0:0:0:0:
256,192,96747,1,0,0:0:0:0:
256,192,96929,1,0,0:0:0:0:
256,192,97110,1,2,0:0:0:0:
256,192,97474,1,0,0:0:0:0:
256,185,97656,1,2,0:0:0:0:
256,192,97838,1,0,0:0:0:0:
256,192,98201,1,2,0:0:0:0:
256,192,98929,5,2,0:0:0:0:
256,192,99292,1,0,0:0:0:0:
256,185,99565,1,0,0:0:0:0:
256,192,99656,1,0,0:0:0:0:
256,192,99838,1,2,0:0:0:0:
256,192,100201,1,0,0:0:0:0:
256,192,100565,1,0,0:0:0:0:
256,192,100747,1,2,0:0:0:0:
256,192,101110,1,0,0:0:0:0:
256,192,101201,1,0,0:0:0:0:
256,192,101292,1,0,0:0:0:0:
256,192,101474,1,2,0:0:0:0:
256,192,101838,1,2,0:0:0:0:
256,192,102020,1,0,0:0:0:0:
256,192,102201,1,0,0:0:0:0:
256,192,102383,1,2,0:0:0:0:
256,192,102747,1,0,0:0:0:0:
256,192,102929,1,2,0:0:0:0:
256,192,103110,1,0,0:0:0:0:
256,192,103474,1,0,0:0:0:0:
256,192,103656,1,0,0:0:0:0:
256,192,103838,1,0,0:0:0:0:
256,185,104383,1,2,0:0:0:0:
256,192,104747,5,0,0:0:0:0:
256,192,105110,1,0,0:0:0:0:
256,185,105383,1,0,0:0:0:0:
256,192,105474,1,0,0:0:0:0:
256,192,105656,1,2,0:0:0:0:
256,192,106020,1,0,0:0:0:0:
256,192,106383,1,0,0:0:0:0:
256,192,106565,1,2,0:0:0:0:
256,192,106929,1,0,0:0:0:0:
256,192,107020,1,0,0:0:0:0:
256,192,107110,1,0,0:0:0:0:
256,192,107292,1,2,0:0:0:0:
256,192,107656,1,2,0:0:0:0:
256,192,108020,1,0,0:0:0:0:
256,192,108383,1,0,0:0:0:0:
256,192,108565,1,0,0:0:0:0:
256,192,108747,1,2,0:0:0:0:
256,192,109110,1,0,0:0:0:0:
256,192,109474,1,0,0:0:0:0:
256,192,109656,1,2,0:0:0:0:
256,192,109838,1,0,0:0:0:0:
256,185,110201,1,0,0:0:0:0:
256,192,110565,5,0,0:0:0:0:
256,185,111201,1,0,0:0:0:0:
256,192,111292,1,0,0:0:0:0:
256,192,111474,1,2,0:0:0:0:
256,192,111656,1,2,0:0:0:0:
256,192,111838,1,0,0:0:0:0:
256,192,112201,1,0,0:0:0:0:
256,192,112383,1,2,0:0:0:0:
256,192,112565,1,2,0:0:0:0:
256,192,112747,1,0,0:0:0:0:
256,192,112838,1,0,0:0:0:0:
256,192,112929,1,0,0:0:0:0:
256,192,113110,1,2,0:0:0:0:
256,192,113474,1,2,0:0:0:0:
256,192,113656,1,0,0:0:0:0:
256,192,113838,1,0,0:0:0:0:
256,192,114020,1,2,0:0:0:0:
256,192,114383,1,2,0:0:0:0:
256,192,114565,1,0,0:0:0:0:
256,192,114747,1,2,0:0:0:0:
256,192,115110,1,0,0:0:0:0:
256,192,115292,1,0,0:0:0:0:
256,192,115474,1,0,0:0:0:0:
256,192,115838,1,2,0:0:0:0:
256,185,116020,1,0,0:0:0:0:
256,192,116383,1,4,0:0:0:0:
