osu file format v14

[General]
AudioFilename: audio.mp3
AudioLeadIn: 0
PreviewTime: 25
Countdown: 0
SampleSet: Soft
StackLeniency: 0.7
Mode: 0
LetterboxInBreaks: 0
WidescreenStoryboard: 1

[Editor]
DistanceSpacing: 1
BeatDivisor: 4
GridSize: 32
TimelineZoom: 1

[Metadata]
Title:Fubuki Guys
TitleUnicode:Fubuki Guys
Artist:Hamburgaga
ArtistUnicode:Hamburgaga
Creator:-Aqua
Version:Easy
Source:Fall Guys: Ultimate Knockout
Tags:白上フブキ Shirakami Fubuki フブキCh。白上フブキ Fubuki Channel FBK ホロライブ hololive Survive The Fall Virtual YouTuber VTuber hororaibu cover カバー idol Neko Cat Kitsune Fox Burger King FOXBURGERKING Remix Electronic Vocal Novelty Instrumental ytpmv 音MAD BGM Amateurre Mocaotic xidorn Kazato Asa Shizuku- Jukio Kallio Daniel Hagström Hagstrom
BeatmapID:2661971
BeatmapSetID:1281581

[Difficulty]
HPDrainRate:2
CircleSize:3
OverallDifficulty:2
ApproachRate:3
SliderMultiplier:1
SliderTickRate:1

[Events]
//Background and Video events
0,0,"fubuki my wife.jpg",0,0
//Break Periods
//Storyboard Layer 0 (Background)
//Storyboard Layer 1 (Fail)
//Storyboard Layer 2 (Pass)
//Storyboard Layer 3 (Foreground)
//Storyboard Layer 4 (Overlay)
//Storyboard Sound Samples

[TimingPoints]
25,363.636363636364,4,2,1,70,1,0
5570,-100,4,2,1,5,0,0
5661,-100,4,2,1,70,0,0
5752,-100,4,2,1,5,0,0
5843,-100,4,2,1,70,0,0
6115,-100,4,2,1,5,0,0
6206,-100,4,2,1,70,0,0
6843,-100,4,2,1,5,0,0
6934,-100,4,2,1,70,0,0
11388,-100,4,2,1,5,0,0
11479,-100,4,2,1,70,0,0
11570,-100,4,2,1,5,0,0
11661,-100,4,2,1,70,0,0
17206,-100,4,2,1,5,0,0
17297,-100,4,2,1,70,0,0
17388,-100,4,2,1,5,0,0
17479,-100,4,2,1,70,0,0
17751,-100,4,2,1,5,0,0
17842,-100,4,2,1,70,0,0
18479,-100,4,2,1,5,0,0
18570,-100,4,2,1,70,0,0
23025,-100,4,2,1,5,0,0
23115,-100,4,2,1,70,0,0
23206,-100,4,2,1,5,0,0
23297,-100,4,2,1,55,0,0
34934,-100,4,2,1,60,0,0
46570,-100,4,2,1,70,0,0
52115,-100,4,2,1,5,0,0
52206,-100,4,2,1,70,0,0
52297,-100,4,2,1,5,0,0
52388,-100,4,2,1,70,0,0
52660,-100,4,2,1,5,0,0
52751,-100,4,2,1,70,0,0
53388,-100,4,2,1,5,0,0
53479,-100,4,2,1,70,0,0
57934,-100,4,2,1,5,0,0
58024,-100,4,2,1,70,0,0
58115,-100,4,2,1,5,0,0
58206,-100,4,2,1,85,0,0
63752,-100,4,2,1,5,0,0
63843,-100,4,2,1,85,0,0
63934,-100,4,2,1,5,0,0
64025,-100,4,2,1,85,0,0
64297,-100,4,2,1,5,0,0
64388,-100,4,2,1,85,0,0
65025,-100,4,2,1,5,0,0
65116,-100,4,2,1,85,0,0
69388,-100,4,2,1,5,0,0
69479,-100,4,2,1,85,0,0
69570,-100,4,2,1,5,0,0
69661,-100,4,2,1,85,0,0
69752,-100,4,2,1,5,0,0
69843,-100,4,2,1,70,0,0
81479,-100,4,2,1,80,0,0
93115,-100,4,2,1,70,0,0
114752,-100,4,2,1,60,0,0
115115,-100,4,2,1,70,0,0
115479,-100,4,2,1,80,0,0
115843,-100,4,2,1,90,0,0
116206,-100,4,2,1,100,0,0
116388,-100,4,2,1,55,0,0

[Colours]
Combo1 : 168,211,255
Combo2 : 211,211,211
Combo3 : 255,168,168

[HitObjects]
32,352,25,6,0,P|83:341|146:333,1,100,4|10,1:0|0:0,0:0:0:0:
183,249,752,1,2,1:2:0:0:
316,317,1297,2,0,P|347:276|329:217,1,100,2|0,1:2|1:0,0:0:0:0:
250,184,2025,2,0,P|219:143|237:84,1,100,2|0,1:2|1:0,0:0:0:0:
294,24,2752,6,0,B|426:24|350:93|486:86,1,200,2|2,1:2|1:2,0:0:0:0:
508,180,3843,1,0,1:0:0:0:
433,246,4206,2,0,P|367:223|307:202,1,100,2|0,1:2|1:0,0:0:0:0:
283,129,4934,2,0,P|220:152|131:179,1,150,2|0,1:2|1:2,0:0:0:0:
65,242,5843,6,0,P|45:178|28:126,1,100,2|10,1:2|0:0,0:0:0:0:
112,83,6570,1,2,1:2:0:0:
243,11,7115,2,0,P|229:113|226:149,1,100,2|0,1:2|1:0,0:0:0:0:
162,184,7843,2,0,P|176:286|179:322,1,100,2|0,1:2|1:0,0:0:0:0:
279,329,8570,6,0,P|350:348|405:231,1,200,2|2,1:2|1:2,0:0:0:0:
495,198,9661,1,0,1:0:0:0:
426,125,10025,2,0,P|369:144|315:162,1,100,2|0,1:2|1:0,0:0:0:0:
275,240,10752,1,2,1:2:0:0:
181,204,11115,1,0,1:0:0:0:
65,299,11661,6,0,P|68:347|101:384,1,100,4|10,1:0|0:0,0:0:0:0:
191,340,12388,1,2,1:2:0:0:
316,258,12934,2,0,P|291:188|271:122,1,100,2|0,1:2|1:0,0:0:0:0:
203,102,13661,2,0,P|187:149|170:196,1,100,2|0,1:2|1:0,0:0:0:0:
81,242,14388,6,0,P|31:217|93:83,1,200,2|2,1:2|1:2,0:0:0:0:
132,37,15479,1,0,1:0:0:0:
203,102,15843,2,0,P|267:111|324:122,1,100,2|0,1:2|1:0,0:0:0:0:
387,65,16570,2,0,B|428:103|428:103|398:207,1,150,2|0,1:2|1:2,0:0:0:0:
405,293,17479,6,0,P|350:270|301:254,1,100,2|10,1:2|0:0,0:0:0:0:
232,318,18206,1,2,1:2:0:0:
90,369,18752,2,0,P|71:299|57:257,1,100,2|0,1:2|1:0,0:0:0:0:
153,232,19479,2,0,P|172:162|186:120,1,100,2|0,1:2|1:0,0:0:0:0:
123,53,20206,6,0,B|252:68|168:125|302:140,1,200,2|2,1:2|1:2,0:0:0:0:
375,79,21297,1,0,1:0:0:0:
448,146,21661,2,0,P|401:199|411:252,1,100,2|0,1:2|1:0,0:0:0:0:
476,289,22388,1,2,1:2:0:0:
403,357,22752,1,0,1:0:0:0:
237,365,23297,6,0,P|169:338|40:299,1,200,4|2,1:0|0:0,0:0:0:0:
14,206,24388,1,2,0:0:0:0:
98,152,24752,2,0,P|137:122|185:126,1,100,2|2,0:0|0:0,0:0:0:0:
225,218,25479,2,0,P|264:247|312:243,1,100,2|2,0:0|0:0,0:0:0:0:
413,241,26206,5,2,1:2:0:0:
502,61,26934,1,2,0:0:0:0:
404,41,27297,1,2,0:0:0:0:
312,1,27661,2,0,P|246:19|199:28,1,100,2|2,0:0|0:2,0:0:0:0:
159,106,28388,2,0,P|207:116|255:130,1,100,2|2,0:0|0:2,0:0:0:0:
307,216,29115,5,2,1:2:0:0:
387,156,29479,1,2,0:2:0:0:
457,227,29843,2,0,P|511:311|421:366,1,200,2|2,0:0|0:0,0:0:0:0:
362,318,30934,1,2,1:2:0:0:
279,373,31297,2,0,P|229:350|181:335,1,100,2|2,0:0|0:0,0:0:0:0:
92,372,32025,5,2,1:2:0:0:
115,173,32752,1,2,0:0:0:0:
18,149,33115,1,2,0:0:0:0:
39,60,33479,2,0,B|97:22|97:22|222:64,1,200,2|2,0:0|0:0,0:0:0:0:
304,118,34570,1,2,0:0:0:0:
395,78,34934,6,0,P|420:132|410:179,1,100,2|0,1:2|3:0,0:0:0:0:
338,235,35661,1,2,3:2:0:0:
242,204,36025,1,2,3:2:0:0:
185,286,36388,2,0,B|200:338|219:396,1,100,2|0,3:2|3:0,0:0:0:0:
314,382,37115,2,0,P|362:366|430:349,1,100,0|2,3:0|3:2,0:0:0:0:
472,274,37843,6,0,B|405:182|518:190|408:55,1,200,2|2,1:2|3:2,0:0:0:0:
352,25,38934,1,2,3:2:0:0:
254,3,39297,2,0,P|211:17|147:31,1,100,2|2,3:2|3:2,0:0:0:0:
100,111,40025,2,0,P|148:121|196:137,1,100,0|0,3:0|3:0,0:0:0:0:
292,252,40934,6,0,P|273:329|265:370,1,100,2|0,0:0|3:0,0:0:0:0:
173,379,41661,2,0,P|162:330|149:281,1,100,0|0,3:0|0:0,0:0:0:0:
58,241,42388,2,0,P|24:192|113:100,1,200,2|0,1:2|3:0,0:0:0:0:
177,163,43479,1,2,3:2:0:0:
241,239,43843,6,0,P|320:252|364:257,1,100,2|0,0:0|3:0,0:0:0:0:
388,167,44570,2,0,P|437:160|486:151,2,100,0|2|2,3:0|0:0|3:2,0:0:0:0:
337,80,45661,1,2,0:0:0:0:
337,80,46025,1,2,0:0:0:0:
202,14,46570,6,0,P|151:25|88:33,1,100,4|10,1:0|0:0,0:0:0:0:
42,110,47297,1,2,1:2:0:0:
176,176,47842,2,0,B|207:217|207:217|189:276,1,100,2|0,1:2|1:0,0:0:0:0:
92,273,48570,2,0,B|61:314|61:314|79:373,1,100,2|0,1:2|1:0,0:0:0:0:
172,383,49297,6,0,B|304:383|228:314|364:321,1,200,2|2,1:2|1:2,0:0:0:0:
439,372,50388,1,0,1:0:0:0:
504,296,50751,2,0,P|492:255|471:167,1,100,2|0,1:2|1:0,0:0:0:0:
402,133,51479,2,0,P|339:156|250:183,1,150,2|0,1:2|1:2,0:0:0:0:
190,252,52388,6,0,P|126:232|74:215,1,100,2|10,1:2|0:0,0:0:0:0:
35,141,53115,1,2,1:2:0:0:
127,22,53661,2,0,P|177:18|265:5,1,100,2|0,1:2|1:0,0:0:0:0:
294,85,54388,2,0,P|335:171|309:202,1,100,2|0,1:2|1:0,0:0:0:0:
261,230,55115,6,0,P|242:301|359:356,1,200,2|2,1:2|1:2,0:0:0:0:
392,282,56206,1,0,1:0:0:0:
481,327,56570,2,0,P|490:264|499:212,1,100,2|0,1:2|1:0,0:0:0:0:
424,158,57297,1,2,1:2:0:0:
499,92,57660,1,0,1:0:0:0:
366,21,58206,6,0,P|314:9|238:-9,1,100,4|10,1:0|0:0,0:0:0:0:
184,52,58933,1,2,1:2:0:0:
304,142,59479,2,0,P|300:213|254:249,1,100,2|0,1:2|1:0,0:0:0:0:
213,305,60206,2,0,P|176:274|180:211,1,100,2|0,1:2|1:0,0:0:0:0:
92,165,60933,6,0,P|80:232|55:366,1,200,2|2,1:2|1:2,0:0:0:0:
154,380,62024,1,0,1:0:0:0:
217,303,62388,2,0,P|281:294|338:283,1,100,2|0,1:2|1:0,0:0:0:0:
405,331,63115,2,0,P|437:290|391:181,1,150,2|0,1:2|1:2,0:0:0:0:
430,100,64024,6,0,P|375:123|326:139,1,100,2|10,1:2|0:0,0:0:0:0:
303,230,64751,1,2,1:2:0:0:
153,221,65297,2,0,P|125:141|111:100,1,100,2|0,1:2|1:0,0:0:0:0:
168,39,66024,2,0,P|238:20|319:-3,1,150,2|10,1:2|0:0,0:0:0:0:
404,38,66934,6,0,B|434:84|434:84|429:155,1,100,4|0,1:0|1:0,0:0:0:0:
332,146,67661,2,0,B|302:192|302:192|307:263,1,100,4|0,1:0|1:0,0:0:0:0:
405,229,68388,1,4,1:0:0:0:
482,293,68752,1,4,1:0:0:0:
482,293,69115,2,0,B|512:339|512:339|507:410,1,100,4|2,1:0|1:2,0:0:0:0:
408,383,69843,6,0,P|337:361|272:339,1,100,2|10,1:2|0:0,0:0:0:0:
240,221,70752,2,0,B|165:243|117:265,1,100,0|0,1:2|1:0,0:0:0:0:
93,338,71479,1,0,1:0:0:0:
6,288,71843,2,0,P|14:221|16:121,1,150,0|10,1:0|0:0,0:0:0:0:
111,101,72752,5,0,1:0:0:0:
111,101,73115,1,10,0:0:0:0:
218,206,73661,1,0,1:2:0:0:
134,260,74025,2,0,B|128:313|128:313|165:362,1,100,0|0,1:0|1:0,0:0:0:0:
253,374,74752,2,0,P|324:354|404:332,1,150,0|10,1:0|0:0,0:0:0:0:
436,241,75661,6,0,P|413:196|387:126,1,100,2|10,1:2|0:0,0:0:0:0:
249,113,76570,1,0,1:2:0:0:
206,203,76934,2,0,P|154:239|94:231,1,100,0|0,1:0|1:0,0:0:0:0:
35,183,77661,2,0,P|56:109|63:53,1,100,0|2,1:0|1:2,0:0:0:0:
195,21,78570,5,0,1:0:0:0:
195,21,78934,1,10,0:0:0:0:
302,125,79479,1,0,1:2:0:0:
388,73,79843,2,0,B|417:117|417:117|409:163,1,100,0|0,1:0|1:0,0:0:0:0:
332,227,80570,2,0,B|306:286|306:286|359:391,1,150,0|10,1:0|0:0,0:0:0:0:
417,293,81479,6,0,P|487:270|522:262,1,100,4|10,1:0|0:0,0:0:0:0:
436,134,82388,2,0,P|368:104|328:93,1,100,2|0,1:2|1:0,0:0:0:0:
308,190,83115,2,0,B|215:205|267:242|152:260,1,150,2|2,1:2|1:2,0:0:0:0:
114,334,84025,1,10,0:0:0:0:
19,302,84388,6,0,P|-10:235|29:174,1,150,0|0,1:0|1:0,0:0:0:0:
98,103,85297,1,0,1:2:0:0:
189,144,85661,2,0,P|260:123|318:109,1,100,0|0,1:0|1:0,0:0:0:0:
371,65,86388,2,0,B|337:125|337:125|379:237,1,150,0|10,1:0|0:0,0:0:0:0:
456,243,87297,6,0,P|436:318|430:353,1,100,2|10,1:2|0:0,0:0:0:0:
291,285,88206,2,0,P|280:236|266:188,1,100,2|0,1:2|1:0,0:0:0:0:
352,134,88934,2,0,P|387:93|332:13,1,150,2|2,1:2|1:2,0:0:0:0:
261,66,89843,1,10,0:0:0:0:
189,136,90206,6,0,B|139:120|139:120|101:134|101:134|19:106,1,150,0|0,1:0|1:0,0:0:0:0:
4,206,91115,1,0,1:2:0:0:
63,286,91479,2,0,P|134:265|192:251,1,100,0|0,1:0|1:0,0:0:0:0:
220,337,92206,2,0,B|321:328|267:384|387:370,1,150,0|10,1:0|0:0,0:0:0:0:
430,299,93115,5,4,1:0:0:0:
430,299,93479,1,10,0:0:0:0:
345,175,94025,2,0,P|297:193|230:211,1,100,0|0,1:2|1:0,0:0:0:0:
191,287,94752,2,0,P|108:256|40:217,1,150,0|0,1:0|1:0,0:0:0:0:
16,133,95661,1,10,0:0:0:0:
87,62,96025,6,0,P|136:47|241:6,1,150,0|0,1:0|1:0,0:0:0:0:
296,84,96934,1,0,1:2:0:0:
388,47,97297,2,0,P|428:89|419:162,1,100,0|0,1:0|1:0,0:0:0:0:
367,205,98025,2,0,P|289:187|203:168,1,150,0|10,1:0|0:0,0:0:0:0:
172,83,98934,6,0,P|114:99|55:112,1,100,2|10,1:2|0:0,0:0:0:0:
19,247,99843,2,0,P|77:263|136:276,1,100,0|0,1:2|1:0,0:0:0:0:
198,214,100570,2,0,B|287:223|241:270|348:274,1,150,0|0,1:0|1:0,0:0:0:0:
380,360,101479,1,10,0:0:0:0:
472,320,101843,6,0,P|507:270|450:185,1,150,0|0,1:0|1:0,0:0:0:0:
385,240,102752,1,0,1:2:0:0:
289,209,103115,2,0,P|254:159|279:98,1,100,0|0,1:0|1:0,0:0:0:0:
333,55,103843,2,0,P|269:34|176:-1,1,150,0|10,1:0|0:0,0:0:0:0:
122,77,104752,5,4,1:0:0:0:
122,77,105115,1,10,0:0:0:0:
4,169,105661,2,0,P|17:235|32:298,1,100,0|0,1:2|1:0,0:0:0:0:
98,333,106388,2,0,B|189:335|142:374|251:368,1,150,0|0,1:0|1:0,0:0:0:0:
317,304,107297,1,10,0:0:0:0:
249,230,107661,6,0,P|221:150|209:93,1,100,0|10,1:0|0:0,0:0:0:0:
333,40,108570,1,0,1:2:0:0:
418,91,108934,2,0,P|401:168|397:203,1,100,0|0,1:0|1:0,0:0:0:0:
471,256,109661,2,0,P|494:322|405:357,1,150,0|10,1:0|0:0,0:0:0:0:
358,304,110570,5,2,1:2:0:0:
358,304,110934,1,10,0:0:0:0:
216,353,111479,2,0,P|164:330|114:312,1,100,0|0,1:2|1:0,0:0:0:0:
44,254,112206,2,0,B|23:191|23:191|65:92,1,150,0|0,1:0|1:0,0:0:0:0:
144,67,113115,1,10,0:0:0:0:
220,131,113479,6,0,P|276:110|318:95,1,100,0|10,1:0|0:0,0:0:0:0:
371,235,114388,2,0,P|418:249|465:266,1,100,0|0,1:2|1:0,0:0:0:0:
508,175,115115,1,0,1:0:0:0:
508,175,115479,2,0,P|527:110|459:53,1,150,0|10,1:0|0:0,0:0:0:0:
378,26,116388,5,4,1:0:0:0:
