osu file format v14

[General]
AudioFilename: audio.mp3
AudioLeadIn: 0
PreviewTime: 25
Countdown: 0
SampleSet: Soft
StackLeniency: 0.7
Mode: 0
LetterboxInBreaks: 0
WidescreenStoryboard: 1

[Editor]
Bookmarks: 23287,34924,46560,69833,93105,116378
DistanceSpacing: 0.5
BeatDivisor: 4
GridSize: 16
TimelineZoom: 2.5

[Metadata]
Title:Fubuki Guys
TitleUnicode:Fubuki Guys
Artist:Hamburgaga
ArtistUnicode:Hamburgaga
Creator:-Aqua
Version:Amateurre's Insane
Source:Fall Guys: Ultimate Knockout
Tags:白上フブキ Shirakami Fubuki フブキCh。白上フブキ Fubuki Channel FBK ホロライブ hololive Survive The Fall Virtual YouTuber VTuber hororaibu cover カバー idol Neko Cat Kitsune Fox Burger King FOXBURGERKING Remix Electronic Vocal Novelty Instrumental ytpmv 音MAD BGM Amateurre Mocaotic xidorn Kazato Asa Shizuku- Jukio Kallio Daniel Hagström Hagstrom
BeatmapID:2661970
BeatmapSetID:1281581

[Difficulty]
HPDrainRate:5
CircleSize:3.8
OverallDifficulty:8
ApproachRate:8.8
SliderMultiplier:1.6
SliderTickRate:1

[Events]
//Background and Video events
0,0,"fubuki my wife.jpg",0,0
//Break Periods
2,23497,34305
//Storyboard Layer 0 (Background)
//Storyboard Layer 1 (Fail)
//Storyboard Layer 2 (Pass)
//Storyboard Layer 3 (Foreground)
//Storyboard Layer 4 (Overlay)
//Storyboard Sound Samples

[TimingPoints]
25,363.636363636364,4,2,1,70,1,0
5570,-100,4,2,1,5,0,0
5661,-100,4,2,1,70,0,0
5752,-100,4,2,1,5,0,0
5843,-100,4,2,1,70,0,0
6115,-100,4,2,1,5,0,0
6206,-100,4,2,1,70,0,0
6843,-100,4,2,1,5,0,0
6934,-100,4,2,1,70,0,0
11388,-100,4,2,1,5,0,0
11479,-100,4,2,1,70,0,0
11570,-100,4,2,1,5,0,0
11661,-100,4,2,1,70,0,0
17206,-100,4,2,1,5,0,0
17297,-100,4,2,1,70,0,0
17388,-100,4,2,1,5,0,0
17479,-100,4,2,1,70,0,0
17751,-100,4,2,1,5,0,0
17842,-100,4,2,1,70,0,0
18479,-100,4,2,1,5,0,0
18570,-100,4,2,1,70,0,0
23025,-100,4,2,1,5,0,0
23115,-100,4,2,1,70,0,0
23206,-100,4,2,1,5,0,0
23297,-100,4,2,1,55,0,0
34934,-125,4,2,1,60,0,0
46570,-100,4,2,1,70,0,0
52115,-100,4,2,1,5,0,0
52206,-100,4,2,1,70,0,0
52297,-100,4,2,1,5,0,0
52388,-100,4,2,1,70,0,0
52660,-100,4,2,1,5,0,0
52751,-100,4,2,1,70,0,0
53388,-100,4,2,1,5,0,0
53479,-100,4,2,1,70,0,0
57934,-100,4,2,1,5,0,0
58024,-100,4,2,1,70,0,0
58115,-100,4,2,1,5,0,0
58206,-100,4,2,1,85,0,0
63752,-100,4,2,1,5,0,0
63843,-100,4,2,1,85,0,0
63934,-100,4,2,1,5,0,0
64025,-100,4,2,1,85,0,0
64297,-100,4,2,1,5,0,0
64388,-100,4,2,1,85,0,0
65025,-100,4,2,1,5,0,0
65116,-100,4,2,1,85,0,0
69479,-100,4,2,1,85,0,0
69570,-100,4,2,1,5,0,0
69661,-100,4,2,1,85,0,0
69752,-100,4,2,1,5,0,0
69843,-100,4,2,1,70,0,0
81479,-100,4,2,1,80,0,0
93115,-100,4,2,1,70,0,0
114752,-100,4,2,1,60,0,0
115115,-100,4,2,1,70,0,0
115479,-100,4,2,1,80,0,0
115843,-100,4,2,1,90,0,0
116206,-100,4,2,1,100,0,0
116388,-100,4,2,1,55,0,0

[Colours]
Combo1 : 168,211,255
Combo2 : 211,211,211
Combo3 : 255,168,168

[HitObjects]
38,109,25,6,0,P|80:90|131:100,1,80,4|0,1:0|0:0,0:0:0:0:
167,17,388,2,0,L|153:202,1,160,10|0,0:0|1:0,0:0:0:0:
214,311,934,1,0,1:0:0:0:
93,243,1115,1,10,0:0:0:0:
255,221,1297,6,0,B|341:214|317:275|409:271,1,160,0|0,1:0|1:0,0:0:0:0:
484,141,1843,1,10,0:0:0:0:
410,191,2025,2,0,P|425:284|435:355,1,160,0|0,1:0|1:0,0:0:0:0:
301,380,2570,1,10,0:0:0:0:
214,311,2752,5,0,1:0:0:0:
214,311,2843,1,0,1:0:0:0:
214,311,2934,2,0,L|119:290,1,80,0|0,1:0|1:0,0:0:0:0:
0,286,3297,1,10,0:0:0:0:
50,363,3479,2,0,B|94:321|94:321|73:212,1,160,0|0,1:0|1:0,0:0:0:0:
152,67,4025,1,10,0:0:0:0:
28,148,4206,6,0,P|92:134|160:211,1,160,0|0,1:0|1:0,0:0:0:0:
311,81,4752,1,10,0:0:0:0:
227,244,4934,2,0,B|249:143|249:143|226:111|227:78,1,160,0|0,1:0|1:0,0:0:0:0:
347,5,5479,1,2,1:2:0:0:
347,5,5661,1,2,1:2:0:0:
441,130,5843,6,0,P|489:109|511:54,1,80,2|0,1:2|0:0,0:0:0:0:
470,225,6206,2,0,P|437:173|328:167,1,160,10|0,0:0|1:0,0:0:0:0:
288,304,6752,1,0,1:0:0:0:
381,246,6934,1,10,0:0:0:0:
251,130,7115,6,0,L|279:308,1,160,0|0,1:0|1:0,0:0:0:0:
423,368,7661,1,10,0:0:0:0:
493,312,7843,2,0,B|490:253|490:253|508:228|508:228|501:131,1,160,0|0,1:0|1:0,0:0:0:0:
376,2,8388,1,10,0:0:0:0:
508,58,8570,5,0,1:0:0:0:
508,58,8661,1,0,1:0:0:0:
508,58,8752,2,0,L|404:80,1,80,0|0,1:0|1:0,0:0:0:0:
296,125,9115,1,10,0:0:0:0:
378,148,9297,2,0,B|407:106|407:106|368:-22,1,160,0|0,1:0|1:0,0:0:0:0:
212,86,9843,1,10,0:0:0:0:
144,25,10025,6,0,P|86:17|55:117,1,160,0|0,1:0|1:0,0:0:0:0:
154,164,10570,1,10,0:0:0:0:
15,206,10752,2,0,B|80:218|80:218|100:242|100:242|188:260,1,160,0|0,1:0|1:0,0:0:0:0:
291,171,11297,1,2,1:2:0:0:
369,295,11479,1,2,1:2:0:0:
485,180,11661,6,0,P|449:197|410:196,1,80,4|0,1:0|0:0,0:0:0:0:
277,319,12024,2,0,P|354:320|404:379,1,160,10|0,0:0|1:0,0:0:0:0:
482,263,12570,1,0,1:0:0:0:
369,295,12751,1,10,0:0:0:0:
288,227,12933,6,0,B|202:220|226:281|134:277,1,160,0|0,1:0|1:0,0:0:0:0:
126,105,13479,1,10,0:0:0:0:
42,175,13661,2,0,P|117:188|202:209,1,160,0|0,1:0|1:0,0:0:0:0:
316,47,14206,1,10,0:0:0:0:
398,100,14388,5,0,1:0:0:0:
398,100,14479,1,0,1:0:0:0:
398,100,14570,2,0,L|377:195,1,80,0|0,1:0|1:0,0:0:0:0:
375,311,14933,1,10,0:0:0:0:
452,261,15115,2,0,B|410:217|410:217|301:238,1,160,0|0,1:0|1:0,0:0:0:0:
203,118,15661,1,10,0:0:0:0:
125,188,15843,6,0,L|144:359,1,160,0|0,1:0|1:0,0:0:0:0:
32,233,16388,1,10,0:0:0:0:
175,270,16570,2,0,B|267:263|230:354|337:328,1,160,0|0,1:0|1:0,0:0:0:0:
487,248,17115,1,2,1:2:0:0:
487,248,17297,1,2,1:2:0:0:
382,92,17479,6,0,L|392:185,1,80,2|0,1:2|0:0,0:0:0:0:
281,54,17843,2,0,L|296:236,1,160,10|0,0:0|1:0,0:0:0:0:
207,294,18388,1,0,1:0:0:0:
133,171,18570,1,10,0:0:0:0:
36,273,18752,6,0,B|137:250|109:333|221:303,1,160,0|0,1:0|1:0,0:0:0:0:
306,220,19297,1,10,0:0:0:0:
395,378,19479,2,0,P|444:364|426:252,1,160,0|0,1:0|1:0,0:0:0:0:
382,170,20025,1,10,0:0:0:0:
485,91,20206,5,0,1:0:0:0:
485,91,20297,1,0,1:0:0:0:
485,91,20388,2,0,L|478:190,1,80,0|0,1:0|1:0,0:0:0:0:
327,236,20752,1,10,0:0:0:0:
259,93,20934,2,0,B|321:111|321:111|341:144|341:144|404:161,1,160,0|0,1:0|1:0,0:0:0:0:
216,176,21479,1,10,0:0:0:0:
266,343,21661,6,0,P|329:318|312:223,1,160,0|0,1:0|1:0,0:0:0:0:
194,189,22206,1,10,0:0:0:0:
111,225,22388,2,0,L|125:393,1,160,0|0,1:0|1:0,0:0:0:0:
25,262,22934,1,2,1:2:0:0:
194,189,23115,1,2,1:2:0:0:
120,135,23297,1,4,1:0:0:0:
22,73,34934,6,0,P|94:42|141:62,1,128,2|0,1:2|3:0,0:0:0:0:
229,123,35479,1,0,3:0:0:0:
229,123,35570,1,0,3:0:0:0:
229,123,35661,2,0,L|269:118,2,32,2|0|0,3:2|3:0|3:0,0:0:0:0:
147,183,36025,1,2,3:2:0:0:
441,25,36570,6,0,L|435:101,1,64,2|0,1:2|3:0,0:0:0:0:
457,114,36843,2,0,L|451:190,1,64,0|0,3:0|3:0,0:0:0:0:
468,205,37115,2,0,L|464:244,2,32,0|0|0,3:0|3:0|0:0,0:0:0:0:
377,204,37479,1,2,3:2:0:0:
512,376,37843,6,0,P|440:345|393:365,1,128,2|0,1:2|3:0,0:0:0:0:
326,269,38388,1,0,3:0:0:0:
326,269,38479,1,0,3:0:0:0:
326,269,38570,2,0,L|331:229,2,32,2|0|0,3:2|3:0|3:0,0:0:0:0:
257,342,38934,1,2,3:2:0:0:
71,282,39479,5,0,3:0:0:0:
71,282,39570,1,0,3:0:0:0:
71,282,39661,1,2,3:2:0:0:
71,282,39752,1,0,3:0:0:0:
155,237,39934,2,0,L|200:230,3,32,0|0|0|0,3:0|3:0|3:0|3:0,0:0:0:0:
76,184,40388,1,0,3:0:0:0:
223,37,40752,6,0,P|295:68|342:48,1,128,0|0,1:0|3:0,0:0:0:0:
429,135,41297,1,0,3:0:0:0:
429,135,41388,1,0,3:0:0:0:
429,135,41479,2,0,L|424:95,2,32,2|0|0,3:2|3:0|3:0,0:0:0:0:
322,203,41843,1,2,3:2:0:0:
119,32,42388,6,0,P|102:66|113:108,1,64,2|0,1:2|0:0,0:0:0:0:
129,129,42661,2,0,P|166:115|211:130,1,64,0|0,3:0|3:0,0:0:0:0:
222,146,42934,2,0,L|218:185,2,32,2|0|0,3:2|3:0|3:0,0:0:0:0:
152,227,43297,1,0,0:0:0:0:
334,365,43661,6,0,P|262:334|215:354,1,128,0|0,1:0|3:0,0:0:0:0:
148,258,44206,1,0,3:0:0:0:
148,258,44297,1,0,3:0:0:0:
148,258,44388,2,0,L|153:218,2,32,2|0|0,3:2|3:0|3:0,0:0:0:0:
79,331,44752,1,2,3:2:0:0:
256,192,45115,12,2,46388,0:0:0:0:
506,85,46570,6,0,P|466:86|431:68,1,80,4|0,1:0|0:0,0:0:0:0:
338,132,46933,2,0,L|324:317,1,160,10|0,0:0|1:0,0:0:0:0:
456,351,47479,1,0,1:0:0:0:
367,215,47660,1,10,0:0:0:0:
258,339,47842,6,0,B|173:342|197:281|111:288,1,160,0|0,1:0|1:0,0:0:0:0:
2,170,48388,1,10,0:0:0:0:
93,198,48570,2,0,P|186:183|257:173,1,160,0|0,1:0|1:0,0:0:0:0:
367,39,49115,1,10,0:0:0:0:
287,68,49297,5,0,1:0:0:0:
287,68,49388,1,0,1:0:0:0:
287,68,49479,2,0,L|192:47,1,80,0|0,1:0|1:0,0:0:0:0:
78,92,49842,1,10,0:0:0:0:
128,15,50024,2,0,B|172:57|172:57|151:166,1,160,0|0,1:0|1:0,0:0:0:0:
54,249,50570,1,10,0:0:0:0:
149,341,50751,6,0,P|201:284|277:295,1,160,0|0,1:0|1:0,0:0:0:0:
376,217,51297,1,10,0:0:0:0:
442,383,51479,2,0,B|341:361|341:361|309:384|276:383,1,160,0|0,1:0|1:0,0:0:0:0:
184,255,52024,1,2,1:2:0:0:
184,255,52206,1,2,1:2:0:0:
281,101,52388,6,0,P|324:121|349:151,1,80,2|0,1:2|0:0,0:0:0:0:
422,68,52752,2,0,P|380:105|276:98,1,160,10|0,0:0|1:0,0:0:0:0:
173,28,53297,1,0,1:0:0:0:
79,110,53479,1,10,0:0:0:0:
158,198,53661,6,0,L|186:20,1,160,0|0,1:0|1:0,0:0:0:0:
259,206,54206,1,10,0:0:0:0:
120,288,54388,2,0,B|179:285|179:285|204:303|204:303|301:296,1,160,0|0,1:0|1:0,0:0:0:0:
462,241,54933,1,10,0:0:0:0:
379,204,55115,5,0,1:0:0:0:
379,204,55206,1,0,1:0:0:0:
379,204,55297,2,0,L|357:100,1,80,0|0,1:0|1:0,0:0:0:0:
237,95,55660,1,10,0:0:0:0:
158,130,55843,2,0,P|124:107|143:2,1,160,0|0,1:0|1:0,0:0:0:0:
280,187,56388,1,10,0:0:0:0:
203,239,56570,6,0,P|126:228|23:215,1,160,0|0,1:0|1:0,0:0:0:0:
116,376,57115,1,10,0:0:0:0:
191,336,57297,2,0,B|257:345|257:345|278:368|278:368|367:381,1,160,0|0,1:0|1:0,0:0:0:0:
502,241,57842,1,2,1:2:0:0:
339,284,58024,1,2,1:2:0:0:
397,117,58206,6,0,L|409:206,1,80,4|0,1:0|0:0,0:0:0:0:
339,376,58570,2,0,P|289:317|212:316,1,160,10|0,0:0|1:0,0:0:0:0:
117,353,59115,1,0,1:0:0:0:
199,194,59296,1,10,0:0:0:0:
339,284,59479,6,0,B|346:198|285:222|289:130,1,160,0|0,1:0|1:0,0:0:0:0:
391,56,60024,1,10,0:0:0:0:
503,165,60206,2,0,P|428:178|343:199,1,160,0|0,1:0|1:0,0:0:0:0:
216,59,60751,1,10,0:0:0:0:
156,115,60933,5,0,1:0:0:0:
156,115,61024,1,0,1:0:0:0:
156,115,61115,2,0,L|135:210,1,80,0|0,1:0|1:0,0:0:0:0:
122,319,61478,1,10,0:0:0:0:
53,257,61661,2,0,B|101:220|101:220|205:257,1,160,0|0,1:0|1:0,0:0:0:0:
338,175,62206,1,10,0:0:0:0:
410,222,62388,6,0,L|429:393,1,160,0|0,1:0|1:0,0:0:0:0:
496,210,62933,1,10,0:0:0:0:
318,264,63115,2,0,P|269:235|260:132,1,160,0|0,1:0|1:0,0:0:0:0:
383,24,63660,1,2,1:2:0:0:
383,24,63842,1,2,1:2:0:0:
256,139,64024,6,0,L|163:149,1,80,2|0,1:2|0:0,0:0:0:0:
294,37,64388,2,0,L|134:50,1,160,10|0,0:0|1:0,0:0:0:0:
38,187,64933,1,0,1:0:0:0:
176,147,65115,1,10,0:0:0:0:
33,13,65297,6,0,L|49:179,1,160,0|0,1:0|1:0,0:0:0:0:
173,265,65842,1,10,0:0:0:0:
30,314,66024,2,0,P|59:270|156:283,1,160,0|0,1:0|1:0,0:0:0:0:
281,193,66570,1,10,0:0:0:0:
377,314,66751,5,0,1:0:0:0:
377,314,66842,1,0,1:0:0:0:
377,314,66933,2,0,L|370:215,1,80,4|0,1:0|0:0,0:0:0:0:
512,71,67297,2,0,L|505:170,1,80,0|0,1:0|1:0,0:0:0:0:
487,164,67570,1,0,1:0:0:0:
487,164,67661,2,0,L|388:157,1,80,4|0,1:0|0:0,0:0:0:0:
304,29,68024,1,0,1:0:0:0:
231,82,68206,5,0,1:0:0:0:
231,82,68297,1,0,1:0:0:0:
231,82,68388,2,0,L|135:70,1,80,4|0,1:0|1:0,0:0:0:0:
121,87,68661,1,0,1:0:0:0:
121,87,68751,1,4,1:0:0:0:
181,194,68934,2,0,L|231:200,2,40,0|0|4,1:0|1:0|1:0,0:0:0:0:
63,240,69297,5,2,0:0:0:0:
63,240,69388,1,2,0:0:0:0:
63,240,69479,2,0,L|66:295,1,40,2|0,1:2|0:0,0:0:0:0:
149,375,69661,2,0,L|152:320,1,40,2|0,0:2|0:0,0:0:0:0:
220,198,69843,6,0,B|259:192|259:192|291:220,1,80,2|0,1:2|0:0,0:0:0:0:
397,361,70206,2,0,L|406:268,1,80,10|0,0:0|1:0,0:0:0:0:
352,131,70570,1,0,1:0:0:0:
512,214,70752,2,0,L|416:197,1,80,0|10,1:2|0:0,0:0:0:0:
227,119,71115,6,0,B|213:78|213:78|233:39,1,80,0|0,1:0|0:0,0:0:0:0:
337,153,71479,2,0,B|351:194|351:194|331:233,1,80,0|10,1:0|0:0,0:0:0:0:
153,300,71843,1,0,1:2:0:0:
233,384,72025,2,0,L|245:304,1,80,2|0,1:2|1:0,0:0:0:0:
157,182,72388,1,10,0:0:0:0:
8,234,72570,1,0,0:0:0:0:
137,76,72752,6,0,B|178:72|178:72|220:95,1,80,0|0,1:0|0:0,0:0:0:0:
334,226,73115,2,0,B|375:230|375:230|417:207,1,80,10|0,0:0|1:0,0:0:0:0:
475,70,73479,1,0,1:0:0:0:
334,24,73661,2,0,L|352:114,1,80,0|10,1:2|0:0,0:0:0:0:
488,243,74025,6,0,B|498:203|498:203|481:160,1,80,0|0,1:0|0:0,0:0:0:0:
331,225,74388,2,0,L|243:209,1,80,0|10,1:0|0:0,0:0:0:0:
100,337,74752,2,0,L|178:322,1,80,0|0,1:0|1:0,0:0:0:0:
330,223,75115,1,0,1:2:0:0:
269,377,75297,1,10,0:0:0:0:
164,239,75479,1,0,0:0:0:0:
349,318,75661,6,0,L|439:307,1,80,2|0,1:2|0:0,0:0:0:0:
512,184,76025,2,0,B|476:165|476:165|425:177,1,80,10|0,0:0|1:0,0:0:0:0:
291,97,76388,1,0,1:0:0:0:
394,0,76570,2,0,L|388:87,1,80,0|10,1:2|0:0,0:0:0:0:
251,181,76934,6,0,B|214:165|214:165|166:176,1,80,0|0,1:0|0:0,0:0:0:0:
331,271,77297,2,0,B|368:255|368:255|416:266,1,80,0|10,1:0|0:0,0:0:0:0:
215,363,77661,2,0,L|208:279,1,80,0|0,1:0|1:0,0:0:0:0:
90,154,78025,1,2,1:2:0:0:
47,321,78206,1,10,0:0:0:0:
209,284,78388,1,0,0:0:0:0:
8,190,78570,6,0,B|-2:148|-2:148|20:98,1,80,0|0,1:0|0:0,0:0:0:0:
153,24,78934,2,0,L|244:40,1,80,10|0,0:0|1:0,0:0:0:0:
295,180,79297,1,0,1:0:0:0:
134,101,79479,2,0,L|225:117,1,80,0|10,1:2|0:0,0:0:0:0:
374,220,79843,6,0,B|391:183|391:183|376:134,1,80,0|0,1:0|0:0,0:0:0:0:
226,237,80206,2,0,B|209:274|209:274|224:323,1,80,0|10,1:0|0:0,0:0:0:0:
352,384,80570,2,0,L|460:377,1,80,0|0,1:0|1:0,0:0:0:0:
512,215,80934,1,0,1:2:0:0:
381,299,81115,2,0,L|372:209,1,80,10|0,0:0|0:0,0:0:0:0:
458,71,81479,6,0,B|474:111|474:111|452:161,1,80,4|0,1:0|0:0,0:0:0:0:
290,198,81843,2,0,L|199:187,1,80,10|0,0:0|1:0,0:0:0:0:
182,199,82115,1,0,1:0:0:0:
182,199,82206,1,0,1:0:0:0:
252,19,82388,2,0,L|259:104,1,80,0|10,1:2|0:0,0:0:0:0:
372,218,82752,6,0,L|366:139,1,80,0|0,1:0|1:0,0:0:0:0:
276,270,83115,1,0,1:0:0:0:
458,350,83297,2,0,B|421:332|421:332|380:348,1,80,10|0,0:0|1:0,0:0:0:0:
371,368,83570,1,0,1:0:0:0:
371,368,83661,2,0,L|276:359,1,80,0|2,1:0|1:2,0:0:0:0:
107,253,84025,2,0,L|188:245,1,80,10|0,0:0|0:0,0:0:0:0:
316,136,84388,5,0,1:0:0:0:
218,95,84570,1,2,0:0:0:0:
321,228,84752,1,10,0:0:0:0:
396,81,84934,2,0,B|436:73|436:73|474:98,1,80,0|0,1:0|1:0,0:0:0:0:
298,30,85297,1,0,1:2:0:0:
423,162,85479,1,10,0:0:0:0:
300,236,85661,6,0,L|212:242,1,80,0|0,1:0|0:0,0:0:0:0:
63,165,86025,1,0,1:0:0:0:
241,107,86206,1,10,0:0:0:0:
135,6,86388,2,0,L|148:115,1,80,0|0,1:0|1:0,0:0:0:0:
149,116,86661,1,0,1:0:0:0:
149,116,86752,1,0,1:2:0:0:
205,246,86934,1,10,0:0:0:0:
72,182,87115,1,0,0:0:0:0:
27,336,87297,6,0,B|64:320|64:320|111:337,1,80,2|0,1:2|0:0,0:0:0:0:
271,381,87661,2,0,L|281:282,1,80,10|0,0:0|1:0,0:0:0:0:
286,270,87934,1,0,1:0:0:0:
286,270,88025,1,0,1:0:0:0:
423,130,88206,2,0,B|437:167|437:167|418:206,1,80,0|10,1:2|0:0,0:0:0:0:
250,168,88570,6,0,L|355:154,1,80,0|0,1:0|0:0,0:0:0:0:
460,42,88934,2,0,B|419:29|419:29|378:48,1,80,0|10,1:0|0:0,0:0:0:0:
250,168,89297,1,0,1:0:0:0:
154,36,89479,2,0,L|149:127,1,80,0|2,1:0|1:2,0:0:0:0:
24,215,89843,2,0,L|19:135,1,80,10|0,0:0|0:0,0:0:0:0:
173,232,90206,5,0,1:0:0:0:
11,363,90388,1,2,0:0:0:0:
24,215,90570,1,10,0:0:0:0:
161,373,90752,2,0,L|259:355,1,80,0|0,1:0|1:0,0:0:0:0:
374,328,91115,1,0,1:2:0:0:
261,233,91297,1,10,0:0:0:0:
457,375,91479,6,0,B|469:334|469:334|447:279,1,80,0|0,1:0|0:0,0:0:0:0:
304,148,91843,1,0,1:0:0:0:
468,219,92025,1,10,0:0:0:0:
360,311,92206,2,0,L|365:206,1,80,0|0,1:0|1:0,0:0:0:0:
377,205,92479,1,0,1:0:0:0:
377,205,92570,1,0,1:2:0:0:
414,35,92752,1,10,0:0:0:0:
494,132,92934,1,0,0:0:0:0:
298,133,93115,6,0,L|208:115,1,80,4|0,1:0|0:0,0:0:0:0:
40,197,93479,2,0,B|18:163|18:163|27:118,1,80,10|0,0:0|1:0,0:0:0:0:
36,103,93752,1,0,1:0:0:0:
36,103,93843,1,0,1:0:0:0:
177,190,94025,2,0,L|166:278,1,80,0|10,1:2|0:0,0:0:0:0:
65,374,94388,6,0,L|54:286,1,80,0|0,1:0|0:0,0:0:0:0:
207,370,94752,2,0,B|242:348|242:348|294:359,1,80,0|10,1:0|0:0,0:0:0:0:
382,235,95115,1,0,1:0:0:0:
492,333,95297,2,0,L|394:313,1,80,0|2,1:0|1:2,0:0:0:0:
295,187,95661,2,0,L|289:283,1,80,10|0,0:0|0:0,0:0:0:0:
174,350,96025,6,0,B|157:311|157:311|168:270,1,80,0|0,1:0|0:0,0:0:0:0:
217,130,96388,1,10,0:0:0:0:
107,195,96570,2,0,L|21:187,1,80,0|0,1:0|1:0,0:0:0:0:
122,92,96934,1,0,1:2:0:0:
232,220,97115,1,10,0:0:0:0:
279,64,97297,6,0,L|359:52,1,80,0|0,1:0|0:0,0:0:0:0:
503,154,97661,1,0,1:0:0:0:
345,139,97843,1,10,0:0:0:0:
415,288,98025,2,0,L|428:181,1,80,0|0,1:0|1:0,0:0:0:0:
422,184,98297,1,0,1:0:0:0:
422,184,98388,1,0,1:2:0:0:
299,272,98570,1,10,0:0:0:0:
299,272,98752,1,0,0:0:0:0:
439,368,98934,6,0,B|404:346|404:346|355:355,1,80,2|0,1:2|0:0,0:0:0:0:
205,264,99297,2,0,L|221:178,1,80,10|0,0:0|1:0,0:0:0:0:
230,166,99570,1,0,1:0:0:0:
230,166,99661,1,0,1:0:0:0:
137,50,99843,2,0,B|122:88|122:88|140:127,1,80,0|10,1:2|0:0,0:0:0:0:
312,133,100206,6,0,L|402:123,1,80,0|0,1:0|0:0,0:0:0:0:
512,232,100570,2,0,L|422:222,1,80,0|10,1:0|0:0,0:0:0:0:
307,359,100934,1,0,1:0:0:0:
240,234,101115,2,0,B|220:271|220:271|237:316,1,80,0|2,1:0|1:2,0:0:0:0:
393,384,101479,2,0,B|413:347|413:347|396:302,1,80,10|0,0:0|0:0,0:0:0:0:
240,234,101843,6,0,L|148:243,1,80,0|0,1:0|0:0,0:0:0:0:
44,155,102206,1,10,0:0:0:0:
151,76,102388,2,0,B|170:111|170:111|158:165,1,80,0|0,1:0|1:0,0:0:0:0:
53,244,102752,1,0,1:2:0:0:
183,373,102934,1,10,0:0:0:0:
13,346,103115,6,0,L|102:326,1,80,0|0,1:0|0:0,0:0:0:0:
238,229,103479,1,0,1:0:0:0:
183,373,103661,1,10,0:0:0:0:
53,244,103843,2,0,L|42:153,1,80,0|0,1:0|1:0,0:0:0:0:
40,137,104115,1,0,1:0:0:0:
40,137,104206,1,0,1:2:0:0:
149,196,104388,1,10,0:0:0:0:
230,34,104570,1,0,0:0:0:0:
354,152,104752,6,0,L|259:136,1,80,4|0,1:0|0:0,0:0:0:0:
432,12,105115,2,0,B|451:47|451:47|436:89,1,80,10|0,0:0|1:0,0:0:0:0:
426,107,105388,1,0,1:0:0:0:
425,109,105479,1,0,1:0:0:0:
499,242,105661,2,0,L|515:151,1,80,0|10,1:2|0:0,0:0:0:0:
325,303,106025,6,0,L|309:212,1,80,0|0,1:0|0:0,0:0:0:0:
486,348,106388,2,0,B|450:322|450:322|402:329,1,80,0|10,1:0|0:0,0:0:0:0:
243,384,106752,2,0,B|220:349|220:349|237:290,1,80,0|0,1:0|1:0,0:0:0:0:
129,223,107115,1,2,1:2:0:0:
129,223,107297,2,0,L|22:237,1,80,10|0,0:0|0:0,0:0:0:0:
151,56,107661,6,0,L|136:159,1,80,0|0,1:0|0:0,0:0:0:0:
243,219,108025,2,0,B|281:202|281:202|331:223,1,80,10|0,0:0|1:0,0:0:0:0:
396,107,108388,1,0,1:0:0:0:
512,206,108570,2,0,L|416:189,1,80,0|10,1:2|0:0,0:0:0:0:
310,48,108934,6,0,L|303:137,1,80,0|0,1:0|0:0,0:0:0:0:
426,271,109297,2,0,L|433:192,1,80,0|10,1:0|0:0,0:0:0:0:
243,219,109661,2,0,L|138:196,1,80,0|0,1:0|1:0,0:0:0:0:
143,196,109934,1,0,1:0:0:0:
144,197,110025,1,0,1:2:0:0:
31,303,110206,2,0,L|123:290,1,80,10|0,0:0|0:0,0:0:0:0:
266,379,110570,6,0,B|290:341|290:341|277:297,1,80,2|0,1:2|0:0,0:0:0:0:
433,192,110934,2,0,L|515:204,1,80,10|0,0:0|1:0,0:0:0:0:
411,308,111297,1,0,1:0:0:0:
325,217,111479,2,0,L|316:133,1,80,0|10,1:2|0:0,0:0:0:0:
413,23,111843,6,0,B|432:63|432:63|413:114,1,80,0|0,1:0|0:0,0:0:0:0:
244,169,112206,2,0,L|161:157,1,80,0|10,1:0|0:0,0:0:0:0:
18,55,112570,2,0,L|114:47,1,80,0|0,1:0|1:0,0:0:0:0:
244,169,112934,1,2,1:2:0:0:
77,224,113115,2,0,L|72:128,1,80,10|0,0:0|0:0,0:0:0:0:
220,8,113479,6,0,L|215:87,1,80,0|0,1:0|0:0,0:0:0:0:
319,226,113843,2,0,B|339:188|339:188|329:145,1,80,10|0,0:0|1:0,0:0:0:0:
201,260,114206,1,0,1:0:0:0:
304,339,114388,2,0,L|396:327,1,80,0|10,1:2|0:0,0:0:0:0:
500,211,114752,6,0,L|414:193,1,80,0|0,1:0|0:0,0:0:0:0:
239,166,115115,2,0,B|230:127|230:127|251:80,1,80,0|10,1:0|0:0,0:0:0:0:
433,42,115479,1,0,1:0:0:0:
330,151,115661,5,0,1:0:0:0:
492,292,115843,1,0,1:2:0:0:
481,140,116025,5,10,0:0:0:0:
340,302,116207,1,0,0:0:0:0:
412,219,116388,5,4,1:0:0:0:
