osu file format v14

[General]
AudioFilename: audio.mp3
AudioLeadIn: 0
PreviewTime: 4130
Countdown: 0
SampleSet: Soft
StackLeniency: 0.4
Mode: 0
LetterboxInBreaks: 0
WidescreenStoryboard: 1

[Editor]
DistanceSpacing: 1.2
BeatDivisor: 4
GridSize: 4
TimelineZoom: 1

[Metadata]
Title:Knight's Academy
TitleUnicode:Knight's Academy
Artist:Hama Takeshi
ArtistUnicode:はまたけし
Creator:Nitroz
Version:Squilly's Goddess Sword
Source:ゼルダの伝説 スカイウォードソード
Tags:knights Zelda no Densetsu The Legend of Skyward Sword Link Shibo Nintendo Soundtrack Orchestra Orchestral Wii U Videogame Video game Instrumental m980 Squilly 濱剛 folk
BeatmapID:1919561
BeatmapSetID:914740

[Difficulty]
HPDrainRate:3.5
CircleSize:3
OverallDifficulty:4
ApproachRate:5
SliderMultiplier:1.5
SliderTickRate:1

[Events]
//Background and Video events
0,0,"Normal.jpg",0,0
//Break Periods
//Storyboard Layer 0 (Background)
//Storyboard Layer 1 (Fail)
//Storyboard Layer 2 (Pass)
//Storyboard Layer 3 (Foreground)
//Storyboard Layer 4 (Overlay)
//Storyboard Sound Samples

[TimingPoints]
90,545.454545454546,4,2,0,55,1,0
21908,-100,4,2,0,55,0,1
39362,-100,4,2,0,55,0,0

[Colours]
Combo1 : 0,145,0
Combo2 : 81,168,255
Combo3 : 255,255,202
Combo4 : 174,87,0

[HitObjects]
59,170,4453,6,0,P|114:191|204:155,1,150,2|0,0:0|0:0,0:0:0:0:
323,33,5544,2,0,P|378:12|468:48,2,150,4|0|4,2:2|0:0|0:0,0:0:0:0:
259,97,6908,5,2,0:0:0:0:
199,164,7180,2,0,L|206:248,1,75,2|0,0:0|0:0,0:0:0:0:
276,294,7726,2,0,P|276:335|182:375,1,150,8|2,2:2|0:0,0:0:0:0:
135,305,8544,1,0,0:0:0:0:
47,283,8817,6,0,L|38:189,1,75,8|0,0:2|0:0,0:0:0:0:
72,124,9362,2,0,L|254:111,1,150,2|0,0:0|0:0,0:0:0:0:
291,170,10180,1,0,0:0:0:0:
440,194,10726,1,0,0:0:0:0:
490,119,10999,6,0,L|497:44,1,75,8|0,0:0|0:0,0:0:0:0:
408,27,11544,2,0,L|333:20,1,75,2|0,0:0|0:0,0:0:0:0:
253,61,12090,2,0,L|178:55,1,75,0|0,0:0|0:0,0:0:0:0:
71,200,12908,1,0,0:0:0:0:
105,282,13180,6,0,P|165:280|174:183,1,150,2|0,0:0|0:0,0:0:0:0:
149,27,14271,2,0,L|-7:37,2,150,4|0|4,2:2|0:0|0:0,0:0:0:0:
239,19,15635,5,2,0:0:0:0:
255,107,15908,2,0,P|308:112|346:97,1,75,2|0,0:0|0:0,0:0:0:0:
394,45,16453,2,0,P|447:40|485:55,1,75,10|0,2:2|0:0,0:0:0:0:
505,127,16999,2,0,P|510:180|495:218,1,75,2|0,2:2|0:0,0:0:0:0:
450,272,17544,5,8,0:0:0:0:
362,250,17817,1,0,0:0:0:0:
280,289,18090,2,0,P|234:284|118:284,1,150,2|0,0:0|0:0,0:0:0:0:
40,284,18908,1,0,0:0:0:0:
78,108,19453,1,0,0:0:0:0:
147,50,19726,6,0,P|208:44|291:108,1,150,2|0,1:2|1:2,0:0:0:0:
367,66,20544,1,0,0:0:0:0:
438,123,20817,2,0,L|431:200,1,75,0|2,1:2|0:0,0:0:0:0:
365,259,21362,2,0,L|287:252,1,75,8|12,1:2|1:2,0:0:0:0:
255,168,21908,6,0,P|210:151|114:198,1,150,4|2,1:3|0:0,0:0:0:0:
70,263,22726,1,8,1:2:0:0:
122,335,22999,2,0,P|185:372|256:355,1,150,4|0,2:2|0:0,0:0:0:0:
331,305,23817,1,10,1:2:0:0:
303,219,24090,6,0,L|296:132,1,75,0|10,0:0|1:2,0:0:0:0:
267,59,24635,1,8,0:0:0:0:
185,96,24908,1,2,1:2:0:0:
113,42,25180,2,0,P|68:34|2:120,1,150,4|8,1:2|0:0,0:0:0:0:
17,192,25999,1,10,1:2:0:0:
9,281,26271,6,0,P|48:286|85:278,1,75,4|10,0:3|1:2,0:0:0:0:
171,263,26817,2,0,P|210:258|247:266,1,75,0|2,0:0|1:2,0:0:0:0:
329,295,27362,2,0,P|368:300|405:292,1,75,4|0,0:2|0:0,0:0:0:0:
348,121,28180,1,2,1:2:0:0:
272,72,28453,6,0,L|192:65,1,75,4|2,0:3|1:2,0:0:0:0:
134,130,28999,2,0,L|54:123,1,75,0|2,0:0|1:2,0:0:0:0:
8,197,29544,2,0,B|49:257|49:257|127:266,1,150,6|2,0:2|0:0,0:0:0:0:
297,320,30635,6,0,P|345:328|412:257,1,150,4|0,0:3|0:0,0:0:0:0:
370,182,31453,1,2,1:2:0:0:
331,100,31726,2,0,L|338:16,1,75,4|2,0:0|1:2,0:0:0:0:
157,20,32544,1,2,1:2:0:0:
100,90,32817,6,0,P|93:126|101:163,1,75,0|2,0:0|1:2,0:0:0:0:
164,227,33362,2,0,P|200:233|237:225,1,75,0|2,0:0|1:2,0:0:0:0:
280,146,33908,2,0,P|321:139|395:222,1,150,4|0,1:3|0:0,0:0:0:0:
423,292,34726,1,2,1:2:0:0:
351,346,34999,6,0,P|280:352|170:341,2,150,4|8|4,0:3|0:0|0:3,0:0:0:0:
423,292,36362,1,0,0:0:0:0:
329,138,36908,1,10,1:2:0:0:
297,53,37180,6,0,L|219:47,1,75,4|10,1:1|1:2,0:0:0:0:
153,106,37726,2,0,L|75:100,1,75,4|10,1:2|1:2,0:0:0:0:
17,166,38271,2,0,L|11:244,1,75,10|14,0:3|1:2,0:0:0:0:
71,308,38817,2,0,L|65:386,1,75,6|10,0:3|1:2,0:0:0:0:
155,383,39362,6,0,L|245:376,1,75,6|2,1:2|0:3,0:0:0:0:
376,272,40180,2,0,L|370:198,2,75,2|2|2,0:3|0:0|0:3,0:0:0:0:
208,221,41271,1,2,0:3:0:0:
208,221,41544,6,0,P|144:230|113:223,1,75,2|2,2:2|0:3,0:0:0:0:
50,69,42362,2,0,P|87:67|123:76,2,75,2|2|2,0:3|0:0|0:3,0:0:0:0:
9,149,43180,2,0,P|9:186|13:240,1,75,0|0,0:0|0:0,0:0:0:0:
24,313,43726,6,0,L|107:320,1,75,2|0,0:0|0:0,0:0:0:0:
277,365,44544,1,0,0:0:0:0:
277,365,44817,2,0,L|351:358,1,75,2|0,0:0|0:0,0:0:0:0:
466,219,45635,1,0,0:0:0:0:
466,219,45908,6,0,P|466:178|459:144,1,75,2|0,0:0|0:0,0:0:0:0:
370,126,46453,2,0,P|341:97|312:77,1,75,2|0,0:0|0:0,0:0:0:0:
236,128,46999,2,0,P|195:128|161:134,1,75,2|0,0:0|0:0,0:0:0:0:
142,224,47544,2,0,P|113:252|93:281,1,75,2|0,0:0|0:0,0:0:0:0:
161,342,48090,5,4,0:0:0:0:
