osu file format v14

[General]
AudioFilename: audio.mp3
AudioLeadIn: 0
PreviewTime: 4130
Countdown: 0
SampleSet: Soft
StackLeniency: 0.4
Mode: 0
LetterboxInBreaks: 0
WidescreenStoryboard: 1

[Editor]
DistanceSpacing: 0.9
BeatDivisor: 4
GridSize: 8
TimelineZoom: 1

[Metadata]
Title:Knight's Academy
TitleUnicode:Knight's Academy
Artist:Hama Takeshi
ArtistUnicode:はまたけし
Creator:Nitroz
Version:Goddess Longsword
Source:ゼルダの伝説 スカイウォードソード
Tags:knights Zelda no Densetsu The Legend of Skyward Sword Link Shibo Nintendo Soundtrack Orchestra Orchestral Wii U Videogame Video game Instrumental m980 Squilly 濱剛 folk
BeatmapID:1910555
BeatmapSetID:914740

[Difficulty]
HPDrainRate:4
CircleSize:3
OverallDifficulty:5
ApproachRate:6.5
SliderMultiplier:1.4
SliderTickRate:1

[Events]
//Background and Video events
0,0,"Advanced.jpg",0,0
//Break Periods
//Storyboard Layer 0 (Background)
//Storyboard Layer 1 (Fail)
//Storyboard Layer 2 (Pass)
//Storyboard Layer 3 (Foreground)
//Storyboard Layer 4 (Overlay)
//Storyboard Sound Samples

[TimingPoints]
90,545.454545454546,4,2,0,55,1,0
362,-100,4,2,1,55,0,0
4453,-100,4,2,0,55,0,0
21908,-100,4,2,0,55,0,1
39362,-100,4,2,0,55,0,0
43726,-100,4,2,1,55,0,0

[Colours]
Combo1 : 0,145,0
Combo2 : 81,168,255
Combo3 : 255,255,202
Combo4 : 174,87,0

[HitObjects]
192,336,90,5,2,2:2:0:0:
192,240,362,2,0,P|256:216|320:240,1,140,2|2,0:3|0:3,0:0:0:0:
416,240,1180,1,2,0:0:0:0:
416,144,1453,2,0,B|368:144|368:144|336:112|336:112|288:112,1,140,2|2,0:3|0:3,0:0:0:0:
208,48,2271,5,2,0:2:0:0:
112,48,2544,2,0,B|112:96|154:129|154:129|144:192,1,140,2|2,0:3|0:3,0:0:0:0:
112,256,3362,1,4,0:0:0:0:
192,304,3635,2,0,B|252:304|252:304|256:300|256:300|256:308|256:308|260:304|260:304|320:304,1,140,2|0,0:3|0:0,0:0:0:0:
416,288,4453,6,0,B|424:192|296:208|304:128,1,210,2|0,0:0|0:0,0:0:0:0:
207,127,5544,2,0,P|114:131|128:224,1,210,4|2,2:2|0:3,0:0:0:0:
208,288,6635,5,4,0:0:0:0:
304,288,6908,1,2,0:0:0:0:
352,208,7180,1,2,0:0:0:0:
304,128,7453,1,0,0:0:0:0:
208,128,7726,1,8,2:2:0:0:
256,208,7999,1,0,0:0:0:0:
304,288,8271,1,2,0:0:0:0:
208,288,8544,1,0,0:0:0:0:
160,208,8817,6,0,P|127:220|96:208,1,70,8|0,0:2|0:0,0:0:0:0:
128,112,9362,2,0,B|160:64|208:64|208:64|320:64,1,210,2|0,0:0|0:0,0:0:0:0:
391,221,10726,1,0,0:0:0:0:
464,272,10999,6,0,P|416:304|384:304,1,70,8|0,0:0|0:0,0:0:0:0:
320,352,11544,2,0,P|197:296|230:175,1,280,2|8,0:0|0:0,0:0:0:0:
288,256,12908,1,0,0:0:0:0:
384,224,13180,6,0,B|416:144|352:144|384:80,1,140,2|0,0:0|0:0,0:0:0:0:
288,48,13999,1,0,0:0:0:0:
192,16,14271,2,0,P|96:80|192:160,1,280,4|4,2:2|0:0,0:0:0:0:
288,160,15635,5,2,0:0:0:0:
384,160,15908,1,2,0:0:0:0:
336,240,16180,1,0,0:0:0:0:
240,240,16453,1,10,2:2:0:0:
288,320,16726,1,0,0:0:0:0:
192,320,16999,1,2,2:2:0:0:
144,240,17271,1,0,0:0:0:0:
192,160,17544,6,0,L|192:80,1,70,8|0,0:0|0:0,0:0:0:0:
256,16,18090,2,0,L|400:16,1,140,2|0,0:0|0:0,0:0:0:0:
396,16,18908,1,0,0:0:0:0:
256,112,19453,1,0,0:0:0:0:
352,112,19726,2,0,L|432:112,2,70,2|8|0,1:2|0:0|1:2,0:0:0:0:
352,208,20544,1,0,0:0:0:0:
448,208,20817,6,0,L|448:288,1,70,0|2,1:2|0:0,0:0:0:0:
384,352,21362,2,0,P|352:364|320:352,1,70,8|12,1:2|1:2,0:0:0:0:
256,272,21908,5,4,1:3:0:0:
160,272,22180,1,2,1:2:0:0:
64,272,22453,2,0,L|64:192,1,70,0|2,0:0|1:2,0:0:0:0:
128,128,22999,2,0,P|176:54|224:128,1,210,4|2,2:2|1:2,0:0:0:0:
208,224,24090,1,0,0:0:0:0:
256,304,24362,5,2,1:2:0:0:
304,224,24635,1,0,0:0:0:0:
256,144,24908,1,2,1:2:0:0:
208,64,25180,1,4,1:2:0:0:
304,64,25453,1,2,1:2:0:0:
352,144,25726,2,0,P|390:171|432:160,1,70,8|2,0:2|1:2,0:0:0:0:
416,80,26271,6,0,P|464:48|496:48,2,70,8|2|0,0:3|1:2|0:0,0:0:0:0:
320,32,27090,1,2,1:2:0:0:
224,32,27362,2,0,P|128:96|96:192,1,210,4|2,0:2|1:2,0:0:0:0:
112,272,28453,6,0,P|160:272|192:288,1,70,4|10,0:3|1:2,0:0:0:0:
256,224,28999,2,0,P|304:224|336:208,1,70,0|10,0:0|1:2,0:0:0:0:
352,112,29544,2,0,P|256:75|160:112,1,210,6|10,0:2|1:2,0:0:0:0:
96,192,30635,6,0,P|70:213|48:256,1,70,4|2,0:3|1:2,0:0:0:0:
144,272,31180,2,0,P|131:306|128:352,1,70,0|2,0:0|1:2,0:0:0:0:
224,320,31726,2,0,B|288:288|288:352|368:320,1,140,4|0,0:0|0:0,0:0:0:0:
336,224,32544,1,2,1:2:0:0:
256,176,32817,5,0,0:0:0:0:
176,224,33090,1,2,1:2:0:0:
96,176,33362,1,0,0:0:0:0:
176,128,33635,1,2,1:2:0:0:
256,80,33908,1,4,1:2:0:0:
336,128,34180,1,2,1:2:0:0:
416,176,34453,1,8,0:0:0:0:
336,224,34726,1,2,1:2:0:0:
256,272,34999,6,0,P|218:307|192:320,1,70,8|2,0:3|1:2,0:0:0:0:
160,224,35544,2,0,P|112:240|80:240,1,70,0|10,0:0|1:2,0:0:0:0:
96,144,36090,2,0,B|144:144|144:144|176:112|176:112|224:112,1,140,4|0,0:2|0:0,0:0:0:0:
256,208,36908,1,10,1:2:0:0:
288,304,37180,2,0,L|368:304,1,70,4|10,1:1|1:2,0:0:0:0:
448,336,37726,2,0,P|460:305|448:272,1,70,4|10,1:2|1:2,0:0:0:0:
376,208,38271,2,0,B|344:144|384:144|352:72,1,140,10|6,0:3|0:3,0:0:0:0:
256,72,39090,1,10,1:2:0:0:
176,16,39362,6,0,P|160:64|160:96,1,70,6|2,1:2|0:3,0:0:0:0:
256,224,40180,1,2,0:3:0:0:
336,288,40453,2,0,P|352:240|352:208,1,70,2|2,0:0|0:3,0:0:0:0:
256,72,41271,1,2,0:3:0:0:
176,16,41544,6,0,P|160:64|160:96,1,70,2|2,2:2|0:3,0:0:0:0:
256,224,42362,1,2,0:3:0:0:
336,288,42635,2,0,P|352:240|352:208,1,70,2|2,0:0|0:3,0:0:0:0:
208,48,43453,1,2,0:3:0:0:
208,144,43726,6,0,P|151:224|208:304,1,210,4|2,0:0|0:3,0:0:0:0:
304,304,44817,2,0,P|361:224|304:143,1,210,2|2,0:2|0:3,0:0:0:0:
304,48,45908,5,2,0:2:0:0:
208,48,46180,1,2,0:3:0:0:
256,224,46726,1,2,0:3:0:0:
208,304,46999,1,2,0:2:0:0:
304,304,47271,1,2,0:3:0:0:
448,240,47817,1,2,0:3:0:0:
448,144,48090,1,4,0:0:0:0:
