osu file format v14

[General]
AudioFilename: Ham - Yumemi Gokochi.mp3
AudioLeadIn: 0
PreviewTime: 5091
Countdown: 0
SampleSet: Soft
StackLeniency: 0.7
Mode: 3
LetterboxInBreaks: 0
SpecialStyle: 0
WidescreenStoryboard: 1

[Editor]
DistanceSpacing: 2
BeatDivisor: 4
GridSize: 4
TimelineZoom: 2

[Metadata]
Title:Yumemi Gokochi
TitleUnicode:ゆめみごこち
Artist:Ham
ArtistUnicode:ハム
Creator:JamesHappy
Version:Good Night, Sweet Dreams
Source:
Tags:nukumori kureiru ぬくもりクレイル foxtail-grass studio
BeatmapID:916802
BeatmapSetID:424390

[Difficulty]
HPDrainRate:10
CircleSize:9
OverallDifficulty:10
ApproachRate:6
SliderMultiplier:1.2
SliderTickRate:1

[Events]
//Background and Video events
0,0,"192423.jpg",0,0
//Break Periods
//Storyboard Layer 0 (Background)
//Storyboard Layer 1 (Fail)
//Storyboard Layer 2 (Pass)
//Storyboard Layer 3 (Foreground)
//Storyboard Sound Samples

[TimingPoints]
44,560.747663551402,4,2,1,5,1,0
33128,600,4,2,1,30,1,0
33128,-93.4579439252336,4,2,1,30,0,0
33728,674.157303370787,4,2,1,30,1,0
33728,-83.1775700934579,4,2,1,30,0,0
34402,705.882352941176,4,2,1,30,1,0
34402,-79.4392523364486,4,2,1,30,0,0
35107,666.666666666667,4,2,1,30,1,0
35107,-84.1121495327103,4,2,1,30,0,0
36440,681.818181818182,4,2,1,30,1,0
36440,-82.2429906542056,4,2,1,30,0,0
37803,769.230769230769,4,2,1,30,1,0
37803,-72.8971962616822,4,2,1,30,0,0
39341,769.230769230769,4,2,1,30,1,0
39341,-72.8971962616822,4,2,1,30,0,0
40879,714.285714285714,4,2,1,30,1,0
40879,-78.5046728971962,4,2,1,30,0,0
41593,545.454545454546,4,2,1,30,1,0
41593,-102.803738317757,4,2,1,30,0,0
42138,652.173913043478,4,2,1,30,1,0
42138,-85.9813084112149,4,2,1,30,0,0
43442,555.555555555556,4,2,1,30,1,0
43442,-100.934579439252,4,2,1,30,0,0
44553,697.674418604651,4,2,1,30,1,0
44553,-80.3738317757009,4,2,1,30,0,0
47343,750,4,2,1,15,1,0
47343,-74.7663551401869,4,2,1,15,0,0

[Colours]
Combo1 : 128,88,64
Combo2 : 209,136,82
Combo3 : 128,191,64
Combo4 : 196,207,48

[HitObjects]
256,192,1165,128,0,3688:0:0:0:0:
85,192,3689,1,0,0:0:0:0:
28,192,5090,1,0,0:0:0:0:
142,192,5651,1,0,0:0:0:0:
256,192,6212,1,0,0:0:0:0:
369,192,6772,1,0,0:0:0:0:
483,192,6772,1,0,0:0:0:0:
426,192,6772,1,0,0:0:0:0:
85,192,7333,1,0,0:0:0:0:
199,192,7894,1,0,0:0:0:0:
312,192,8455,1,0,0:0:0:0:
426,192,9015,1,0,0:0:0:0:
199,192,9576,1,0,0:0:0:0:
28,192,10137,1,0,0:0:0:0:
85,192,10137,1,0,0:0:0:0:
142,192,10698,1,0,0:0:0:0:
426,192,11258,1,0,0:0:0:0:
256,192,11258,1,0,0:0:0:0:
85,192,11819,1,0,0:0:0:0:
199,192,12380,1,0,0:0:0:0:
312,192,12941,1,0,0:0:0:0:
426,192,13501,1,0,0:0:0:0:
483,192,13501,1,0,0:0:0:0:
28,192,14062,1,0,0:0:0:0:
312,192,14062,1,0,0:0:0:0:
142,192,14623,1,0,0:0:0:0:
369,192,14623,1,0,0:0:0:0:
28,192,15184,1,0,0:0:0:0:
426,192,15184,1,0,0:0:0:0:
483,192,15744,1,0,0:0:0:0:
199,192,15744,1,0,0:0:0:0:
256,192,15744,1,0,0:0:0:0:
85,192,16305,1,0,0:0:0:0:
199,192,16866,1,0,0:0:0:0:
426,192,17427,1,0,0:0:0:0:
312,192,17987,1,0,0:0:0:0:
199,192,17987,1,0,0:0:0:0:
85,192,18548,1,0,0:0:0:0:
426,192,18548,1,0,0:0:0:0:
142,192,19109,1,0,0:0:0:0:
369,192,19109,1,0,0:0:0:0:
426,192,19670,1,0,0:0:0:0:
199,192,19670,1,0,0:0:0:0:
256,192,20230,1,0,0:0:0:0:
483,192,20230,1,0,0:0:0:0:
369,192,20230,1,0,0:0:0:0:
28,192,22473,1,0,0:0:0:0:
142,192,23595,1,0,0:0:0:0:
256,192,24156,1,0,0:0:0:0:
369,192,24716,1,0,0:0:0:0:
483,192,24716,1,0,0:0:0:0:
426,192,24716,1,0,0:0:0:0:
199,192,25277,1,0,0:0:0:0:
312,192,25838,1,0,0:0:0:0:
142,192,26399,1,0,0:0:0:0:
28,192,26399,1,0,0:0:0:0:
369,192,26959,1,0,0:0:0:0:
483,192,26959,1,0,0:0:0:0:
426,192,26959,1,0,0:0:0:0:
199,192,27520,1,0,0:0:0:0:
312,192,27520,1,0,0:0:0:0:
28,192,28081,1,0,0:0:0:0:
142,192,28081,1,0,0:0:0:0:
85,192,28081,1,0,0:0:0:0:
483,192,28642,1,0,0:0:0:0:
369,192,28642,1,0,0:0:0:0:
142,192,29202,1,0,0:0:0:0:
312,192,29202,1,0,0:0:0:0:
85,192,29202,1,0,0:0:0:0:
256,192,29763,1,0,0:0:0:0:
199,192,30324,1,0,0:0:0:0:
142,192,30885,1,0,0:0:0:0:
426,192,30885,1,0,0:0:0:0:
369,192,31375,1,0,0:0:0:0:
312,192,31445,1,0,0:0:0:0:
85,192,31445,1,0,0:0:0:0:
28,192,31445,1,0,0:0:0:0:
256,192,32006,1,0,0:0:0:0:
142,192,32006,1,0,0:0:0:0:
483,192,32567,1,0,0:0:0:0:
199,192,33128,1,0,0:0:0:0:
426,192,33128,1,0,0:0:0:0:
483,192,33728,1,0,0:0:0:0:
312,192,33728,1,0,0:0:0:0:
28,192,34402,1,0,0:0:0:0:
142,192,34402,1,0,0:0:0:0:
312,192,35107,1,0,0:0:0:0:
199,192,35107,1,0,0:0:0:0:
483,192,36384,1,0,0:0:0:0:
199,192,36440,1,0,0:0:0:0:
142,192,36440,1,0,0:0:0:0:
426,192,36440,1,0,0:0:0:0:
483,192,37718,1,0,0:0:0:0:
426,192,37761,1,0,0:0:0:0:
369,192,37803,1,0,0:0:0:0:
142,192,37803,1,0,0:0:0:0:
85,192,37803,1,0,0:0:0:0:
369,192,39245,1,0,0:0:0:0:
312,192,39341,1,0,0:0:0:0:
28,192,39341,1,0,0:0:0:0:
85,192,39341,1,0,0:0:0:0:
426,192,40110,1,0,0:0:0:0:
312,192,40879,1,0,0:0:0:0:
256,192,41593,1,0,0:0:0:0:
199,192,42138,1,0,0:0:0:0:
142,192,43442,1,0,0:0:0:0:
85,192,44553,1,0,0:0:0:0:
426,192,47343,1,0,0:0:0:0:
483,192,47389,1,0,0:0:0:0:
85,192,48843,1,0,0:0:0:0:
28,192,48889,1,0,0:0:0:0:
