osu file format v14

[General]
AudioFilename: audio.mp3
AudioLeadIn: 0
PreviewTime: 5091
Countdown: 0
SampleSet: Soft
StackLeniency: 0.7
Mode: 3
LetterboxInBreaks: 0
SpecialStyle: 0
WidescreenStoryboard: 1

[Editor]
DistanceSpacing: 1
BeatDivisor: 16
GridSize: 4
TimelineZoom: 1

[Metadata]
Title:Yumemi Gokochi
TitleUnicode:ゆめみごこち
Artist:Ham
ArtistUnicode:ハム
Creator:Fallen Blossom
Version:Silent Forest
Source:
Tags:
BeatmapID:1938480
BeatmapSetID:928100

[Difficulty]
HPDrainRate:7
CircleSize:9
OverallDifficulty:7
ApproachRate:5
SliderMultiplier:1.4
SliderTickRate:1

[Events]
//Background and Video events
0,0,"1.jpg",0,0
//Break Periods
//Storyboard Layer 0 (Background)
//Storyboard Layer 1 (Fail)
//Storyboard Layer 2 (Pass)
//Storyboard Layer 3 (Foreground)
//Storyboard Sound Samples

[TimingPoints]
745,1121.4953271028,4,2,1,5,1,0
1166,1121.4953271028,4,2,1,5,1,0
3689,-100,4,2,1,20,0,0
4810,-100,4,2,1,10,0,0
5091,-100,4,2,1,30,0,0
6773,1121.4953271028,4,2,1,30,1,0
33128,1200,4,2,1,30,1,0
33728,1348.31460674157,4,2,1,30,1,0
34402,1411.76470588235,4,2,1,30,1,0
35107,1333.33333333333,4,2,1,30,1,0
36440,1346.80134680135,4,2,1,30,1,0
37786,1538.46153846154,4,2,1,30,1,0
39324,1655.1724137931,4,2,1,30,1,0
40151,1454.54545454545,4,2,1,30,1,0
40878,1424.33234421365,4,2,1,30,1,0
41590,1090.90909090909,4,2,1,30,1,0
42135,1290.32258064516,4,2,1,30,1,0
43425,1131.00848256362,4,2,1,30,1,0
44556,697.674418604651,4,2,1,30,1,0
44556,-200,4,2,1,20,0,0
47346,750,4,2,1,30,1,0
47346,-200,4,2,1,10,0,0

[HitObjects]
256,192,745,128,0,3689:0:0:0:0:
142,192,2287,128,0,3689:0:0:0:0:
199,192,3408,128,0,3689:0:0:0:0:
28,192,3689,128,0,4810:0:0:0:0:
85,192,4250,128,0,4810:0:0:0:0:
312,192,4530,128,0,4810:0:0:0:0:
369,192,4810,1,0,0:0:0:0:
483,192,5091,1,0,0:0:0:0:
256,192,5091,1,0,0:0:0:0:
142,192,5651,1,0,0:0:0:0:
426,192,5651,1,0,0:0:0:0:
312,192,6212,1,0,0:0:0:0:
28,192,6212,1,0,0:0:0:0:
85,192,6773,1,0,0:0:0:0:
256,192,6773,1,0,0:0:0:0:
483,192,6773,1,0,0:0:0:0:
369,192,7333,1,0,0:0:0:0:
199,192,7333,1,0,0:0:0:0:
312,192,7894,1,0,0:0:0:0:
426,192,8455,1,0,0:0:0:0:
483,192,8455,1,0,0:0:0:0:
369,192,9015,1,0,0:0:0:0:
85,192,9015,1,0,0:0:0:0:
199,192,9576,1,0,0:0:0:0:
28,192,9576,1,0,0:0:0:0:
312,192,10137,1,0,0:0:0:0:
483,192,10137,1,0,0:0:0:0:
369,192,10698,1,0,0:0:0:0:
142,192,10698,1,0,0:0:0:0:
256,192,11258,1,0,0:0:0:0:
85,192,11258,1,0,0:0:0:0:
426,192,11258,1,0,0:0:0:0:
312,192,11819,1,0,0:0:0:0:
483,192,11819,1,0,0:0:0:0:
256,192,12380,1,0,0:0:0:0:
199,192,12941,1,0,0:0:0:0:
28,192,12941,1,0,0:0:0:0:
369,192,13501,1,0,0:0:0:0:
426,192,13501,1,0,0:0:0:0:
312,192,14062,1,0,0:0:0:0:
142,192,14062,1,0,0:0:0:0:
483,192,14623,1,0,0:0:0:0:
28,192,14623,1,0,0:0:0:0:
199,192,15184,1,0,0:0:0:0:
426,192,15184,1,0,0:0:0:0:
256,192,15744,1,0,0:0:0:0:
85,192,15744,1,0,0:0:0:0:
483,192,15744,1,0,0:0:0:0:
312,192,16305,1,0,0:0:0:0:
426,192,16305,1,0,0:0:0:0:
199,192,16866,1,0,0:0:0:0:
85,192,17427,1,0,0:0:0:0:
28,192,17427,1,0,0:0:0:0:
199,192,17987,1,0,0:0:0:0:
369,192,17987,1,0,0:0:0:0:
142,192,18548,1,0,0:0:0:0:
483,192,18548,1,0,0:0:0:0:
256,192,19109,1,0,0:0:0:0:
28,192,19109,1,0,0:0:0:0:
85,192,19670,1,0,0:0:0:0:
312,192,19670,1,0,0:0:0:0:
426,192,20230,1,0,0:0:0:0:
199,192,20230,1,0,0:0:0:0:
28,192,20230,1,0,0:0:0:0:
483,192,20230,128,0,22473:0:0:0:0:
369,192,22473,1,0,0:0:0:0:
142,192,22473,1,0,0:0:0:0:
256,192,23595,1,0,0:0:0:0:
483,192,23595,1,0,0:0:0:0:
369,192,24156,1,0,0:0:0:0:
85,192,24156,1,0,0:0:0:0:
199,192,24716,1,0,0:0:0:0:
483,192,24716,1,0,0:0:0:0:
28,192,24716,1,0,0:0:0:0:
256,192,25277,1,0,0:0:0:0:
312,192,25277,1,0,0:0:0:0:
369,192,25838,1,0,0:0:0:0:
426,192,26399,1,0,0:0:0:0:
142,192,26399,1,0,0:0:0:0:
28,192,26959,1,0,0:0:0:0:
199,192,26959,1,0,0:0:0:0:
483,192,26959,1,0,0:0:0:0:
312,192,27520,1,0,0:0:0:0:
369,192,27520,1,0,0:0:0:0:
142,192,28081,1,0,0:0:0:0:
256,192,28081,1,0,0:0:0:0:
426,192,28081,1,0,0:0:0:0:
28,192,28642,1,0,0:0:0:0:
199,192,28642,1,0,0:0:0:0:
28,192,29202,1,0,0:0:0:0:
312,192,29202,1,0,0:0:0:0:
369,192,29272,1,0,0:0:0:0:
483,192,29272,1,0,0:0:0:0:
256,192,29763,1,0,0:0:0:0:
85,192,29763,1,0,0:0:0:0:
199,192,30324,1,0,0:0:0:0:
312,192,30885,1,0,0:0:0:0:
483,192,30885,1,0,0:0:0:0:
426,192,31375,1,0,0:0:0:0:
85,192,31375,1,0,0:0:0:0:
142,192,31445,1,0,0:0:0:0:
369,192,31445,1,0,0:0:0:0:
256,192,31445,1,0,0:0:0:0:
199,192,32006,1,0,0:0:0:0:
483,192,32006,1,0,0:0:0:0:
312,192,32567,1,0,0:0:0:0:
28,192,32567,1,0,0:0:0:0:
142,192,33128,1,0,0:0:0:0:
426,192,33128,1,0,0:0:0:0:
256,192,33728,1,0,0:0:0:0:
483,192,33728,1,0,0:0:0:0:
142,192,34402,1,0,0:0:0:0:
28,192,34402,1,0,0:0:0:0:
426,192,34402,1,0,0:0:0:0:
256,192,35107,1,0,0:0:0:0:
483,192,35107,1,0,0:0:0:0:
312,192,36357,1,0,0:0:0:0:
85,192,36357,1,0,0:0:0:0:
28,192,36440,1,0,0:0:0:0:
256,192,36440,1,0,0:0:0:0:
483,192,36440,1,0,0:0:0:0:
142,192,37702,1,0,0:0:0:0:
28,192,37702,1,0,0:0:0:0:
199,192,37786,1,0,0:0:0:0:
483,192,37786,1,0,0:0:0:0:
256,192,39228,1,0,0:0:0:0:
199,192,39228,1,0,0:0:0:0:
142,192,39324,1,0,0:0:0:0:
426,192,39324,1,0,0:0:0:0:
28,192,40151,1,0,0:0:0:0:
483,192,40151,1,0,0:0:0:0:
142,192,40878,1,0,0:0:0:0:
369,192,40878,1,0,0:0:0:0:
483,192,41590,1,0,0:0:0:0:
199,192,41590,1,0,0:0:0:0:
312,192,42135,1,0,0:0:0:0:
28,192,42135,1,0,0:0:0:0:
426,192,42135,1,0,0:0:0:0:
142,192,43425,1,0,0:0:0:0:
28,192,43425,1,0,0:0:0:0:
369,192,43425,1,0,0:0:0:0:
483,192,43425,1,0,0:0:0:0:
199,192,44556,1,0,0:0:0:0:
312,192,44556,1,0,0:0:0:0:
256,192,44556,128,0,46997:0:0:0:0:
28,192,47303,1,0,0:0:0:0:
85,192,47303,1,0,0:0:0:0:
142,192,47346,1,0,0:0:0:0:
483,192,47346,1,0,0:0:0:0:
426,192,47392,1,0,0:0:0:0:
483,192,48799,1,0,0:0:0:0:
426,192,48799,1,0,0:0:0:0:
369,192,48846,1,0,0:0:0:0:
256,192,48846,1,0,0:0:0:0:
312,192,48892,1,0,0:0:0:0:
