osu file format v14

[General]
AudioFilename: audio.mp3
AudioLeadIn: 0
PreviewTime: 76515
Countdown: 0
SampleSet: Normal
StackLeniency: 0.7
Mode: 1
LetterboxInBreaks: 0
WidescreenStoryboard: 1

[Editor]
Bookmarks: 507,8507,16507,24507,32506,40507,48507,56507,64507,72507,76507,84507,92507,100507,108507,117507
DistanceSpacing: 1
BeatDivisor: 2
GridSize: 32
TimelineZoom: 2.699999

[Metadata]
Title:Susano Habakiri
TitleUnicode:素戔嗚 羽々斬
Artist:Halv
ArtistUnicode:Halv
Creator:ZTH
Version:Kantan
Source:A Dance of Fire and Ice
Tags:electronic instrumental oriental adofai neo cosmos
BeatmapID:4461500
BeatmapSetID:2121908

[Difficulty]
HPDrainRate:7.5
CircleSize:5
OverallDifficulty:3
ApproachRate:5
SliderMultiplier:1.1
SliderTickRate:1

[Events]
//Background and Video events
0,0,"GBvB_FmXkAESFnl.jpg",0,70
//Break Periods
//Storyboard Layer 0 (Background)
//Storyboard Layer 1 (Fail)
//Storyboard Layer 2 (Pass)
//Storyboard Layer 3 (Foreground)
//Storyboard Layer 4 (Overlay)
//Storyboard Sound Samples

[TimingPoints]
515,250,4,1,0,70,1,0
8010,-100,4,1,0,80,0,0
8510,-100,4,1,0,90,0,0
48515,-100,4,1,0,95,0,1
56515,-100,4,1,0,90,0,0
56760,-100,4,1,0,70,0,0
64009,-100,4,1,0,80,0,0
64509,-100,4,1,0,90,0,0
76515,-100,4,1,0,90,0,1
82515,-100,4,1,0,90,0,0
84515,-100,4,1,0,90,0,1
92515,-100,4,1,0,90,0,0
100515,-100,4,1,0,90,0,1
102515,-100,4,1,0,90,0,0
104515,-100,4,1,0,90,0,1
106515,-100,4,1,0,90,0,0
108515,-100,4,1,0,95,0,1
119765,-100,4,1,0,95,0,0

[HitObjects]
241,179,515,5,4,0:0:0:0:
243,203,1515,1,8,0:0:0:0:
231,209,2515,1,0,0:0:0:0:
242,211,3515,1,8,0:0:0:0:
239,218,4515,5,0,0:0:0:0:
252,211,5015,1,8,0:0:0:0:
234,207,5515,1,0,0:0:0:0:
234,207,6015,1,8,0:0:0:0:
234,207,6515,1,0,0:0:0:0:
218,209,7015,1,0,0:0:0:0:
218,209,7515,1,8,0:0:0:0:
199,205,8015,5,8,0:0:0:0:
199,205,8265,1,8,0:0:0:0:
200,205,8515,5,4,0:0:0:0:
183,211,8890,1,4,0:0:0:0:
186,231,9515,5,4,0:0:0:0:
195,239,9890,1,4,0:0:0:0:
199,221,10515,5,4,0:0:0:0:
196,226,10890,1,4,0:0:0:0:
196,226,11265,1,4,0:0:0:0:
217,245,11640,1,4,0:0:0:0:
196,226,12015,1,12,0:0:0:0:
203,243,12515,5,0,0:0:0:0:
214,223,13015,1,0,0:0:0:0:
202,229,13265,1,8,0:0:0:0:
215,223,13515,1,0,0:0:0:0:
224,232,14015,5,8,0:0:0:0:
215,223,14265,1,8,0:0:0:0:
215,223,14515,1,4,0:0:0:0:
162,222,15515,5,8,0:0:0:0:
162,222,15765,1,8,0:0:0:0:
162,222,16015,1,8,0:0:0:0:
225,197,16515,5,4,0:0:0:0:
225,197,17015,1,0,0:0:0:0:
225,197,17265,1,8,0:0:0:0:
225,197,17515,1,0,0:0:0:0:
224,185,18015,1,8,0:0:0:0:
218,185,18515,5,0,0:0:0:0:
243,229,19015,1,8,0:0:0:0:
243,229,19265,1,0,0:0:0:0:
246,239,19515,1,8,0:0:0:0:
244,234,20515,5,4,0:0:0:0:
233,248,21015,1,0,0:0:0:0:
267,236,21265,1,8,0:0:0:0:
237,238,21515,1,0,0:0:0:0:
223,227,22015,1,8,0:0:0:0:
210,233,22515,5,4,0:0:0:0:
208,242,22890,1,4,0:0:0:0:
208,247,23265,1,12,0:0:0:0:
217,263,24015,5,8,0:0:0:0:
218,213,24265,1,8,0:0:0:0:
220,262,24515,5,4,0:0:0:0:
184,223,25015,1,0,0:0:0:0:
216,263,25265,1,8,0:0:0:0:
218,249,25515,1,0,0:0:0:0:
213,240,25765,1,0,0:0:0:0:
226,266,26015,1,8,0:0:0:0:
226,257,26515,5,4,0:0:0:0:
224,262,27515,5,8,0:0:0:0:
225,265,27765,1,8,0:0:0:0:
229,260,28015,1,0,0:0:0:0:
225,242,28515,5,4,0:0:0:0:
217,263,29015,1,0,0:0:0:0:
216,263,29265,1,8,0:0:0:0:
216,269,29515,1,0,0:0:0:0:
225,265,29765,1,8,0:0:0:0:
226,266,30015,1,8,0:0:0:0:
226,257,30515,5,4,0:0:0:0:
210,242,31515,5,8,0:0:0:0:
209,236,32015,1,8,0:0:0:0:
210,242,32515,5,0,0:0:0:0:
228,240,32765,1,8,0:0:0:0:
210,242,33265,1,8,0:0:0:0:
215,246,33515,1,0,0:0:0:0:
217,244,33765,1,8,0:0:0:0:
217,244,34015,1,8,0:0:0:0:
251,239,34515,5,0,0:0:0:0:
217,244,34765,1,8,0:0:0:0:
230,236,35015,1,0,0:0:0:0:
231,239,35515,1,12,0:0:0:0:
219,223,35765,1,12,0:0:0:0:
219,223,36015,1,12,0:0:0:0:
210,242,36515,5,0,0:0:0:0:
212,241,36765,1,8,0:0:0:0:
210,242,37265,1,8,0:0:0:0:
215,246,37515,1,0,0:0:0:0:
217,244,37765,1,8,0:0:0:0:
217,244,38015,1,0,0:0:0:0:
251,239,38515,5,4,0:0:0:0:
224,242,38890,1,4,0:0:0:0:
252,224,39265,1,4,0:0:0:0:
240,226,39515,1,12,0:0:0:0:
240,226,40515,5,0,0:0:0:0:
235,237,40765,1,8,0:0:0:0:
208,236,41015,1,0,0:0:0:0:
245,237,41265,1,8,0:0:0:0:
245,237,41515,1,0,0:0:0:0:
264,258,42015,1,8,0:0:0:0:
264,258,42515,5,0,0:0:0:0:
232,238,42765,1,8,0:0:0:0:
261,277,43015,1,0,0:0:0:0:
256,282,43515,1,12,0:0:0:0:
267,286,43765,1,12,0:0:0:0:
267,286,44015,1,12,0:0:0:0:
277,295,44515,5,4,0:0:0:0:
241,299,45515,5,4,0:0:0:0:
256,289,46015,1,8,0:0:0:0:
236,298,46515,5,0,0:0:0:0:
243,268,46765,1,8,0:0:0:0:
256,292,47015,1,8,0:0:0:0:
268,276,47265,1,8,0:0:0:0:
242,297,47515,5,0,0:0:0:0:
247,288,48265,1,12,0:0:0:0:
250,266,48515,5,0,0:0:0:0:
183,206,48890,1,8,0:0:0:0:
250,244,49390,5,0,0:0:0:0:
250,244,49765,1,8,0:0:0:0:
250,244,50015,1,0,0:0:0:0:
282,239,50265,1,8,0:0:0:0:
282,239,50515,5,0,0:0:0:0:
282,239,50890,1,8,0:0:0:0:
261,237,51515,5,0,0:0:0:0:
231,248,52265,1,8,0:0:0:0:
240,239,52515,5,0,0:0:0:0:
243,237,52890,1,8,0:0:0:0:
184,219,53265,1,0,0:0:0:0:
223,235,53515,5,8,0:0:0:0:
238,213,53765,1,0,0:0:0:0:
239,247,54015,1,8,0:0:0:0:
251,240,54515,5,0,0:0:0:0:
247,238,54765,1,8,0:0:0:0:
248,242,55015,1,0,0:0:0:0:
241,233,55515,5,8,0:0:0:0:
259,224,55765,1,0,0:0:0:0:
259,224,56015,1,8,0:0:0:0:
259,224,56515,5,4,0:0:0:0:
192,214,57515,1,8,0:0:0:0:
196,219,58515,1,0,0:0:0:0:
211,213,59515,1,8,0:0:0:0:
201,209,60515,5,0,0:0:0:0:
208,208,61015,1,8,0:0:0:0:
208,208,61515,1,0,0:0:0:0:
208,208,62015,1,8,0:0:0:0:
208,208,62515,1,0,0:0:0:0:
217,200,63015,1,0,0:0:0:0:
217,200,63515,1,8,0:0:0:0:
217,200,64015,5,8,0:0:0:0:
217,200,64265,1,8,0:0:0:0:
217,200,64515,5,4,0:0:0:0:
219,224,65015,1,0,0:0:0:0:
219,224,65265,1,8,0:0:0:0:
220,224,65515,5,4,0:0:0:0:
223,213,66015,1,8,0:0:0:0:
223,213,66265,1,8,0:0:0:0:
223,213,66515,5,4,0:0:0:0:
232,200,67015,1,12,0:0:0:0:
236,227,67515,5,4,0:0:0:0:
214,224,68515,5,4,0:0:0:0:
212,229,69265,5,8,0:0:0:0:
212,229,69515,1,4,0:0:0:0:
212,229,70265,5,8,0:0:0:0:
212,229,70515,1,4,0:0:0:0:
218,219,71015,5,0,0:0:0:0:
218,219,71265,1,8,0:0:0:0:
218,219,71515,1,4,0:0:0:0:
218,219,72015,5,8,0:0:0:0:
223,212,72265,1,8,0:0:0:0:
235,227,72515,1,4,0:0:0:0:
238,192,74515,5,0,0:0:0:0:
238,192,74765,1,8,0:0:0:0:
238,192,75015,1,0,0:0:0:0:
236,212,75515,5,8,0:0:0:0:
236,212,75765,1,0,0:0:0:0:
233,206,76015,1,8,0:0:0:0:
236,212,76515,5,0,0:0:0:0:
164,196,76765,1,8,0:0:0:0:
228,236,77265,1,8,0:0:0:0:
280,239,77515,1,0,0:0:0:0:
254,245,77765,1,8,0:0:0:0:
243,262,78015,1,0,0:0:0:0:
260,258,78515,5,0,0:0:0:0:
254,266,78765,1,8,0:0:0:0:
254,266,79265,1,8,0:0:0:0:
257,244,79515,1,8,0:0:0:0:
246,236,79765,1,0,0:0:0:0:
246,236,80015,1,8,0:0:0:0:
246,236,80515,5,0,0:0:0:0:
181,191,80765,1,0,0:0:0:0:
215,209,81015,1,8,0:0:0:0:
238,213,81515,5,8,0:0:0:0:
236,218,81765,1,8,0:0:0:0:
236,218,82015,1,0,0:0:0:0:
249,213,82515,5,4,0:0:0:0:
236,223,83515,5,4,0:0:0:0:
236,223,83765,1,12,0:0:0:0:
236,223,84015,1,4,0:0:0:0:
236,223,84265,1,12,0:0:0:0:
236,223,84765,5,0,0:0:0:0:
236,223,85015,1,8,0:0:0:0:
234,216,85515,1,8,0:0:0:0:
224,224,85765,1,0,0:0:0:0:
224,224,86015,1,8,0:0:0:0:
234,216,86515,5,0,0:0:0:0:
215,185,86765,1,8,0:0:0:0:
230,218,87265,1,8,0:0:0:0:
234,216,87515,1,8,0:0:0:0:
233,205,87765,1,8,0:0:0:0:
244,232,88515,5,4,0:0:0:0:
235,242,88890,1,4,0:0:0:0:
246,242,89515,5,4,0:0:0:0:
249,242,89890,1,4,0:0:0:0:
244,260,90515,5,0,0:0:0:0:
258,257,90765,1,8,0:0:0:0:
258,257,91015,1,0,0:0:0:0:
258,257,91265,1,8,0:0:0:0:
256,192,91515,12,0,92015,0:0:0:0:
220,262,92515,5,4,0:0:0:0:
184,223,93015,1,8,0:0:0:0:
216,263,93265,1,8,0:0:0:0:
218,249,93515,1,0,0:0:0:0:
213,240,93765,1,0,0:0:0:0:
226,266,94015,1,8,0:0:0:0:
226,257,94515,5,4,0:0:0:0:
224,262,95515,5,0,0:0:0:0:
225,265,95765,1,8,0:0:0:0:
229,260,96015,1,0,0:0:0:0:
225,242,96515,5,4,0:0:0:0:
217,263,97015,1,8,0:0:0:0:
216,263,97265,1,8,0:0:0:0:
216,269,97515,1,0,0:0:0:0:
225,265,97765,1,8,0:0:0:0:
226,266,98015,1,8,0:0:0:0:
226,257,98515,5,4,0:0:0:0:
210,242,99515,5,8,0:0:0:0:
209,236,100015,1,8,0:0:0:0:
215,227,100515,5,0,0:0:0:0:
215,227,100765,1,8,0:0:0:0:
215,227,101015,1,0,0:0:0:0:
215,227,101265,1,8,0:0:0:0:
215,227,101515,1,0,0:0:0:0:
207,234,102015,1,8,0:0:0:0:
209,234,102515,5,4,0:0:0:0:
215,227,103015,5,8,0:0:0:0:
217,219,103265,1,8,0:0:0:0:
217,219,103515,1,0,0:0:0:0:
241,232,104015,1,8,0:0:0:0:
241,232,104515,5,0,0:0:0:0:
241,232,104765,1,8,0:0:0:0:
241,232,105015,1,0,0:0:0:0:
241,232,105265,1,0,0:0:0:0:
241,232,105515,1,8,0:0:0:0:
241,232,106015,1,8,0:0:0:0:
241,232,106515,5,0,0:0:0:0:
259,238,106765,1,8,0:0:0:0:
259,238,107015,1,0,0:0:0:0:
259,238,107265,1,8,0:0:0:0:
259,238,107515,1,0,0:0:0:0:
200,248,108265,5,12,0:0:0:0:
250,266,108515,5,0,0:0:0:0:
183,206,108890,1,8,0:0:0:0:
250,244,109390,5,0,0:0:0:0:
250,244,109765,1,8,0:0:0:0:
250,244,110015,1,0,0:0:0:0:
282,239,110265,1,8,0:0:0:0:
282,239,110515,5,0,0:0:0:0:
282,239,110890,1,8,0:0:0:0:
261,237,111515,5,0,0:0:0:0:
231,248,112265,1,8,0:0:0:0:
240,239,112515,5,0,0:0:0:0:
243,237,112890,1,8,0:0:0:0:
184,219,113265,1,0,0:0:0:0:
223,235,113515,5,8,0:0:0:0:
238,213,113765,1,0,0:0:0:0:
239,247,114015,1,8,0:0:0:0:
251,240,114515,5,0,0:0:0:0:
247,238,114765,1,0,0:0:0:0:
248,242,115015,1,8,0:0:0:0:
241,233,115515,5,4,0:0:0:0:
259,224,116515,5,12,0:0:0:0:
268,226,117515,5,4,0:0:0:0:
258,223,118015,5,8,0:0:0:0:
262,224,118265,1,8,0:0:0:0:
262,224,118515,1,4,0:0:0:0:
268,221,119015,5,8,0:0:0:0:
268,221,119265,1,0,0:0:0:0:
260,239,119765,5,12,0:0:0:0:
