osu file format v14

[General]
AudioFilename: audio.mp3
AudioLeadIn: 0
PreviewTime: 54087
Countdown: 1
SampleSet: Normal
StackLeniency: 0.7
Mode: 0
LetterboxInBreaks: 0
WidescreenStoryboard: 1

[Editor]
DistanceSpacing: 0.8
BeatDivisor: 4
GridSize: 4
TimelineZoom: 1

[Metadata]
Title:New Americana (OLWIK remix)
TitleUnicode:New Americana (OLWIK remix)
Artist:Halsey
ArtistUnicode:Halsey
Creator:PhoenixnerIK
Version:Normal
Source:
Tags:Synthpop, Indie pop, [AngelMegum1n]
BeatmapID:1217409
BeatmapSetID:572259

[Difficulty]
HPDrainRate:5
CircleSize:4
OverallDifficulty:5
ApproachRate:5
SliderMultiplier:1.4
SliderTickRate:2

[Events]
//Background and Video events
0,0,"maxresdefault.jpg",0,0
//Break Periods
2,108047,111807
//Storyboard Layer 0 (Background)
//Storyboard Layer 1 (Fail)
//Storyboard Layer 2 (Pass)
//Storyboard Layer 3 (Foreground)
//Storyboard Sound Samples

[TimingPoints]
327,480,4,1,0,50,1,0
40647,-82.6446280991736,4,1,0,70,0,1
53607,-100,4,1,0,70,0,0
54087,-80,4,1,0,50,0,0
68967,-100,4,1,0,30,0,0
115527,-74.0740740740741,4,1,0,30,0,0
122727,-100,4,1,0,50,0,0
125127,-82.6446280991736,4,1,0,70,0,1
138087,-100,4,1,0,70,0,0

[Colours]
Combo1 : 196,196,196
Combo2 : 113,136,114
Combo3 : 230,225,57

[HitObjects]
256,44,327,5,4,0:0:0:0:
392,224,1287,1,0,0:0:0:0:
168,224,2247,1,4,0:0:0:0:
256,44,4167,5,4,0:0:0:0:
392,224,5127,1,0,0:0:0:0:
168,224,6087,1,4,0:0:0:0:
256,44,8007,5,4,0:0:0:0:
392,224,8967,1,0,0:0:0:0:
168,224,9927,1,4,0:0:0:0:
256,44,11847,5,4,0:0:0:0:
392,224,12807,1,0,0:0:0:0:
168,224,13767,1,4,0:0:0:0:
168,224,15687,6,0,P|168:60|168:60,2,140,4|0|0,0:0|0:0|0:0,0:0:0:0:
392,224,17607,2,0,B|472:224|472:224|472:148,1,140,4|0,0:0|0:0,0:0:0:0:
468,52,18567,1,0,0:0:0:0:
468,52,19527,6,0,L|280:52,1,140,4|0,0:0|0:0,0:0:0:0:
216,52,20487,1,0,0:0:0:0:
216,52,21447,2,0,P|292:52|332:144,1,140,4|0,0:0|0:0,0:0:0:0:
372,204,22407,1,0,0:0:0:0:
260,212,22887,1,0,0:0:0:0:
260,212,23367,6,0,B|152:280|120:140|56:204,2,210,4|0|0,0:0|0:0|0:0,0:0:0:0:
356,152,25287,1,4,0:0:0:0:
72,40,27207,6,0,P|40:156|292:308,1,420,4|0,0:0|0:0,0:0:0:0:
356,304,29127,1,4,0:0:0:0:
464,276,29607,1,0,0:0:0:0:
200,68,31047,6,0,B|268:40|296:168|444:112,2,210,4|0|0,0:0|0:0|0:0,0:0:0:0:
96,112,32967,2,0,P|56:160|48:264,2,140,4|0|0,0:0|0:0|0:0,0:0:0:0:
184,44,34407,1,0,0:0:0:0:
184,44,34887,6,0,B|364:40|408:200,1,280,4|0,0:0|0:0,0:0:0:0:
440,288,36327,1,0,0:0:0:0:
440,288,36807,2,0,P|284:300|192:192,1,280,4|0,0:0|0:0,0:0:0:0:
144,124,38247,1,0,0:0:0:0:
144,124,38727,6,0,P|220:64|340:56,2,210,4|0|0,0:0|0:0|0:0,0:0:0:0:
64,232,40647,6,0,P|44:296|140:320,1,169.399995218048,4|4,0:0|0:0,0:0:0:0:
184,300,41367,1,0,0:0:0:0:
240,264,41607,1,0,0:0:0:0:
352,188,42087,1,0,0:0:0:0:
352,188,42567,6,0,P|376:96|296:72,1,169.399995218048,4|4,0:0|0:0,0:0:0:0:
188,52,43527,2,0,L|120:232,1,169.399995218048
104,276,44247,1,0,0:0:0:0:
104,276,44487,6,0,P|184:312|288:292,1,169.399995218048,4|4,0:0|0:0,0:0:0:0:
388,248,45447,2,0,L|480:188,2,84.6999976090241
276,324,46407,6,0,P|184:316|144:256,1,169.399995218048,4|4,0:0|0:0,0:0:0:0:
108,128,47367,2,0,L|208:124,1,84.6999976090241
260,120,47847,1,0,0:0:0:0:
396,112,48327,1,4,0:0:0:0:
396,112,48807,6,0,L|480:32,2,84.6999976090241
348,160,49527,1,0,0:0:0:0:
348,160,49767,2,0,L|252:104,1,84.6999976090241
212,88,50247,6,0,P|96:92|152:264,1,338.799990436096,4|4,0:0|0:0,0:0:0:0:
264,296,51687,1,0,0:0:0:0:
264,296,52167,2,0,P|468:344|468:344,2,169.399995218048,4|8|4,0:0|0:0|0:0,0:0:0:0:
156,272,53607,1,0,0:0:0:0:
156,272,54087,6,0,P|104:236|168:148,2,175,4|0|0,0:0|0:0|0:0,0:0:0:0:
296,292,55527,1,0,0:0:0:0:
296,292,56007,2,0,L|476:344,2,175,4|0|0,0:0|0:0|0:0,0:0:0:0:
160,256,57447,1,0,0:0:0:0:
160,256,57927,6,0,P|100:200|152:112,2,175,4|0|0,0:0|0:0|0:0,0:0:0:0:
296,284,59367,1,0,0:0:0:0:
296,284,59847,2,0,P|388:292|424:216,2,175,4|0|0,0:0|0:0|0:0,0:0:0:0:
184,200,61287,1,0,0:0:0:0:
184,200,61767,6,0,L|64:56,2,175,4|0|0,0:0|0:0|0:0,0:0:0:0:
264,316,63207,1,0,0:0:0:0:
264,316,63687,2,0,P|360:324|416:272,2,175,4|0|0,0:0|0:0|0:0,0:0:0:0:
144,244,65127,1,0,0:0:0:0:
144,244,65607,6,0,P|56:264|72:340,2,175,4|0|0,0:0|0:0|0:0,0:0:0:0:
272,300,67047,1,0,0:0:0:0:
272,300,67527,2,0,L|468:348,2,175,4|0|0,0:0|0:0|0:0,0:0:0:0:
164,272,68967,1,0,0:0:0:0:
56,248,69447,5,4,0:0:0:0:
124,160,69927,1,0,0:0:0:0:
200,80,70407,1,0,0:0:0:0:
280,156,70887,1,0,0:0:0:0:
280,156,71367,2,0,P|332:112|368:160,1,140,4|0,0:0|0:0,0:0:0:0:
376,268,72327,1,0,0:0:0:0:
264,272,72807,1,0,0:0:0:0:
188,188,73287,1,4,0:0:0:0:
252,96,73767,5,0,0:0:0:0:
416,248,74727,1,0,0:0:0:0:
416,248,75207,2,0,P|352:328|312:320,1,140,4|0,0:0|0:0,0:0:0:0:
216,304,76167,1,0,0:0:0:0:
112,268,76647,1,0,0:0:0:0:
160,168,77127,5,4,0:0:0:0:
248,100,77607,1,0,0:0:0:0:
392,272,78567,1,0,0:0:0:0:
296,332,79047,1,4,0:0:0:0:
212,256,79527,1,0,0:0:0:0:
140,168,80007,5,0,0:0:0:0:
196,72,80487,1,0,0:0:0:0:
308,72,80967,1,4,0:0:0:0:
420,76,81447,1,0,0:0:0:0:
428,300,82407,1,0,0:0:0:0:
428,300,82887,6,0,L|280:304,1,140,4|0,0:0|0:0,0:0:0:0:
176,308,83847,1,0,0:0:0:0:
172,196,84327,1,0,0:0:0:0:
172,196,84807,6,0,L|308:124,1,140,4|0,0:0|0:0,0:0:0:0:
396,84,85767,1,0,0:0:0:0:
452,180,86247,1,0,0:0:0:0:
368,256,86727,1,4,0:0:0:0:
368,256,87207,2,0,L|220:264,1,140
116,268,88167,5,0,0:0:0:0:
112,156,88647,1,4,0:0:0:0:
112,156,89127,2,0,L|264:116,1,140
356,96,90087,5,0,0:0:0:0:
400,200,90567,1,4,0:0:0:0:
400,200,91047,2,0,L|244:256,1,140
164,288,92007,1,0,0:0:0:0:
256,192,92487,12,0,99687,0:0:0:0:
256,192,100167,12,0,107847,0:0:0:0:
380,48,113607,6,0,L|388:192,1,140,4|0,0:0|0:0,0:0:0:0:
392,300,114567,1,0,0:0:0:0:
280,304,115047,1,0,0:0:0:0:
280,304,115527,6,0,P|188:348|100:288,2,189.000000720978,4|0|0,0:0|0:0|0:0,0:0:0:0:
356,172,116967,1,0,0:0:0:0:
356,172,117447,2,0,L|464:360,2,189.000000720978,4|0|0,0:0|0:0|0:0,0:0:0:0:
284,40,118887,1,0,0:0:0:0:
284,40,119367,6,0,P|380:56|448:132,2,189.000000720978,4|0|0,0:0|0:0|0:0,0:0:0:0:
132,44,120807,1,0,0:0:0:0:
132,44,121287,2,0,P|64:56|108:152,2,189.000000720978,4|0|0,0:0|0:0|0:0,0:0:0:0:
228,104,122727,1,0,0:0:0:0:
228,104,123207,6,0,L|364:40,2,140,4|0|0,0:0|0:0|0:0,0:0:0:0:
128,152,124647,1,0,0:0:0:0:
128,152,125127,6,0,L|280:240,1,169.399995218048,4|4,0:0|0:0,0:0:0:0:
332,272,125847,1,0,0:0:0:0:
392,304,126087,1,0,0:0:0:0:
448,180,126567,1,0,0:0:0:0:
448,180,127047,6,0,P|352:116|288:156,1,169.399995218048,4|4,0:0|0:0,0:0:0:0:
256,172,127767,1,0,0:0:0:0:
256,172,128007,2,0,L|136:296,1,169.399995218048
88,340,128727,1,0,0:0:0:0:
88,340,128967,6,0,P|48:264|96:204,1,169.399995218048,4|4,0:0|0:0,0:0:0:0:
224,164,129927,2,0,L|332:120,2,84.6999976090241
100,220,130887,6,0,P|156:328|212:308,1,169.399995218048,4|4,0:0|0:0,0:0:0:0:
308,276,131847,2,0,L|376:216,1,84.6999976090241
420,172,132327,1,0,0:0:0:0:
360,52,132807,1,4,0:0:0:0:
360,52,133287,6,0,L|464:52,2,84.6999976090241
292,52,134007,1,0,0:0:0:0:
292,52,134247,2,0,L|236:116,1,84.6999976090241
200,172,134727,6,0,P|196:296|368:236,1,338.799990436096,4|4,0:0|0:0,0:0:0:0:
420,148,136167,1,0,0:0:0:0:
420,148,136647,2,0,P|376:52|324:64,2,169.399995218048,4|8|4,0:0|0:0|0:0,0:0:0:0:
368,248,138087,1,0,0:0:0:0:
368,248,138567,6,0,P|424:320|468:328,2,140,4|0|0,0:0|0:0|0:0,0:0:0:0:
344,140,140007,1,0,0:0:0:0:
344,140,140487,2,0,L|460:56,2,140,4|0|0,0:0|0:0|0:0,0:0:0:0:
260,216,141927,1,0,0:0:0:0:
260,216,142407,6,0,L|120:252,2,140,4|0|0,0:0|0:0|0:0,0:0:0:0:
368,184,143847,1,0,0:0:0:0:
368,184,144327,2,0,L|440:40,2,140,4|0|0,0:0|0:0|0:0,0:0:0:0:
320,284,145767,1,0,0:0:0:0:
320,284,146247,6,0,L|464:344,2,140,4|0|0,0:0|0:0|0:0,0:0:0:0:
216,240,147687,1,0,0:0:0:0:
216,240,148167,2,0,L|40:180,2,140,4|0|0,0:0|0:0|0:0,0:0:0:0:
320,276,149607,1,0,0:0:0:0:
320,276,150087,6,0,L|464:352,2,140,4|0|0,0:0|0:0|0:0,0:0:0:0:
224,216,151527,1,0,0:0:0:0:
224,216,152007,2,0,L|92:136,2,140,4|0|0,0:0|0:0|0:0,0:0:0:0:
320,276,153447,1,0,0:0:0:0:
