osu file format v14

[General]
AudioFilename: audio.mp3
AudioLeadIn: 0
PreviewTime: 54087
Countdown: 1
SampleSet: Normal
StackLeniency: 0.7
Mode: 0
LetterboxInBreaks: 0
WidescreenStoryboard: 1

[Editor]
DistanceSpacing: 1.2
BeatDivisor: 4
GridSize: 4
TimelineZoom: 1

[Metadata]
Title:New Americana (OLWIK remix)
TitleUnicode:New Americana (OLWIK remix)
Artist:Halsey
ArtistUnicode:Halsey
Creator:PhoenixnerIK
Version:Hard
Source:
Tags:Synthpop, Indie pop, [AngelMegum1n]
BeatmapID:1217989
BeatmapSetID:572259

[Difficulty]
HPDrainRate:6
CircleSize:4
OverallDifficulty:6
ApproachRate:7
SliderMultiplier:1.4
SliderTickRate:2

[Events]
//Background and Video events
0,0,"maxresdefault.jpg",0,0
//Break Periods
//Storyboard Layer 0 (Background)
//Storyboard Layer 1 (Fail)
//Storyboard Layer 2 (Pass)
//Storyboard Layer 3 (Foreground)
//Storyboard Sound Samples

[TimingPoints]
327,480,4,1,0,50,1,0
40647,-100,4,1,0,70,0,1
53847,-100,4,1,0,70,0,0
55767,-66.6666666666667,4,1,0,50,0,0
60567,-100,4,1,0,50,0,0
92487,-200,4,1,0,50,0,0
113127,-100,4,1,0,50,0,0
115287,-66.6666666666667,4,1,0,50,0,0
119127,-55.5555555555556,4,1,0,50,0,0
123087,-100,4,1,0,50,0,0
125127,-100,4,1,0,70,0,1
138327,-100,4,1,0,70,0,0

[Colours]
Combo1 : 196,196,196
Combo2 : 113,136,114
Combo3 : 230,225,57

[HitObjects]
256,188,327,5,4,0:0:0:0:
256,188,2247,5,4,0:0:0:0:
256,188,4167,5,4,0:0:0:0:
256,188,6087,5,4,0:0:0:0:
256,188,8007,5,4,0:0:0:0:
256,188,9927,5,4,0:0:0:0:
256,188,11847,5,4,0:0:0:0:
256,188,13767,5,4,0:0:0:0:
256,188,14247,1,0,0:0:0:0:
256,188,14727,2,0,P|232:288|220:288,1,140
60,316,15687,5,4,0:0:0:0:
60,316,16167,1,0,0:0:0:0:
60,316,16647,2,0,P|132:304|136:240,1,140
132,80,17607,5,4,0:0:0:0:
136,88,18087,1,0,0:0:0:0:
136,88,18567,2,0,L|292:88,1,140
444,88,19527,5,4,0:0:0:0:
444,88,20007,1,0,0:0:0:0:
444,88,20487,2,0,P|344:224|344:224,1,140
264,336,21447,5,4,0:0:0:0:
108,276,21927,1,0,0:0:0:0:
276,292,22407,1,0,0:0:0:0:
120,232,22887,1,0,0:0:0:0:
216,92,23367,6,0,B|264:48|316:40|368:84,1,140,4|0,0:0|0:0,0:0:0:0:
480,168,24327,1,0,0:0:0:0:
376,300,24807,1,0,0:0:0:0:
328,140,25287,1,4,0:0:0:0:
156,56,27207,6,0,P|100:124|108:196,1,140,4|0,0:0|0:0,0:0:0:0:
152,332,28167,1,0,0:0:0:0:
236,336,28407,1,0,0:0:0:0:
404,340,28887,1,0,0:0:0:0:
448,268,29127,1,4,0:0:0:0:
328,152,29607,5,0,0:0:0:0:
188,244,30087,1,0,0:0:0:0:
348,192,30567,1,0,0:0:0:0:
208,284,31047,1,4,0:0:0:0:
144,340,31287,6,0,B|148:338|60:320|96:224,1,140
128,148,32007,1,0,0:0:0:0:
128,148,32247,1,0,0:0:0:0:
128,148,32487,2,0,L|228:128,1,70
280,124,32967,6,0,L|335:166,1,70,4|0,0:0|0:0,0:0:0:0:
400,220,33447,1,0,0:0:0:0:
400,220,33687,1,0,0:0:0:0:
400,220,33927,2,0,L|344:276,1,70
308,344,34407,2,0,L|224:344,1,70
156,336,34887,2,0,B|148:342|180:270,1,70,4|0,0:0|0:0,0:0:0:0:
208,196,35367,5,0,0:0:0:0:
152,40,35847,1,0,0:0:0:0:
316,80,36327,1,0,0:0:0:0:
464,160,36807,6,0,L|464:232,1,70,4|0,0:0|0:0,0:0:0:0:
464,312,37287,1,0,0:0:0:0:
464,312,37527,1,0,0:0:0:0:
464,312,37767,2,0,L|368:336,1,70
312,336,38247,2,0,L|224:312,1,70
164,292,38727,6,0,P|76:172|76:172,1,140,4|0,0:0|0:0,0:0:0:0:
464,72,39687,1,0,0:0:0:0:
460,240,40167,5,0,0:0:0:0:
460,240,40647,2,0,L|390:240,1,70,4|4,0:0|0:0,0:0:0:0:
304,240,41127,5,0,0:0:0:0:
240,188,41367,1,0,0:0:0:0:
324,184,41607,1,0,0:0:0:0:
264,240,41847,1,0,0:0:0:0:
280,156,42087,1,0,0:0:0:0:
296,72,42327,5,0,0:0:0:0:
296,72,42567,2,0,P|360:40|420:88,1,140,4|4,0:0|0:0,0:0:0:0:
440,152,43287,1,0,0:0:0:0:
440,152,43527,2,0,L|360:268,1,140
320,340,44247,5,0,0:0:0:0:
320,340,44487,2,0,L|250:337,1,70,4|4,0:0|0:0,0:0:0:0:
164,332,44967,5,0,0:0:0:0:
192,252,45207,1,0,0:0:0:0:
132,308,45447,1,0,0:0:0:0:
36,168,45927,5,0,0:0:0:0:
36,168,46167,1,0,0:0:0:0:
36,168,46407,2,0,P|76:113|144:88,1,140,4|4,0:0|0:0,0:0:0:0:
224,76,47127,1,0,0:0:0:0:
224,76,47367,2,0,L|274:124,1,70
332,184,47847,1,0,0:0:0:0:
452,304,48327,6,0,L|468:160,1,140,4|4,0:0|0:0,0:0:0:0:
476,80,49047,1,0,0:0:0:0:
476,80,49287,2,0,L|406:80,1,70
324,80,49767,5,0,0:0:0:0:
324,80,50007,1,0,0:0:0:0:
324,80,50247,2,0,L|221:174,1,140,4|4,0:0|0:0,0:0:0:0:
160,236,50967,1,0,0:0:0:0:
160,236,51207,2,0,L|216:276,1,70
284,328,51687,5,0,0:0:0:0:
368,328,51927,1,0,0:0:0:0:
296,284,52167,1,4,0:0:0:0:
332,208,52407,6,0,L|363:145,1,70
400,68,52887,5,0,0:0:0:0:
316,68,53127,1,0,0:0:0:0:
380,124,53367,1,0,0:0:0:0:
356,44,53607,1,0,0:0:0:0:
324,124,53847,1,0,0:0:0:0:
288,200,54087,5,4,0:0:0:0:
204,196,54327,1,0,0:0:0:0:
204,280,54567,2,0,L|274:280,1,70
360,284,55048,2,0,L|396:216,1,70
432,148,55527,1,0,0:0:0:0:
204,40,56007,5,4,0:0:0:0:
120,276,56487,1,0,0:0:0:0:
336,152,56967,1,0,0:0:0:0:
92,84,57447,1,0,0:0:0:0:
252,276,57927,1,4,0:0:0:0:
180,36,58407,5,0,0:0:0:0:
80,268,58887,1,0,0:0:0:0:
280,116,59367,1,0,0:0:0:0:
28,100,59847,1,4,0:0:0:0:
216,268,60327,1,0,0:0:0:0:
208,100,60807,5,0,0:0:0:0:
208,100,61287,1,0,0:0:0:0:
208,100,61767,2,0,B|208:116|208:132|208:172,1,70,4|0,0:0|0:0,0:0:0:0:
208,252,62247,5,0,0:0:0:0:
208,252,62727,2,0,L|296:252,1,70
360,252,63207,5,0,0:0:0:0:
360,252,63687,2,0,L|416:184,1,70,4|0,0:0|0:0,0:0:0:0:
448,128,64167,5,0,0:0:0:0:
448,128,64647,2,0,L|352:96,1,70
300,84,65127,5,0,0:0:0:0:
356,244,65607,1,4,0:0:0:0:
220,148,66087,1,0,0:0:0:0:
388,148,66567,1,0,0:0:0:0:
252,244,67047,1,0,0:0:0:0:
112,340,67527,5,4,0:0:0:0:
208,204,68007,1,0,0:0:0:0:
80,312,68487,1,0,0:0:0:0:
64,144,68967,1,0,0:0:0:0:
64,144,69447,2,0,L|110:91,1,70,4|0,0:0|0:0,0:0:0:0:
180,44,69927,5,0,0:0:0:0:
180,44,70407,2,0,L|250:44,1,70
332,44,70887,5,0,0:0:0:0:
332,44,71367,2,0,L|332:114,1,70,4|0,0:0|0:0,0:0:0:0:
332,200,71847,5,0,0:0:0:0:
332,200,72327,2,0,L|252:200,1,70
180,204,72807,5,0,0:0:0:0:
40,112,73287,1,4,0:0:0:0:
152,240,73767,1,0,0:0:0:0:
472,348,74727,6,0,L|472:276,1,70
472,196,75207,5,4,0:0:0:0:
472,196,75687,2,0,L|396:160,1,70
332,128,76167,5,0,0:0:0:0:
332,128,76647,2,0,L|236:112,1,70
180,104,77127,5,4,0:0:0:0:
40,196,77607,1,0,0:0:0:0:
340,348,78567,5,0,0:0:0:0:
464,236,79047,1,4,0:0:0:0:
296,236,79527,1,0,0:0:0:0:
420,352,80007,1,0,0:0:0:0:
380,188,80487,1,0,0:0:0:0:
272,60,80967,5,4,0:0:0:0:
344,212,81447,1,0,0:0:0:0:
56,36,82407,6,0,L|56:116,1,70
56,192,82887,5,4,0:0:0:0:
56,192,83367,2,0,L|56:288,1,70
60,344,83847,5,0,0:0:0:0:
60,344,84327,2,0,L|148:344,1,70
216,344,84807,5,4,0:0:0:0:
220,344,85287,2,0,L|220:256,1,70
220,192,85767,5,0,0:0:0:0:
220,192,86247,2,0,L|152:136,1,70
104,88,86727,5,4,0:0:0:0:
104,88,87207,2,0,L|252:56,1,140
408,36,88167,1,0,0:0:0:0:
408,36,88647,1,4,0:0:0:0:
408,36,89127,2,0,L|332:156,1,140
252,300,90087,5,0,0:0:0:0:
252,300,90567,1,4,0:0:0:0:
252,300,91047,2,0,L|168:188,1,140
72,52,92007,5,0,0:0:0:0:
72,52,92487,2,0,P|112:52|184:60,2,105,4|0|0,0:0|0:0|0:0,0:0:0:0:
52,132,94407,2,0,P|32:200|36:236,2,105,4|0|0,0:0|0:0|0:0,0:0:0:0:
104,64,96327,2,0,P|156:48|200:84,2,105,4|0|0,0:0|0:0|0:0,0:0:0:0:
64,136,98247,6,0,P|72:184|92:208,1,70,4|0,0:0|0:0,0:0:0:0:
128,272,99207,1,0,0:0:0:0:
188,328,99687,1,0,0:0:0:0:
264,288,100167,6,0,P|281:239|261:192,2,105,4|0|0,0:0|0:0|0:0,0:0:0:0:
204,348,102087,2,0,P|148:332|136:288,2,105,4|0|0,0:0|0:0|0:0,0:0:0:0:
280,312,104007,2,0,P|297:263|282:214,2,105,4|0|0,0:0|0:0|0:0,0:0:0:0:
204,344,105927,6,0,P|160:336|144:304,1,70,4|0,0:0|0:0,0:0:0:0:
108,244,106887,1,0,0:0:0:0:
128,164,107367,1,0,0:0:0:0:
256,192,107847,12,0,113127,0:0:0:0:
328,304,113607,5,4,0:0:0:0:
328,136,114087,1,0,0:0:0:0:
160,136,114567,1,0,0:0:0:0:
152,304,115047,5,0,0:0:0:0:
152,304,115527,2,0,L|268:304,1,105.000004005432,4|0,0:0|0:0,0:0:0:0:
384,300,116007,5,0,0:0:0:0:
384,300,116487,2,0,L|384:195,1,105.000004005432
388,68,116967,5,0,0:0:0:0:
388,68,117447,2,0,L|268:68,1,105.000004005432,4|0,0:0|0:0,0:0:0:0:
156,68,117927,5,0,0:0:0:0:
156,68,118407,2,0,L|156:184,1,105.000004005432
160,300,118887,5,0,0:0:0:0:
160,300,119367,2,0,L|312:300,2,125.999996154785,4|0|0,0:0|0:0|0:0,0:0:0:0:
164,148,120087,1,0,0:0:0:0:
164,148,120327,2,0,L|20:148,2,125.999996154785,0|0|0,0:0|0:0|0:0,0:0:0:0:
316,148,121047,5,0,0:0:0:0:
316,148,121287,2,0,L|316:292,2,125.999996154785,4|0|0,0:0|0:0|0:0,0:0:0:0:
164,148,122007,5,0,0:0:0:0:
164,148,122247,2,0,L|52:32,2,125.999996154785,0|0|0,0:0|0:0|0:0,0:0:0:0:
172,300,122967,5,0,0:0:0:0:
172,300,123207,2,0,P|228:340|296:328,1,140,4|0,0:0|0:0,0:0:0:0:
444,256,124167,5,0,0:0:0:0:
444,256,124647,1,0,0:0:0:0:
444,256,125127,2,0,L|444:186,1,70,4|4,0:0|0:0,0:0:0:0:
448,104,125607,1,0,0:0:0:0:
372,140,125847,1,0,0:0:0:0:
324,208,126087,1,0,0:0:0:0:
248,240,126327,1,0,0:0:0:0:
176,284,126567,5,0,0:0:0:0:
176,284,126807,1,0,0:0:0:0:
176,284,127047,2,0,P|108:160|108:160,1,140,4|4,0:0|0:0,0:0:0:0:
68,88,127767,1,0,0:0:0:0:
68,88,128007,2,0,L|216:60,1,140
288,44,128727,5,0,0:0:0:0:
288,44,128967,2,0,L|327:101,1,70,4|4,0:0|0:0,0:0:0:0:
372,172,129447,1,0,0:0:0:0:
408,248,129687,1,0,0:0:0:0:
384,328,129927,1,0,0:0:0:0:
216,304,130407,5,0,0:0:0:0:
216,304,130647,1,0,0:0:0:0:
216,304,130887,2,0,P|149:303|120:244,1,140,4|4,0:0|0:0,0:0:0:0:
128,160,131607,1,0,0:0:0:0:
128,160,131847,2,0,L|190:128,1,70
260,84,132327,5,0,0:0:0:0:
264,88,132807,2,0,L|372:188,1,140,4|4,0:0|0:0,0:0:0:0:
420,248,133527,1,0,0:0:0:0:
420,248,133767,2,0,L|352:300,1,70
300,344,134247,5,0,0:0:0:0:
300,344,134487,1,0,0:0:0:0:
300,344,134727,2,0,L|188:228,1,140,4|4,0:0|0:0,0:0:0:0:
148,176,135447,1,0,0:0:0:0:
148,176,135687,2,0,L|200:104,1,70
232,48,136167,1,0,0:0:0:0:
316,44,136407,5,0,0:0:0:0:
316,44,136647,1,4,0:0:0:0:
316,44,136887,2,0,L|340:124,1,70
364,192,137367,1,0,0:0:0:0:
392,272,137607,1,0,0:0:0:0:
328,216,137847,1,0,0:0:0:0:
352,296,138087,1,0,0:0:0:0:
292,240,138327,1,0,0:0:0:0:
220,280,138567,5,4,0:0:0:0:
220,280,138807,1,0,0:0:0:0:
220,280,139047,2,0,L|120:276,1,70
64,276,139527,2,0,L|68:196,1,70
72,120,140007,1,0,0:0:0:0:
220,36,140487,5,4,0:0:0:0:
324,168,140967,1,0,0:0:0:0:
236,312,141447,1,0,0:0:0:0:
156,168,141927,1,0,0:0:0:0:
264,296,142407,5,4,0:0:0:0:
196,144,142887,1,0,0:0:0:0:
304,272,143367,1,0,0:0:0:0:
232,120,143847,1,0,0:0:0:0:
340,248,144327,1,4,0:0:0:0:
272,96,144807,1,0,0:0:0:0:
440,96,145287,5,0,0:0:0:0:
440,96,145767,1,0,0:0:0:0:
440,96,146247,2,0,B|440:69|440:128|440:168,1,70,4|0,0:0|0:0,0:0:0:0:
440,236,146727,5,0,0:0:0:0:
440,236,147207,2,0,L|340:236,1,70
288,236,147687,5,0,0:0:0:0:
288,236,148167,2,0,L|208:236,1,70,4|0,0:0|0:0,0:0:0:0:
136,236,148647,5,0,0:0:0:0:
136,236,149127,2,0,L|88:160,1,70
52,108,149607,5,0,0:0:0:0:
208,44,150087,1,4,0:0:0:0:
76,148,150567,1,0,0:0:0:0:
232,84,151047,1,0,0:0:0:0:
100,184,151527,1,0,0:0:0:0:
256,124,152007,5,4,0:0:0:0:
124,228,152487,1,0,0:0:0:0:
280,164,152967,1,0,0:0:0:0:
144,264,153447,1,0,0:0:0:0:
312,264,153927,1,4,0:0:0:0:
