osu file format v14

[General]
AudioFilename: audio.mp3
AudioLeadIn: 0
PreviewTime: 54087
Countdown: 1
SampleSet: Normal
StackLeniency: 0.7
Mode: 0
LetterboxInBreaks: 0
WidescreenStoryboard: 0

[Editor]
DistanceSpacing: 0.8
BeatDivisor: 2
GridSize: 4
TimelineZoom: 1

[Metadata]
Title:New Americana (OLWIK remix)
TitleUnicode:New Americana (OLWIK remix)
Artist:Halsey
ArtistUnicode:Halsey
Creator:PhoenixnerIK
Version:Easy
Source:
Tags:Synthpop, Indie pop, [AngelMegum1n]
BeatmapID:1212618
BeatmapSetID:572259

[Difficulty]
HPDrainRate:3
CircleSize:3
OverallDifficulty:3
ApproachRate:4
SliderMultiplier:1
SliderTickRate:2

[Events]
//Background and Video events
0,0,"maxresdefault.jpg",0,0
//Break Periods
2,108047,112287
//Storyboard Layer 0 (Background)
//Storyboard Layer 1 (Fail)
//Storyboard Layer 2 (Pass)
//Storyboard Layer 3 (Foreground)
//Storyboard Sound Samples

[TimingPoints]
327,480,4,1,0,50,1,0
40647,-82.6446280991736,4,1,0,70,0,1
53607,-100,4,1,0,70,0,0
54087,-80,4,1,0,50,0,0
68967,-100,4,1,0,30,0,0
115527,-100,4,1,0,30,0,0
122727,-100,4,1,0,50,0,0
125127,-82.6446280991736,4,1,0,70,0,1
138087,-100,4,1,0,70,0,0

[Colours]
Combo1 : 196,196,196
Combo2 : 113,136,114
Combo3 : 230,225,57

[HitObjects]
256,192,327,5,4,0:0:0:0:
256,192,2247,1,4,0:0:0:0:
256,192,4167,1,4,0:0:0:0:
256,192,6087,1,4,0:0:0:0:
256,192,8007,5,4,0:0:0:0:
256,192,9927,1,4,0:0:0:0:
256,192,11847,1,4,0:0:0:0:
256,192,13767,1,4,0:0:0:0:
256,192,15687,6,0,B|352:348|352:348|352:348,2,150,4|0|0,0:0|0:0|0:0,0:0:0:0:
216,124,17607,2,0,B|80:128|80:128|64:128,2,150,4|0|0,0:0|0:0|0:0,0:0:0:0:
296,120,19527,2,0,L|444:60,2,150,4|0|0,0:0|0:0|0:0,0:0:0:0:
328,196,21447,2,0,L|416:368,2,150,4|0|0,0:0|0:0|0:0,0:0:0:0:
256,236,23367,6,0,B|168:292|168:292|92:340,2,150,4|0|0,0:0|0:0|0:0,0:0:0:0:
324,192,25287,1,4,0:0:0:0:
44,40,27207,6,0,P|48:216|48:216,2,150
124,44,29127,1,4,0:0:0:0:
256,336,31047,6,0,B|336:336|336:184|336:184,2,150,4|0|0,0:0|0:0|0:0,0:0:0:0:
176,336,32967,6,0,P|96:304|72:232,2,150,4|0|0,0:0|0:0|0:0,0:0:0:0:
256,336,34887,2,0,B|344:320|296:184,2,150,4|0|0,0:0|0:0|0:0,0:0:0:0:
176,332,36807,6,0,B|88:240|88:240,3,100,4|0|0|0,0:0|0:0|0:0|0:0,0:0:0:0:
60,196,38727,2,0,P|52:104|92:40,2,150,4|0|0,0:0|0:0|0:0,0:0:0:0:
100,284,40647,6,0,L|236:280,3,120.99999658432,4|2|2|4,0:0|0:0|0:0|0:0,0:0:0:0:
316,280,42567,2,0,P|432:232|456:176,2,181.49999487648,4|8|0,0:0|0:0|0:0,0:0:0:0:
224,252,44487,2,0,L|124:156,3,120.99999658432,4|2|2|4,0:0|0:0|0:0|0:0,0:0:0:0:
68,100,46407,6,0,P|44:172|68:284,2,181.49999487648,4|8|4,0:0|0:0|0:0,0:0:0:0:
148,48,48327,1,4,0:0:0:0:
244,48,48807,2,0,L|372:48,2,120.99999658432
148,52,50247,6,4,P|76:96|56:212,2,181.49999487648,4|8|4,0:0|0:0|0:0,0:0:0:0:
244,48,52167,2,4,P|352:168|352:168,1,120.99999658432
384,212,53127,1,0,0:0:0:0:
352,284,53607,1,0,0:0:0:0:
252,284,54087,5,4,0:0:0:0:
160,324,54567,2,0,P|80:320|72:244,2,125
240,264,56007,1,4,0:0:0:0:
340,268,56487,2,0,L|472:272,2,125
240,268,57927,1,4,0:0:0:0:
144,244,58407,6,0,P|92:136|120:104,2,125
244,260,59847,1,4,0:0:0:0:
316,188,60327,2,0,P|412:208|432:264,2,125
240,252,61767,1,4,0:0:0:0:
176,176,62247,6,0,L|84:60,2,125
236,256,63687,2,0,L|440:348,2,187.5,4|0|0,0:0|0:0|0:0,0:0:0:0:
152,200,65607,2,0,L|40:40,2,187.5,4|0|0,0:0|0:0|0:0,0:0:0:0:
212,280,67527,2,0,L|436:348,2,187.5,4|0|0,0:0|0:0|0:0,0:0:0:0:
136,256,69447,5,4,0:0:0:0:
76,204,69927,1,0,0:0:0:0:
76,124,70407,1,0,0:0:0:0:
124,60,70887,1,0,0:0:0:0:
204,56,71367,2,0,P|316:72|424:216,1,300,4|0,0:0|0:0,0:0:0:0:
440,292,73287,5,4,0:0:0:0:
368,328,73767,1,0,0:0:0:0:
288,336,74247,1,0,0:0:0:0:
128,336,75207,6,0,P|80:300|84:212,2,150,4|0|0,0:0|0:0|0:0,0:0:0:0:
208,344,77127,2,0,L|308:344,2,100,4|0|0,0:0|0:0|0:0,0:0:0:0:
128,344,78567,1,0,0:0:0:0:
136,264,79047,2,0,L|160:96,2,150,4|0|0,0:0|0:0|0:0,0:0:0:0:
128,344,80967,1,4,0:0:0:0:
208,344,81447,5,0,0:0:0:0:
204,104,82887,2,0,L|324:104,1,100,4|0,0:0|0:0,0:0:0:0:
384,108,83847,1,0,0:0:0:0:
392,268,84807,2,0,L|276:256,1,100,4|0,0:0|0:0,0:0:0:0:
212,252,85767,1,0,0:0:0:0:
164,188,86247,5,0,0:0:0:0:
116,124,86727,1,4,0:0:0:0:
92,48,87207,2,0,L|232:36,1,100
272,48,88167,1,0,0:0:0:0:
324,108,88647,5,4,0:0:0:0:
356,184,89127,2,0,L|264:284,1,100
232,312,90087,1,0,0:0:0:0:
152,312,90567,1,4,0:0:0:0:
164,232,91047,2,0,L|192:128,1,100
212,60,92007,1,0,0:0:0:0:
256,192,92487,12,0,99687,0:0:0:0:
256,192,100167,12,0,107847,0:0:0:0:
236,52,113607,6,0,L|116:56,2,100,4|0|0,0:0|0:0|0:0,0:0:0:0:
316,52,115047,1,0,0:0:0:0:
340,128,115527,6,0,L|380:248,2,100,4|0|0,0:0|0:0|0:0,0:0:0:0:
200,52,117447,2,0,L|100:64,2,100,4|0|0,0:0|0:0|0:0,0:0:0:0:
292,184,119367,2,0,L|388:280,2,100,4|0|0,0:0|0:0|0:0,0:0:0:0:
184,68,121287,2,0,L|80:148,2,100,4|0|0,0:0|0:0|0:0,0:0:0:0:
284,196,123207,6,0,L|376:292,2,100,4|0|0,0:0|0:0|0:0,0:0:0:0:
160,44,125127,2,0,L|320:48,3,120.99999658432,4|2|2|4,0:0|0:0|0:0|0:0,0:0:0:0:
376,48,127047,6,0,L|384:180,3,120.99999658432,4|2|2|4,0:0|0:0|0:0|0:0,0:0:0:0:
384,264,128967,1,4,0:0:0:0:
292,296,129447,2,0,L|208:324,2,60.4999982921601
468,220,130887,6,4,P|424:96|376:76,2,181.49999487648,4|8|4,0:0|0:0|0:0,0:0:0:0:
428,308,132807,1,4,0:0:0:0:
332,308,133287,2,0,L|188:308,2,120.99999658432
428,288,134727,2,0,P|424:144|384:136,2,181.49999487648,4|8|4,0:0|0:0|0:0,0:0:0:0:
344,340,136647,1,4,0:0:0:0:
248,336,137127,2,0,L|84:332,2,120.99999658432
328,332,138567,5,4,0:0:0:0:
300,256,139047,2,0,P|312:176|352:152,2,100
320,332,140487,1,4,0:0:0:0:
240,332,140967,2,0,L|104:332,2,100
320,332,142407,1,4,0:0:0:0:
400,332,142887,6,0,P|456:296|472:264,2,100
320,344,144327,1,4,0:0:0:0:
240,344,144807,2,0,P|164:316|136:276,2,100
320,344,146247,1,4,0:0:0:0:
368,280,146727,6,0,L|456:192,2,100
320,344,148167,2,0,L|132:344,2,150,4|0|0,0:0|0:0|0:0,0:0:0:0:
400,340,150087,2,0,P|464:240|432:208,2,150,4|0|0,0:0|0:0|0:0,0:0:0:0:
320,324,152007,2,0,L|132:320,2,150,4|0|0,0:0|0:0|0:0,0:0:0:0:
400,324,153927,1,4,0:0:0:0:
