osu file format v14

[General]
AudioFilename: Halsey - Colors (Nightcore Mix).mp3
AudioLeadIn: 0
PreviewTime: 35925
Countdown: 0
SampleSet: Normal
StackLeniency: 0.5
Mode: 0
LetterboxInBreaks: 0
WidescreenStoryboard: 1

[Editor]
Bookmarks: 37175,38175,67176
DistanceSpacing: 1.5
BeatDivisor: 4
GridSize: 16
TimelineZoom: 1

[Metadata]
Title:Colors (Nightcore Mix)
TitleUnicode:Colors (Nightcore Mix)
Artist:Halsey
ArtistUnicode:Halsey
Creator:Cookie
Version:Hard
Source:
Tags:Colors Halsey Blue Gray Grey Nightcore
BeatmapID:951528
BeatmapSetID:440801

[Difficulty]
HPDrainRate:7
CircleSize:4
OverallDifficulty:8
ApproachRate:7
SliderMultiplier:1.49999990463257
SliderTickRate:2

[Events]
//Background and Video events
0,0,"background.jpg",0,0
//Break Periods
//Storyboard Layer 0 (Background)
//Storyboard Layer 1 (Fail)
//Storyboard Layer 2 (Pass)
//Storyboard Layer 3 (Foreground)
//Storyboard Sound Samples

[TimingPoints]
3174,500,4,1,0,100,1,0
3174,-133.333333333333,4,1,0,70,0,0
35174,-133.333333333333,4,1,0,40,0,0
37174,-100,4,1,0,100,0,1
69174,-133.333333333333,4,1,0,5,0,0

[HitObjects]
188,72,3174,6,0,B|188:212|376:260|280:16|452:-32|588:40|464:272|248:276,1,674.999982833862
257,275,7174,6,0,B|1:196|-24:72|68:40|244:0|-58:-3|312:392|165:-19|364:72|344:220,1,674.999982833862
344,210,11174,6,0,B|248:378|68:258|-64:214|144:58|400:112,1,674.999982833862
384,109,15174,6,0,B|409:258|388:304|320:304|320:304|124:288|272:296|380:24|100:40|132:200,1,674.999982833862
80,256,19174,6,0,P|144:288|192:256,1,112.499997138977
144,192,20174,2,0,P|208:160|256:192,1,112.499997138977
304,240,21174,2,0,P|336:176|304:128,1,112.499997138977
252,84,22174,2,0,P|316:52|364:64,1,112.499997138977
328,148,23174,6,0,B|328:172|328:172|324:176|324:176|328:180|328:180|332:184|332:184|328:188|328:188|324:192|324:192|328:196|328:196|332:200|332:200|328:204|328:204|324:208|324:208|328:212|328:212|332:216|332:216|328:220|328:220|328:240|328:240,1,112.499997138977
388,296,24174,2,0,P|324:328|276:296,1,112.499997138977
232,172,25174,2,0,P|200:236|232:284,1,112.499997138977
288,236,26174,2,0,P|352:268|400:236,1,112.499997138977
128,72,27174,6,0,L|184:72,1,56.2499985694885
256,72,27674,1,0,0:0:0:0:
384,152,28174,2,0,L|328:152,1,56.2499985694885
256,152,28674,1,0,0:0:0:0:
128,232,29174,2,0,L|184:232,1,56.2499985694885
256,232,29674,1,0,0:0:0:0:
384,312,30174,2,0,L|328:312,1,56.2499985694885
256,312,30674,1,0,0:0:0:0:
160,304,31174,6,0,L|196:260,2,56.2499985694885
352,304,32174,2,0,L|316:260,2,56.2499985694885
352,80,33174,2,0,L|316:124,2,56.2499985694885
160,80,34174,2,0,L|196:124,2,56.2499985694885
256,192,35174,12,0,36174,0:0:0:0:
256,192,36674,5,0,0:0:0:0:
256,192,37174,5,4,0:0:0:0:
160,272,37674,5,0,0:0:0:0:
160,272,37924,1,0,0:0:0:0:
160,272,38174,2,0,P|128:192|156:136,1,149.999990463257
208,112,38924,1,0,0:0:0:0:
256,96,39174,1,0,0:0:0:0:
304,112,39424,1,0,0:0:0:0:
352,136,39674,2,0,P|384:216|356:272,1,149.999990463257
358,269,40424,1,0,0:0:0:0:
358,269,40674,1,0,0:0:0:0:
176,288,41174,5,0,0:0:0:0:
256,216,41424,1,0,0:0:0:0:
336,288,41674,1,0,0:0:0:0:
256,144,41924,1,0,0:0:0:0:
176,288,42174,1,0,0:0:0:0:
336,192,42424,1,0,0:0:0:0:
176,192,42674,1,0,0:0:0:0:
256,288,42924,1,0,0:0:0:0:
176,112,43174,5,0,0:0:0:0:
336,288,43424,1,0,0:0:0:0:
336,112,43674,1,0,0:0:0:0:
176,288,43924,1,0,0:0:0:0:
256,192,44424,5,0,0:0:0:0:
256,192,44674,1,0,0:0:0:0:
256,192,45174,6,0,B|432:384|304:16|480:208,2,299.999980926514
256,304,47674,1,0,0:0:0:0:
144,304,48174,1,0,0:0:0:0:
144,192,48674,1,0,0:0:0:0:
256,192,49174,6,0,B|80:384|208:16|32:208,2,299.999980926514
256,80,51674,1,0,0:0:0:0:
368,80,52174,1,0,0:0:0:0:
368,192,52674,1,0,0:0:0:0:
256,192,53174,5,4,0:0:0:0:
256,80,53674,1,0,0:0:0:0:
192,80,53924,1,0,0:0:0:0:
128,80,54174,2,0,L|128:240,1,149.999990463257
128,304,54924,1,0,0:0:0:0:
208,304,55174,1,0,0:0:0:0:
288,304,55424,1,0,0:0:0:0:
368,304,55674,2,0,B|384:224|368:144|368:144|304:128|224:144,1,299.999980926514
80,192,57174,5,0,0:0:0:0:
80,96,57424,2,0,L|160:96,1,74.9999952316285
256,96,57924,1,0,0:0:0:0:
256,192,58174,2,0,L|256:272,1,74.9999952316285
352,272,58674,1,0,0:0:0:0:
352,176,58924,2,0,L|352:96,1,74.9999952316285
256,96,59424,5,0,0:0:0:0:
160,272,59674,1,0,0:0:0:0:
352,272,59924,1,0,0:0:0:0:
256,192,60424,5,0,0:0:0:0:
256,192,60674,1,0,0:0:0:0:
256,192,61174,2,0,B|304:32|400:160|496:192|496:80,2,299.999980926514
336,192,63674,1,0,0:0:0:0:
256,312,64174,1,0,0:0:0:0:
176,192,64674,1,0,0:0:0:0:
256,192,65174,2,0,B|208:32|112:160|16:192|16:80,2,299.999980926514,0|0|4,0:0|0:0|0:0,0:0:0:0:
256,192,67424,12,0,69174,0:0:0:0:
