osu file format v14

[General]
AudioFilename: audio.mp3
AudioLeadIn: 0
PreviewTime: 43281
Countdown: 0
SampleSet: Soft
StackLeniency: 0.5
Mode: 0
LetterboxInBreaks: 0
WidescreenStoryboard: 0

[Editor]
DistanceSpacing: 1.4
BeatDivisor: 4
GridSize: 4
TimelineZoom: 1.6

[Metadata]
Title:Bad At Love
TitleUnicode:Bad At Love
Artist:Halsey
ArtistUnicode:Halsey
Creator:GiantZarz
Version:Unfortunate
Source:
Tags:
BeatmapID:1647494
BeatmapSetID:784755

[Difficulty]
HPDrainRate:7
CircleSize:4.5
OverallDifficulty:8
ApproachRate:9.3
SliderMultiplier:2.1
SliderTickRate:1

[Events]
//Background and Video events
0,0,"halsey-album-cover1.png",0,0
//Break Periods
//Storyboard Layer 0 (Background)
//Storyboard Layer 1 (Fail)
//Storyboard Layer 2 (Pass)
//Storyboard Layer 3 (Foreground)
//Storyboard Sound Samples

[TimingPoints]
3987,506.975132869733,4,2,1,100,1,0
10831,-66.6666666666667,4,1,1,100,0,0
12098,-100,4,2,1,100,0,0
41503,-133.333333333333,4,2,1,100,0,0
43277,-66.6666666666667,4,2,1,100,0,1
60768,-133.333333333333,4,2,2,100,0,1
62479,-133.333333333333,4,2,1,5,0,1
62542,-100,4,2,1,100,0,0
92200,-133.333333333333,4,2,1,100,0,0
93257,506.975132869733,4,2,1,100,1,1
94017,-66.6666666666667,4,2,1,100,0,1
95031,-66.6666666666667,4,2,1,100,0,1
111507,-83.3333333333333,4,2,1,100,0,0
127730,-125,4,2,1,100,0,0
142686,-66.6666666666667,4,2,1,100,0,1
174372,-100,4,2,2,100,0,0
176399,-100,4,2,1,5,0,0

[Colours]
Combo1 : 164,93,63
Combo2 : 17,127,142
Combo3 : 239,67,67
Combo4 : 233,140,73
Combo5 : 243,220,204

[HitObjects]
63,113,3987,54,0,L|287:103,1,210,2|2,1:2|0:0,0:0:0:0:
218,14,4747,1,0,1:0:0:0:
54,139,5000,2,0,P|23:236|76:331,1,210,10|2,0:0|0:0,0:0:0:0:
173,359,5761,1,0,0:0:0:0:
306,328,6014,22,0,B|361:315|361:315|515:347,1,210,2|2,0:0|0:0,0:0:0:0:
511,345,6775,1,0,0:0:0:0:
394,157,7028,1,10,0:0:0:0:
368,368,7282,1,0,1:0:0:0:
486,96,7535,1,2,0:0:0:0:
254,238,7789,2,0,L|307:245,1,52.5
273,26,8042,38,0,P|157:7|83:99,1,210,2|2,0:0|0:0,0:0:0:0:
169,140,8803,1,0,1:0:0:0:
20,34,9056,2,0,L|33:257,1,210,10|2,0:0|0:0,0:0:0:0:
36,349,9817,1,0,0:0:0:0:
231,307,10070,2,0,B|297:340|297:340|428:306,1,210,2|2,0:0|0:0,0:0:0:0:
423,137,10831,37,8,0:0:0:0:
420,121,10894,1,8,0:0:0:0:
418,105,10957,1,8,0:0:0:0:
416,90,11021,1,8,0:0:0:0:
412,72,11084,2,0,B|376:59|376:59|297:72,1,78.7500030040742,8|0,0:2|2:0,0:0:0:0:
91,161,11338,5,8,0:0:0:0:
156,250,11464,1,8,0:0:0:0:
265,257,11591,1,8,0:0:0:0:
63,164,11845,37,8,0:0:0:0:
143,274,11971,1,8,0:0:0:0:
279,283,12098,2,0,P|326:275|354:277,1,52.5,0|0,1:0|0:0,0:0:0:0:
412,373,12352,2,0,P|414:346|419:321,1,52.5
409,131,12605,2,0,P|406:157|401:182,1,52.5
336,79,12859,37,0,1:0:0:0:
337,71,12922,1,0,3:0:0:0:
339,63,12985,1,0,3:0:0:0:
341,55,13049,1,0,3:0:0:0:
343,48,13112,2,0,P|388:43|460:73,1,105,8|0,0:0|0:0,0:0:0:0:
170,45,13492,2,0,P|124:49|52:19,1,105
38,138,13873,21,0,0:0:0:0:
111,188,14000,1,0,0:0:0:0:
142,271,14127,2,0,P|143:309|123:355,1,52.5
247,226,14380,2,0,P|246:188|266:142,1,52.5
247,333,14634,2,0,P|248:371|228:417,1,52.5
363,285,14887,1,0,0:0:0:0:
363,285,15014,1,0,0:0:0:0:
390,65,15141,1,8,0:0:0:0:
122,65,15393,37,0,1:0:0:0:
53,121,15520,2,0,P|60:162|51:257,1,105
22,307,15900,53,0,0:0:0:0:
95,256,16027,1,0,0:0:0:0:
22,307,16154,21,0,0:0:0:0:
130,287,16280,1,0,0:0:0:0:
231,328,16407,1,0,0:0:0:0:
339,351,16534,1,0,0:0:0:0:
438,305,16661,1,0,0:0:0:0:
464,197,16787,1,0,0:0:0:0:
431,92,16914,21,0,1:0:0:0:
427,84,16977,1,0,3:0:0:0:
424,77,17041,1,0,3:0:0:0:
421,70,17104,1,0,3:0:0:0:
417,62,17167,2,0,P|355:40|314:51,1,105,8|0,0:0|0:0,0:0:0:0:
95,62,17548,2,0,P|157:84|198:73,1,105
32,14,17928,21,0,0:0:0:0:
38,103,18055,1,0,0:0:0:0:
53,190,18182,2,0,P|53:234|43:261,1,52.5
96,381,18435,1,0,0:0:0:0:
128,298,18562,1,0,0:0:0:0:
191,236,18688,1,0,0:0:0:0:
275,206,18815,1,0,0:0:0:0:
363,213,18942,1,0,0:0:0:0:
440,256,19069,1,0,0:0:0:0:
310,341,19195,38,0,P|292:298|300:247,1,52.5,8|0,0:0|0:0,0:0:0:0:
312,64,19449,1,0,1:0:0:0:
395,33,19576,2,0,P|401:80|401:112,1,52.5
88,49,19956,21,0,1:0:0:0:
88,49,20083,1,0,1:0:0:0:
88,49,20210,2,0,L|99:112,1,52.5,0|0,1:0|0:0,0:0:0:0:
212,219,20463,2,0,L|223:156,1,52.5
105,283,20717,2,0,L|116:346,1,52.5
298,302,20970,21,0,1:0:0:0:
303,296,21034,1,0,3:0:0:0:
309,292,21097,1,0,3:0:0:0:
316,288,21160,1,0,3:0:0:0:
325,285,21224,2,0,P|372:278|447:309,1,105,8|0,0:0|0:0,0:0:0:0:
187,285,21604,2,0,P|140:292|65:261,1,105
53,71,21984,37,0,0:0:0:0:
126,23,22110,1,0,0:0:0:0:
214,23,22237,1,0,0:0:0:0:
287,73,22364,1,0,0:0:0:0:
353,129,22490,1,0,0:0:0:0:
439,121,22617,1,0,0:0:0:0:
493,53,22744,1,0,0:0:0:0:
406,33,22871,1,0,0:0:0:0:
416,121,22997,1,0,0:0:0:0:
427,210,23124,1,0,0:0:0:0:
438,299,23252,22,0,P|407:286|373:286,1,52.5,8|0,0:0|0:0,0:0:0:0:
74,299,23505,1,0,1:0:0:0:
145,353,23632,2,0,P|165:306|164:285,1,52.5
79,29,24012,21,0,0:0:0:0:
68,117,24139,1,0,0:0:0:0:
42,5,24266,21,0,0:0:0:0:
19,105,24392,1,0,0:0:0:0:
58,202,24519,1,0,0:0:0:0:
111,291,24645,1,0,0:0:0:0:
164,200,24772,1,0,0:0:0:0:
268,192,24899,1,0,0:0:0:0:
361,240,25026,21,0,1:0:0:0:
363,247,25089,1,0,3:0:0:0:
365,255,25152,1,0,3:0:0:0:
366,263,25216,1,0,3:0:0:0:
368,270,25279,2,0,B|387:350|387:350|409:331,1,105,8|0,0:0|0:0,0:0:0:0:
144,114,25660,2,0,B|124:33|124:33|102:52,1,105
48,164,26040,21,0,0:0:0:0:
64,251,26167,1,0,0:0:0:0:
70,339,26293,2,0,L|170:331,1,78.75
148,332,26547,1,0,0:0:0:0:
218,278,26673,1,0,0:0:0:0:
304,257,26800,1,0,0:0:0:0:
391,274,26927,1,0,0:0:0:0:
464,335,27054,37,8,1:0:0:0:
462,324,27117,1,8,1:0:0:0:
460,314,27181,1,8,1:0:0:0:
458,304,27244,1,8,1:0:0:0:
457,294,27307,2,0,L|446:232,1,52.5,10|0,1:2|0:0,0:0:0:0:
424,87,27562,5,8,1:0:0:0:
358,26,27689,1,8,1:0:0:0:
269,30,27815,1,8,1:0:0:0:
442,75,28069,5,8,1:0:0:0:
366,6,28196,1,8,1:0:0:0:
263,9,28322,2,0,L|200:26,1,52.5,2|0,1:2|0:0,0:0:0:0:
0,168,28576,21,0,0:0:0:0:
76,99,28703,1,0,0:0:0:0:
179,102,28829,2,0,L|242:119,1,52.5,2|0,0:0|0:0,0:0:0:0:
422,218,29082,37,0,1:0:0:0:
414,215,29146,1,0,3:0:0:0:
406,213,29209,1,0,3:0:0:0:
399,211,29273,1,0,3:0:0:0:
391,209,29336,2,0,L|328:192,1,52.5,10|0,0:0|0:0,0:0:0:0:
0,356,29589,21,0,0:0:0:0:
30,258,29716,1,0,0:0:0:0:
121,209,29842,2,0,L|183:192,1,52.5,2|0,0:0|0:0,0:0:0:0:
512,356,30096,37,0,0:0:0:0:
482,258,30223,1,0,0:0:0:0:
391,209,30349,2,0,L|277:174,2,105,2|0|2,0:0|0:0|0:0,0:0:0:0:
391,209,31110,1,0,0:0:0:0:
383,62,31363,1,10,0:0:0:0:
262,146,31617,1,0,1:0:0:0:
391,209,31870,2,0,L|360:155,1,52.5,2|0,0:0|0:0,0:0:0:0:
143,52,32124,21,0,0:0:0:0:
93,125,32250,1,0,0:0:0:0:
86,214,32377,2,0,P|93:246|109:279,1,52.5,2|0,0:0|0:0,0:0:0:0:
305,194,32631,37,0,0:0:0:0:
266,114,32757,1,0,0:0:0:0:
193,64,32884,2,0,P|161:54|125:51,1,52.5,2|0,0:0|0:0,0:0:0:0:
291,222,33138,21,0,1:0:0:0:
295,215,33201,1,0,3:0:0:0:
299,208,33265,1,0,3:0:0:0:
302,201,33328,1,0,3:0:0:0:
305,194,33391,2,0,P|314:162|317:126,1,52.5,10|0,0:0|0:0,0:0:0:0:
93,125,33645,37,0,0:0:0:0:
86,213,33771,1,0,0:0:0:0:
124,293,33898,2,0,P|146:317|176:337,1,52.5,2|0,0:0|0:0,0:0:0:0:
350,329,34152,21,0,0:0:0:0:
161,329,34278,1,0,0:0:0:0:
350,329,34405,2,0,P|357:286|346:227,2,105,2|0|2,0:0|0:0|0:0,0:0:0:0:
350,329,35165,1,0,0:0:0:0:
263,210,35419,1,10,0:0:0:0:
408,193,35672,1,0,1:0:0:0:
350,329,35926,38,0,L|341:268,1,52.5,2|0,0:0|0:0,0:0:0:0:
277,78,36179,1,0,1:0:0:0:
413,10,36306,1,0,1:0:0:0:
268,103,36433,22,0,P|221:102|176:62,2,70,2|0|0,1:2|0:0|0:0,0:0:0:0:
247,21,36940,1,2,0:0:0:0:
174,33,37067,1,0,0:0:0:0:
115,76,37193,37,0,1:0:0:0:
109,81,37256,1,0,3:0:0:0:
104,88,37319,1,0,3:0:0:0:
100,94,37383,1,0,3:0:0:0:
96,101,37447,2,0,P|86:153|114:227,1,105,10|0,0:0|0:0,0:0:0:0:
61,325,37954,2,0,P|68:286|47:230,2,52.5,2|0|0,0:0|0:0|0:0,0:0:0:0:
374,254,38461,22,0,P|376:306|399:354,1,105,2|0,0:0|0:0,0:0:0:0:
467,283,38968,1,2,0:0:0:0:
435,139,39221,1,0,0:0:0:0:
325,243,39475,1,10,0:0:0:0:
425,372,39728,1,0,1:0:0:0:
358,156,39982,1,2,0:0:0:0:
206,319,40235,2,0,L|262:339,1,52.5
215,198,40489,38,0,B|179:205|146:250|146:250|121:176|62:162,1,210,2|2,0:0|0:0,0:0:0:0:
80,60,41249,1,0,1:0:0:0:
87,59,41312,1,0,3:0:0:0:
95,58,41375,1,0,3:0:0:0:
103,58,41439,1,0,3:0:0:0:
111,57,41503,2,0,B|195:75|245:22|245:22|260:130|260:130|319:80|410:102|426:171|426:171|389:190|348:178,1,531.562520277501,10|0,0:0|0:0,0:0:0:0:
396,250,43277,37,8,1:0:0:0:
399,269,43340,1,8,1:0:0:0:
402,288,43403,1,8,1:0:0:0:
405,308,43467,1,8,1:0:0:0:
408,327,43531,2,0,B|365:343|365:343|301:333,1,78.7500030040742,8|0,1:0|0:0,0:0:0:0:
104,327,43784,5,8,1:0:0:0:
256,288,43911,1,8,1:0:0:0:
408,327,44038,1,8,1:0:0:0:
74,304,44291,53,8,1:0:0:0:
256,257,44418,1,8,1:0:0:0:
438,304,44545,2,0,P|453:264|451:224,1,78.7500030040742,6|0,1:2|0:0,0:0:0:0:
301,276,44798,2,0,P|328:308|363:327,1,78.7500030040742
386,175,45051,2,0,P|343:182|310:203,1,78.7500030040742,2|0,0:0|0:0,0:0:0:0:
304,64,45305,5,0,1:0:0:0:
315,64,45368,1,0,3:0:0:0:
327,65,45431,1,0,3:0:0:0:
338,68,45495,1,0,3:0:0:0:
350,72,45558,2,0,P|371:110|377:158,1,78.7500030040742,10|0,3:2|0:0,0:0:0:0:
135,193,45812,53,0,0:0:0:0:
218,88,45939,1,0,0:0:0:0:
350,72,46065,2,0,L|439:74,1,78.7500030040742,2|0,0:0|0:0,0:0:0:0:
428,73,46319,1,0,0:0:0:0:
209,211,46572,6,0,P|171:193|127:194,1,78.7500030040742,2|0,0:0|0:0,0:0:0:0:
245,77,46826,2,0,P|248:118|270:155,1,78.7500030040742
105,116,47079,1,2,0:0:0:0:
158,61,47206,1,0,0:0:0:0:
209,211,47333,1,0,0:0:0:0:
134,192,47459,1,0,0:0:0:0:
245,77,47586,38,0,L|327:69,1,78.7500030040742,10|0,0:0|0:0,0:0:0:0:
281,232,47840,2,0,L|289:314,1,78.7500030040742,0|0,1:0|0:0,0:0:0:0:
126,268,48093,1,2,0:0:0:0:
232,90,48220,1,0,0:0:0:0:
274,329,48347,1,0,0:0:0:0:
151,160,48474,1,0,0:0:0:0:
339,228,48600,2,0,L|431:219,2,78.7500030040742,2|0|0,0:0|0:0|0:0,0:0:0:0:
151,160,48981,2,0,P|200:125|311:163,1,157.500006008148
208,331,49361,21,0,1:0:0:0:
196,330,49424,1,0,3:0:0:0:
184,329,49487,1,0,3:0:0:0:
172,328,49551,1,0,3:0:0:0:
161,327,49614,2,0,P|119:306|92:252,1,78.7500030040742,10|0,0:0|0:0,0:0:0:0:
152,120,49868,2,0,P|154:167|121:218,1,78.7500030040742
62,63,50121,2,0,P|102:37|162:40,1,78.7500030040742,2|0,0:0|0:0,0:0:0:0:
379,33,50375,1,0,0:0:0:0:
132,33,50501,1,0,0:0:0:0:
379,33,50628,22,0,P|395:74|393:118,1,78.7500030040742,2|0,0:0|0:0,0:0:0:0:
307,224,50882,2,0,P|291:183|293:139,1,78.7500030040742
436,245,51135,1,2,0:0:0:0:
347,346,51262,1,0,0:0:0:0:
217,310,51389,37,0,3:0:0:0:
205,305,51452,1,0,3:0:0:0:
194,302,51515,1,0,3:0:0:0:
182,300,51579,1,0,3:0:0:0:
171,300,51642,2,0,P|132:306|91:328,1,78.7500030040742,10|0,0:0|0:0,0:0:0:0:
107,32,51896,21,0,1:0:0:0:
104,159,52022,1,0,0:0:0:0:
204,240,52149,1,0,0:0:0:0:
327,210,52276,1,0,0:0:0:0:
107,32,52403,21,0,1:0:0:0:
134,224,52529,1,0,1:0:0:0:
327,210,52656,2,0,P|369:174|387:127,1,78.7500030040742,6|0,1:2|0:0,0:0:0:0:
466,295,52910,2,0,P|413:276|364:284,1,78.7500030040742
268,298,53163,1,2,0:0:0:0:
153,367,53290,1,0,0:0:0:0:
152,215,53417,5,0,3:0:0:0:
157,204,53480,1,0,3:0:0:0:
162,193,53543,1,0,3:0:0:0:
166,182,53607,1,0,3:0:0:0:
169,171,53670,2,0,P|172:122|158:74,1,78.7500030040742,10|0,0:0|0:0,0:0:0:0:
51,243,53924,2,0,P|48:292|62:340,1,78.7500030040742
325,355,54177,21,2,0:0:0:0:
434,277,54304,1,0,0:0:0:0:
434,142,54431,2,0,P|420:97|381:54,1,78.7500030040742
310,204,54684,2,0,P|355:214|412:202,1,78.7500030040742,2|0,0:0|0:3,0:3:0:0:
317,69,54938,2,0,P|285:103|267:158,1,78.7500030040742
434,142,55191,1,2,0:0:0:0:
378,21,55317,1,0,0:0:0:0:
244,34,55444,5,0,3:0:0:0:
232,36,55507,1,0,3:0:0:0:
220,39,55570,1,0,3:0:0:0:
209,40,55634,1,0,3:0:0:0:
197,40,55698,2,0,L|109:28,1,78.7500030040742,10|0,0:0|0:0,0:0:0:0:
194,156,55951,2,0,L|105:166,1,78.7500030040742,0|0,1:0|0:0,0:0:0:0:
218,273,56205,2,0,L|135:306,1,78.7500030040742
364,332,56458,2,0,L|301:283,1,78.7500030040742
194,156,56712,2,0,L|271:166,1,78.7500030040742,2|0,0:0|0:0,0:0:0:0:
453,176,56965,2,0,P|465:226|441:334,2,157.500006008148,0|2|0,0:0|0:0|1:0,0:0:0:0:
441,174,57536,21,0,3:0:0:0:
429,173,57599,1,0,3:0:0:0:
417,172,57663,1,0,3:0:0:0:
406,171,57726,2,0,P|373:144|351:79,1,78.7500030040742,10|0,0:0|0:0,0:0:0:0:
392,273,57979,2,0,P|357:292|333:322,1,78.7500030040742
356,112,58233,2,0,P|322:84|300:19,1,78.7500030040742,2|0,0:0|0:0,0:0:0:0:
333,322,58486,2,0,P|298:341|274:371,1,78.7500030040742
306,53,58740,21,2,0:0:0:0:
171,56,58867,1,0,0:0:0:0:
85,151,58993,1,0,0:0:0:0:
89,281,59120,1,0,0:0:0:0:
184,371,59247,1,2,0:0:0:0:
314,367,59374,1,0,0:0:0:0:
404,273,59500,21,8,1:0:0:0:
401,257,59563,1,8,1:0:0:0:
399,241,59626,1,8,1:0:0:0:
397,226,59690,1,8,1:0:0:0:
394,210,59754,2,0,L|379:107,1,78.7500030040742,8|0,1:0|0:0,0:0:0:0:
185,117,60007,5,8,1:0:0:0:
136,192,60134,1,8,1:0:0:0:
185,267,60261,1,8,1:0:0:0:
165,96,60514,21,8,1:0:0:0:
102,192,60641,1,8,1:0:0:0:
165,287,60768,2,0,B|184:249|224:230|276:236|276:236|351:246|354:346|263:365|225:294|276:236|276:236|350:246|391:198|395:160,1,531.562520277501,4|0,1:2|0:0,0:0:0:0:
395,159,62542,5,0,0:0:0:0:
360,76,62669,1,0,0:0:0:0:
276,48,62796,2,0,P|232:40|208:40,1,52.5,0|0,1:0|0:0,0:0:0:0:
59,68,63049,2,0,P|103:76|127:76,1,52.5
45,188,63303,2,0,L|54:251,1,52.5
160,356,63556,37,0,1:0:0:0:
158,348,63619,1,0,3:0:0:0:
157,340,63682,1,0,3:0:0:0:
156,332,63746,1,0,3:0:0:0:
155,324,63810,2,0,L|140:202,1,105,8|0,0:0|0:0,0:0:0:0:
356,59,64190,2,0,L|372:182,1,105
390,250,64570,21,0,0:0:0:0:
357,333,64697,1,0,0:0:0:0:
280,239,64824,2,0,L|223:246,1,52.5
109,137,65077,37,0,0:0:0:0:
142,220,65204,1,0,0:0:0:0:
218,125,65330,2,0,L|270:118,1,52.5
346,70,65584,1,0,0:0:0:0:
264,34,65711,1,0,0:0:0:0:
90,49,65837,2,0,P|68:59|42:90,1,52.5,8|0,0:0|0:0,0:0:0:0:
91,245,66091,2,0,P|71:230|31:223,1,52.5,0|0,1:0|0:0,0:0:0:0:
223,176,66344,2,0,P|225:151|211:113,1,52.5
170,48,66598,1,0,0:0:0:0:
82,27,66725,1,0,0:0:0:0:
167,87,66851,21,0,0:0:0:0:
267,54,66978,1,0,0:0:0:0:
369,78,67105,1,0,0:0:0:0:
413,173,67232,1,0,0:0:0:0:
388,274,67358,2,0,L|304:269,1,78.75
327,342,67612,37,0,1:0:0:0:
319,341,67675,1,0,3:0:0:0:
311,341,67738,1,0,3:0:0:0:
303,340,67802,1,0,3:0:0:0:
295,340,67865,2,0,L|183:335,1,105,8|0,0:0|0:0,0:0:0:0:
216,43,68246,2,0,L|329:49,1,105
374,120,68626,1,0,0:0:0:0:
369,208,68752,1,0,0:0:0:0:
294,158,68879,2,0,P|248:142|208:147,2,70
106,334,69513,21,0,0:0:0:0:
336,243,69640,1,0,0:0:0:0:
176,243,69767,1,0,0:0:0:0:
406,334,69893,2,0,P|417:297|420:239,1,52.5
106,50,70147,2,0,P|95:87|92:145,1,52.5
184,192,70400,2,0,B|224:168|256:192|256:192|296:224|344:192,1,157.5
373,54,70907,38,0,P|369:91|390:146,1,52.5,0|0,1:0|0:0,0:0:0:0:
476,214,71161,2,0,P|445:192|387:182,1,52.5
285,223,71414,2,0,P|319:207|356:162,1,52.5
275,81,71668,21,0,1:0:0:0:
264,80,71731,1,0,3:0:0:0:
254,79,71794,1,0,3:0:0:0:
243,79,71858,1,0,3:0:0:0:
233,78,71921,2,0,L|129:71,1,105,8|0,0:0|0:0,0:0:0:0:
278,305,72301,2,0,L|383:313,1,105
432,240,72682,37,0,0:0:0:0:
448,152,72808,1,0,0:0:0:0:
408,72,72935,2,0,P|376:64|336:64,1,52.5
232,144,73189,2,0,P|264:152|304:152,1,52.5
240,8,73442,2,0,L|248:80,1,52.5
269,224,73696,1,0,0:0:0:0:
245,60,73822,1,0,0:0:0:0:
269,224,73949,22,0,P|312:221|346:204,1,52.5,8|0,0:0|0:0,0:0:0:0:
209,77,74203,2,0,P|190:115|187:153,1,52.5,0|0,1:0|0:0,0:0:0:0:
366,98,74456,2,0,P|341:62|310:41,1,52.5
144,31,74710,1,0,0:0:0:0:
54,28,74836,1,0,0:0:0:0:
125,150,74963,38,0,P|102:177|73:192,1,52.5
188,233,75217,2,0,P|200:266|198:298,1,52.5
290,220,75470,2,0,P|325:225|352:243,1,52.5
329,125,75723,21,0,1:0:0:0:
335,120,75786,1,0,3:0:0:0:
341,115,75849,1,0,3:0:0:0:
348,110,75913,1,0,3:0:0:0:
353,104,75977,2,0,B|405:59|405:59|459:41,1,105,8|0,0:0|0:0,0:0:0:0:
159,280,76357,2,0,B|106:324|106:324|52:342,1,105
128,159,76737,37,0,0:0:0:0:
210,131,76863,1,0,0:0:0:0:
289,167,76990,1,0,0:0:0:0:
314,253,77118,1,0,0:0:0:0:
323,164,77244,1,0,0:0:0:0:
388,102,77371,1,0,0:0:0:0:
477,109,77498,2,0,L|505:174,1,52.5
489,246,77751,37,8,1:0:0:0:
478,247,77814,1,8,1:0:0:0:
468,248,77877,1,8,1:0:0:0:
457,249,77941,1,8,1:0:0:0:
447,251,78005,2,0,L|385:261,1,52.5,8|0,0:0|0:0,0:0:0:0:
194,261,78258,5,8,1:0:0:0:
136,192,78385,1,8,1:0:0:0:
194,123,78512,1,8,1:0:0:0:
178,277,78765,5,8,1:0:0:0:
106,192,78892,1,8,1:0:0:0:
178,106,79019,2,0,P|214:90|252:88,1,52.5,2|0,1:2|0:0,0:0:0:0:
397,30,79272,21,0,0:0:0:0:
469,115,79399,1,0,0:0:0:0:
397,201,79526,2,0,P|361:217|323:219,1,52.5,2|0,0:0|0:0,0:0:0:0:
115,201,79779,37,0,1:0:0:0:
121,196,79842,1,0,3:0:0:0:
128,192,79906,1,0,3:0:0:0:
134,187,79969,1,0,3:0:0:0:
139,182,80033,2,0,P|174:165|212:163,1,52.5,10|0,0:0|0:0,0:0:0:0:
397,201,80286,21,0,0:0:0:0:
383,311,80413,1,0,0:0:0:0:
271,317,80540,2,0,P|234:301|207:275,1,52.5,2|0,0:0|0:0,0:0:0:0:
115,183,80793,37,0,0:0:0:0:
129,73,80920,1,0,0:0:0:0:
241,67,81047,2,0,P|290:88|327:124,2,105,2|0|2,0:0|0:0|0:0,0:0:0:0:
241,67,81807,1,0,0:0:0:0:
175,199,82061,1,10,0:0:0:0:
321,197,82314,1,0,1:0:0:0:
241,67,82568,2,0,L|245:124,1,52.5,2|0,0:0|0:0,0:0:0:0:
256,328,82821,21,0,0:0:0:0:
345,325,82948,1,0,0:0:0:0:
425,286,83075,2,0,P|457:255|465:227,1,52.5,2|0,0:0|0:0,0:0:0:0:
305,161,83328,37,0,0:0:0:0:
263,239,83455,1,0,0:0:0:0:
256,328,83582,2,0,P|266:371|287:392,1,52.5,2|0,0:0|0:0,0:0:0:0:
331,181,83835,21,0,1:0:0:0:
324,176,83898,1,0,3:0:0:0:
318,171,83962,1,0,3:0:0:0:
311,166,84025,1,0,3:0:0:0:
305,161,84089,2,0,P|262:148|233:155,1,52.5,10|0,0:0|0:0,0:0:0:0:
85,191,84342,37,0,0:0:0:0:
131,266,84469,1,0,0:0:0:0:
205,316,84596,2,0,P|247:328|276:321,1,52.5,2|0,0:0|0:0,0:0:0:0:
256,160,84849,21,0,0:0:0:0:
255,327,84976,1,0,0:0:0:0:
256,160,85103,2,0,L|256:48,2,105,2|0|2,0:0|0:0|0:0,0:0:0:0:
256,160,85863,1,0,0:0:0:0:
182,33,86116,1,10,0:0:0:0:
330,33,86370,1,0,1:0:0:0:
256,160,86623,2,0,L|308:165,1,52.5,2|0,0:0|0:0,0:0:0:0:
469,212,86877,37,0,1:0:0:0:
292,257,87004,1,0,1:0:0:0:
476,296,87130,2,0,P|475:337|457:366,2,70,2|0|0,1:2|0:0|0:0,0:0:0:0:
386,311,87637,1,2,0:0:0:0:
316,334,87764,1,0,0:0:0:0:
244,314,87891,21,0,1:0:0:0:
236,312,87954,1,0,3:0:0:0:
228,311,88017,1,0,3:0:0:0:
220,309,88081,1,0,3:0:0:0:
212,308,88144,2,0,P|159:294|102:310,1,105,10|0,0:0|0:0,0:0:0:0:
68,184,88651,2,0,P|54:227|65:273,2,52.5,2|0|0,0:0|0:0|0:0,0:0:0:0:
202,49,89158,38,0,P|258:38|321:60,1,105,2|0,0:0|0:0,0:0:0:0:
399,161,89665,1,2,0:0:0:0:
253,193,89919,1,0,0:0:0:0:
392,40,90172,1,10,0:0:0:0:
355,263,90426,1,0,1:0:0:0:
252,122,90679,1,2,0:0:0:0:
447,235,90933,2,0,L|454:303,1,52.5
323,346,91186,22,0,B|265:349|239:294|239:294|208:234|131:242,1,196.875007510186,2|2,0:0|0:0,0:0:0:0:
84,94,91947,37,0,1:0:0:0:
91,93,92010,1,0,0:0:0:0:
99,92,92073,1,0,0:0:0:0:
107,91,92137,1,0,0:0:0:0:
115,90,92200,2,0,B|160:88|194:118|194:118|209:55|209:55|245:92|336:94|371:24|371:24|369:90|392:117|392:117|416:96|488:112|496:160,1,551.25002102852,10|0,0:0|0:0,0:0:0:0:
466,223,94017,37,8,1:0:0:0:
450,222,94080,1,8,1:0:0:0:
434,221,94143,1,8,1:0:0:0:
418,220,94207,1,8,1:0:0:0:
403,219,94270,2,0,B|359:215|359:215|297:222,1,78.7500030040742,8|0,0:0|0:0,0:0:0:0:
136,284,94524,5,8,1:0:0:0:
200,192,94650,1,8,1:0:0:0:
136,100,94777,1,8,1:0:0:0:
136,56,95031,53,8,1:0:0:0:
43,189,95158,1,8,1:0:0:0:
136,322,95285,2,0,L|224:312,1,78.7500030040742,6|0,1:2|0:0,0:0:0:0:
376,322,95539,2,0,L|288:312,1,78.7500030040742
116,162,95792,2,0,L|190:209,1,78.7500030040742,2|0,0:0|0:0,0:0:0:0:
442,132,96044,5,0,1:0:0:0:
432,138,96108,1,0,3:0:0:0:
422,144,96171,1,0,3:0:0:0:
412,151,96234,1,0,3:0:0:0:
396,162,96298,2,0,L|321:209,1,78.7500030040742,10|0,0:0|0:0,0:0:0:0:
256,64,96552,1,0,0:0:0:0:
256,248,96679,1,0,0:0:0:0:
139,93,96806,1,2,0:0:0:0:
373,93,96933,1,0,0:0:0:0:
256,275,97059,1,0,0:0:0:0:
256,275,97313,54,0,L|172:298,1,78.7500030040742,2|0,0:0|0:0,0:0:0:0:
63,113,97566,2,0,L|147:90,1,78.7500030040742
246,62,97820,1,2,0:0:0:0:
177,210,97947,1,0,0:0:0:0:
172,23,98073,53,0,0:0:0:0:
297,147,98200,1,0,0:0:0:0:
59,297,98327,2,0,P|44:249|44:213,1,78.7500030040742,10|0,0:0|0:0,0:0:0:0:
314,136,98580,2,0,P|329:184|329:220,1,78.7500030040742,0|0,1:0|0:0,0:0:0:0:
285,314,98834,1,2,0:0:0:0:
189,182,98961,1,0,0:0:0:0:
409,165,99087,1,0,0:0:0:0:
285,314,99214,2,0,L|290:361,1,39.3750015020371
305,231,99341,2,0,B|245:222|213:269|213:269|167:334|91:310,1,236.250009012223,2|0,0:0|0:0,0:0:0:0:
125,208,99848,21,2,0:0:0:0:
222,358,99975,1,0,0:0:0:0:
100,83,100101,1,0,1:0:0:0:
96,72,100165,1,0,3:0:0:0:
92,61,100228,1,0,3:0:0:0:
88,50,100291,1,0,3:0:0:0:
83,39,100355,21,10,0:0:0:0:
141,221,100482,1,0,0:0:0:0:
224,31,100608,1,0,0:0:0:0:
141,245,100735,1,0,0:0:0:0:
54,22,100862,1,2,0:0:0:0:
289,101,100988,1,0,0:0:0:0:
69,181,101115,1,0,0:0:0:0:
277,89,101242,1,0,0:0:0:0:
474,200,101369,6,0,P|479:246|467:282,1,78.7500030040742,2|0,0:0|0:0,0:0:0:0:
211,124,101622,2,0,P|206:78|218:42,1,78.7500030040742
321,14,101876,1,2,0:0:0:0:
258,224,102002,1,0,0:0:0:0:
124,112,102129,5,0,3:0:0:0:
112,108,102192,1,0,3:0:0:0:
101,104,102255,1,0,3:0:0:0:
90,100,102319,1,0,3:0:0:0:
78,97,102383,2,0,P|66:54|66:18,1,78.7500030040742,10|0,0:0|0:0,0:0:0:0:
198,163,102636,2,0,P|166:196|135:214,1,78.7500030040742,0|0,1:0|0:0,0:0:0:0:
315,77,102890,2,0,P|346:43|377:25,1,78.7500030040742
211,75,103143,5,0,1:0:0:0:
488,117,103270,1,0,1:0:0:0:
194,103,103397,2,0,P|162:66|144:31,1,78.7500030040742,6|0,1:2|0:0,0:0:0:0:
466,120,103650,2,0,P|498:157|516:192,1,78.7500030040742
460,281,103904,1,2,0:0:0:0:
358,321,104030,1,0,0:0:0:0:
247,321,104157,53,0,1:0:0:0:
235,320,104220,1,0,3:0:0:0:
223,319,104283,1,0,3:0:0:0:
211,318,104347,1,0,3:0:0:0:
199,315,104411,2,0,P|154:298|122:272,1,78.7500030040742,10|0,0:0|0:0,0:0:0:0:
76,182,104664,5,0,0:0:0:0:
121,46,104791,1,0,0:0:0:0:
137,256,104918,1,2,0:0:0:0:
45,97,105044,1,0,0:0:0:0:
195,114,105171,1,0,0:0:0:0:
195,114,105425,54,0,L|202:206,1,78.7500030040742,2|0,0:0|0:0,0:0:0:0:
442,107,105678,2,0,L|435:15,1,78.7500030040742
326,9,105932,1,2,0:0:0:0:
441,23,106058,1,0,0:0:0:0:
366,225,106185,5,0,3:0:0:0:
365,236,106248,1,0,3:0:0:0:
365,248,106311,1,0,3:0:0:0:
365,260,106375,1,0,3:0:0:0:
365,272,106438,38,0,P|416:282|440:299,1,78.7500030040742,10|0,0:0|0:0,0:0:0:0:
223,263,106692,2,0,P|262:297|274:323,1,78.7500030040742,0|0,1:0|0:0,0:0:0:0:
104,184,106945,2,0,P|120:233|118:262,1,78.7500030040742,2|0,0:0|0:0,0:0:0:0:
30,130,107199,1,0,0:0:0:0:
167,102,107326,2,0,L|176:155,1,39.3750015020371
159,29,107452,2,0,B|249:27|249:27|309:54|309:54|423:54,1,236.250009012223,2|0,0:0|0:0,0:0:0:0:
489,6,107959,21,2,0:0:0:0:
321,80,108086,1,0,0:0:0:0:
466,186,108213,37,0,1:0:0:0:
468,197,108276,1,0,3:0:0:0:
470,209,108339,1,0,3:0:0:0:
473,220,108403,1,0,3:0:0:0:
475,232,108466,2,0,P|483:289|479:320,1,78.7500030040742,10|0,0:0|0:0,0:0:0:0:
305,291,108720,2,0,P|282:343|263:368,1,78.7500030040742
127,256,108973,2,0,P|81:290|52:302,1,78.7500030040742,2|0,0:0|0:0,0:0:0:0:
62,88,109227,2,0,P|107:53|136:41,1,78.7500030040742
292,72,109480,21,2,0:0:0:0:
140,60,109607,1,0,0:0:0:0:
306,59,109734,1,0,0:0:0:0:
192,211,109861,1,0,0:0:0:0:
211,2,109987,1,2,0:0:0:0:
289,166,110114,1,0,0:0:0:0:
380,49,110241,53,8,1:0:0:0:
395,53,110304,1,8,1:0:0:0:
410,57,110367,1,8,1:0:0:0:
425,62,110431,1,8,1:0:0:0:
440,66,110494,2,0,P|463:106|466:154,1,78.7500030040742,8|0,1:0|0:0,0:0:0:0:
365,250,110748,5,8,1:0:0:0:
256,304,110875,1,8,1:0:0:0:
147,250,111001,1,8,1:0:0:0:
397,267,111255,5,8,1:0:0:0:
256,337,111382,1,8,1:0:0:0:
114,267,111508,2,0,P|86:240|76:189,1,62.9999980773926,2|0,1:2|0:0,0:0:0:0:
142,72,111762,2,0,P|132:110|93:144,1,62.9999980773926
210,199,112015,2,0,P|247:188|297:205,1,62.9999980773926,2|0,0:0|0:0,0:0:0:0:
260,16,112269,21,0,1:0:0:0:
262,25,112332,1,0,3:0:0:0:
265,34,112395,1,0,3:0:0:0:
267,43,112459,1,0,3:0:0:0:
270,52,112522,2,0,P|282:97|295:116,1,62.9999980773926,10|0,0:0|0:0,0:0:0:0:
449,50,112776,1,0,0:0:0:0:
361,37,112902,1,0,0:0:0:0:
435,193,113029,1,0,0:0:0:0:
490,123,113155,1,0,0:0:0:0:
337,209,113283,1,0,0:0:0:0:
337,209,113536,38,0,P|366:250|397:273,1,62.9999980773926,2|0,0:0|0:0,0:0:0:0:
421,118,113790,2,0,P|370:122|335:137,1,62.9999980773926
481,307,114043,1,2,0:0:0:0:
477,192,114170,1,0,0:0:0:0:
320,307,114297,21,0,3:0:0:0:
321,316,114360,1,0,3:0:0:0:
323,325,114423,1,0,3:0:0:0:
325,334,114487,1,0,3:0:0:0:
327,344,114550,22,0,P|297:335|264:337,1,62.9999980773926,8|0,0:0|0:0,0:0:0:0:
57,308,114804,1,0,1:0:0:0:
142,325,114930,2,0,P|172:308|193:286,1,62.9999980773926
71,54,115184,5,0,0:0:0:0:
81,141,115311,2,0,L|86:218,1,62.9999980773926
213,267,115564,1,2,0:0:0:0:
252,167,115691,1,0,0:0:0:0:
349,122,115818,1,0,0:0:0:0:
446,164,115944,1,0,0:0:0:0:
476,266,116071,2,0,L|480:328,1,62.9999980773926,2|0,0:0|0:0,0:0:0:0:
207,368,116324,21,0,1:0:0:0:
207,358,116387,1,0,3:0:0:0:
208,349,116450,1,0,3:0:0:0:
208,339,116514,1,0,3:0:0:0:
208,329,116578,2,0,L|212:266,1,62.9999980773926,10|0,0:0|0:0,0:0:0:0:
304,55,116831,2,0,L|299:117,2,62.9999980773926,0|0|2,0:0|0:0|0:0,0:0:0:0:
408,25,117212,1,0,0:0:0:0:
462,116,117338,1,0,0:0:0:0:
420,215,117465,1,0,0:0:0:0:
315,238,117592,2,0,P|288:206|277:171,1,62.9999980773926,2|0,0:0|0:0,0:0:0:0:
142,37,117845,2,0,P|169:69|180:104,1,62.9999980773926
79,228,118099,2,0,P|106:196|117:161,1,62.9999980773926,2|0,0:0|0:0,0:0:0:0:
334,66,118352,37,0,3:0:0:0:
326,72,118415,1,0,3:0:0:0:
320,78,118478,1,0,3:0:0:0:
314,86,118542,1,0,3:0:0:0:
309,94,118606,2,0,P|302:137|306:163,1,62.9999980773926,8|0,0:0|0:0,0:0:0:0:
349,311,118859,1,0,1:0:0:0:
243,289,118986,1,0,0:0:0:0:
157,354,119113,1,0,0:0:0:0:
55,319,119240,1,0,0:0:0:0:
54,133,119366,53,0,1:0:0:0:
201,18,119493,1,0,1:0:0:0:
266,365,119620,2,0,P|243:331|237:298,1,62.9999980773926,6|0,1:2|0:0,0:0:0:0:
395,334,119873,2,0,P|358:316|336:290,1,62.9999980773926
491,242,120127,2,0,P|450:244|418:233,1,62.9999980773926,2|0,0:0|0:0,0:0:0:0:
213,83,120380,37,0,1:0:0:0:
222,80,120443,1,0,3:0:0:0:
231,78,120506,1,0,3:0:0:0:
240,76,120570,1,0,3:0:0:0:
249,74,120634,2,0,P|289:71|321:82,1,62.9999980773926,10|0,0:0|0:0,0:0:0:0:
182,194,120887,1,0,0:0:0:0:
315,94,121014,1,0,0:0:0:0:
293,342,121141,1,2,0:0:0:0:
213,83,121267,1,0,0:0:0:0:
399,166,121394,1,0,0:0:0:0:
399,166,121648,38,0,P|407:218|406:244,1,62.9999980773926,2|0,0:0|0:0,0:0:0:0:
177,270,121901,2,0,P|169:218|170:192,1,62.9999980773926
221,142,122155,1,2,0:0:0:0:
368,272,122281,1,0,0:0:0:0:
207,350,122408,53,0,3:0:0:0:
197,349,122471,1,0,3:0:0:0:
188,349,122534,1,0,3:0:0:0:
178,349,122598,1,0,3:0:0:0:
169,348,122662,2,0,P|128:337|100:319,1,62.9999980773926,10|0,0:0|0:0,0:0:0:0:
100,113,122915,1,0,1:0:0:0:
205,133,123042,1,0,0:0:0:0:
283,59,123169,1,2,0:0:0:0:
186,13,123295,1,0,0:0:0:0:
99,76,123422,2,0,P|83:115|82:163,1,62.9999980773926
99,194,123676,38,0,P|83:155|82:107,1,62.9999980773926,2|0,0:0|0:0,0:0:0:0:
212,288,123929,2,0,P|228:249|229:201,1,62.9999980773926
274,75,124183,2,0,P|279:105|292:134,1,62.9999980773926,2|0,0:0|0:0,0:0:0:0:
430,329,124436,37,0,1:0:0:0:
428,316,124499,1,0,3:0:0:0:
426,304,124562,1,0,3:0:0:0:
424,291,124626,1,0,3:0:0:0:
422,279,124690,2,0,P|416:248|403:219,1,62.9999980773926,10|0,0:0|0:0,0:0:0:0:
370,77,124943,1,0,0:0:0:0:
326,275,125070,1,0,0:0:0:0:
386,55,125197,1,0,0:0:0:0:
373,363,125323,1,0,0:0:0:0:
307,154,125450,1,0,0:0:0:0:
307,154,125704,22,0,P|349:149|390:160,1,62.9999980773926,2|0,0:0|0:0,0:0:0:0:
210,229,125957,1,0,0:0:0:0:
386,169,126084,1,0,0:0:0:0:
269,356,126211,1,2,0:0:0:0:
248,100,126337,1,0,0:0:0:0:
325,302,126464,5,8,1:0:0:0:
316,299,126527,1,8,1:0:0:0:
306,296,126590,1,8,1:0:0:0:
297,294,126654,1,8,1:0:0:0:
288,293,126717,2,0,P|248:299|204:286,1,62.9999980773926,8|0,0:0|0:0,0:0:0:0:
155,154,126971,5,8,1:0:0:0:
256,112,127098,1,8,1:0:0:0:
357,154,127224,1,8,0:0:0:0:
118,140,127478,21,8,1:0:0:0:
256,82,127605,1,8,1:0:0:0:
393,140,127731,1,4,0:0:0:0:
393,140,127984,6,0,P|401:193|402:234,1,84,0|2,0:0|0:0,0:0:0:0:
378,304,128491,1,0,1:0:0:0:
317,88,128745,1,10,0:0:0:0:
395,59,128998,2,0,L|445:54,2,42,0|0|2,0:0|0:0|0:0,0:0:0:0:
317,88,129505,1,0,0:0:0:0:
243,47,129759,1,2,0:0:0:0:
64,56,130012,38,0,P|65:112|73:149,1,84,0|2,0:0|0:0,0:0:0:0:
80,222,130519,1,0,0:0:0:0:
155,37,130773,1,10,0:0:0:0:
196,187,131026,2,0,P|200:145|199:104,1,84,0|2,1:0|0:0,0:0:0:0:
144,40,131533,1,0,0:0:0:0:
221,8,131787,1,2,0:0:0:0:
358,75,132040,22,0,L|275:71,1,84,0|2,0:0|0:0,0:0:0:0:
421,12,132547,1,0,1:0:0:0:
435,94,132801,1,10,0:0:0:0:
449,176,133054,2,0,L|499:173,2,42,0|0|2,0:0|0:0|0:0,0:0:0:0:
365,187,133561,1,0,0:0:0:0:
419,250,133815,1,2,0:0:0:0:
253,185,134068,38,0,P|252:247|259:278,1,84,0|2,0:0|0:0,0:0:0:0:
291,344,134575,1,0,0:0:0:0:
355,290,134828,1,8,0:0:0:0:
197,349,135082,2,0,L|107:343,1,84,0|2,1:0|0:0,0:0:0:0:
47,152,135589,21,0,1:0:0:0:
47,152,135716,1,0,1:0:0:0:
47,152,135842,2,0,P|46:215|47:251,1,84,6|0,1:2|0:0,0:0:0:0:
144,124,136349,2,0,P|145:61|144:25,1,84,2|0,0:0|0:0,0:0:0:0:
224,12,136856,1,10,1:2:0:0:
289,64,137110,2,0,L|362:58,2,42,0|0|2,0:0|0:0|0:0,0:0:0:0:
231,125,137617,1,0,0:0:0:0:
162,269,137870,38,0,P|211:272|252:271,1,84,2|0,0:0|0:0,0:0:0:0:
328,253,138377,1,2,0:0:0:0:
382,188,138631,1,0,0:0:0:0:
485,309,138884,2,0,P|429:301|392:301,1,84,10|0,0:0|0:0,0:0:0:0:
326,338,139391,1,2,0:0:0:0:
242,324,139645,1,0,0:0:0:0:
43,331,139898,22,0,L|49:241,1,84,2|0,0:0|0:0,0:0:0:0:
68,165,140405,1,2,0:0:0:0:
146,195,140659,1,0,0:0:0:0:
40,61,140912,38,0,L|128:57,1,84,2|0,0:0|0:0,0:0:0:0:
123,57,141292,1,0,0:0:0:0:
123,57,141419,1,2,0:0:0:0:
196,39,141673,1,0,0:0:0:0:
232,105,141926,1,0,1:0:0:0:
309,38,142180,2,0,L|392:32,1,84
425,235,142687,37,8,1:0:0:0:
427,250,142750,1,8,1:0:0:0:
429,266,142813,1,8,1:0:0:0:
431,281,142877,1,8,1:0:0:0:
434,300,142940,2,0,B|398:313|398:313|350:310,1,78.7500030040742,0|0,1:0|0:0,0:0:0:0:
189,230,143194,5,8,1:0:0:0:
255,114,143320,1,8,1:0:0:0:
322,230,143447,1,8,1:0:0:0:
116,272,143701,53,8,1:0:0:0:
255,31,143827,1,8,1:0:0:0:
395,272,143954,2,0,P|391:317|373:350,1,78.7500030040742,4|0,1:2|0:0,0:0:0:0:
337,100,144208,2,0,P|377:80|415:80,1,78.7500030040742
303,251,144461,1,0,0:0:0:0:
230,46,144588,1,0,0:0:0:0:
482,51,144714,5,0,1:0:0:0:
481,62,144777,1,0,3:0:0:0:
480,74,144840,1,0,3:0:0:0:
479,86,144904,1,0,3:0:0:0:
478,98,144968,2,0,L|469:185,1,78.7500030040742,8|0,0:0|0:0,0:0:0:0:
446,353,145221,1,0,0:0:0:0:
351,135,145348,1,0,0:0:0:0:
486,266,145475,2,0,P|493:301|489:361,1,78.7500030040742
297,81,145728,1,0,0:0:0:0:
297,81,145982,54,0,P|340:72|383:82,1,78.7500030040742,2|0,0:0|0:0,0:0:0:0:
144,147,146235,2,0,P|101:138|58:148,1,78.7500030040742
132,348,146489,1,2,0:0:0:0:
171,130,146616,1,0,0:0:0:0:
240,270,146742,54,0,P|278:266|303:260,1,39.3750015020371,0|0,3:0|3:0,3:0:0:0:
473,348,146869,2,0,P|435:352|410:358,1,39.3750015020371,0|0,3:0|3:0,3:0:0:0:
401,114,146996,2,0,L|399:211,1,78.7500030040742,10|0,0:0|0:0,0:0:0:0:
361,360,147249,1,0,1:0:0:0:
263,139,147376,1,0,0:0:0:0:
434,268,147503,2,0,P|475:271|518:262,1,78.7500030040742,2|0,0:0|0:0,0:0:0:0:
245,125,147756,1,0,0:0:0:0:
451,281,147883,2,0,L|502:279,1,39.3750015020371
452,145,148010,2,0,B|325:140|399:255|212:231,1,236.250009012223,2|0,0:0|0:0,0:0:0:0:
93,118,148517,5,2,0:0:0:0:
229,225,148644,1,0,0:0:0:0:
92,348,148770,5,0,1:0:0:0:
81,342,148833,1,0,3:0:0:0:
71,336,148896,1,0,3:0:0:0:
62,329,148960,1,0,3:0:0:0:
53,320,149024,2,0,P|21:266|17:239,1,78.7500030040742,10|0,0:0|0:0,0:0:0:0:
249,122,149277,1,0,0:0:0:0:
122,237,149404,1,0,0:0:0:0:
143,88,149531,1,2,0:0:0:0:
360,153,149658,21,0,0:0:0:0:
391,295,149784,1,0,0:0:0:0:
328,10,149911,1,0,0:0:0:0:
408,306,150038,2,0,P|460:306|500:312,1,78.7500030040742,2|0,0:0|0:0,0:0:0:0:
221,213,150291,2,0,P|169:213|129:219,1,78.7500030040742
77,324,150545,1,2,0:0:0:0:
209,315,150671,1,0,0:0:0:0:
79,317,150798,21,0,3:0:0:0:
81,305,150861,1,0,3:0:0:0:
83,294,150924,1,0,3:0:0:0:
85,282,150988,1,0,3:0:0:0:
88,269,151052,2,0,P|103:221|126:197,1,78.7500030040742,8|0,0:0|0:0,0:0:0:0:
406,298,151305,2,0,P|357:310|325:302,1,78.7500030040742,0|0,1:0|0:0,0:0:0:0:
273,8,151559,2,0,P|307:44|316:76,1,78.7500030040742
86,267,151812,5,0,1:0:0:0:
273,8,151939,1,0,1:0:0:0:
406,298,152066,2,0,P|452:304|504:288,1,78.7500030040742,6|0,1:2|0:0,0:0:0:0:
424,80,152319,1,0,0:0:0:0:
380,368,152446,1,0,0:0:0:0:
328,156,152573,2,0,P|282:150|230:166,1,78.7500030040742,2|0,0:0|0:0,0:0:0:0:
40,296,152826,53,0,1:0:0:0:
51,295,152889,1,0,3:0:0:0:
63,294,152952,1,0,3:0:0:0:
75,294,153016,1,0,3:0:0:0:
88,292,153080,2,0,P|152:288|196:288,1,78.7500030040742,10|0,0:0|0:0,0:0:0:0:
360,356,153333,1,0,0:0:0:0:
240,92,153460,1,0,0:0:0:0:
184,320,153587,1,2,0:0:0:0:
400,164,153713,1,0,0:0:0:0:
128,148,153840,1,0,0:0:0:0:
128,148,154094,6,0,P|80:148|44:152,1,78.7500030040742,2|0,0:0|0:0,0:0:0:0:
332,176,154347,2,0,P|380:176|416:180,1,78.7500030040742
112,224,154600,1,2,0:0:0:0:
92,300,154727,1,0,0:0:0:0:
344,260,154854,38,0,P|344:280|352:304,1,39.3750015020371,0|0,3:0|3:0,3:0:0:0:
448,360,154981,2,0,P|448:340|440:316,1,39.3750015020371,0|0,3:0|3:0,3:0:0:0:
428,108,155107,2,0,P|380:108|332:112,1,78.7500030040742,10|0,0:0|0:0,0:0:0:0:
448,376,155361,1,0,1:0:0:0:
440,84,155488,1,0,0:0:0:0:
208,152,155614,2,0,P|208:188|216:240,1,78.7500030040742,2|0,0:0|0:0,0:0:0:0:
348,352,155868,1,0,0:0:0:0:
344,96,155995,54,0,P|348:112|344:152,1,39.3750015020371
232,48,156121,2,0,B|100:40|140:148|-20:108,1,236.250009012223,2|0,0:0|0:0,0:0:0:0:
60,288,156628,2,0,P|68:244|68:196,1,78.7500030040742,2|0,0:0|0:0,0:0:0:0:
256,88,156882,5,0,1:0:0:0:
255,99,156945,1,0,3:0:0:0:
255,111,157008,1,0,3:0:0:0:
255,123,157072,1,0,3:0:0:0:
255,135,157135,2,0,P|308:136|336:132,1,78.7500030040742,10|0,0:0|0:0,0:0:0:0:
496,256,157389,2,0,P|456:251|417:253,1,78.7500030040742
208,324,157642,1,2,0:0:0:0:
452,336,157769,1,0,0:0:0:0:
120,304,157896,2,0,P|159:299|198:301,1,78.7500030040742
16,164,158149,54,0,P|55:168|94:166,1,78.7500030040742,2|0,0:0|0:0,0:0:0:0:
220,112,158403,1,0,0:0:0:0:
120,20,158530,1,0,0:0:0:0:
328,192,158656,2,0,P|323:231|325:270,1,78.7500030040742,2|0,0:0|0:0,0:0:0:0:
464,40,158910,21,8,1:0:0:0:
448,39,158973,1,8,1:0:0:0:
432,38,159036,1,8,1:0:0:0:
416,38,159100,1,8,1:0:0:0:
401,37,159163,2,0,B|356:32|356:32|296:36,1,78.7500030040742,8|0,0:0|0:0,0:0:0:0:
187,310,159417,1,8,1:0:0:0:
392,192,159543,1,8,1:0:0:0:
187,73,159670,1,8,1:0:0:0:
47,191,159924,21,8,1:0:0:0:
360,372,160050,1,8,1:0:0:0:
360,11,160177,2,0,P|316:12|276:16,1,78.7500030040742,6|0,0:0|0:0,0:0:0:0:
160,96,160431,2,0,P|115:96|75:100,1,78.7500030040742
224,220,160684,2,0,P|268:220|308:224,1,78.7500030040742,2|0,0:0|0:0,0:0:0:0:
424,304,160938,54,0,P|464:304|492:308,1,39.3750015020371,0|0,1:0|3:0,3:0:0:0:
312,340,161064,2,0,P|272:340|244:336,1,39.3750015020371,0|0,3:0|3:0,3:0:0:0:
32,296,161191,2,0,P|84:288|140:288,1,78.7500030040742,10|0,0:0|0:0,0:0:0:0:
296,192,161445,2,0,P|244:200|188:200,1,78.7500030040742
48,104,161698,1,2,0:0:0:0:
181,90,161824,1,0,0:0:0:0:
314,77,161951,1,0,0:0:0:0:
314,77,162205,6,0,P|384:64|416:64,1,78.7500030040742,2|0,0:0|0:0,0:0:0:0:
456,224,162459,2,0,P|386:237|354:237,1,78.7500030040742
232,172,162712,1,2,0:0:0:0:
432,132,162839,1,0,0:0:0:0:
412,340,162966,53,0,3:0:0:0:
400,339,163029,1,0,3:0:0:0:
388,339,163092,1,0,3:0:0:0:
376,338,163156,1,0,3:0:0:0:
364,336,163219,2,0,P|296:328|280:320,1,78.7500030040742,10|0,0:0|0:0,0:0:0:0:
204,216,163473,1,0,1:0:0:0:
332,252,163599,1,0,0:0:0:0:
76,336,163726,2,0,P|60:296|56:244,1,78.7500030040742,2|0,0:0|0:0,0:0:0:0:
64,36,163980,2,0,L|64:156,1,118.125004506111
56,176,164233,6,0,P|104:184|156:172,1,78.7500030040742,2|0,0:0|0:0,0:0:0:0:
416,96,164487,1,0,0:0:0:0:
296,36,164613,2,0,P|248:28|196:40,1,78.7500030040742,0|2,0:0|0:0,0:0:0:0:
144,296,164867,1,0,0:0:0:0:
276,320,164993,53,0,1:0:0:0:
287,322,165056,1,0,3:0:0:0:
299,323,165119,1,0,3:0:0:0:
311,323,165183,1,0,3:0:0:0:
322,322,165247,2,0,P|370:330|422:318,1,78.7500030040742,10|0,0:0|0:0,0:0:0:0:
416,96,165500,1,0,0:0:0:0:
296,36,165627,2,0,P|248:28|196:40,1,78.7500030040742,0|2,0:0|0:0,0:0:0:0:
56,144,165881,1,0,0:0:0:0:
4,268,166007,2,0,P|8:324|16:360,1,78.7500030040742
312,136,166261,6,0,P|308:80|300:44,1,78.7500030040742,2|0,0:0|0:0,0:0:0:0:
152,80,166514,2,0,P|148:24|140:-12,1,78.7500030040742
208,208,166768,2,0,P|212:264|220:300,1,78.7500030040742,2|0,0:0|0:0,0:0:0:0:
368,264,167021,54,0,P|372:296|380:328,1,39.3750015020371,0|0,3:0|3:0,3:0:0:0:
436,104,167148,2,0,P|432:72|424:40,1,39.3750015020371,0|0,3:0|3:0,3:0:0:0:
288,176,167275,2,0,L|404:172,1,78.7500030040742,10|0,0:0|0:0,0:0:0:0:
488,228,167528,1,0,1:0:0:0:
356,256,167655,1,0,0:0:0:0:
480,308,167782,1,0,0:0:0:0:
348,336,167909,1,0,0:0:0:0:
45,246,168035,5,0,1:0:0:0:
196,291,168162,1,0,1:0:0:0:
348,336,168289,2,0,P|396:336|448:328,1,78.7500030040742,6|0,0:0|0:0,0:0:0:0:
216,272,168542,2,0,P|264:272|316:264,1,78.7500030040742
380,132,168796,2,0,P|419:127|458:128,1,78.7500030040742,2|0,0:0|0:0,0:0:0:0:
248,68,169049,54,0,P|272:64|308:68,1,39.3750015020371,0|0,1:0|3:0,3:0:0:0:
56,116,169176,2,0,P|32:120|-4:116,1,39.3750015020371,0|0,3:0|3:0,3:0:0:0:
120,28,169303,2,0,L|152:120,1,78.7500030040742,10|0,0:0|0:0,0:0:0:0:
112,340,169556,2,0,L|80:248,1,78.7500030040742
145,102,169810,1,2,0:0:0:0:
188,228,169936,1,0,0:0:0:0:
232,354,170063,1,0,0:0:0:0:
232,354,170317,6,0,P|280:332|332:328,1,78.7500030040742,2|0,0:0|0:0,0:0:0:0:
512,276,170570,2,0,P|464:254|412:250,1,78.7500030040742
180,72,170824,54,0,P|228:94|280:98,1,78.7500030040742,2|0,0:0|0:0,0:0:0:0:
460,150,171077,2,0,P|416:136|392:132,1,39.3750015020371,0|0,3:0|3:0,3:0:0:0:
184,200,171204,2,0,P|228:214|252:218,1,39.3750015020371,0|0,3:0|3:0,3:0:0:0:
336,76,171331,2,0,L|328:156,1,78.7500030040742,10|0,0:0|0:0,0:0:0:0:
308,352,171584,5,0,1:0:0:0:
189,288,171711,1,0,0:0:0:0:
55,303,171838,1,2,0:0:0:0:
184,271,171964,1,0,0:0:0:0:
185,136,172091,1,0,0:0:0:0:
185,136,172345,22,0,L|106:119,1,78.7500030040742,2|0,0:0|0:0,0:0:0:0:
184,271,172598,2,0,L|105:288,1,78.7500030040742
319,159,172852,38,0,L|240:142,1,78.7500030040742,2|0,0:0|0:0,0:0:0:0:
318,261,173105,1,0,3:0:0:0:
306,263,173168,1,0,3:0:0:0:
294,265,173231,1,0,3:0:0:0:
283,268,173295,1,0,3:0:0:0:
271,270,173359,2,0,P|269:314|274:353,1,78.7500030040742,10|0,0:0|0:0,0:0:0:0:
392,312,173612,2,0,P|394:268|389:229,1,78.7500030040742
319,148,173866,1,2,0:0:0:0:
210,160,173992,1,0,0:0:0:0:
150,252,174119,1,0,0:0:0:0:
150,252,174373,22,0,B|138:220|108:210|108:210|53:195|0:151|0:52|51:13|115:19|152:63|152:63|182:12|263:-2|319:40|295:153|243:190|243:190|205:218|204:272|237:313|299:300,1,840,2|0,0:0|3:0,0:0:0:0:
