osu file format v14

[General]
AudioFilename: audio.mp3
AudioLeadIn: 0
PreviewTime: 71603
Countdown: 0
SampleSet: Soft
StackLeniency: 0.4
Mode: 0
LetterboxInBreaks: 0
WidescreenStoryboard: 0

[Editor]
Bookmarks: 15499,29721,43943,58165,115054,129276,143499,202165,216388,273276,287499
DistanceSpacing: 1.55
BeatDivisor: 8
GridSize: 4
TimelineZoom: 1.7

[Metadata]
Title:Don't let you down
TitleUnicode:Don't let you down
Artist:Halozy feat. Minase Mashiro
ArtistUnicode:Halozy feat. 水瀬ましろ
Creator:Nozhomi
Version:You can do it
Source:東方神霊廟 ~ Ten Desires.
Tags:Touhou Toho Project Arrange Album Eastern Divine Spirit Mausoleum Shinreibyou デザイアドライブ sumijun 長尾ちえみ dont Seiga Kaku Desire Drive Dubstep Eurobeat R&B Rock Pop Ballade Vocal Chiemi Nagaya Nagao Yoshika Miyako C87 ComicMarket87 Comiket87 すみじゅん
BeatmapID:2277365
BeatmapSetID:1089237

[Difficulty]
HPDrainRate:6
CircleSize:4.2
OverallDifficulty:8.2
ApproachRate:9
SliderMultiplier:2
SliderTickRate:1

[Events]
//Background and Video events
0,0,"touhousylux.jpg",0,0
//Break Periods
2,202275,215031
//Storyboard Layer 0 (Background)
//Storyboard Layer 1 (Fail)
//Storyboard Layer 2 (Pass)
//Storyboard Layer 3 (Foreground)
//Storyboard Layer 4 (Overlay)
//Storyboard Sound Samples

[TimingPoints]
1187,444.444444444444,4,2,1,60,1,0
1187,-133.333333333333,4,2,1,60,0,0
15325,-117.647058823529,4,2,1,60,0,0
22520,-83.3333333333333,4,2,1,60,0,0
29631,-100,4,2,1,50,0,0
35409,-80,4,2,1,50,0,0
35853,-66.6666666666667,4,2,1,50,0,0
36298,-58.8235294117647,4,2,1,50,0,0
36742,-100,4,2,1,60,0,0
49631,-80,4,2,1,60,0,0
50075,-66.6666666666667,4,2,1,60,0,0
50520,-58.8235294117647,4,2,1,60,0,0
50964,-83.3333333333333,4,2,1,60,0,0
52742,-76.9230769230769,4,2,1,60,0,0
54520,-66.6666666666667,4,2,1,60,0,0
57631,-50,4,2,1,60,0,0
58075,-133.333333333333,4,2,1,60,0,0
58186,-133.333333333333,4,2,1,50,0,0
65186,-100,4,2,1,60,0,0
72298,-83.3333333333333,4,2,1,75,0,1
79298,-83.3333333333333,4,2,1,60,0,1
79353,-83.3333333333333,4,2,1,75,0,1
84742,-83.3333333333333,4,2,1,60,0,1
86075,-83.3333333333333,4,2,1,75,0,0
86520,-83.3333333333333,4,2,1,75,0,1
93520,-83.3333333333333,4,2,1,60,0,1
93575,-83.3333333333333,4,2,1,75,0,1
97186,-83.3333333333333,4,2,1,65,0,1
100742,-100,4,2,1,70,0,0
114964,-125,4,2,1,50,0,0
120742,-100,4,2,1,50,0,0
121186,-80,4,2,1,50,0,0
121631,-66.6666666666667,4,2,1,60,0,0
122075,-100,4,2,1,60,0,0
128298,-57.1428571428571,4,2,1,60,0,0
128372,-80,4,2,1,5,0,0
128446,-66.6666666666667,4,2,1,60,0,0
128520,-80,4,2,1,5,0,0
128594,-66.6666666666667,4,2,1,60,0,0
128668,-66.6666666666667,4,2,1,5,0,0
128742,-66.6666666666667,4,2,1,60,0,0
128964,-100,4,2,1,60,0,0
134964,-80,4,2,1,60,0,0
135409,-66.6666666666667,4,2,1,60,0,0
135853,-58.8235294117647,4,2,1,60,0,0
136298,-83.3333333333333,4,2,1,60,0,0
138075,-76.9230769230769,4,2,1,60,0,0
139853,-66.6666666666667,4,2,1,60,0,0
142964,-50,4,2,1,60,0,0
143409,-100,4,2,1,50,0,0
150298,-100,4,2,1,60,0,0
157631,-71.4285714285714,4,2,1,75,0,1
164631,-71.4285714285714,4,2,1,60,0,1
164686,-71.4285714285714,4,2,1,75,0,1
171409,-71.4285714285714,4,2,1,75,0,0
171853,-71.4285714285714,4,2,1,75,0,1
178853,-71.4285714285714,4,2,1,60,0,1
178909,-71.4285714285714,4,2,1,75,0,1
182520,-71.4285714285714,4,2,1,65,0,1
184298,-83.3333333333333,4,2,1,75,0,1
186075,-200,4,2,1,60,0,0
186964,-50,4,2,1,60,0,0
187798,-66.6666666666667,4,2,1,5,0,0
187853,-66.6666666666667,4,2,1,60,0,0
188742,-50,4,2,1,60,0,0
189186,-66.6666666666667,4,2,1,60,0,0
189631,-200,4,2,1,60,0,0
190520,-66.6666666666667,4,2,1,60,0,0
191409,-100,4,2,1,60,0,0
193186,-200,4,2,1,60,0,0
194075,-66.6666666666667,4,2,1,60,0,0
194909,-66.6666666666667,4,2,1,5,0,0
194964,-66.6666666666667,4,2,1,60,0,0
195853,-50,4,2,1,60,0,0
196298,-66.6666666666667,4,2,1,60,0,0
196742,-66.6666666666667,4,2,1,30,0,0
197186,-66.6666666666667,4,2,1,40,0,0
197631,-66.6666666666667,4,2,1,50,0,0
198075,-66.6666666666667,4,2,1,60,0,0
199409,-100,4,2,1,60,0,0
216298,-133.333333333333,4,2,1,60,0,0
223409,-100,4,2,1,60,0,0
230520,-62.5,4,2,1,75,0,1
237520,-62.5,4,2,1,60,0,1
237575,-62.5,4,2,1,75,0,1
244298,-62.5,4,2,1,75,0,0
244742,-71.4285714285714,4,2,1,75,0,1
251742,-71.4285714285714,4,2,1,60,0,1
251798,-71.4285714285714,4,2,1,75,0,1
258964,-83.3333333333333,4,2,1,70,0,0
273186,-100,4,2,1,60,0,0
273298,-100,4,2,1,50,0,0
287409,-100,4,2,1,60,0,0
287520,-100,4,2,1,50,0,0
289186,-100,4,2,1,40,0,0
289409,-100,4,2,1,35,0,0
289631,-100,4,2,1,30,0,0
289853,-100,4,2,1,25,0,0
290075,-100,4,2,1,20,0,0
290520,-100,4,2,1,15,0,0
290964,-100,4,2,1,10,0,0
292242,-100,4,2,1,5,0,0

[Colours]
Combo1 : 190,27,51
Combo2 : 19,208,230
Combo3 : 224,210,44
Combo4 : 85,36,187

[HitObjects]
93,329,1187,6,0,L|167:325,1,75.0000028610231,4|0,0:0|0:0,0:0:0:0:
99,177,1631,2,0,L|24:180,1,75.0000028610231,2|0,0:0|0:0,0:0:0:0:
136,247,2075,2,0,L|210:243,1,75.0000028610231,2|0,0:0|0:0,0:0:0:0:
282,156,2520,1,2,0:0:0:0:
332,256,2742,1,2,0:0:0:0:
416,151,2964,6,0,P|424:114|417:78,1,75.0000028610231,0|0,0:0|0:0,0:0:0:0:
322,18,3409,1,2,0:0:0:0:
212,82,3631,1,0,0:0:0:0:
205,217,3853,1,2,0:0:0:0:
305,318,4075,1,0,0:0:0:0:
429,243,4298,2,0,P|393:221|347:219,1,75.0000028610231,2|2,0:0|0:0,0:0:0:0:
230,320,4742,6,0,L|305:318,1,75.0000028610231,0|0,0:0|0:0,0:0:0:0:
205,217,5186,2,0,L|130:214,1,75.0000028610231,2|0,0:0|0:0,0:0:0:0:
13,259,5631,1,2,0:0:0:0:
16,134,5853,1,0,0:0:0:0:
107,198,6075,2,0,L|110:276,1,75.0000028610231,2|2,0:0|0:0,0:0:0:0:
280,242,6520,6,0,L|282:167,1,75.0000028610231,0|0,0:0|0:0,0:0:0:0:
403,215,6964,2,0,L|400:140,1,75.0000028610231,2|0,0:0|0:0,0:0:0:0:
280,242,7409,1,2,0:0:0:0:
400,140,7631,1,0,0:0:0:0:
405,288,7853,1,2,0:0:0:0:
283,167,8075,1,2,0:0:0:0:
477,217,8298,6,0,L|403:215,1,75.0000028610231,2|0,0:0|0:0,0:0:0:0:
327,318,8742,2,0,L|252:315,1,75.0000028610231,2|0,0:0|0:0,0:0:0:0:
184,207,9186,2,0,L|109:204,1,75.0000028610231,2|0,0:0|0:0,0:0:0:0:
144,312,9631,1,2,0:0:0:0:
184,207,9853,1,2,0:0:0:0:
58,269,10075,6,0,P|34:240|27:204,1,75.0000028610231,0|0,0:0|0:0,0:0:0:0:
97,73,10520,2,0,P|90:109|66:137,1,75.0000028610231,2|0,0:0|0:0,0:0:0:0:
164,25,10964,2,0,P|170:61|194:89,1,75.0000028610231,2|0,0:0|0:0,0:0:0:0:
302,124,11409,1,2,0:0:0:0:
277,14,11631,1,2,0:0:0:0:
231,157,11853,6,0,L|235:256,1,75.0000028610231,0|0,0:0|0:0,0:0:0:0:
286,355,12298,2,0,L|290:256,1,75.0000028610231,2|0,0:0|0:0,0:0:0:0:
352,128,12742,1,2,0:0:0:0:
429,256,12964,1,0,0:0:0:0:
289,280,13186,1,2,0:0:0:0:
390,193,13409,1,2,0:0:0:0:
368,319,13631,5,0,0:0:0:0:
303,194,13853,1,0,0:0:0:0:
208,292,14075,2,0,L|102:289,1,75.0000028610231,2|0,0:0|0:0,0:0:0:0:
26,196,14520,1,2,0:0:0:0:
133,290,14742,1,0,0:0:0:0:
143,131,14964,1,2,0:0:0:0:
276,262,15186,1,2,0:0:0:0:
297,64,15409,6,0,L|290:148,1,85.0000016212464,8|0,3:2|0:0,0:0:0:0:
135,46,15853,2,0,L|142:130,1,85.0000016212464,8|0,0:0|0:0,0:0:0:0:
301,68,16298,2,0,L|294:152,1,85.0000016212464,8|0,0:0|0:0,0:0:0:0:
135,46,16742,1,8,0:0:0:0:
198,211,16964,1,2,0:0:0:0:
301,67,17186,6,0,P|266:92|225:101,1,85.0000016212464,8|0,0:0|0:0,0:0:0:0:
111,34,17631,1,8,0:0:0:0:
55,175,17853,1,2,0:0:0:0:
227,191,18075,2,0,P|185:160|130:151,1,85.0000016212464,8|2,0:0|0:0,0:0:0:0:
228,276,18520,2,0,P|270:268|300:240,1,85.0000016212464,8|2,0:0|0:0,0:0:0:0:
430,346,18964,6,0,P|388:337|358:309,1,85.0000016212464,8|0,0:0|0:0,0:0:0:0:
446,198,19409,2,0,P|406:233|346:223,1,85.0000016212464,8|0,0:0|0:0,0:0:0:0:
342,85,19853,1,8,0:0:0:0:
496,148,20075,1,0,0:0:0:0:
376,235,20298,1,8,0:0:0:0:
420,115,20520,1,2,0:0:0:0:
272,164,20742,6,0,L|173:159,1,85.0000016212464,8|0,0:0|0:0,0:0:0:0:
97,283,21186,2,0,L|181:278,1,85.0000016212464,8|0,0:0|0:0,0:0:0:0:
100,130,21631,1,8,0:0:0:0:
182,279,21853,1,2,0:0:0:0:
272,164,22075,1,8,0:0:0:0:
108,212,22298,1,2,0:0:0:0:
262,304,22520,6,0,L|402:302,1,119.999996337891,0|0,1:0|0:0,0:0:0:0:
212,199,22964,2,0,L|352:197,1,119.999996337891,0|0,1:0|0:0,0:0:0:0:
161,94,23409,2,0,L|301:92,1,119.999996337891,0|0,1:0|3:0,0:0:0:0:
342,35,23742,1,0,1:0:0:0:
342,35,23853,2,0,L|482:33,1,119.999996337891,0|0,1:0|0:0,0:0:0:0:
332,197,24298,6,0,L|212:195,1,119.999996337891,0|0,1:0|0:0,0:0:0:0:
50,117,24742,1,0,1:0:0:0:
252,12,24964,1,0,0:0:0:0:
212,195,25186,1,0,1:0:0:0:
129,29,25409,1,0,0:0:0:0:
129,29,25520,1,0,3:0:0:0:
129,29,25631,1,0,1:0:0:0:
293,100,25853,1,0,0:0:0:0:
103,199,26075,6,0,L|106:251,2,29.9999990844727,8|0|0,0:0|0:0|1:0,0:0:0:0:
207,228,26298,5,0,1:0:0:0:
207,228,26409,1,0,1:0:0:0:
207,228,26520,2,0,L|210:280,2,29.9999990844727,8|0|0,0:0|0:0|1:0,0:0:0:0:
311,256,26743,1,0,1:0:0:0:
311,256,26854,1,0,1:0:0:0:
311,256,26964,2,0,L|314:308,2,29.9999990844727,8|0|0,0:0|0:0|1:0,0:0:0:0:
378,171,27186,5,0,1:0:0:0:
378,171,27298,1,0,1:0:0:0:
418,215,27409,1,8,0:0:0:0:
477,219,27520,1,0,1:0:0:0:
508,167,27631,1,0,1:0:0:0:
495,108,27742,1,0,1:0:0:0:
436,93,27853,6,0,B|299:124|189:49|189:49|214:98|214:98|186:123|188:209|188:209|180:151|110:131|110:131|78:194|126:249|126:249|96:247|71:281,1,719.999978027344,8|0,3:2|1:0,0:0:0:0:
54,351,29631,6,0,P|85:313|85:264,1,100,4|0,3:2|0:0,0:0:0:0:
204,251,30075,2,0,P|190:201|124:156,1,100,4|0,3:0|0:0,0:0:0:0:
223,72,30520,2,0,L|41:79,1,150,4|0,3:0|3:0,0:0:0:0:
20,135,30964,1,4,3:0:0:0:
105,5,31186,5,2,0:0:0:0:
156,168,31409,2,0,L|255:164,1,100,4|0,3:0|0:0,0:0:0:0:
394,87,31853,2,0,L|294:83,1,100,4|0,3:0|0:0,0:0:0:0:
481,172,32298,2,0,L|311:166,1,150,4|0,3:0|3:0,0:0:0:0:
285,239,32742,1,4,3:0:0:0:
217,90,32964,5,2,0:0:0:0:
122,243,33186,2,0,P|113:288|145:357,1,100,4|0,3:0|0:0,0:0:0:0:
224,185,33631,2,0,P|232:136|217:90,1,100,4|0,3:0|0:0,0:0:0:0:
210,280,34075,2,0,P|274:307|362:292,1,150,4|0,3:0|3:0,0:0:0:0:
414,231,34520,1,4,3:0:0:0:
485,354,34742,1,2,0:0:0:0:
331,222,34964,6,0,P|303:143|330:84,1,150,4|0,3:0|0:0,0:0:0:0:
328,86,35409,6,0,P|286:167|199:193,1,187.5,0|0,1:0|0:0,0:0:0:0:
199,193,35853,6,0,P|214:263|164:333,1,150.000005722046,4|0,3:0|0:0,0:0:0:0:
83,315,36186,5,0,3:0:0:0:
83,315,36298,2,0,P|68:245|141:164,1,170.000003242493,0|0,1:0|1:0,0:0:0:0:
328,86,36742,6,0,P|223:123|173:106,1,150,4|0,3:0|0:0,0:0:0:0:
124,53,37186,2,0,P|169:69|189:113,1,100,0|2,1:0|0:0,0:0:0:0:
77,180,37631,1,4,3:0:0:0:
20,50,37853,1,0,0:0:0:0:
20,50,37964,1,0,3:0:0:0:
20,50,38075,1,0,1:0:0:0:
189,114,38298,5,0,3:0:0:0:
101,5,38520,2,0,L|107:130,1,100,4|0,3:0|0:0,0:0:0:0:
168,195,38853,1,0,0:0:0:0:
168,195,38964,2,0,L|172:294,1,100,0|2,1:0|0:0,0:0:0:0:
346,335,39409,2,0,P|318:297|255:284,1,100,4|0,3:0|0:0,0:0:0:0:
273,361,39742,1,0,3:0:0:0:
273,361,39853,1,0,1:0:0:0:
363,217,40075,1,2,0:0:0:0:
181,215,40298,6,0,P|199:282|268:283,1,150,4|0,3:0|0:0,0:0:0:0:
285,204,40742,1,0,1:0:0:0:
273,361,40964,1,2,0:0:0:0:
181,215,41186,1,4,3:0:0:0:
125,360,41409,1,0,0:0:0:0:
125,360,41520,1,0,3:0:0:0:
125,360,41631,2,0,L|7:353,1,100,0|0,1:0|3:0,0:0:0:0:
7,210,42076,5,4,3:0:0:0:
178,287,42298,2,0,L|78:282,1,100,0|0,0:0|1:0,0:0:0:0:
249,246,42743,2,0,L|378:240,1,100,0|4,0:0|3:0,0:0:0:0:
405,304,43075,1,2,0:0:0:0:
289,111,43409,1,2,0:0:0:0:
419,161,43631,2,0,L|463:163,3,25,0|0|0|0,1:0|1:0|1:0|1:0,0:0:0:0:
488,105,43853,6,0,P|431:59|390:63,1,100,4|0,3:2|0:0,0:0:0:0:
276,181,44298,2,0,P|324:174|355:136,1,100,0|2,1:0|0:0,0:0:0:0:
245,27,44742,2,0,P|196:79|210:151,1,150,4|0,3:0|3:0,0:0:0:0:
220,268,45186,2,0,P|211:243|215:216,1,50,0|0,1:0|0:0,0:0:0:0:
276,181,45409,5,0,3:0:0:0:
161,319,45631,2,0,P|139:274|136:224,1,100,4|0,3:0|0:0,0:0:0:0:
17,212,46075,2,0,P|31:165|65:129,1,100,0|2,1:0|0:0,0:0:0:0:
1,14,46520,2,0,L|150:16,1,150,4|0,3:0|3:0,0:0:0:0:
209,85,46964,2,0,L|258:84,1,50,0|0,1:0|0:0,0:0:0:0:
309,28,47186,5,0,3:0:0:0:
409,235,47409,2,0,P|424:183|398:117,1,100,4|0,3:0|0:0,0:0:0:0:
340,281,47853,2,0,P|329:329|344:376,1,100,0|2,1:0|0:0,0:0:0:0:
509,329,48298,2,0,P|476:264|409:235,1,150,4|0,3:0|3:0,0:0:0:0:
340,281,48742,2,0,L|290:278,1,50,0|0,1:0|0:0,0:0:0:0:
222,325,48964,1,0,3:0:0:0:
16,197,49186,6,0,L|165:189,1,150,4|0,3:0|0:0,0:0:0:0:
279,111,49631,6,0,P|233:107|254:165,1,125,0|2,1:0|0:0,0:0:0:0:
329,176,49964,1,0,0:0:0:0:
382,46,50075,6,0,P|413:49|389:72,1,75.0000028610231,4|0,3:0|0:0,0:0:0:0:
284,16,50298,2,0,P|253:19|277:42,1,75.0000028610231,2|0,0:0|3:0,0:0:0:0:
329,176,50520,6,0,L|323:75,1,85.0000016212464,0|0,1:0|0:0,0:0:0:0:
284,16,50742,1,0,3:0:0:0:
442,139,50964,6,0,L|443:323,1,179.999994506836,4|0,3:0|3:0,0:0:0:0:
382,368,51409,1,0,1:0:0:0:
273,224,51631,2,0,P|298:249|295:296,1,59.9999981689454,2|0,0:0|0:0,0:0:0:0:
234,279,51853,1,4,3:0:0:0:
247,144,52075,1,0,0:0:0:0:
247,144,52186,1,0,3:0:0:0:
247,144,52298,2,0,P|276:93|338:84,1,119.999996337891,0|0,1:0|3:0,0:0:0:0:
191,211,52742,6,0,P|120:221|0:193,1,194.999991073609,4|0,3:0|3:0,0:0:0:0:
71,75,53186,2,0,P|80:99|75:146,1,64.9999970245363,0|0,1:0|0:0,0:0:0:0:
1,116,53409,1,2,0:0:0:0:
151,26,53631,1,4,3:0:0:0:
199,218,53853,1,0,0:0:0:0:
199,218,53964,1,0,3:0:0:0:
199,218,54075,2,0,L|196:358,1,129.999994049073,0|0,1:0|3:0,0:0:0:0:
347,372,54520,6,0,L|341:141,1,225.000008583069,4|0,3:0|3:0,0:0:0:0:
426,79,54964,2,0,P|425:129|322:118,1,150.000005722046,0|2,1:0|0:0,0:0:0:0:
512,54,55409,1,4,3:0:0:0:
487,252,55631,1,0,0:0:0:0:
487,252,55742,1,0,3:0:0:0:
487,252,55853,2,0,L|480:158,1,75.0000028610231,0|0,1:0|0:0,0:0:0:0:
426,79,56075,1,0,3:0:0:0:
145,144,56298,6,0,P|175:182|276:184,1,150.000005722046,4|0,3:0|0:0,0:0:0:0:
303,84,56631,1,0,3:0:0:0:
303,84,56742,2,0,P|266:78|230:90,1,75.0000028610231,0|0,1:0|0:0,0:0:0:0:
270,187,56964,1,2,0:0:0:0:
66,44,57186,2,0,L|74:217,1,150.000005722046,4|0,3:0|0:0,0:0:0:0:
168,267,57520,1,0,3:0:0:0:
168,267,57631,6,0,P|186:226|174:153,1,100,0|0,1:0|0:0,0:0:0:0:
69,281,57853,6,0,P|87:326|129:355,1,100,2|0,3:0|0:0,0:0:0:0:
353,357,58075,6,0,P|290:341|183:350,1,150.000005722046,4|0,3:2|0:0,0:0:0:0:
310,227,58964,2,0,P|236:236|168:267,1,150.000005722046,2|0,0:0|0:0,0:0:0:0:
219,120,59853,2,0,P|152:153|98:205,1,150.000005722046,2|0,0:0|0:0,0:0:0:0:
90,49,60742,2,0,P|38:102|5:170,1,150.000005722046,2|0,0:0|0:0,0:0:0:0:
206,345,61631,6,0,B|216:228|128:179|128:179|186:200|256:171,1,300.000011444092,2|2,0:0|0:0,0:0:0:0:
316,132,62742,1,0,0:0:0:0:
301,35,62964,1,2,0:0:0:0:
203,32,63186,1,0,0:0:0:0:
145,110,63409,6,0,B|79:88|0:103|0:103|38:96|78:73,1,225.000008583069,2|0,0:0|0:0,0:0:0:0:
147,12,64298,1,2,0:0:0:0:
145,110,64520,1,0,0:0:0:0:
236,32,64742,1,2,0:0:0:0:
278,160,64964,2,0,L|275:194,3,18.7500007152558,0|0|0|0,3:0|3:0|3:0|3:0,0:0:0:0:
308,251,65186,6,0,P|362:258|411:247,1,100,4|0,1:2|0:0,0:0:0:0:
234,294,65631,2,0,P|180:301|131:290,1,100,0|0,1:0|0:0,0:0:0:0:
308,333,66075,2,0,P|362:340|411:329,1,100,0|0,1:0|0:0,0:0:0:0:
492,287,66409,1,0,3:0:0:0:
492,287,66520,1,0,1:0:0:0:
421,149,66742,1,0,3:0:0:0:
236,221,66964,6,0,P|187:230|137:223,1,100,0|0,1:0|0:0,0:0:0:0:
186,59,67409,1,0,1:0:0:0:
236,221,67631,1,0,3:0:0:0:
90,119,67853,1,0,1:0:0:0:
281,128,68075,1,0,0:0:0:0:
281,128,68186,1,0,3:0:0:0:
281,127,68298,2,0,P|232:140|182:142,1,100,0|0,1:0|1:0,0:0:0:0:
50,58,68742,6,0,L|46:26,2,25,0|0|0,3:0|0:0|1:0,0:0:0:0:
94,183,68964,1,0,1:0:0:0:
94,183,69075,1,0,1:0:0:0:
94,183,69186,2,0,L|90:215,2,25,0|0|0,1:0|0:0|1:0,0:0:0:0:
138,73,69409,1,0,1:0:0:0:
138,73,69520,1,0,1:0:0:0:
138,73,69631,6,0,L|134:41,7,25,2|2|2|2|2|2|2|2,0:0|0:0|0:0|0:0|0:0|0:0|0:0|0:0,0:0:0:0:
213,84,70075,2,0,L|209:52,7,25,2|2|2|2|2|2|2|2,0:0|0:0|0:0|0:0|0:0|0:0|0:0|0:0,0:0:0:0:
284,96,70520,6,0,P|433:100|308:15,1,400,0|0,0:0|0:0,0:0:0:0:
194,193,71631,6,0,P|217:186|235:168,1,50,2|0,0:0|3:0,0:0:0:0:
284,96,71853,1,0,1:0:0:0:
323,297,72075,1,0,3:0:0:0:
323,297,72186,1,0,3:0:0:0:
323,297,72298,6,0,L|317:160,1,119.999996337891,4|0,3:2|0:0,0:0:0:0:
177,5,72742,2,0,L|182:124,1,119.999996337891,0|2,1:0|0:0,0:0:0:0:
395,88,73186,2,0,P|336:95|275:93,1,119.999996337891,4|0,3:0|0:0,0:0:0:0:
125,207,73520,1,0,3:0:0:0:
125,207,73630,2,0,P|188:198|244:201,1,119.999996337891,0|0,1:0|3:0,0:0:0:0:
131,327,74075,5,4,3:0:0:0:
59,129,74298,2,0,L|60:61,1,59.9999981689454,0|0,0:0|0:0,0:0:0:0:
168,96,74520,1,0,1:0:0:0:
13,230,74742,1,2,0:0:0:0:
131,327,74964,2,0,L|129:206,1,119.999996337891,4|0,3:0|0:0,0:0:0:0:
172,100,75298,1,0,3:0:0:0:
172,100,75409,2,0,P|144:153|79:134,1,119.999996337891,0|2,1:0|0:0,0:0:0:0:
260,237,75853,6,0,P|323:243|350:178,1,119.999996337891,4|0,3:0|0:0,0:0:0:0:
297,82,76186,1,0,0:0:0:0:
297,82,76298,2,0,P|283:117|292:154,1,59.9999981689454,0|0,1:0|0:0,0:0:0:0:
387,292,76520,2,0,P|393:229|328:201,1,119.999996337891,2|4,0:0|3:0,0:0:0:0:
226,256,76853,1,0,0:0:0:0:
226,256,76964,2,0,P|255:267|285:268,1,59.9999981689454,0|0,0:0|3:0,0:0:0:0:
432,352,77186,2,0,P|403:363|373:364,1,59.9999981689454,0|0,1:0|0:0,0:0:0:0:
283,268,77409,1,0,3:0:0:0:
17,344,77631,6,0,P|80:350|107:285,1,119.999996337891,4|0,3:0|0:0,0:0:0:0:
57,182,77964,1,0,0:0:0:0:
56,182,78076,2,0,P|49:211|54:240,1,59.9999981689454,0|0,1:0|0:0,0:0:0:0:
194,219,78298,2,0,P|201:129|175:44,1,179.999994506836,2|0,0:0|0:0,0:0:0:0:
22,73,78742,2,0,P|50:82|80:84,1,59.9999981689454,0|0,0:0|3:0,0:0:0:0:
175,44,78964,1,0,1:0:0:0:
378,118,79186,1,2,0:0:0:0:
371,37,79298,1,0,3:0:0:0:
371,37,79353,1,0,3:0:0:0:
371,37,79409,6,0,P|436:45|510:36,1,119.999996337891,4|0,3:0|0:0,0:0:0:0:
280,136,79853,2,0,P|215:144|141:135,1,119.999996337891,0|2,1:0|0:0,0:0:0:0:
367,313,80298,2,0,P|371:253|363:193,1,119.999996337891,4|0,3:0|0:0,0:0:0:0:
165,143,80631,1,0,3:0:0:0:
165,143,80742,2,0,P|160:202|168:262,1,119.999996337891,0|0,1:0|3:0,0:0:0:0:
367,313,81186,5,4,3:0:0:0:
191,369,81409,2,0,L|116:372,1,59.9999981689454,0|0,0:0|0:0,0:0:0:0:
168,262,81631,1,0,1:0:0:0:
333,381,81853,1,2,0:0:0:0:
269,194,82075,2,0,P|275:253|266:312,1,119.999996337891,4|0,3:0|0:0,0:0:0:0:
393,322,82409,1,0,3:0:0:0:
393,322,82520,2,0,P|340:298|284:314,1,119.999996337891,0|2,1:0|0:0,0:0:0:0:
64,212,82965,6,0,L|68:331,1,119.999996337891,4|0,3:0|0:0,0:0:0:0:
161,230,83298,1,0,0:0:0:0:
161,230,83409,2,0,L|158:305,1,59.9999981689454,0|0,1:0|0:0,0:0:0:0:
114,154,83631,2,0,L|118:34,1,119.999996337891,2|4,0:0|3:0,0:0:0:0:
211,136,83964,1,0,0:0:0:0:
211,136,84075,2,0,L|208:61,1,59.9999981689454,0|0,0:0|3:0,0:0:0:0:
298,166,84298,2,0,L|338:121,1,59.9999981689454,0|0,1:0|0:0,0:0:0:0:
350,247,84520,1,0,3:0:0:0:
144,182,84742,5,2,3:0:0:0:
78,152,84853,1,2,3:0:0:0:
13,184,84964,1,2,3:0:0:0:
13,249,85075,1,2,3:0:0:0:
61,293,85186,1,8,3:0:0:0:
121,295,85298,1,8,3:0:0:0:
171,262,85409,1,8,3:0:0:0:
213,229,85520,1,8,3:0:0:0:
264,213,85631,1,0,3:0:0:0:
311,218,85742,1,0,3:0:0:0:
350,245,85853,1,0,3:0:0:0:
362,284,85964,1,0,3:0:0:0:
350,324,86075,2,0,P|389:283|466:281,1,119.999996337891,4|0,3:0|0:0,0:0:0:0:
273,315,86409,1,0,3:0:0:0:
273,315,86464,1,0,3:0:0:0:
272,314,86520,6,0,P|222:283|163:285,1,119.999996337891,4|0,3:2|0:0,0:0:0:0:
28,242,86853,1,2,0:0:0:0:
28,242,86964,2,0,P|87:243|137:212,1,119.999996337891,0|2,1:0|0:0,0:0:0:0:
206,31,87409,2,0,L|209:150,1,119.999996337891,4|0,3:0|0:0,0:0:0:0:
322,67,87742,1,0,3:0:0:0:
321,67,87853,2,0,L|317:186,1,119.999996337891,0|0,1:0|3:0,0:0:0:0:
137,279,88298,6,0,P|183:256|278:246,1,119.999996337891,4|0,3:0|0:0,0:0:0:0:
333,274,88631,1,2,0:0:0:0:
387,210,88742,1,0,1:0:0:0:
469,371,88964,1,2,0:0:0:0:
489,139,89186,2,0,L|488:281,1,119.999996337891,4|0,3:0|0:0,0:0:0:0:
379,365,89520,1,0,3:0:0:0:
379,365,89631,2,0,P|335:323|263:315,1,119.999996337891,0|0,1:0|3:0,0:0:0:0:
402,176,90075,6,0,P|369:225|298:240,1,119.999996337891,4|0,3:0|0:0,0:0:0:0:
240,198,90409,1,2,0:0:0:0:
240,198,90520,2,0,L|236:120,1,59.9999981689454,0|0,1:0|0:0,0:0:0:0:
142,143,90742,2,0,L|146:65,1,59.9999981689454,2|0,0:0|0:0,0:0:0:0:
57,95,90964,1,4,3:0:0:0:
57,95,91075,1,0,0:0:0:0:
57,95,91186,2,0,L|53:17,1,59.9999981689454,0|0,0:0|3:0,0:0:0:0:
142,143,91409,1,0,1:0:0:0:
0,231,91631,1,0,3:0:0:0:
186,331,91853,6,0,P|156:280|83:263,1,119.999996337891,4|0,3:0|0:0,0:0:0:0:
217,228,92186,1,2,0:0:0:0:
217,228,92298,2,0,P|250:201|326:212,1,119.999996337891,0|2,1:0|0:0,0:0:0:0:
389,291,92631,1,0,0:0:0:0:
389,291,92742,2,0,P|394:252|420:218,1,59.9999981689454,4|0,3:0|0:0,0:0:0:0:
494,339,92964,2,0,P|458:348|434:343,1,59.9999981689454,0|0,0:0|3:0,0:0:0:0:
487,249,93186,1,0,1:0:0:0:
354,372,93409,1,2,0:0:0:0:
287,293,93520,1,0,3:0:0:0:
287,293,93575,1,0,3:0:0:0:
287,293,93631,6,0,L|168:296,1,119.999996337891,4|0,3:0|0:0,0:0:0:0:
120,207,93964,1,2,0:0:0:0:
120,207,94075,1,0,1:0:0:0:
13,374,94298,1,2,0:0:0:0:
225,221,94520,2,0,P|237:170|181:188,1,119.999996337891,4|0,3:0|0:0,0:0:0:0:
332,270,94853,1,0,3:0:0:0:
332,270,94964,2,0,P|319:219|375:237,1,119.999996337891,0|0,1:0|3:0,0:0:0:0:
299,24,95409,6,0,L|306:160,1,119.999996337891,4|0,3:0|0:0,0:0:0:0:
373,226,95742,1,2,0:0:0:0:
373,226,95853,1,0,1:0:0:0:
220,90,96075,1,2,0:0:0:0:
482,107,96298,2,0,P|433:75|374:75,1,119.999996337891,4|0,3:0|0:0,0:0:0:0:
225,173,96631,1,0,3:0:0:0:
225,173,96742,2,0,P|284:173|333:140,1,119.999996337891,0|0,1:0|3:0,0:0:0:0:
286,271,97186,6,0,L|289:323,2,29.9999990844727,0|0|0,1:0|0:0|1:0,0:0:0:0:
203,254,97409,1,0,1:0:0:0:
203,254,97520,1,0,1:0:0:0:
203,254,97631,2,0,L|206:306,2,29.9999990844727,0|0|0,1:0|0:0|1:0,0:0:0:0:
115,229,97854,1,0,1:0:0:0:
115,229,97965,1,0,1:0:0:0:
115,229,98075,2,0,L|118:281,2,29.9999990844727,0|0|0,3:0|0:0|1:0,0:0:0:0:
29,206,98298,1,0,1:0:0:0:
29,206,98409,1,0,3:0:0:0:
29,206,98520,2,0,L|32:258,2,29.9999990844727,0|0|0,1:0|0:0|1:0,0:0:0:0:
26,89,98742,1,4,3:0:0:0:
26,89,98853,1,0,1:0:0:0:
26,89,98964,6,0,B|75:119|89:153|89:153|145:114|211:98|341:158|341:158|274:83|270:-11|270:-11|258:88|158:116,1,719.999978027344,0|4,1:0|3:0,0:0:0:0:
221,272,100520,2,0,P|225:291|224:324,3,29.9999990844727,2|0|0|0,0:0|0:0|0:0|0:0,0:0:0:0:
290,362,100742,6,0,P|312:316|299:256,1,100,4|0,3:2|0:0,0:0:0:0:
260,93,101186,2,0,P|254:141|275:186,1,100,0|2,1:0|0:0,0:0:0:0:
458,182,101631,2,0,P|409:176|364:197,1,100,4|0,3:0|0:0,0:0:0:0:
294,306,101964,1,0,3:0:0:0:
294,306,102075,2,0,L|409:303,1,100,0|0,1:0|3:0,0:0:0:0:
218,249,102520,6,0,L|103:246,1,100,4|0,3:0|0:0,0:0:0:0:
59,139,102853,1,0,0:0:0:0:
59,139,102964,2,0,L|158:141,1,100,0|2,1:0|0:0,0:0:0:0:
288,309,103409,1,4,3:0:0:0:
397,111,103631,1,0,0:0:0:0:
397,111,103742,1,0,3:0:0:0:
397,111,103853,1,0,1:0:0:0:
159,141,104075,1,0,3:0:0:0:
407,248,104298,6,0,P|355:211|298:206,1,100,4|0,3:0|0:0,0:0:0:0:
312,28,104742,2,0,P|275:80|270:137,1,100,0|2,1:0|0:0,0:0:0:0:
399,326,105186,1,4,3:0:0:0:
480,131,105409,1,0,0:0:0:0:
479,97,105520,1,0,3:0:0:0:
478,63,105631,1,0,1:0:0:0:
320,204,105853,1,0,3:0:0:0:
402,16,106075,6,0,L|399:115,1,100,4|0,3:0|0:0,0:0:0:0:
220,66,106520,2,0,L|222:165,1,100,0|2,1:0|0:0,0:0:0:0:
399,115,106964,1,4,3:0:0:0:
227,73,107186,1,0,0:0:0:0:
227,73,107298,1,0,3:0:0:0:
227,73,107409,1,0,1:0:0:0:
402,16,107631,1,0,3:0:0:0:
366,236,107853,6,0,P|347:190|306:162,1,100,4|0,3:0|0:0,0:0:0:0:
215,330,108298,2,0,P|255:301|274:256,1,100,0|2,1:0|0:0,0:0:0:0:
115,152,108742,2,0,P|133:197|174:225,1,100,4|0,3:0|0:0,0:0:0:0:
306,162,109075,1,0,3:0:0:0:
306,162,109186,2,0,P|262:139|213:144,1,100,0|0,1:0|3:0,0:0:0:0:
392,51,109631,6,0,P|436:28|485:33,1,100,4|0,3:0|0:0,0:0:0:0:
405,168,109964,1,0,0:0:0:0:
405,168,110075,2,0,L|290:161,1,100,0|2,1:0|0:0,0:0:0:0:
470,355,110520,1,4,3:0:0:0:
508,142,110742,1,0,0:0:0:0:
508,142,110853,1,0,3:0:0:0:
508,142,110964,1,0,1:0:0:0:
339,267,111186,1,0,3:0:0:0:
392,51,111409,6,0,P|364:91|302:97,1,100,4|0,3:0|0:0,0:0:0:0:
339,267,111853,2,0,P|299:239|293:177,1,100,0|2,1:0|0:0,0:0:0:0:
497,27,112298,1,4,3:0:0:0:
242,126,112520,1,0,0:0:0:0:
242,126,112631,1,0,3:0:0:0:
242,126,112742,1,0,1:0:0:0:
471,196,112964,1,0,3:0:0:0:
328,274,113186,6,0,L|229:269,1,100,4|0,3:0|0:0,0:0:0:0:
151,222,113520,1,0,0:0:0:0:
151,222,113631,2,0,L|74:224,1,50,2|0,0:0|0:0,0:0:0:0:
53,317,113853,2,0,L|130:315,1,50,2|0,0:0|0:0,0:0:0:0:
177,316,114075,5,2,0:0:0:0:
229,269,114186,1,0,0:0:0:0:
244,205,114298,1,2,0:0:0:0:
217,151,114409,1,0,3:0:0:0:
168,124,114520,2,0,P|233:113|247:33,1,150,0|0,1:0|0:0,0:0:0:0:
313,131,114964,6,0,P|354:161|392:161,1,80,4|0,3:1|0:0,0:0:0:0:
479,125,115409,2,0,P|504:96|511:57,1,80,2|0,0:0|0:0,0:0:0:0:
455,213,115853,2,0,P|452:268|466:337,1,120,2|0,0:0|0:0,0:0:0:0:
398,365,116298,1,2,0:0:0:0:
224,316,116520,6,0,P|300:329|360:279,1,160,2|0,0:0|0:0,0:0:0:0:
415,191,117186,1,2,0:0:0:0:
310,190,117409,1,0,0:0:0:0:
480,274,117631,2,0,L|348:280,1,120,2|0,0:0|0:0,0:0:0:0:
307,343,118075,1,2,0:0:0:0:
212,241,118298,6,0,L|206:169,1,40,2|0,0:0|0:0,0:0:0:0:
265,119,118520,2,0,L|273:27,1,80,2|0,0:0|0:0,0:0:0:0:
371,188,118964,2,0,L|363:96,1,80,2|0,0:0|0:0,0:0:0:0:
174,138,119409,2,0,L|184:18,1,120,2|0,0:0|0:0,0:0:0:0:
272,39,119853,1,2,0:0:0:0:
87,102,120075,6,0,P|67:100|48:92,1,40,2|0,0:0|0:0,0:0:0:0:
102,178,120298,2,0,P|119:210|112:308,1,120,2|0,0:0|0:0,0:0:0:0:
118,292,120742,2,0,P|170:239|184:167,1,150,2|0,0:0|0:0,0:0:0:0:
184,167,121186,2,0,P|243:236|239:327,1,187.5,2|0,0:0|0:0,0:0:0:0:
350,168,121631,2,0,P|343:259|222:328,1,225.000008583069,0|0,1:0|0:0,0:0:0:0:
31,289,122075,6,0,P|96:256|170:268,1,150,0|0,3:0|0:0,0:0:0:0:
235,206,122519,2,0,P|190:222|170:266,1,100,0|2,1:0|0:0,0:0:0:0:
239,377,122964,1,0,3:0:0:0:
110,336,123186,1,0,0:0:0:0:
110,336,123297,1,0,3:0:0:0:
110,336,123408,1,0,1:0:0:0:
242,277,123631,1,0,3:0:0:0:
126,180,123853,6,0,L|121:80,1,100,0|0,3:0|0:0,0:0:0:0:
200,29,124186,1,0,0:0:0:0:
200,29,124297,2,0,L|204:128,1,100,0|2,1:0|0:0,0:0:0:0:
256,259,124742,2,0,P|281:217|327:200,1,100,0|0,3:0|0:0,0:0:0:0:
332,279,125075,1,0,3:0:0:0:
332,279,125186,1,0,1:0:0:0:
203,204,125408,1,2,3:2:0:0:
315,95,125631,6,0,P|387:109|427:171,1,150,0|0,3:0|0:0,0:0:0:0:
420,259,126075,1,0,1:0:0:0:
289,187,126297,1,2,0:0:0:0:
289,357,126519,1,0,3:0:0:0:
148,263,126742,1,0,0:0:0:0:
148,263,126853,1,0,3:0:0:0:
148,263,126964,2,0,L|30:256,1,100,0|0,1:0|3:0,0:0:0:0:
139,344,127409,6,0,P|268:315|147:262,1,350,4|0,3:0|0:0,0:0:0:0:
21,294,128298,6,0,P|49:300|78:298,1,58.3333338896433,2|0,0:0|0:0,0:0:0:0:
146,262,128446,2,0,P|168:239|180:211,1,50.0000019073487,2|0,0:0|0:0,0:0:0:0:
191,147,128594,2,0,P|181:117|165:92,1,50.0000019073487,2|0,0:0|0:0,0:0:0:0:
112,51,128742,1,0,1:0:0:0:
280,185,128964,2,0,L|304:183,3,25,0|0|0|0,3:0|3:0|3:0|3:0,0:0:0:0:
447,128,129186,6,0,L|347:118,1,100,4|0,3:2|0:0,0:0:0:0:
398,282,129631,2,0,L|497:272,1,100,0|2,1:0|0:0,0:0:0:0:
305,183,130075,2,0,P|312:258|307:333,1,150,4|0,3:0|3:0,0:0:0:0:
199,299,130519,2,0,P|199:323|202:348,1,50,0|0,1:0|0:0,0:0:0:0:
241,240,130742,5,0,3:0:0:0:
30,308,130964,2,0,P|91:308|145:295,1,100,4|0,3:0|0:0,0:0:0:0:
196,136,131409,2,0,P|146:127|96:128,1,100,0|2,1:0|0:0,0:0:0:0:
241,240,131853,2,0,B|295:236|295:236|331:246|331:246|416:239,1,150,4|0,3:0|3:0,0:0:0:0:
496,190,132297,2,0,L|446:185,1,50,0|0,1:0|0:0,0:0:0:0:
342,126,132519,5,0,3:0:0:0:
452,350,132742,2,0,P|466:303|456:255,1,100,4|0,3:0|0:0,0:0:0:0:
342,126,133186,2,0,P|331:174|346:221,1,100,0|2,1:0|0:0,0:0:0:0:
212,366,133631,2,0,P|265:316|338:311,1,150,4|0,3:0|3:0,0:0:0:0:
274,238,134075,2,0,P|265:215|261:191,1,50,0|0,1:0|0:0,0:0:0:0:
342,126,134297,1,0,3:0:0:0:
188,255,134519,6,0,L|39:247,1,150,4|0,3:0|0:0,0:0:0:0:
136,135,134964,6,0,B|172:185|172:185|110:181,1,125,0|0,1:0|0:0,0:0:0:0:
13,178,135297,1,0,0:0:0:0:
71,75,135409,6,0,B|59:115|59:115|38:89,1,75.0000028610231,4|0,3:0|0:0,0:0:0:0:
166,36,135631,2,0,B|144:62|144:62|132:22,1,75.0000028610231,2|0,0:0|3:0,0:0:0:0:
298,116,135853,6,0,P|255:120|215:105,1,85.0000016212464,0|0,1:0|0:0,0:0:0:0:
268,28,136075,1,0,3:0:0:0:
454,181,136298,6,0,L|451:364,1,179.999994506836,4|0,3:0|3:0,0:0:0:0:
365,314,136742,1,0,1:0:0:0:
371,133,136964,2,0,L|370:210,1,59.9999981689454,2|0,0:0|0:0,0:0:0:0:
278,159,137186,1,4,3:0:0:0:
177,336,137408,1,0,0:0:0:0:
177,336,137519,1,0,3:0:0:0:
177,336,137631,2,0,P|234:325|262:274,1,119.999996337891,0|0,1:0|3:0,0:0:0:0:
259,65,138075,6,0,P|184:126|209:221,1,194.999991073609,4|0,3:0|3:0,0:0:0:0:
344,210,138519,2,0,P|320:201|273:206,1,64.9999970245363,0|0,1:0|0:0,0:0:0:0:
303,288,138742,1,2,0:0:0:0:
388,118,138964,1,4,3:0:0:0:
210,221,139186,1,0,0:0:0:0:
210,221,139297,1,0,3:0:0:0:
210,221,139408,2,0,L|216:366,1,129.999994049073,0|0,1:0|3:0,0:0:0:0:
33,135,139853,6,0,L|41:359,1,225.000008583069,4|0,3:0|3:0,0:0:0:0:
129,355,140297,2,0,L|123:205,1,150.000005722046,0|2,1:0|0:0,0:0:0:0:
9,28,140742,1,4,3:0:0:0:
201,133,140964,1,0,0:0:0:0:
201,133,141075,1,0,3:0:0:0:
200,132,141186,2,0,P|238:137|274:129,1,75.0000028610231,0|0,1:0|0:0,0:0:0:0:
233,35,141408,1,0,3:0:0:0:
123,205,141631,6,0,P|177:232|291:219,1,150.000005722046,4|0,3:0|0:0,0:0:0:0:
353,178,141964,2,0,P|309:232|381:232,1,150.000005722046,2|0,0:0|0:0,0:0:0:0:
434,174,142297,1,0,0:0:0:0:
432,95,142519,2,0,P|432:169|437:244,1,150.000005722046,2|0,0:0|0:0,0:0:0:0:
496,324,142853,1,0,0:0:0:0:
495,323,142964,6,0,P|478:281|418:238,1,100,2|0,0:0|0:0,0:0:0:0:
327,105,143186,2,0,P|285:121|242:181,1,100,2|0,0:0|0:0,0:0:0:0:
81,303,143409,6,0,L|252:298,1,150,8|0,0:0|0:0,0:0:0:0:
278,231,143853,1,8,0:0:0:0:
509,183,144298,2,0,L|338:178,1,150,8|0,0:0|0:0,0:0:0:0:
312,111,144742,1,8,0:0:0:0:
34,235,145186,6,0,L|205:230,1,150,8|0,0:0|0:0,0:0:0:0:
231,163,145630,1,8,0:0:0:0:
462,115,146075,2,0,L|291:110,1,150,8|0,0:0|0:0,0:0:0:0:
265,43,146519,1,8,0:0:0:0:
331,356,146964,6,0,P|368:281|299:146,1,200,8|8,0:0|0:0,0:0:0:0:
209,52,147631,1,0,0:0:0:0:
239,226,147853,1,8,0:0:0:0:
316,66,148075,1,2,0:0:0:0:
159,149,148298,1,8,0:0:0:0:
335,174,148520,1,2,0:0:0:0:
134,73,148742,6,0,B|-5:82|-5:82|46:49,1,200,8|8,0:0|0:0,0:0:0:0:
95,202,149409,1,0,0:0:0:0:
28,347,149631,1,8,0:0:0:0:
182,217,149853,1,2,0:0:0:0:
249,362,150075,1,8,0:0:0:0:
81,276,150298,2,0,L|56:278,3,25,0|0|0|0,3:0|3:0|3:0|3:0,0:0:0:0:
18,211,150520,6,0,P|41:181|109:175,1,100,0|0,3:0|0:0,0:0:0:0:
242,312,150964,2,0,P|204:306|165:250,1,100,0|0,1:0|0:0,0:0:0:0:
216,66,151409,2,0,P|230:101|201:163,1,100,0|0,1:0|0:0,0:0:0:0:
146,106,151743,1,0,3:0:0:0:
146,106,151854,1,0,1:0:0:0:
326,20,152076,1,0,3:0:0:0:
335,236,152298,6,0,L|330:136,1,100,0|0,1:0|0:0,0:0:0:0:
478,31,152743,1,0,1:0:0:0:
447,187,152965,1,0,3:0:0:0:
326,20,153186,1,0,1:0:0:0:
350,183,153408,1,0,0:0:0:0:
350,183,153520,1,0,3:0:0:0:
350,182,153632,2,0,L|344:299,1,100,0|0,1:0|3:0,0:0:0:0:
209,331,154076,6,0,L|212:355,2,25,0|0|0,1:0|0:0|3:0,0:0:0:0:
106,305,154298,1,0,3:0:0:0:
106,305,154409,1,0,3:0:0:0:
106,305,154520,2,0,L|91:324,2,25,0|0|0,1:0|0:0|3:0,0:0:0:0:
41,218,154743,1,0,3:0:0:0:
41,218,154854,1,0,3:0:0:0:
41,218,154964,6,0,L|17:221,7,25,2|2|2|2|2|2|2|2,0:0|0:0|0:0|0:0|0:0|0:0|0:0|0:0,0:0:0:0:
141,180,155409,2,0,L|165:183,7,25,2|2|2|2|2|2|2|2,0:0|0:0|0:0|0:0|0:0|0:0|0:0|0:0,0:0:0:0:
50,112,155854,6,0,B|56:70|34:34|34:34|142:116|218:39|218:39|167:9|100:35,1,400,0|0,0:0|0:0,0:0:0:0:
231,142,156964,6,0,P|254:135|272:117,1,50,2|0,0:0|3:0,0:0:0:0:
313,26,157186,1,0,1:0:0:0:
360,284,157409,1,0,3:0:0:0:
360,284,157520,1,0,3:0:0:0:
360,284,157631,6,0,L|352:135,1,139.999995727539,4|0,3:2|0:0,0:0:0:0:
214,358,158075,2,0,L|206:209,1,139.999995727539,0|2,1:0|0:0,0:0:0:0:
364,280,158520,2,0,L|356:131,1,139.999995727539,4|0,3:0|0:0,0:0:0:0:
226,37,158853,1,0,3:0:0:0:
226,37,158963,2,0,P|214:80|299:85,1,139.999995727539,0|0,1:0|3:0,0:0:0:0:
19,23,159408,5,4,3:0:0:0:
164,194,159631,2,0,L|233:192,1,69.9999978637696,0|0,0:0|0:0,0:0:0:0:
308,285,159853,1,0,1:0:0:0:
96,110,160075,1,2,0:0:0:0:
149,329,160297,2,0,P|170:263|164:194,1,139.999995727539,4|0,3:0|0:0,0:0:0:0:
305,149,160631,1,0,3:0:0:0:
305,149,160742,2,0,P|243:117|161:123,1,139.999995727539,0|0,1:0|3:0,0:0:0:0:
377,315,161186,6,0,P|452:322|507:284,1,139.999995727539,4|0,3:0|0:0,0:0:0:0:
436,163,161519,1,0,0:0:0:0:
436,162,161631,2,0,P|423:189|426:230,1,69.9999978637696,0|0,1:0|0:0,0:0:0:0:
503,129,161853,2,0,P|448:86|379:106,1,139.999995727539,2|4,0:0|3:0,0:0:0:0:
300,201,162186,1,0,0:0:0:0:
300,201,162298,2,0,P|341:193|355:159,1,69.9999978637696,0|0,0:0|3:0,0:0:0:0:
298,56,162520,2,0,P|285:88|290:122,1,69.9999978637696,0|0,1:0|0:0,0:0:0:0:
384,101,162742,1,0,3:0:0:0:
218,33,162964,6,0,P|144:48|49:42,1,139.999995727539,4|0,3:0|0:0,0:0:0:0:
86,162,163297,1,0,0:0:0:0:
85,162,163409,2,0,P|49:159|-15:131,1,69.9999978637696,0|0,1:0|0:0,0:0:0:0:
153,123,163631,2,0,P|155:204|41:234,1,209.999993591309,2|0,0:0|0:0,0:0:0:0:
180,295,164075,2,0,P|151:315|117:323,1,69.9999978637696,0|0,0:0|3:0,0:0:0:0:
9,309,164297,1,0,1:0:0:0:
144,66,164519,1,0,3:0:0:0:
139,206,164631,1,0,3:0:0:0:
139,206,164686,1,0,3:0:0:0:
139,206,164742,6,0,L|145:56,1,139.999995727539,4|0,3:0|0:0,0:0:0:0:
399,30,165186,2,0,L|393:169,1,139.999995727539,0|2,1:0|0:0,0:0:0:0:
258,348,165631,2,0,L|264:198,1,139.999995727539,4|0,3:0|0:0,0:0:0:0:
397,173,165964,1,0,3:0:0:0:
397,173,166075,2,0,L|402:312,1,139.999995727539,0|0,1:0|3:0,0:0:0:0:
197,181,166519,5,4,3:0:0:0:
440,93,166742,2,0,P|408:79|373:80,1,69.9999978637696,0|0,0:0|0:0,0:0:0:0:
393,169,166964,1,0,1:0:0:0:
501,19,167186,1,2,0:0:0:0:
295,131,167408,2,0,P|269:188|300:292,1,139.999995727539,4|0,3:0|0:0,0:0:0:0:
413,315,167742,1,0,3:0:0:0:
413,315,167853,2,0,P|360:291|341:355,1,139.999995727539,0|0,1:0|3:0,0:0:0:0:
100,314,168298,6,0,P|153:290|172:354,1,139.999995727539,4|0,3:0|0:0,0:0:0:0:
31,316,168631,1,0,0:0:0:0:
31,316,168742,2,0,P|43:273|70:246,1,69.9999978637696,0|0,1:0|0:0,0:0:0:0:
152,129,168964,2,0,P|177:182|112:213,1,139.999995727539,2|4,0:0|3:0,0:0:0:0:
83,78,169297,1,0,0:0:0:0:
82,78,169408,2,0,P|108:54|141:44,1,69.9999978637696,0|0,0:0|3:0,0:0:0:0:
279,115,169631,2,0,P|245:105|220:81,1,69.9999978637696,0|0,1:0|0:0,0:0:0:0:
300,10,169853,1,0,3:0:0:0:
352,252,170075,5,8,3:0:0:0:
285,231,170186,1,8,3:0:0:0:
242,175,170297,1,8,3:0:0:0:
279,115,170408,1,8,3:0:0:0:
348,117,170519,1,0,3:0:0:0:
371,183,170631,1,0,3:0:0:0:
352,252,170742,1,0,3:0:0:0:
287,279,170853,1,0,3:0:0:0:
218,294,170964,2,0,P|194:294|171:292,5,46.6666652425131,2|2|2|2|2|2,0:0|0:0|0:0|0:0|0:0|0:0,0:0:0:0:
268,356,171408,2,0,P|342:350|421:360,1,139.999995727539,0|0,1:0|0:0,0:0:0:0:
491,251,171742,1,2,0:0:0:0:
491,251,171797,1,0,0:0:0:0:
491,251,171853,6,0,P|421:258|351:251,1,139.999995727539,4|0,3:2|0:0,0:0:0:0:
215,186,172186,1,0,0:0:0:0:
215,186,172298,2,0,P|285:193|256:253,1,139.999995727539,0|2,1:0|0:0,0:0:0:0:
32,200,172742,2,0,P|29:137|91:141,1,139.999995727539,4|0,3:0|0:0,0:0:0:0:
153,326,173075,1,0,3:0:0:0:
152,326,173186,2,0,L|146:179,1,139.999995727539,0|0,1:0|3:0,0:0:0:0:
362,41,173631,6,0,L|356:180,1,139.999995727539,4|0,3:0|0:0,0:0:0:0:
409,264,173964,1,0,0:0:0:0:
409,264,174075,1,0,1:0:0:0:
245,125,174297,1,2,0:0:0:0:
486,86,174520,2,0,L|480:225,1,139.999995727539,4|0,3:0|0:0,0:0:0:0:
346,322,174853,1,0,3:0:0:0:
346,322,174964,2,0,P|344:261|418:295,1,139.999995727539,0|0,1:0|3:0,0:0:0:0:
215,363,175408,6,0,P|195:289|227:206,1,139.999995727539,4|0,3:0|0:0,0:0:0:0:
303,148,175742,1,0,0:0:0:0:
303,148,175853,2,0,P|280:178|242:152,1,69.9999978637696,0|0,1:0|0:0,0:0:0:0:
189,37,176075,2,0,P|226:41|222:87,1,69.9999978637696,2|0,0:0|0:0,0:0:0:0:
148,193,176297,1,4,3:0:0:0:
148,193,176408,1,0,0:0:0:0:
148,193,176520,2,0,P|133:158|175:138,1,69.9999978637696,0|0,0:0|3:0,0:0:0:0:
252,171,176742,1,0,1:0:0:0:
33,218,176964,1,0,3:0:0:0:
264,321,177186,6,0,P|197:298|128:295,1,139.999995727539,4|0,3:0|0:0,0:0:0:0:
35,357,177519,1,0,0:0:0:0:
35,357,177631,2,0,P|107:350|126:285,1,139.999995727539,0|2,1:0|0:0,0:0:0:0:
35,150,177964,1,0,0:0:0:0:
35,150,178075,2,0,P|27:197|42:234,1,69.9999978637696,4|0,3:0|0:0,0:0:0:0:
105,110,178298,2,0,P|113:63|98:26,1,69.9999978637696,0|0,0:0|3:0,0:0:0:0:
35,150,178519,1,0,1:0:0:0:
188,238,178742,1,2,0:0:0:0:
117,197,178853,1,0,3:0:0:0:
117,197,178908,1,0,3:0:0:0:
117,197,178964,6,0,L|283:187,1,139.999995727539,4|0,3:0|0:0,0:0:0:0:
320,98,179297,1,0,0:0:0:0:
320,98,179408,1,0,1:0:0:0:
360,319,179631,1,2,0:0:0:0:
94,273,179853,2,0,L|260:263,1,139.999995727539,4|0,3:0|0:0,0:0:0:0:
347,353,180186,1,0,3:0:0:0:
347,353,180298,2,0,L|181:363,1,139.999995727539,0|0,1:0|3:0,0:0:0:0:
0,197,180742,6,0,L|166:187,1,139.999995727539,4|0,3:0|0:0,0:0:0:0:
234,264,181075,1,0,0:0:0:0:
234,264,181186,1,0,1:0:0:0:
157,53,181408,1,2,0:0:0:0:
350,167,181631,2,0,P|358:86|316:51,1,139.999995727539,4|0,3:0|0:0,0:0:0:0:
280,196,181964,1,0,3:0:0:0:
280,196,182075,2,0,P|346:243|397:224,1,139.999995727539,0|0,1:0|3:0,0:0:0:0:
225,140,182519,6,0,P|207:136|193:127,2,34.9999989318848,0|0|0,1:0|0:0|1:0,0:0:0:0:
137,167,182742,1,0,1:0:0:0:
137,167,182853,1,0,1:0:0:0:
137,167,182964,2,0,P|127:152|123:135,2,34.9999989318848,0|0|0,1:0|0:0|1:0,0:0:0:0:
53,125,183187,1,0,1:0:0:0:
53,125,183298,1,0,1:0:0:0:
53,125,183409,2,0,P|56:107|65:93,2,34.9999989318848,4|0|0,3:0|0:0|1:0,0:0:0:0:
22,38,183631,1,0,1:0:0:0:
22,38,183742,1,0,3:0:0:0:
22,38,183853,2,0,P|36:28|53:24,2,34.9999989318848,0|0|0,1:0|0:0|1:0,0:0:0:0:
140,51,184075,1,0,3:0:0:0:
140,51,184186,1,0,0:0:0:0:
140,51,184298,6,0,B|166:186|348:239|465:124|465:124|421:48|336:59|315:89|315:89|241:78|241:78|260:101|300:110,1,719.999978027344,0|0,1:0|1:0,0:0:0:0:
387,273,185853,2,0,P|388:287|386:302,3,29.9999990844727,2|2|2|2,0:0|0:0|0:0|0:0,0:0:0:0:
319,348,186075,6,0,P|266:302|176:299,1,150,0|0,0:0|0:0,0:0:0:0:
37,346,186964,6,0,P|63:327|74:287,1,66.6666666666667,0|0,1:0|0:0,0:0:0:0:
143,314,187112,2,0,P|143:272|120:238,1,66.6666666666667,2|0,0:0|0:0,0:0:0:0:
194,212,187261,2,0,P|161:184|72:208,2,133.333333333333,2|2|0,0:0|0:0|0:0,0:0:0:0:
348,198,187705,2,0,P|354:230|345:262,1,66.6666666666667,2|0,0:0|0:0,0:0:0:0:
398,317,187853,6,0,P|277:303|162:311,1,225.000008583069,4|0,3:0|0:0,0:0:0:0:
32,216,188298,2,0,P|143:229|255:223,1,225.000008583069,2|0,0:0|0:0,0:0:0:0:
355,131,188742,6,0,P|329:150|316:195,1,66.6666666666667,0|0,1:0|0:0,0:0:0:0:
411,252,188890,2,0,P|408:220|388:194,1,66.6666666666667,2|0,0:0|0:0,0:0:0:0:
338,249,189038,1,0,0:0:0:0:
388,193,189186,5,2,0:0:0:0:
392,118,189298,1,2,0:0:0:0:
342,61,189409,1,2,0:0:0:0:
267,54,189520,1,2,0:0:0:0:
201,97,189631,6,0,P|166:122|55:122,1,150,4|0,3:0|0:0,0:0:0:0:
2,11,190520,6,0,P|25:55|21:243,1,225.000008583069,0|0,1:0|0:0,0:0:0:0:
160,369,190964,2,0,P|147:258|185:153,1,225.000008583069,2|0,0:0|0:0,0:0:0:0:
335,63,191409,6,0,P|319:111|232:87,1,150,4|0,3:0|0:0,0:0:0:0:
403,61,191853,2,0,P|406:86|400:111,1,50,2|0,0:0|0:0,0:0:0:0:
457,180,192075,2,0,P|435:192|410:197,1,50,2|0,0:0|0:0,0:0:0:0:
391,296,192298,1,0,1:0:0:0:
367,288,192409,1,0,1:0:0:0:
346,275,192520,1,0,3:0:0:0:
90,232,192742,6,0,P|114:224|135:210,1,50,0|0,1:0|0:0,0:0:0:0:
216,268,192964,2,0,P|227:246|233:221,1,50,2|0,0:0|0:0,0:0:0:0:
190,50,193186,6,0,P|182:98|198:167,1,100,4|0,3:0|1:0,0:0:0:0:
414,272,194075,6,0,L|364:267,1,50.0000019073487,0|0,1:0|0:0,0:0:0:0:
412,200,194224,2,0,L|362:195,1,50.0000019073487,2|0,0:0|0:0,0:0:0:0:
413,132,194372,2,0,L|313:123,2,100.000003814697,2|2|0,0:0|1:2|0:0,0:0:0:0:
199,102,194816,2,0,L|269:95,1,50.0000019073487,2|0,0:0|0:0,0:0:0:0:
231,186,194964,6,0,P|123:151|128:48,1,225.000008583069,4|0,3:0|0:0,0:0:0:0:
231,186,195409,2,0,P|225:291|123:317,1,225.000008583069,0|0,1:0|0:0,0:0:0:0:
231,186,195853,6,0,P|254:157|296:139,1,66.6666666666667,0|0,1:0|0:0,0:0:0:0:
251,74,196001,2,0,P|289:66|328:88,1,66.6666666666667,2|0,0:0|0:0,0:0:0:0:
386,67,196149,2,0,L|376:151,1,66.6666666666667,2|0,0:0|0:0,0:0:0:0:
371,224,196297,5,2,0:0:0:0:
404,205,196409,1,2,0:0:0:0:
435,268,196520,1,2,0:0:0:0:
468,249,196632,1,2,0:0:0:0:
497,314,196742,5,4,3:0:0:0:
481,339,196853,1,0,1:0:0:0:
455,354,196964,1,0,1:0:0:0:
417,359,197075,1,0,1:0:0:0:
381,346,197186,1,0,1:0:0:0:
358,315,197298,1,0,1:0:0:0:
321,288,197409,1,0,1:0:0:0:
278,272,197520,1,0,1:0:0:0:
233,269,197631,1,0,1:0:0:0:
188,295,197742,1,0,1:0:0:0:
192,347,197853,1,0,1:0:0:0:
233,379,197964,1,0,1:0:0:0:
292,371,198075,1,0,1:0:0:0:
321,318,198186,1,0,1:0:0:0:
317,257,198298,1,0,1:0:0:0:
330,198,198409,1,0,1:0:0:0:
377,162,198520,6,0,P|401:154|431:156,14,37.5000014305115,2|2|2|2|2|2|2|2|2|2|2|2|2|2|2,0:0|0:0|0:0|0:0|0:0|0:0|0:0|0:0|0:0|0:0|0:0|0:0|0:0|0:0|0:0,0:0:0:0:
286,132,199409,6,0,P|262:121|227:118,2,50,0|0|4,1:0|1:0|3:0,0:0:0:0:
322,328,199853,2,0,L|323:255,1,50,0|0,1:0|0:0,0:0:0:0:
286,132,200075,2,0,L|286:181,1,50,0|0,3:0|0:0,0:0:0:0:
256,192,200298,12,4,202075,0:0:0:0:
79,88,215631,5,2,0:0:0:0:
193,199,215853,1,2,0:0:0:0:
243,47,216075,1,0,0:0:0:0:
48,160,216298,6,0,L|135:156,1,75.0000028610231,8|0,0:0|0:0,0:0:0:0:
288,123,216742,2,0,L|213:119,1,75.0000028610231,8|0,0:0|0:0,0:0:0:0:
56,168,217186,2,0,L|143:164,1,75.0000028610231,8|0,0:0|0:0,0:0:0:0:
226,23,217631,1,8,0:0:0:0:
288,200,217853,1,0,0:0:0:0:
441,85,218075,6,0,P|374:68|361:71,1,75.0000028610231,8|0,0:0|0:0,0:0:0:0:
288,200,218520,2,0,P|325:199|358:183,1,75.0000028610231,8|0,0:0|0:0,0:0:0:0:
281,56,218964,1,8,0:0:0:0:
209,188,219186,2,0,P|209:226|229:257,2,75.0000028610231,0|8|0,0:0|0:0|0:0,0:0:0:0:
131,96,219853,6,0,P|93:127|24:124,1,112.500004291535,8|0,0:0|0:0,0:0:0:0:
61,47,220298,1,8,0:0:0:0:
177,161,220520,2,0,P|215:192|284:189,1,112.500004291535,2|0,0:0|0:0,0:0:0:0:
247,112,220965,1,0,0:0:0:0:
106,218,221186,2,0,L|111:307,1,75.0000028610231,8|0,0:0|0:0,0:0:0:0:
276,192,221631,5,8,0:0:0:0:
350,339,221853,1,0,0:0:0:0:
187,311,222075,1,8,0:0:0:0:
383,265,222298,2,0,L|301:262,1,75.0000028610231,0|8,0:0|0:0,0:0:0:0:
167,144,222742,1,0,0:0:0:0:
187,311,222964,1,8,0:0:0:0:
276,192,223186,2,0,L|294:191,3,18.7500007152558,0|0|0|0,3:0|3:0|3:0|3:0,0:0:0:0:
355,149,223409,6,0,P|371:85|343:51,1,100,4|0,1:2|0:0,0:0:0:0:
157,59,223853,2,0,P|137:104|157:149,1,100,0|0,1:0|0:0,0:0:0:0:
324,261,224298,2,0,L|432:259,1,100,0|0,1:0|0:0,0:0:0:0:
371,345,224631,1,0,3:0:0:0:
371,345,224742,2,0,L|263:343,1,100,0|0,1:0|3:0,0:0:0:0:
73,316,225186,6,0,P|118:310|120:264,1,100,0|0,1:0|0:0,0:0:0:0:
20,372,225631,1,0,1:0:0:0:
203,314,225853,1,0,3:0:0:0:
20,372,226075,1,0,1:0:0:0:
62,190,226298,1,0,0:0:0:0:
62,190,226409,1,0,3:0:0:0:
62,190,226520,1,0,1:0:0:0:
203,314,226742,1,0,3:0:0:0:
291,135,226964,6,0,L|321:138,2,25,0|0|0,1:0|0:0|1:0,0:0:0:0:
208,186,227186,1,0,1:0:0:0:
208,186,227297,1,0,1:0:0:0:
208,186,227409,2,0,L|178:189,2,25,0|0|0,1:0|0:0|1:0,0:0:0:0:
305,237,227631,1,0,1:0:0:0:
305,237,227742,1,0,1:0:0:0:
305,237,227853,6,0,L|329:239,7,25,2|2|2|2|2|2|2|2,0:0|0:0|0:0|0:0|0:0|0:0|0:0|0:0,0:0:0:0:
309,308,228298,2,0,L|333:310,7,25,2|2|2|2|2|2|2|2,0:0|0:0|0:0|0:0|0:0|0:0|0:0|0:0,0:0:0:0:
401,272,228742,6,0,B|388:182|429:95|462:83|488:109|494:143|450:151|404:142|372:120|372:120|341:161|261:149,1,400,0|0,0:0|0:0,0:0:0:0:
144,34,229853,6,0,P|167:41|185:59,1,50,2|0,0:0|0:0,0:0:0:0:
125,112,230075,1,0,1:0:0:0:
287,31,230298,1,0,3:0:0:0:
287,31,230409,1,0,3:0:0:0:
287,31,230520,6,0,L|279:192,1,160,4|0,3:2|0:0,0:0:0:0:
120,370,230964,2,0,L|112:209,1,160,0|2,1:0|0:0,0:0:0:0:
287,31,231408,2,0,P|262:90|159:82,1,160,4|0,3:0|0:0,0:0:0:0:
0,75,231742,1,0,3:0:0:0:
0,75,231853,2,0,P|76:73|112:139,1,160,0|0,1:0|3:0,0:0:0:0:
3,353,232297,5,4,3:0:0:0:
172,182,232520,2,0,P|211:179|248:195,1,80,0|0,0:0|0:0,0:0:0:0:
193,284,232742,1,0,1:0:0:0:
40,135,232964,1,2,0:0:0:0:
277,105,233186,2,0,P|335:156|335:233,1,160,4|0,3:0|0:0,0:0:0:0:
165,310,233520,1,0,3:0:0:0:
165,310,233631,2,0,P|179:233|247:194,1,160,0|0,1:0|3:0,0:0:0:0:
499,334,234075,6,0,L|333:330,1,160,4|0,3:0|0:0,0:0:0:0:
165,310,234408,1,0,0:0:0:0:
165,310,234520,2,0,L|244:308,1,80,0|0,1:0|0:0,0:0:0:0:
406,238,234742,2,0,L|240:234,1,160,2|4,0:0|3:0,0:0:0:0:
72,214,235075,1,0,0:0:0:0:
72,214,235187,2,0,L|151:212,1,80,0|0,0:0|3:0,0:0:0:0:
291,160,235409,2,0,L|211:158,1,80,0|0,1:0|0:0,0:0:0:0:
109,95,235631,1,0,3:0:0:0:
196,355,235853,6,0,P|249:324|236:224,1,160,4|0,3:0|0:0,0:0:0:0:
125,191,236186,1,0,0:0:0:0:
124,191,236298,2,0,P|125:219|165:260,1,80,0|0,1:0|0:0,0:0:0:0:
46,183,236520,2,0,P|57:261|110:318,1,160,2|4,0:0|3:0,0:0:0:0:
401,318,236964,2,0,P|436:297|454:261,1,80,0|0,0:0|3:0,0:0:0:0:
357,221,237186,1,0,1:0:0:0:
111,319,237408,1,2,0:0:0:0:
179,216,237520,1,0,3:0:0:0:
179,216,237575,1,0,3:0:0:0:
179,216,237631,6,0,L|190:391,1,160,4|0,3:0|0:0,0:0:0:0:
342,191,238075,2,0,L|331:31,1,160,0|2,1:0|0:0,0:0:0:0:
266,263,238520,2,0,L|425:252,1,160,4|0,3:0|0:0,0:0:0:0:
496,98,238853,1,0,3:0:0:0:
497,99,238964,2,0,L|337:109,1,160,0|0,1:0|3:0,0:0:0:0:
256,334,239408,5,4,3:0:0:0:
175,109,239631,2,0,L|261:113,1,80,0|0,0:0|0:0,0:0:0:0:
210,224,239853,1,0,1:0:0:0:
85,19,240075,1,2,0:0:0:0:
0,185,240297,2,0,L|176:176,1,160,4|0,3:0|0:0,0:0:0:0:
315,111,240631,1,0,3:0:0:0:
315,111,240742,2,0,P|262:87|235:164,1,160,0|0,1:0|3:0,0:0:0:0:
228,384,241187,6,0,P|240:319|209:231,1,160,4|0,3:0|0:0,0:0:0:0:
88,149,241520,1,0,0:0:0:0:
87,149,241631,2,0,P|120:170|159:175,1,80,0|0,1:0|0:0,0:0:0:0:
204,43,241853,2,0,P|146:12|157:76,1,160,2|4,2:0|3:0,0:0:0:0:
288,142,242186,1,0,0:0:0:0:
288,142,242297,2,0,P|317:120|324:53,1,80,0|0,0:0|3:0,0:0:0:0:
366,194,242520,2,0,P|377:231|408:256,1,80,0|0,1:0|0:0,0:0:0:0:
459,176,242742,1,0,3:0:0:0:
227,284,242964,5,2,3:0:0:0:
159,307,243075,1,2,3:0:0:0:
94,275,243186,1,2,3:0:0:0:
56,223,243297,1,2,3:0:0:0:
64,159,243408,1,8,3:0:0:0:
112,130,243520,1,8,3:0:0:0:
140,178,243631,1,8,3:0:0:0:
131,233,243742,1,8,3:0:0:0:
94,275,243853,1,0,3:0:0:0:
52,298,243964,1,0,3:0:0:0:
25,337,244075,1,0,3:0:0:0:
42,373,244186,1,0,3:0:0:0:
80,384,244298,2,0,B|117:386|159:366|159:366|191:382|247:377,1,160,4|0,3:0|0:0,0:0:0:0:
260,263,244631,1,0,3:0:0:0:
260,263,244686,1,0,3:0:0:0:
259,263,244742,6,0,P|215:313|235:377,1,139.999995727539,4|0,3:2|0:0,0:0:0:0:
336,302,245075,1,0,0:0:0:0:
336,302,245186,2,0,L|325:160,1,139.999995727539,0|2,1:0|0:0,0:0:0:0:
499,20,245631,2,0,P|468:78|373:94,1,139.999995727539,4|0,3:0|0:0,0:0:0:0:
303,20,245964,1,0,3:0:0:0:
303,20,246075,2,0,P|368:40|401:100,1,139.999995727539,0|0,1:0|3:0,0:0:0:0:
259,263,246520,6,0,L|114:257,1,139.999995727539,4|0,3:0|0:0,0:0:0:0:
42,336,246853,1,0,0:0:0:0:
42,336,246964,1,0,1:0:0:0:
195,172,247186,1,2,0:0:0:0:
318,361,247409,2,0,L|173:355,1,139.999995727539,4|0,3:0|0:0,0:0:0:0:
42,336,247742,1,0,3:0:0:0:
42,336,247853,2,0,P|107:323|120:259,1,139.999995727539,0|0,1:0|3:0,0:0:0:0:
3,64,248298,6,0,P|15:128|80:141,1,139.999995727539,4|0,3:0|0:0,0:0:0:0:
199,86,248631,1,0,0:0:0:0:
199,86,248742,2,0,L|194:1,1,69.9999978637696,0|0,1:0|0:0,0:0:0:0:
273,133,248964,2,0,L|277:202,1,69.9999978637696,2|0,0:0|0:0,0:0:0:0:
359,92,249186,1,4,3:0:0:0:
359,92,249297,1,0,0:0:0:0:
359,92,249409,2,0,L|354:7,1,69.9999978637696,0|0,0:0|3:0,0:0:0:0:
489,58,249631,1,0,1:0:0:0:
273,133,249853,1,0,3:0:0:0:
459,307,250075,6,0,P|440:240|352:199,1,139.999995727539,4|0,3:0|0:0,0:0:0:0:
273,333,250408,1,0,0:0:0:0:
273,333,250520,2,0,P|322:348|369:267,1,139.999995727539,0|2,1:0|0:0,0:0:0:0:
286,169,250853,1,0,0:0:0:0:
286,169,250964,2,0,L|285:242,1,69.9999978637696,4|0,3:0|0:0,0:0:0:0:
209,139,251186,2,0,L|208:212,1,69.9999978637696,0|0,0:0|3:0,0:0:0:0:
140,120,251408,1,0,1:0:0:0:
288,309,251631,1,2,0:0:0:0:
207,348,251742,1,0,3:0:0:0:
207,348,251797,1,0,3:0:0:0:
207,348,251853,6,0,L|208:209,1,139.999995727539,4|0,3:0|0:0,0:0:0:0:
140,120,252186,1,0,0:0:0:0:
140,120,252298,1,0,1:0:0:0:
14,306,252520,1,2,0:0:0:0:
269,242,252742,2,0,P|203:208|130:219,1,139.999995727539,4|0,3:0|0:0,0:0:0:0:
243,342,253075,1,0,3:0:0:0:
243,342,253186,2,0,P|303:309|372:314,1,139.999995727539,0|0,1:0|3:0,0:0:0:0:
267,102,253631,6,0,L|269:242,1,139.999995727539,4|0,3:0|0:0,0:0:0:0:
170,292,253964,1,0,0:0:0:0:
170,292,254075,1,0,1:0:0:0:
358,171,254297,1,2,0:0:0:0:
169,47,254520,2,0,P|99:40|52:93,1,139.999995727539,4|0,3:0|0:0,0:0:0:0:
149,228,254853,1,0,3:0:0:0:
149,228,254964,2,0,P|166:163|125:108,1,139.999995727539,0|0,1:0|3:0,0:0:0:0:
246,296,255408,6,0,P|263:294|279:288,2,34.9999989318848,0|0|0,1:0|0:0|1:0,0:0:0:0:
332,351,255631,1,0,1:0:0:0:
332,351,255742,1,0,1:0:0:0:
332,351,255853,2,0,P|343:337|350:321,2,34.9999989318848,0|0|0,1:0|0:0|1:0,0:0:0:0:
427,329,256075,1,0,1:0:0:0:
427,329,256186,1,0,1:0:0:0:
427,329,256297,2,0,P|425:311|419:295,2,34.9999989318848,0|0|0,3:0|0:0|1:0,0:0:0:0:
471,246,256520,1,0,1:0:0:0:
471,246,256631,1,0,3:0:0:0:
471,246,256742,2,0,P|457:234|441:227,2,34.9999989318848,0|0|0,1:0|0:0|1:0,0:0:0:0:
453,155,256964,1,0,3:0:0:0:
453,155,257075,1,0,1:0:0:0:
453,155,257186,6,0,B|404:148|378:185|378:185|329:164|329:164|276:253|276:253|248:217|206:195|206:195|153:201|86:232|86:232|156:206|196:178|196:178|219:116|203:50|203:50|215:117|269:165,1,839.999974365235,0|0,1:0|3:0,0:0:0:0:
434,285,258742,2,0,P|418:293|402:299,3,34.9999989318848,2|2|2|2,0:0|0:0|0:0|0:0,0:0:0:0:
335,355,258964,6,0,L|204:343,1,119.999996337891,4|0,3:2|0:0,0:0:0:0:
47,276,259409,2,0,L|166:265,1,119.999996337891,0|2,1:0|0:0,0:0:0:0:
337,208,259853,2,0,L|217:197,1,119.999996337891,4|0,3:0|0:0,0:0:0:0:
154,116,260186,1,0,3:0:0:0:
154,116,260298,2,0,L|34:126,1,119.999996337891,0|0,1:0|3:0,0:0:0:0:
109,325,260742,6,0,P|121:254|98:203,1,119.999996337891,4|0,3:0|0:0,0:0:0:0:
195,272,261075,1,0,0:0:0:0:
195,272,261186,2,0,P|266:284|317:261,1,119.999996337891,0|2,1:0|0:0,0:0:0:0:
415,50,261631,1,4,3:0:0:0:
466,256,261853,1,0,0:0:0:0:
466,256,261964,1,0,3:0:0:0:
466,256,262075,1,0,1:0:0:0:
277,153,262297,1,0,3:0:0:0:
512,149,262520,6,0,L|380:151,1,119.999996337891,4|0,3:0|0:0,0:0:0:0:
338,335,262964,2,0,L|336:215,1,119.999996337891,0|2,1:0|0:0,0:0:0:0:
235,51,263408,1,4,3:0:0:0:
79,202,263631,1,0,0:0:0:0:
113,200,263742,1,0,3:0:0:0:
147,197,263853,1,0,1:0:0:0:
313,102,264075,1,0,3:0:0:0:
241,322,264298,6,0,P|250:256|243:203,1,119.999996337891,4|0,3:0|0:0,0:0:0:0:
201,21,264742,2,0,P|192:87|199:140,1,119.999996337891,0|2,1:0|0:0,0:0:0:0:
358,245,265186,1,4,3:0:0:0:
171,209,265408,1,0,0:0:0:0:
171,209,265520,1,0,3:0:0:0:
171,209,265631,1,0,1:0:0:0:
340,74,265853,1,0,3:0:0:0:
290,308,266075,6,0,P|266:268|279:198,1,119.999996337891,4|0,3:0|0:0,0:0:0:0:
187,30,266520,2,0,P|211:70|198:140,1,119.999996337891,0|2,1:0|0:0,0:0:0:0:
36,241,266964,2,0,P|66:207|151:181,1,119.999996337891,4|0,3:0|0:0,0:0:0:0:
217,278,267297,1,0,3:0:0:0:
217,278,267409,2,0,P|176:253|107:266,1,119.999996337891,0|0,1:0|3:0,0:0:0:0:
298,337,267853,6,0,P|338:312|408:325,1,119.999996337891,4|0,3:0|0:0,0:0:0:0:
508,375,268186,1,0,0:0:0:0:
508,375,268298,2,0,P|466:333|463:274,1,119.999996337891,0|2,1:0|0:0,0:0:0:0:
503,63,268742,1,4,3:0:0:0:
325,155,268964,1,0,0:0:0:0:
325,155,269075,1,0,3:0:0:0:
325,155,269186,1,0,1:0:0:0:
507,212,269408,1,0,3:0:0:0:
372,43,269631,6,0,P|355:36|333:37,2,29.9999990844727,0|0|0,1:0|0:0|1:0,0:0:0:0:
440,109,269854,1,0,1:0:0:0:
440,109,269965,1,0,1:0:0:0:
440,109,270075,2,0,P|456:102|479:103,2,29.9999990844727,0|0|0,1:0|0:0|1:0,0:0:0:0:
377,164,270298,1,0,1:0:0:0:
377,164,270409,1,0,1:0:0:0:
377,164,270520,2,0,P|360:157|338:158,2,29.9999990844727,0|0|0,1:0|0:0|1:0,0:0:0:0:
440,234,270742,1,0,1:0:0:0:
440,234,270854,1,0,1:0:0:0:
440,234,270964,2,0,P|456:227|479:228,2,29.9999990844727,0|0|0,1:0|0:0|1:0,0:0:0:0:
370,278,271187,1,0,1:0:0:0:
370,278,271298,1,0,1:0:0:0:
370,278,271409,6,0,B|299:257|246:287|246:287|285:150|204:58|204:58|128:123|121:222|175:333|175:333|158:318|119:313,1,719.999978027344,8|0,0:0|1:0,0:0:0:0:
315,371,272964,1,0,3:0:0:0:
41,366,273186,6,0,P|85:347|93:282,1,100,0|0,3:0|0:0,0:0:0:0:
215,241,273631,2,0,P|196:196|130:189,1,100,2|0,0:0|0:0,0:0:0:0:
88,67,274075,2,0,P|43:86|36:151,1,100,2|0,0:0|0:0,0:0:0:0:
151,182,274520,1,2,0:0:0:0:
282,68,274742,2,0,B|183:107|183:30|84:68,1,200,2|0,0:0|0:0,0:0:0:0:
233,8,275408,1,2,0:0:0:0:
137,129,275630,1,0,0:0:0:0:
275,167,275853,2,0,L|282:68,1,100,2|0,0:0|0:0,0:0:0:0:
163,123,276298,1,2,0:0:0:0:
284,235,276520,6,0,L|493:231,1,200,2|0,0:0|0:0,0:0:0:0:
448,75,277186,2,0,L|348:76,1,100,2|0,0:0|0:0,0:0:0:0:
244,169,277630,1,2,0:0:0:0:
155,60,277852,1,0,0:0:0:0:
24,154,278075,2,0,P|76:142|143:146,1,100,2|2,0:0|0:0,0:0:0:0:
314,205,278520,6,0,P|265:193|216:194,1,100,2|0,0:0|0:0,0:0:0:0:
119,336,278963,2,0,P|128:286|123:237,1,100,2|0,0:0|0:0,0:0:0:0:
22,139,279408,1,2,0:0:0:0:
158,168,279630,1,0,0:0:0:0:
32,230,279852,1,2,0:0:0:0:
100,107,280074,1,2,0:0:0:0:
224,239,280297,6,0,P|269:240|331:236,1,100,2|0,0:0|0:0,0:0:0:0:
480,168,280742,2,0,P|430:164|380:165,1,100,2|0,0:0|0:0,0:0:0:0:
232,247,281186,2,0,P|277:248|339:244,1,100,2|0,0:0|0:0,0:0:0:0:
472,160,281630,1,2,0:0:0:0:
416,299,281852,1,2,0:0:0:0:
304,170,282075,6,0,L|306:49,1,100,2|0,0:0|0:0,0:0:0:0:
137,18,282519,2,0,P|141:50|216:80,1,100,2|0,0:0|0:0,0:0:0:0:
154,219,282964,2,0,P|186:215|216:140,1,100,2|0,0:0|0:0,0:0:0:0:
103,84,283408,1,2,0:0:0:0:
73,235,283630,1,2,0:0:0:0:
221,161,283853,6,0,L|10:157,1,200,2|0,0:0|0:0,0:0:0:0:
140,83,284520,1,0,0:0:0:0:
225,242,284742,2,0,L|436:238,1,200,2|0,0:0|0:0,0:0:0:0:
305,163,285410,1,0,0:0:0:0:
394,317,285630,5,2,0:0:0:0:
425,157,285852,1,0,0:0:0:0:
290,243,286075,2,0,L|190:241,1,100,2|0,0:0|0:0,0:0:0:0:
48,166,286519,1,2,0:0:0:0:
116,310,286741,1,0,0:0:0:0:
143,152,286963,1,2,0:0:0:0:
29,264,287185,1,2,0:0:0:0:
277,219,287409,5,0,3:0:0:0:
256,192,287520,12,0,292298,0:0:0:0:
