osu file format v14

[General]
AudioFilename: eliminate anthem.mp3
AudioLeadIn: 0
PreviewTime: 102578
Countdown: 0
SampleSet: Soft
StackLeniency: 0.3
Mode: 0
LetterboxInBreaks: 0
WidescreenStoryboard: 0

[Editor]
DistanceSpacing: 1.4
BeatDivisor: 4
GridSize: 32
TimelineZoom: 2.1

[Metadata]
Title:eliminate anthem
TitleUnicode:eliminate anthem
Artist:Halozy
ArtistUnicode:Halozy
Creator:Lasse
Version:Demarcation
Source:東方Project
Tags:Sumijun Hotaru Rumia Touhou Ultimate Synthesis c78 Embodiment of Scarlet Devil marathon Apparitions Stalk the Night th6
BeatmapID:923985
BeatmapSetID:428052

[Difficulty]
HPDrainRate:6
CircleSize:5
OverallDifficulty:9
ApproachRate:9
SliderMultiplier:1.76
SliderTickRate:1

[Events]
//Background and Video events
0,0,"bg.jpg",0,0
//Break Periods
//Storyboard Layer 0 (Background)
//Storyboard Layer 1 (Fail)
//Storyboard Layer 2 (Pass)
//Storyboard Layer 3 (Foreground)
//Storyboard Sound Samples

[TimingPoints]
528,400,4,2,13,50,1,0
528,-200,4,2,13,50,0,0
1828,-200,4,2,22,40,0,0
2428,-200,4,2,22,10,0,0
2528,-200,4,2,22,40,0,0
4028,-200,4,2,22,10,0,0
4128,-200,4,2,22,40,0,0
5628,-200,4,2,22,10,0,0
5728,-200,4,2,22,40,0,0
6728,-200,4,2,22,10,0,0
6928,-200,4,2,13,50,0,0
8228,-200,4,2,22,40,0,0
8828,-200,4,2,22,10,0,0
8928,-200,4,2,22,40,0,0
10428,-200,4,2,22,10,0,0
10528,-200,4,2,22,40,0,0
13128,-200,4,2,22,10,0,0
13328,-200,4,2,13,50,0,0
14628,-200,4,2,22,40,0,0
15228,-200,4,2,22,10,0,0
15328,-200,4,2,22,40,0,0
16828,-200,4,2,22,10,0,0
16928,-200,4,2,22,40,0,0
18428,-200,4,2,22,10,0,0
18528,-200,4,2,22,40,0,0
19528,-200,4,2,22,10,0,0
19728,-200,4,2,13,50,0,0
21028,-200,4,2,22,40,0,0
21628,-200,4,2,22,10,0,0
21728,-200,4,2,22,40,0,0
23228,-200,4,2,22,10,0,0
23328,-200,4,2,22,40,0,0
25928,-200,4,2,22,10,0,0
26128,-200,4,2,13,50,0,0
27428,-200,4,2,22,40,0,0
28028,-200,4,2,22,10,0,0
28128,-200,4,2,22,40,0,0
29628,-200,4,2,22,10,0,0
29728,-200,4,2,22,40,0,0
31228,-200,4,2,22,10,0,0
31328,-200,4,2,22,40,0,0
32328,-200,4,2,22,10,0,0
32528,-200,4,2,13,50,0,0
33828,-200,4,2,22,40,0,0
34428,-200,4,2,22,10,0,0
34528,-200,4,2,22,40,0,0
36028,-200,4,2,22,10,0,0
36128,-200,4,2,0,15,0,0
36328,-200,4,2,0,20,0,0
36528,-200,4,2,0,25,0,0
36728,-200,4,2,0,30,0,0
36928,-200,4,2,0,35,0,0
37128,-200,4,2,0,40,0,0
37328,-200,4,2,0,45,0,0
37528,-200,4,2,0,50,0,0
37728,-200,4,2,0,55,0,0
37928,-153.846153846154,4,2,22,10,0,0
38128,-153.846153846154,4,2,14,60,0,0
39328,400,4,2,14,71,1,1
39328,-90.9090909090909,4,2,14,71,0,1
39428,-90.9090909090909,4,2,14,66,0,0
42528,-90.9090909090909,4,2,14,62,0,0
43328,-90.9090909090909,4,2,14,57,0,0
43928,-90.9090909090909,4,2,14,54,0,0
44528,-90.9090909090909,4,2,14,50,0,0
45728,-90.9090909090909,4,2,14,54,0,0
46328,-90.9090909090909,4,2,14,56,0,0
47128,-90.9090909090909,4,2,14,58,0,0
47728,-90.9090909090909,4,2,14,60,0,0
48528,-90.9090909090909,4,2,14,63,0,0
48928,-90.9090909090909,4,2,14,65,0,0
50528,-90.9090909090909,4,2,14,68,0,0
50928,-90.9090909090909,4,2,14,71,0,0
51328,-90.9090909090909,4,2,14,76,0,0
51728,-90.9090909090909,4,2,14,81,0,0
52128,-90.9090909090909,4,2,14,81,0,1
52228,-90.9090909090909,4,2,14,66,0,0
64928,-111.111111111111,4,2,15,56,0,0
90528,-100,4,2,15,66,0,1
90628,-100,4,2,15,66,0,0
100128,-90.9090909090909,4,2,15,71,0,0
101728,-90.9090909090909,4,2,15,76,0,0
102728,-200,4,2,15,56,0,0
102828,-200,4,2,15,20,0,0
103328,-83.3333333333333,4,2,14,76,0,1
115728,-83.3333333333333,4,2,14,76,0,0
116128,-83.3333333333333,4,2,14,76,0,1
127228,-83.3333333333333,4,2,14,76,0,0
127328,-83.3333333333333,4,2,14,76,0,1
128728,-83.3333333333333,4,2,14,76,0,0
128928,-90.9090909090909,4,2,14,66,0,1
129028,-90.9090909090909,4,2,14,66,0,0
141728,-111.111111111111,4,2,15,56,0,0
151328,-111.111111111111,4,2,15,57,0,0
151428,-111.111111111111,4,2,15,58,0,0
151528,-111.111111111111,4,2,15,59,0,0
151628,-111.111111111111,4,2,15,60,0,0
151728,-111.111111111111,4,2,15,61,0,0
151828,-111.111111111111,4,2,15,62,0,0
151928,-111.111111111111,4,2,15,63,0,0
152028,-111.111111111111,4,2,15,64,0,0
152128,-111.111111111111,4,2,15,65,0,0
152228,-111.111111111111,4,2,15,66,0,0
152328,-111.111111111111,4,2,15,67,0,0
152428,-111.111111111111,4,2,15,68,0,0
152528,-111.111111111111,4,2,15,69,0,0
152728,-111.111111111111,4,2,15,70,0,0
152928,-111.111111111111,4,2,15,71,0,0
153028,-111.111111111111,4,2,15,56,0,0
154528,-100,4,2,15,66,0,1
154628,-100,4,2,15,66,0,0
164128,-90.9090909090909,4,2,15,71,0,0
165728,-90.9090909090909,4,2,15,76,0,0
166728,-200,4,2,15,56,0,0
166828,-200,4,2,15,20,0,0
167328,-83.3333333333333,4,2,14,81,0,1
179728,-83.3333333333333,4,2,14,81,0,0
180128,-83.3333333333333,4,2,14,81,0,1
191228,-83.3333333333333,4,2,14,81,0,0
191328,-83.3333333333333,4,2,14,81,0,1
192928,-200,4,2,13,40,0,0
193028,-200,4,2,22,40,0,0
194428,-200,4,2,22,10,0,0
194528,-200,4,2,22,40,0,0
196028,-200,4,2,22,10,0,0
196128,-200,4,2,22,40,0,0
197628,-200,4,2,22,10,0,0
197728,-200,4,2,22,40,0,0
198729,-200,4,2,22,10,0,0
198928,-200,4,2,13,50,0,0
200228,-200,4,2,22,40,0,0
200828,-200,4,2,22,10,0,0
200928,-200,4,2,22,40,0,0
202428,-200,4,2,22,10,0,0
202528,-200,4,2,22,40,0,0
205128,-200,4,2,22,10,0,0
205328,-200,4,2,13,50,0,0
206628,-200,4,2,22,40,0,0
207228,-200,4,2,22,10,0,0
207328,-200,4,2,22,40,0,0
208828,-200,4,2,22,10,0,0
208928,-200,4,2,22,40,0,0
210428,-200,4,2,22,10,0,0
210528,-200,4,2,22,40,0,0
211528,-200,4,2,22,10,0,0
211728,-200,4,2,13,50,0,0
213028,-200,4,2,22,40,0,0
213628,-200,4,2,22,10,0,0
213728,-200,4,2,22,40,0,0
215228,-200,4,2,22,10,0,0
215328,-200,4,2,22,40,0,0
217928,-200,4,2,22,10,0,0
218128,-200,4,2,13,50,0,0
219428,-200,4,2,22,40,0,0
220028,-200,4,2,22,10,0,0
220128,-200,4,2,22,40,0,0
221628,-200,4,2,22,10,0,0
221728,-200,4,2,22,40,0,0
223228,-200,4,2,22,10,0,0
223328,-200,4,2,22,40,0,0
224328,-200,4,2,22,10,0,0
224528,-200,4,2,13,50,0,0
224928,-142.857142857143,4,2,14,40,0,0
225728,-142.857142857143,4,2,14,45,0,0
226528,-142.857142857143,4,2,14,50,0,0
227328,-142.857142857143,4,2,14,55,0,0
228128,-142.857142857143,4,2,14,60,0,0
228928,-142.857142857143,4,2,14,65,0,0
229728,-100,4,2,14,70,0,0
230528,-100,4,2,14,75,0,0
230728,-153.846153846154,4,2,15,56,0,0
230828,-133.333333333333,4,2,15,20,0,0
231328,-90.9090909090909,4,2,14,76,0,1
231428,-90.9090909090909,4,2,16,71,0,0
243728,-90.9090909090909,4,2,16,71,0,0
244128,-90.9090909090909,4,2,14,51,0,1
244228,-90.9090909090909,4,2,14,51,0,0
247328,-90.9090909090909,4,2,14,56,0,0
250528,-90.9090909090909,4,2,14,61,0,0
252128,-90.9090909090909,4,2,14,66,0,0
253728,-90.9090909090909,4,2,14,71,0,0
254928,-90.9090909090909,4,2,14,76,0,1
255328,-90.9090909090909,4,2,14,78,0,1
255728,-90.9090909090909,4,2,14,80,0,1
256128,-90.9090909090909,4,2,14,82,0,1
256328,-200,4,2,14,56,0,0
256428,-200,4,2,14,20,0,0
256928,-83.3333333333333,4,2,14,81,0,1
269328,-83.3333333333333,4,2,14,81,0,0
269728,-83.3333333333333,4,2,14,81,0,1
280828,-83.3333333333333,4,2,14,81,0,0
280928,-83.3333333333333,4,2,14,81,0,1
282328,-83.3333333333333,4,2,14,81,0,0
282528,-90.9090909090909,4,2,14,71,0,1
282628,-90.9090909090909,4,2,14,71,0,0
295328,-100,4,2,14,66,0,0
298528,-111.111111111111,4,2,14,63,0,0
301728,-125,4,2,14,60,0,0
304928,-142.857142857143,4,2,14,57,0,0
306328,-142.857142857143,4,2,14,65,0,0
306428,-142.857142857143,4,2,14,45,0,0
307128,-142.857142857143,4,2,14,60,0,0
307228,-142.857142857143,4,2,14,45,0,0
307728,-142.857142857143,4,2,14,50,0,0
307828,-142.857142857143,4,2,14,55,0,0
307928,-142.857142857143,4,2,14,60,0,0
308028,-142.857142857143,4,2,14,65,0,0
308128,-142.857142857143,4,2,14,70,0,1
308228,-142.857142857143,4,2,14,40,0,0
308928,-142.857142857143,4,2,14,35,0,0
309728,-142.857142857143,4,2,14,30,0,0
310528,-142.857142857143,4,2,14,25,0,0
311328,-142.857142857143,4,2,14,20,0,0
312128,-142.857142857143,4,2,14,15,0,0
312928,-142.857142857143,4,2,14,10,0,0

[Colours]
Combo1 : 169,129,218
Combo2 : 235,71,113
Combo3 : 108,130,217
Combo4 : 253,210,113

[HitObjects]
74,68,528,5,0,0:0:0:0:
56,150,728,1,0,0:0:0:0:
165,129,928,1,0,0:0:0:0:
182,47,1128,1,0,0:0:0:0:
273,110,1328,1,0,0:0:0:0:
264,151,1428,1,0,0:0:0:0:
256,192,1528,1,0,0:0:0:0:
147,211,1728,6,0,P|183:277|264:303,1,154,2|0,0:0|0:0,0:0:0:0:
290,370,2528,2,0,P|132:330|77:181,1,330
86,107,4128,2,0,B|135:69|200:84|200:84|233:203|357:188,1,330
419,143,5728,2,0,B|442:187|424:227|424:227|443:258|443:258|426:282|433:315|433:315|419:283|406:273,1,220
332,272,6928,5,0,0:0:0:0:
310,282,7128,1,0,0:0:0:0:
234,259,7328,1,0,0:0:0:0:
212,269,7528,1,0,0:0:0:0:
136,246,7728,1,0,0:0:0:0:
125,251,7828,1,0,0:0:0:0:
114,256,7928,1,0,0:0:0:0:
38,233,8128,6,0,B|14:244|14:244|15:329|87:350,1,154,2|0,0:0|0:0,0:0:0:0:
148,343,8928,2,0,B|190:340|227:360|227:360|287:333|346:367|346:367|424:373|453:301,1,330,0|0,0:0|0:0,0:0:0:0:
469,242,10528,2,0,B|484:185|476:133|476:133|453:198|353:201|332:134|332:134|299:167|297:218|297:218|264:156|180:160|152:220,1,572,0|0,0:0|0:0,0:0:0:0:
160,301,13328,5,0,0:0:0:0:
225,254,13528,1,0,0:0:0:0:
152,380,13728,1,0,0:0:0:0:
88,329,13928,1,0,0:0:0:0:
151,220,14128,1,0,0:0:0:0:
155,261,14228,1,0,0:0:0:0:
160,301,14328,1,0,0:0:0:0:
11,298,14528,6,0,B|14:192|14:192|23:218|44:238,1,154,2|0,0:0|0:0,0:0:0:0:
90,176,15328,2,0,P|107:130|359:117,1,330,0|0,0:0|0:0,0:0:0:0:
306,165,16928,2,0,P|170:163|236:282,1,330,0|0,0:0|0:0,0:0:0:0:
316,273,18528,2,0,B|353:247|396:268|396:268|408:221|443:209|443:209|432:235|443:263,1,220
382,340,19728,5,0,0:0:0:0:
360,333,19928,1,0,0:0:0:0:
262,326,20128,1,0,0:0:0:0:
240,319,20328,1,0,0:0:0:0:
142,312,20528,1,0,0:0:0:0:
131,308,20628,1,0,0:0:0:0:
120,305,20728,1,0,0:0:0:0:
19,306,20928,6,0,B|26:280|18:263|18:263|44:247|53:219|53:219|80:226|107:207,1,154,2|0,0:0|0:0,0:0:0:0:
146,149,21728,2,0,B|175:126|217:138|237:169|229:206|229:206|277:187|317:216|317:216|371:187|420:231,1,330
359,277,23328,2,0,B|312:302|267:270|267:270|212:291|173:252|173:252|167:292|136:314|136:314|184:361|257:348|257:348|348:383|422:321,1,572,0|0,0:0|0:0,0:0:0:0:
429,216,26128,5,0,0:0:0:0:
396,139,26328,1,0,0:0:0:0:
318,213,26528,1,0,0:0:0:0:
285,136,26728,1,0,0:0:0:0:
207,210,26928,1,0,0:0:0:0:
189,172,27028,1,0,0:0:0:0:
174,133,27128,1,0,0:0:0:0:
96,207,27328,6,0,B|60:146|60:146|12:132|0:77,1,154,2|0,0:0|0:0,0:0:0:0:
84,66,28128,2,0,B|131:58|166:77|166:77|234:67|234:67|311:146|401:80,1,330,0|0,0:0|0:0,0:0:0:0:
451,39,29728,2,0,B|463:24|483:14|483:14|452:77|483:124|483:124|459:143|459:143|502:172|500:240|461:265,1,330,0|0,0:0|0:0,0:0:0:0:
417,205,31328,2,0,B|376:181|333:200|333:200|310:185|310:185|283:197|250:192|250:192|285:228,1,220,0|0,0:0|0:0,0:0:0:0:
359,295,32528,5,0,0:0:0:0:
371,266,32728,1,0,0:0:0:0:
477,268,32928,1,0,0:0:0:0:
489,297,33128,1,0,0:0:0:0:
421,379,33328,1,0,0:0:0:0:
405,379,33428,1,0,0:0:0:0:
389,378,33528,1,0,0:0:0:0:
291,335,33728,6,0,B|254:329|209:343|209:343|161:332|143:288,1,154,2|0,0:0|0:0,0:0:0:0:
149,229,34528,2,0,B|172:168|239:174|239:174|293:205|344:182|344:182|405:218|457:169,1,330
256,192,36128,12,0,37928,0:0:0:0:
255,102,38128,21,8,3:1:0:0:
354,252,38428,1,0,1:0:0:0:
354,252,38528,1,8,3:3:0:0:
233,247,38728,1,4,1:3:0:0:
233,247,38828,1,0,1:0:0:0:
233,247,38928,5,10,3:3:0:0:
246,228,39028,1,0,3:0:0:0:
261,210,39128,1,8,3:0:0:0:
276,193,39228,1,0,3:0:0:0:
290,175,39328,6,0,B|317:146|317:146|401:154,1,96.8000029541017,10|0,3:1|0:0,0:0:0:0:
416,163,39628,1,0,0:0:0:0:
416,163,39728,2,0,L|475:163,1,48.4000014770508,8|0,0:0|0:0,0:0:0:0:
365,23,39928,2,0,L|255:13,1,96.8000029541017,0|0,0:0|0:0,0:0:0:0:
116,48,40328,1,0,0:0:0:0:
250,159,40528,1,8,0:0:0:0:
79,232,40728,6,0,P|45:194|26:146,1,96.8000029541017,2|0,0:0|0:0,0:0:0:0:
37,117,41028,1,0,0:0:0:0:
37,117,41128,2,0,L|37:49,1,48.4000014770508,0|0,0:0|0:0,0:0:0:0:
159,114,41328,1,8,0:0:0:0:
167,151,41428,1,0,0:0:0:0:
180,187,41528,2,0,P|205:231|245:263,1,96.8000029541017,0|0,0:0|0:0,0:0:0:0:
275,275,41828,1,0,0:0:0:0:
275,275,41928,2,0,L|308:335,1,48.4000014770508,0|0,0:0|0:0,0:0:0:0:
427,217,42128,1,8,0:0:0:0:
338,115,42328,1,0,0:0:0:0:
312,144,42428,1,0,0:0:0:0:
284,171,42528,6,0,P|249:138|227:66,1,96.8000029541017,2|0,0:0|0:0,0:0:0:0:
236,59,42828,1,0,0:0:0:0:
236,59,42928,1,8,0:0:0:0:
367,23,43128,1,0,0:0:0:0:
396,47,43228,1,0,0:0:0:0:
421,75,43328,2,0,P|439:118|429:193,1,96.8000029541017
385,332,43728,1,8,0:0:0:0:
270,187,43928,6,0,B|218:193|218:193|161:224,1,96.8000029541017,2|0,0:0|0:0,0:0:0:0:
158,248,44228,1,0,0:0:0:0:
158,248,44328,2,0,L|140:301,1,48.4000014770508
29,225,44528,2,0,L|47:172,1,48.4000014770508,8|0,0:0|0:0,0:0:0:0:
97,94,44728,1,0,0:0:0:0:
131,77,44828,1,0,0:0:0:0:
244,121,45028,1,0,0:0:0:0:
278,104,45128,1,0,0:0:0:0:
265,224,45328,1,8,0:0:0:0:
299,241,45428,1,0,0:0:0:0:
337,243,45528,1,0,0:0:0:0:
374,232,45628,1,0,0:0:0:0:
404,207,45728,6,0,B|424:158|424:158|426:111,1,96.8000029541017,2|0,3:2|0:0,0:0:0:0:
427,79,46028,1,0,0:0:0:0:
427,79,46128,2,0,L|423:21,1,48.4000014770508,8|0,0:0|0:0,0:0:0:0:
278,104,46328,2,0,L|168:94,1,96.8000029541017
51,179,46728,1,0,0:0:0:0:
87,28,46928,1,8,0:0:0:0:
174,190,47128,6,0,L|177:306,1,96.8000029541017,2|0,0:0|0:0,0:0:0:0:
201,324,47428,1,0,0:0:0:0:
201,324,47528,2,0,L|201:392,1,48.4000014770508
323,283,47728,1,8,0:0:0:0:
321,244,47828,1,0,0:0:0:0:
319,205,47928,2,0,L|322:89,1,96.8000029541017,0|0,0:0|0:0,0:0:0:0:
346,71,48228,1,0,0:0:0:0:
346,71,48328,2,0,L|346:3,1,48.4000014770508
221,112,48528,1,8,0:0:0:0:
147,24,48728,1,0,0:0:0:0:
126,56,48828,1,0,0:0:0:0:
106,89,48928,6,0,L|52:89,2,48.4000014770508,2|0|0,1:2|1:0|1:2,0:0:0:0:
147,203,49228,1,0,0:0:0:0:
147,203,49328,2,0,L|107:238,1,48.4000014770508,0|0,1:0|0:0,0:0:0:0:
228,120,49528,1,0,1:2:0:0:
228,120,49628,1,0,0:0:0:0:
228,120,49728,2,0,L|268:85,1,48.4000014770508,0|0,1:0|0:0,0:0:0:0:
250,264,49928,2,0,L|210:299,1,48.4000014770508,0|0,1:2|0:0,0:0:0:0:
353,161,50128,2,0,L|393:126,1,48.4000014770508,0|0,1:0|0:0,0:0:0:0:
375,328,50328,2,0,L|335:363,1,48.4000014770508,0|0,1:2|0:0,0:0:0:0:
460,197,50528,5,8,1:0:0:0:
468,174,50628,1,0,1:0:0:0:
472,150,50728,1,0,1:2:0:0:
471,125,50828,1,0,1:0:0:0:
465,101,50928,5,4,3:0:0:0:
446,66,51028,1,0,1:0:0:0:
418,38,51128,1,0,3:2:0:0:
383,20,51228,1,0,1:0:0:0:
344,13,51328,5,8,3:0:0:0:
288,28,51428,1,0,3:0:0:0:
242,63,51528,1,0,3:2:0:0:
218,116,51628,1,0,3:0:0:0:
221,174,51728,6,0,P|245:221|265:235,1,48.4000014770508,14|2,3:3|3:0,0:0:0:0:
405,139,51928,2,0,P|381:92|361:78,1,48.4000014770508,10|2,3:0|3:0,0:0:0:0:
374,301,52128,6,0,P|425:314|474:287,1,96.8000029541017,10|0,0:1|0:0,0:0:0:0:
487,267,52428,1,0,0:0:0:0:
487,267,52528,2,0,P|489:235|486:213,1,48.4000014770508,0|0,3:0|0:0,0:0:0:0:
384,95,52728,2,0,P|333:82|284:109,1,96.8000029541017,0|0,0:0|3:0,0:0:0:0:
281,272,53128,1,0,0:0:0:0:
420,169,53328,1,0,3:0:0:0:
229,183,53528,6,0,B|198:148|198:148|193:75,1,96.8000029541017,2|0,0:0|3:0,0:0:0:0:
195,63,53828,1,0,0:0:0:0:
195,63,53928,2,0,L|195:-5,1,48.4000014770508
37,36,54128,1,0,3:0:0:0:
37,74,54228,1,0,0:0:0:0:
23,110,54328,2,0,B|22:147|22:147|31:172|31:172|29:234,1,96.8000029541017,0|0,0:0|3:0,0:0:0:0:
8,238,54628,1,0,0:0:0:0:
8,238,54728,2,0,L|7:290,1,48.4000014770508,0|0,0:0|0:0,0:0:0:0:
131,333,54928,2,0,P|174:326|246:351,1,96.8000029541017,8|0,3:3|0:0,0:0:0:0:
360,186,55328,6,0,P|317:193|245:168,1,96.8000029541017,2|0,3:2|0:0,0:0:0:0:
240,159,55628,1,0,0:0:0:0:
240,159,55728,2,0,L|165:159,1,48.4000014770508,0|0,3:0|0:0,0:0:0:0:
323,38,55928,1,0,0:0:0:0:
472,79,56128,1,0,3:0:0:0:
360,186,56328,1,0,0:0:0:0:
402,37,56528,1,0,3:0:0:0:
483,211,56728,6,0,B|437:224|437:224|386:218,1,96.8000029541017,2|0,0:0|3:0,0:0:0:0:
364,189,57028,1,0,0:0:0:0:
364,189,57128,2,0,P|360:161|363:138,1,48.4000014770508,0|0,0:0|0:0,0:0:0:0:
472,79,57328,2,0,P|476:107|473:130,1,48.4000014770508,0|0,3:0|0:0,0:0:0:0:
323,38,57528,2,0,B|274:29|274:29|225:41,1,96.8000029541017,0|0,0:0|3:0,0:0:0:0:
194,54,57828,1,0,0:0:0:0:
194,54,57928,2,0,L|117:54,1,48.4000014770508
40,15,58128,1,0,3:0:0:0:
8,63,58228,1,0,0:0:0:0:
19,119,58328,1,0,0:0:0:0:
65,154,58428,1,0,0:0:0:0:
122,141,58528,6,0,L|222:141,1,96.8000029541017,2|0,3:2|0:0,0:0:0:0:
257,127,58828,1,0,0:0:0:0:
257,127,58928,2,0,L|318:127,1,48.4000014770508,0|0,3:0|0:0,0:0:0:0:
258,301,59128,2,0,L|156:301,1,96.8000029541017,0|0,0:0|3:0,0:0:0:0:
122,141,59528,1,0,0:0:0:0:
268,214,59728,1,0,3:0:0:0:
104,230,59928,6,0,P|50:193|33:154,1,96.8000029541017,2|0,0:2|3:0,0:0:0:0:
26,134,60228,1,0,0:0:0:0:
26,134,60328,2,0,L|27:67,1,48.4000014770508,0|0,0:0|0:0,0:0:0:0:
108,26,60528,2,0,L|108:80,1,48.4000014770508,0|0,3:0|0:0,0:0:0:0:
181,140,60728,2,0,B|228:149|228:149|285:138,1,96.8000029541017,0|0,0:2|3:0,0:0:0:0:
310,119,61028,1,0,0:0:0:0:
310,119,61128,2,0,L|375:115,1,48.4000014770508,0|0,0:0|0:0,0:0:0:0:
445,51,61328,2,0,P|464:94|463:142,1,96.8000029541017,8|0,3:3|0:0,0:0:0:0:
295,230,61728,6,0,P|273:185|275:137,1,96.8000029541017,2|0,3:2|0:0,0:0:0:0:
310,119,62028,1,0,0:0:0:0:
310,119,62128,2,0,L|311:55,1,48.4000014770508,0|0,3:0|0:0,0:0:0:0:
416,35,62328,1,0,0:0:0:0:
500,141,62528,1,0,3:0:0:0:
416,262,62728,1,0,0:0:0:0:
381,108,62928,1,0,3:1:0:0:
296,289,63128,6,0,P|322:331|367:370,1,96.8000029541017,2|0,3:2|0:0,0:0:0:0:
397,380,63428,1,0,0:0:0:0:
397,380,63528,2,0,L|452:381,1,48.4000014770508,0|0,0:0|0:0,0:0:0:0:
464,262,63728,2,0,L|409:261,1,48.4000014770508
352,159,63928,2,0,B|315:165|315:165|287:154|287:154|225:158,1,96.8000029541017,0|0,3:2|0:0,0:0:0:0:
225,174,64228,1,0,0:0:0:0:
225,174,64328,2,0,L|148:172,1,48.4000014770508
93,316,64528,5,8,1:2:0:0:
161,352,64628,1,0,1:0:0:0:
229,316,64728,1,0,1:0:0:0:
297,352,64828,1,0,1:0:0:0:
365,316,64928,6,0,L|451:315,1,79.1999975830079,10|0,3:1|0:0,0:0:0:0:
488,212,65328,2,0,L|497:159,1,39.5999987915039,8|0,1:2|0:0,0:0:0:0:
401,130,65528,1,0,0:0:0:0:
384,140,65628,1,0,0:0:0:0:
367,150,65728,1,2,3:2:0:0:
280,68,65928,1,0,0:0:0:0:
204,159,66128,2,0,L|121:159,1,79.1999975830079,8|0,1:2|0:0,0:0:0:0:
130,314,66528,6,0,L|92:346,2,39.5999987915039,2|0|0,3:2|0:0|0:0,0:0:0:0:
262,340,66928,1,8,1:2:0:0:
165,244,67128,1,0,0:0:0:0:
146,238,67228,1,0,0:0:0:0:
127,232,67328,1,2,3:2:0:0:
268,254,67528,1,0,0:0:0:0:
287,248,67628,1,0,0:0:0:0:
306,242,67728,2,0,P|366:232|413:237,1,79.1999975830079,10|2,1:2|0:0,0:0:0:0:
463,107,68128,5,0,3:1:0:0:
437,88,68228,1,0,0:0:0:0:
408,74,68328,1,0,0:0:0:0:
378,65,68428,1,0,0:0:0:0:
347,60,68528,1,8,1:2:0:0:
315,60,68628,1,0,0:0:0:0:
284,64,68728,1,0,0:0:0:0:
254,74,68828,1,0,0:0:0:0:
225,88,68928,5,0,3:0:0:0:
265,91,69028,1,0,0:0:0:0:
303,101,69128,1,0,0:0:0:0:
339,118,69228,1,0,0:0:0:0:
371,141,69328,1,8,1:2:0:0:
398,169,69428,1,0,0:0:0:0:
420,202,69528,2,0,P|428:214|437:243,1,39.5999987915039,0|0,0:0|0:0,0:0:0:0:
448,333,69728,6,0,P|418:316|350:312,1,79.1999975830079,2|0,3:2|0:0,0:0:0:0:
243,321,70128,1,8,1:2:0:0:
215,324,70228,1,0,0:0:0:0:
187,324,70328,1,0,0:0:0:0:
160,318,70428,1,0,0:0:0:0:
134,309,70528,6,0,P|108:289|94:261,1,39.5999987915039,0|0,3:0|0:0,0:0:0:0:
70,182,70728,2,0,P|74:148|91:122,1,39.5999987915039,2|0,0:2|0:0,0:0:0:0:
149,61,70928,2,0,P|179:48|211:49,1,39.5999987915039,10|0,1:2|0:0,0:0:0:0:
293,56,71128,2,0,P|319:76|333:104,1,39.5999987915039,2|0,0:2|0:0,0:0:0:0:
350,186,71328,5,0,3:1:0:0:
356,212,71428,1,0,0:0:0:0:
359,240,71528,1,0,0:0:0:0:
358,268,71628,1,0,0:0:0:0:
354,295,71728,2,0,P|349:328|332:354,3,39.5999987915039,8|0|0|0,1:2|0:0|0:0|0:0,0:0:0:0:
444,351,72128,5,2,3:2:0:0:
452,324,72228,1,0,0:0:0:0:
456,296,72328,1,0,0:0:0:0:
457,268,72428,1,0,0:0:0:0:
453,242,72528,2,0,P|450:208|434:181,3,39.5999987915039,8|0|0|0,1:2|0:0|0:0|0:0,0:0:0:0:
406,114,72928,5,2,3:2:0:0:
392,99,73028,1,0,0:0:0:0:
381,82,73128,1,0,0:0:0:0:
369,65,73228,1,0,0:0:0:0:
356,49,73328,2,0,P|333:34|310:29,1,39.5999987915039,8|0,1:2|0:0,0:0:0:0:
278,147,73528,2,0,P|301:162|324:167,1,39.5999987915039
233,58,73728,5,2,3:2:0:0:
203,61,73828,1,0,0:0:0:0:
173,61,73928,1,0,0:0:0:0:
144,59,74028,1,0,0:0:0:0:
114,54,74128,2,0,P|93:51|72:38,1,39.5999987915039,10|0,1:2|0:0,0:0:0:0:
40,147,74328,2,0,P|61:150|82:163,1,39.5999987915039,0|0,0:0|0:0,0:0:0:0:
121,234,74528,5,0,3:1:0:0:
148,249,74628,1,0,0:0:0:0:
166,274,74728,1,0,0:0:0:0:
171,305,74828,1,0,0:0:0:0:
159,334,74928,1,8,1:2:0:0:
136,356,75028,1,0,0:0:0:0:
106,367,75128,1,0,0:0:0:0:
75,359,75228,1,0,0:0:0:0:
49,340,75328,5,0,3:0:0:0:
80,310,75428,1,0,0:0:0:0:
123,310,75528,1,0,0:0:0:0:
159,334,75628,1,0,0:0:0:0:
202,340,75728,2,0,P|230:334|257:318,1,39.5999987915039,8|0,1:2|0:0,0:0:0:0:
340,278,75928,6,0,P|312:284|285:300,1,39.5999987915039,2|0,0:2|0:0,0:0:0:0:
187,268,76128,2,0,P|215:262|242:246,3,39.5999987915039,2|0|0|0,3:2|0:0|0:0|0:0,0:0:0:0:
325,206,76528,6,0,P|297:212|270:228,1,39.5999987915039,10|0,1:2|0:0,0:0:0:0:
172,196,76728,2,0,P|200:190|227:174,3,39.5999987915039,2|0|0|0,0:2|0:0|3:0|0:0,0:0:0:0:
310,134,77128,6,0,P|282:140|255:156,1,39.5999987915039,2|0,0:2|0:0,0:0:0:0:
157,124,77328,1,8,1:2:0:0:
182,99,77428,1,0,0:0:0:0:
213,81,77528,2,0,P|237:65|267:57,1,39.5999987915039
361,51,77728,5,4,3:2:0:0:
382,67,77828,1,0,0:0:0:0:
398,90,77928,1,0,0:0:0:0:
406,117,78028,1,0,0:0:0:0:
406,144,78128,1,8,1:2:0:0:
398,170,78228,1,0,0:0:0:0:
383,194,78328,2,0,P|367:211|351:222,1,39.5999987915039
288,299,78528,5,2,3:2:0:0:
266,282,78628,1,0,0:0:0:0:
250,259,78728,1,0,0:0:0:0:
242,232,78828,1,0,0:0:0:0:
242,205,78928,1,8,1:2:0:0:
250,179,79028,1,0,0:0:0:0:
266,156,79128,2,0,P|282:139|298:128,1,39.5999987915039,0|0,0:0|0:0,0:0:0:0:
245,39,79328,5,2,3:2:0:0:
223,49,79428,1,0,0:0:0:0:
201,56,79528,1,0,0:0:0:0:
177,61,79628,1,0,0:0:0:0:
154,63,79728,1,8,1:2:0:0:
130,63,79828,1,0,0:0:0:0:
106,59,79928,2,0,P|73:52|63:46,1,39.5999987915039,0|0,0:0|0:0,0:0:0:0:
58,154,80128,6,0,P|26:164|17:171,3,39.5999987915039,2|0|0|0,3:2|0:0|0:0|0:0,0:0:0:0:
94,251,80528,2,0,P|69:228|58:223,1,39.5999987915039,10|0,1:2|0:0,0:0:0:0:
29,330,80728,2,0,P|36:297|34:285,1,39.5999987915039,2|0,0:0|0:0,0:0:0:0:
136,347,80928,5,0,3:1:0:0:
165,334,81028,1,0,0:0:0:0:
195,325,81128,1,0,0:0:0:0:
226,319,81228,1,0,0:0:0:0:
258,315,81328,1,8,1:2:0:0:
289,315,81428,1,0,0:0:0:0:
321,317,81528,1,0,0:0:0:0:
352,323,81628,1,0,0:0:0:0:
382,331,81728,5,0,3:0:0:0:
358,301,81828,1,0,0:0:0:0:
341,265,81928,1,0,0:0:0:0:
335,226,82028,1,0,0:0:0:0:
340,186,82128,1,8,1:2:0:0:
354,150,82228,1,0,0:0:0:0:
377,118,82328,2,0,P|391:105|409:95,1,39.5999987915039,0|0,0:0|0:0,0:0:0:0:
450,181,82528,5,2,3:2:0:0:
479,155,82628,1,0,0:0:0:0:
496,119,82728,1,0,0:0:0:0:
497,80,82828,1,0,0:0:0:0:
481,44,82928,1,8,1:2:0:0:
452,17,83028,1,0,0:0:0:0:
415,5,83128,1,0,0:0:0:0:
376,8,83228,1,0,0:0:0:0:
342,28,83328,6,0,P|312:55|303:74,1,39.5999987915039,0|0,3:0|0:0,0:0:0:0:
309,141,83528,2,0,P|317:180|329:197,1,39.5999987915039,2|0,0:2|0:0,0:0:0:0:
208,178,83728,2,0,P|214:159|217:139,1,39.5999987915039,10|0,1:2|0:0,0:0:0:0:
214,53,83928,2,0,P|201:38|184:27,1,39.5999987915039,2|0,0:2|0:0,0:0:0:0:
86,106,84128,5,0,3:1:0:0:
79,128,84228,1,0,0:0:0:0:
77,152,84328,1,0,0:0:0:0:
79,176,84428,1,0,0:0:0:0:
82,199,84528,1,8,1:2:0:0:
84,223,84628,1,0,0:0:0:0:
81,247,84728,2,0,P|77:272|72:285,1,39.5999987915039,0|0,0:0|0:0,0:0:0:0:
0,197,84928,5,2,3:2:0:0:
23,175,85028,1,0,0:0:0:0:
51,160,85128,1,0,0:0:0:0:
81,152,85228,1,0,0:0:0:0:
113,152,85328,1,8,1:2:0:0:
143,160,85428,1,0,0:0:0:0:
171,175,85528,2,0,P|192:189|201:206,1,39.5999987915039
284,267,85728,5,2,3:2:0:0:
295,246,85828,1,0,0:0:0:0:
303,223,85928,1,0,0:0:0:0:
308,199,86028,1,0,0:0:0:0:
311,176,86128,1,8,1:2:0:0:
315,153,86228,1,0,0:0:0:0:
324,130,86328,2,0,P|334:107|342:95,1,39.5999987915039
278,20,86528,6,0,P|267:42|259:54,3,39.5999987915039,2|0|0|0,3:2|0:0|0:0|0:0,0:0:0:0:
200,109,86928,2,0,P|174:111|160:109,1,39.5999987915039,10|0,1:2|0:0,0:0:0:0:
98,59,87128,2,0,P|83:38|77:25,1,39.5999987915039,2|0,0:2|0:0,0:0:0:0:
102,175,87328,5,0,3:1:0:0:
120,194,87428,1,0,0:0:0:0:
140,212,87528,1,0,0:0:0:0:
164,227,87628,1,0,0:0:0:0:
189,238,87728,1,8,1:2:0:0:
217,246,87828,1,0,0:0:0:0:
244,249,87928,1,0,0:0:0:0:
272,249,88028,1,0,0:0:0:0:
299,244,88128,5,0,3:0:0:0:
269,224,88228,1,0,0:0:0:0:
248,195,88328,1,0,0:0:0:0:
241,162,88428,1,0,0:0:0:0:
247,126,88528,2,0,P|260:98|281:82,1,39.5999987915039,8|0,1:2|0:0,0:0:0:0:
360,48,88728,2,0,P|390:52|411:67,1,39.5999987915039,2|0,0:2|0:0,0:0:0:0:
452,144,88928,6,0,P|451:191|431:240,1,79.1999975830079,10|0,3:2|0:0,0:0:0:0:
352,311,89328,1,0,0:0:0:0:
267,211,89528,1,2,1:2:0:0:
257,203,89628,1,0,1:0:0:0:
248,195,89728,1,0,3:0:0:0:
228,328,89928,1,2,1:2:0:0:
219,336,90028,1,0,1:0:0:0:
211,344,90128,5,0,3:0:0:0:
163,344,90228,1,12,3:0:0:0:
115,344,90328,2,0,L|64:343,1,39.5999987915039,8|0,3:0|3:0,0:0:0:0:
152,167,90528,5,10,3:1:0:0:
166,125,90628,1,0,0:0:0:0:
193,91,90728,1,0,0:0:0:0:
231,69,90828,1,0,0:0:0:0:
274,62,90928,1,8,1:2:0:0:
317,70,91028,1,0,0:0:0:0:
353,95,91128,2,0,P|375:117|389:149,1,44,0|0,0:0|0:0,0:0:0:0:
369,261,91328,6,0,P|348:237|336:204,1,44,2|0,3:2|0:0,0:0:0:0:
246,197,91528,2,0,P|256:167|278:140,3,44,0|0|8|0,0:0|0:0|1:2|0:0,0:0:0:0:
231,69,91928,2,0,P|261:63|295:69,1,44,0|0,0:2|0:0,0:0:0:0:
381,127,92128,5,14,3:2:0:0:
417,150,92228,1,0,0:0:0:0:
441,187,92328,1,0,0:0:0:0:
448,230,92428,1,0,0:0:0:0:
436,272,92528,1,8,1:2:0:0:
409,306,92628,1,0,0:0:0:0:
369,325,92728,1,0,0:0:0:0:
326,326,92828,1,0,0:0:0:0:
285,310,92928,5,0,3:2:0:0:
324,345,93028,1,0,0:0:0:0:
374,360,93128,1,0,0:0:0:0:
426,350,93228,1,0,0:0:0:0:
468,319,93328,1,8,1:2:0:0:
491,272,93428,1,0,0:0:0:0:
492,220,93528,2,0,P|487:182|466:147,1,44,0|0,0:2|0:0,0:0:0:0:
395,217,93728,5,10,3:2:0:0:
347,240,93828,1,0,0:0:0:0:
295,238,93928,1,0,0:0:0:0:
248,214,94028,1,0,0:0:0:0:
217,173,94128,1,8,1:2:0:0:
207,121,94228,1,0,0:0:0:0:
223,71,94328,2,0,P|239:35|269:8,1,44,0|0,0:0|0:0,0:0:0:0:
335,20,94528,6,0,P|318:55|288:82,1,44,2|0,3:2|0:0,0:0:0:0:
441,84,94728,2,0,P|402:87|363:74,1,44,0|0,0:0|0:0,0:0:0:0:
438,207,94928,2,0,P|415:175|407:135,1,44,10|0,1:2|0:0,0:0:0:0:
329,265,95128,2,0,P|345:229|375:202,1,44,2|0,0:2|0:0,0:0:0:0:
224,199,95328,5,8,3:2:0:0:
203,227,95428,1,0,0:0:0:0:
174,247,95528,1,0,0:0:0:0:
140,257,95628,1,0,0:0:0:0:
105,255,95728,1,8,1:2:0:0:
73,243,95828,1,0,0:0:0:0:
46,220,95928,1,0,0:0:0:0:
27,191,96028,1,0,0:0:0:0:
20,156,96128,5,0,3:2:0:0:
15,213,96228,1,0,0:0:0:0:
36,265,96328,1,0,0:0:0:0:
80,302,96428,1,0,0:0:0:0:
135,315,96528,1,8,1:2:0:0:
190,302,96628,1,0,0:0:0:0:
233,265,96728,2,0,P|254:228|260:205,1,44,0|0,0:2|0:0,0:0:0:0:
361,260,96928,5,10,3:2:0:0:
367,225,97028,1,0,0:0:0:0:
361,190,97128,1,0,0:0:0:0:
344,159,97228,1,0,0:0:0:0:
317,136,97328,1,8,1:2:0:0:
286,122,97428,1,0,0:0:0:0:
251,119,97528,2,0,P|221:121|202:131,1,44,0|0,0:0|0:0,0:0:0:0:
132,57,97728,6,0,P|154:37|175:30,1,44,2|0,3:2|0:0,0:0:0:0:
264,21,97928,2,0,P|294:23|313:32,1,44,0|0,0:0|0:0,0:0:0:0:
383,87,98128,2,0,P|402:109|409:130,1,44,10|0,1:2|0:0,0:0:0:0:
420,219,98328,2,0,P|418:249|408:268,1,44,2|0,0:2|0:0,0:0:0:0:
350,337,98528,5,14,3:2:0:0:
326,348,98628,1,0,0:0:0:0:
301,356,98728,1,0,0:0:0:0:
274,359,98828,1,0,0:0:0:0:
248,359,98928,1,8,1:2:0:0:
222,355,99028,1,0,0:0:0:0:
197,346,99128,1,0,0:0:0:0:
174,334,99228,1,0,0:0:0:0:
155,316,99328,5,0,3:2:0:0:
131,286,99428,1,0,0:0:0:0:
96,279,99528,1,0,0:0:0:0:
66,297,99628,1,0,0:0:0:0:
54,329,99728,1,8,1:2:0:0:
65,363,99828,1,0,0:0:0:0:
95,381,99928,1,0,0:2:0:0:
129,375,100028,1,0,0:0:0:0:
154,350,100128,5,2,3:1:0:0:
177,308,100228,1,0,0:0:0:0:
213,275,100328,1,0,3:0:0:0:
256,253,100428,1,0,0:0:0:0:
303,246,100528,1,8,3:0:0:0:
351,253,100628,1,0,0:0:0:0:
395,273,100728,1,0,3:0:0:0:
430,306,100828,1,0,0:0:0:0:
455,347,100928,5,6,3:0:0:0:
457,294,101028,1,0,3:0:0:0:
446,243,101128,1,0,3:0:0:0:
420,196,101228,1,0,3:0:0:0:
383,158,101328,1,8,3:0:0:0:
337,131,101428,1,0,3:0:0:0:
286,118,101528,1,0,3:0:0:0:
233,119,101628,1,0,3:0:0:0:
182,134,101728,6,0,L|201:170,1,24.2000007385254,0|0,3:2|0:2,0:0:0:0:
160,176,101828,2,0,L|151:214,1,24.2000007385254,0|0,0:2|0:2,0:0:0:0:
116,195,101928,2,0,L|84:219,1,24.2000007385254,0|0,0:2|0:2,0:0:0:0:
70,183,102028,2,0,L|30:181,1,24.2000007385254,0|0,0:2|0:2,0:0:0:0:
41,145,102128,6,0,L|11:118,1,24.2000007385254,0|0,3:2|0:2,0:0:0:0:
42,97,102228,2,0,L|36:57,1,24.2000007385254,0|0,0:2|0:2,0:0:0:0:
72,61,102328,2,0,L|93:27,1,24.2000007385254,0|0,0:2|0:2,0:0:0:0:
118,50,102428,2,0,L|155:38,1,24.2000007385254,0|0,0:2|0:2,0:0:0:0:
161,70,102528,5,4,2:2:0:0:
160,176,102728,6,0,L|150:226,2,44
344,49,103328,5,6,1:1:0:0:
360,207,103528,1,0,0:0:0:0:
238,80,103728,1,8,1:2:0:0:
238,80,103828,1,0,0:0:0:0:
238,80,103928,1,0,0:0:0:0:
423,120,104128,2,0,P|464:178|462:228,1,105.599996777344,2|0,3:2|0:0,0:0:0:0:
298,286,104528,2,0,P|257:228|259:178,1,105.599996777344,8|0,1:2|0:0,0:0:0:0:
414,320,104928,5,2,1:2:0:0:
216,355,105128,1,0,0:0:0:0:
262,159,105328,1,8,1:2:0:0:
296,145,105428,1,0,0:0:0:0:
332,150,105528,1,0,0:0:0:0:
154,237,105728,1,2,3:2:0:0:
258,65,105928,1,0,0:0:0:0:
312,258,106128,1,8,1:2:0:0:
163,125,106328,1,0,0:0:0:0:
175,355,106528,6,0,P|123:357|78:332,1,105.599996777344,2|0,1:2|0:0,0:0:0:0:
282,335,106928,2,0,P|334:337|379:311,1,105.599996777344,8|0,1:2|0:0,0:0:0:0:
174,173,107328,2,0,L|142:274,1,105.599996777344,2|0,3:2|0:0,0:0:0:0:
279,157,107728,2,0,L|312:258,1,105.599996777344,8|0,1:2|0:0,0:0:0:0:
213,69,108128,5,2,1:2:0:0:
81,175,108328,1,0,0:0:0:0:
3,25,108528,1,10,1:2:0:0:
144,119,108728,1,0,0:0:0:0:
15,228,108928,2,0,B|1:180|1:180|13:113,1,105.599996777344,2|0,3:2|0:0,0:0:0:0:
155,35,109328,1,8,1:2:0:0:
166,200,109528,1,0,0:0:0:0:
283,50,109728,5,2,1:2:0:0:
242,193,109928,1,0,0:0:0:0:
391,75,110128,1,8,1:2:0:0:
391,75,110228,1,0,0:0:0:0:
391,75,110328,1,0,0:0:0:0:
314,202,110528,2,0,B|311:223|303:243|303:243|308:266|308:266|297:283|292:323,1,105.599996777344,2|0,3:2|0:0,0:0:0:0:
248,117,110928,1,8,1:2:0:0:
380,155,111128,1,0,0:0:0:0:
231,35,111328,5,2,1:2:0:0:
360,84,111528,1,0,0:0:0:0:
290,202,111728,1,8,1:2:0:0:
253,206,111828,1,0,0:0:0:0:
216,204,111928,1,0,0:0:0:0:
303,32,112128,2,0,P|359:9|427:43,1,105.599996777344,2|0,3:2|0:0,0:0:0:0:
397,210,112528,1,8,1:2:0:0:
360,84,112728,1,0,0:0:0:0:
326,271,112928,5,2,1:2:0:0:
291,121,113128,1,0,0:0:0:0:
246,305,113328,1,8,1:2:0:0:
243,278,113428,1,0,0:0:0:0:
239,251,113528,1,0,0:0:0:0:
377,201,113728,2,0,B|413:204|413:204|436:224|436:224|480:229,1,105.599996777344,2|0,3:2|0:0,0:0:0:0:
486,230,114028,1,0,0:0:0:0:
498,230,114128,1,8,1:2:0:0:
426,91,114328,1,0,0:0:0:0:
364,287,114528,5,2,1:2:0:0:
512,146,114728,1,0,0:0:0:0:
294,152,114928,1,10,1:2:0:0:
474,228,115128,1,0,0:0:0:0:
298,37,115328,1,6,3:2:0:0:
295,227,115528,1,0,0:3:0:0:
382,1,115728,1,8,1:2:0:0:
512,146,115928,1,0,0:0:0:0:
294,152,116128,6,0,L|169:141,1,105.599996777344,10|0,1:1|0:0,0:0:0:0:
350,278,116528,2,0,L|475:267,1,105.599996777344,8|0,1:2|0:0,0:0:0:0:
263,357,116928,2,0,P|235:295|240:233,1,105.599996777344,2|0,3:2|0:0,0:0:0:0:
380,83,117328,2,0,P|408:145|403:207,1,105.599996777344,8|0,1:2|0:0,0:0:0:0:
175,215,117728,5,2,1:2:0:0:
272,52,117928,1,0,0:0:0:0:
348,226,118128,1,8,1:2:0:0:
329,236,118228,1,0,0:0:0:0:
310,246,118328,1,0,0:0:0:0:
180,108,118528,1,2,3:2:0:0:
230,291,118728,1,0,0:0:0:0:
333,131,118928,1,8,1:2:0:0:
157,204,119128,1,0,0:0:0:0:
291,43,119328,6,0,P|346:36|401:61,1,105.599996777344,2|0,1:2|0:0,0:0:0:0:
199,116,119728,2,0,P|144:109|89:134,1,105.599996777344,8|0,1:2|0:0,0:0:0:0:
300,231,120128,2,0,L|332:130,1,105.599996777344,2|0,3:2|0:0,0:0:0:0:
156,203,120528,2,0,L|189:304,1,105.599996777344,8|0,1:2|0:0,0:0:0:0:
403,307,120928,5,2,1:2:0:0:
326,151,121128,1,0,0:0:0:0:
326,328,121328,1,10,1:2:0:0:
321,171,121528,1,0,0:0:0:0:
251,355,121728,2,0,B|253:310|253:310|280:253,1,105.599996777344,2|0,3:2|0:0,0:0:0:0:
278,255,122028,1,0,0:0:0:0:
278,255,122128,1,8,1:2:0:0:
440,237,122328,1,0,0:0:0:0:
336,74,122528,6,0,P|275:84|232:128,1,105.599996777344,6|0,1:2|0:0,0:0:0:0:
211,298,122928,1,8,1:2:0:0:
221,316,123028,1,0,0:0:0:0:
237,329,123128,1,0,0:0:0:0:
110,185,123328,2,0,P|88:127|104:67,1,105.599996777344,2|0,3:2|0:0,0:0:0:0:
223,204,123728,2,0,P|281:225|340:210,1,105.599996777344,8|0,1:2|0:0,0:0:0:0:
435,39,124128,5,6,1:2:0:0:
283,144,124328,1,0,0:0:0:0:
512,95,124528,6,0,L|452:119,1,52.7999983886719,8|0,1:2|0:0,0:0:0:0:
314,62,124728,2,0,L|374:99,1,52.7999983886719
478,200,124928,6,0,L|418:224,1,52.7999983886719,2|0,3:2|0:0,0:0:0:0:
226,192,125128,2,0,L|279:226,1,52.7999983886719
411,310,125328,5,8,1:2:0:0:
411,320,125428,1,0,0:0:0:0:
411,330,125528,1,0,0:0:0:0:
410,340,125628,1,0,0:0:0:0:
411,351,125728,5,12,1:2:0:0:
425,329,125828,1,0,1:0:0:0:
434,307,125928,1,0,1:2:0:0:
439,282,126028,1,0,1:0:0:0:
439,257,126128,5,4,3:0:0:0:
428,219,126228,1,0,1:0:0:0:
409,186,126328,1,0,3:2:0:0:
378,160,126428,1,0,1:0:0:0:
343,144,126528,5,8,3:0:0:0:
286,146,126628,1,0,3:0:0:0:
232,168,126728,1,0,3:2:0:0:
196,213,126828,1,0,3:0:0:0:
185,270,126928,6,0,P|196:320|212:339,1,52.7999983886719,14|2,3:3|3:0,0:0:0:0:
371,280,127128,2,0,P|358:228|342:209,1,52.7999983886719,10|2,3:0|3:0,0:0:0:0:
271,375,127328,5,10,1:0:0:0:
286,146,127528,1,8,1:0:0:0:
398,355,127828,5,10,1:3:0:0:
148,314,128128,5,14,1:2:0:0:
138,308,128228,1,0,1:0:0:0:
202,107,128428,1,8,1:0:0:0:
306,355,128728,5,6,1:3:0:0:
424,304,128928,6,0,P|438:247|434:197,1,96.8000029541017,10|0,0:1|0:0,0:0:0:0:
415,183,129228,1,0,0:0:0:0:
415,183,129328,2,0,L|370:166,1,48.4000014770508,0|0,3:0|0:0,0:0:0:0:
325,47,129528,2,0,P|266:42|217:53,1,96.8000029541017,0|0,0:0|3:0,0:0:0:0:
161,188,129928,1,0,0:0:0:0:
284,129,130128,1,0,3:0:0:0:
125,84,130328,6,0,B|81:112|81:112|52:165,1,96.8000029541017,2|0,0:0|3:0,0:0:0:0:
53,192,130628,1,0,0:0:0:0:
53,192,130728,2,0,L|49:268,1,48.4000014770508,0|0,0:0|0:0,0:0:0:0:
125,329,130928,1,0,3:0:0:0:
155,305,131028,1,0,0:0:0:0:
182,277,131128,2,0,B|206:253|206:253|217:224|217:224|260:181,1,96.8000029541017,0|0,0:0|3:0,0:0:0:0:
275,183,131428,1,0,0:0:0:0:
275,183,131528,2,0,L|351:179,1,48.4000014770508,0|0,0:0|0:0,0:0:0:0:
352,316,131728,2,0,P|313:335|237:334,1,96.8000029541017,8|0,3:3|0:0,0:0:0:0:
206,123,132128,6,0,P|244:103|320:104,1,96.8000029541017,2|0,3:2|0:0,0:0:0:0:
340,106,132428,1,0,0:0:0:0:
340,106,132528,2,0,L|417:107,1,48.4000014770508,0|0,3:0|0:0,0:0:0:0:
454,219,132728,1,0,0:0:0:0:
302,179,132928,1,0,3:0:0:0:
451,139,133128,1,0,0:0:0:0:
419,290,133328,1,0,3:0:0:0:
286,168,133528,6,0,B|238:162|238:162|189:169,1,96.8000029541017,2|0,0:0|3:0,0:0:0:0:
154,175,133828,1,0,0:0:0:0:
154,175,133928,2,0,P|126:171|103:173,1,48.4000014770508,0|0,0:0|0:0,0:0:0:0:
47,307,134128,2,0,P|75:311|98:308,1,48.4000014770508,0|0,3:0|0:0,0:0:0:0:
196,300,134328,6,0,B|244:306|244:306|293:299,1,96.8000029541017,0|0,0:0|3:0,0:0:0:0:
328,293,134628,1,0,0:0:0:0:
328,293,134728,2,0,P|358:297|382:296,1,48.4000014770508,0|0,0:0|0:0,0:0:0:0:
357,140,134928,1,0,3:0:0:0:
316,98,135028,1,0,0:0:0:0:
259,97,135128,1,0,0:0:0:0:
215,135,135228,1,0,0:0:0:0:
199,191,135328,6,0,P|173:152|133:122,1,96.8000029541017,2|0,3:2|0:0,0:0:0:0:
99,119,135628,1,0,0:0:0:0:
99,119,135728,2,0,L|50:119,1,48.4000014770508,0|0,3:0|0:0,0:0:0:0:
208,23,135928,2,0,L|310:23,1,96.8000029541017,0|0,0:0|3:0,0:0:0:0:
402,144,136328,1,0,0:0:0:0:
261,208,136528,1,0,3:0:0:0:
402,59,136728,6,0,P|467:90|487:135,1,96.8000029541017,2|0,0:2|3:0,0:0:0:0:
483,152,137028,1,0,0:0:0:0:
483,152,137128,2,0,L|482:219,1,48.4000014770508,0|0,0:0|0:0,0:0:0:0:
405,286,137328,2,0,L|405:232,1,48.4000014770508,0|0,3:0|0:0,0:0:0:0:
325,152,137528,2,0,L|325:272,1,96.8000029541017,0|0,0:2|3:0,0:0:0:0:
315,289,137828,1,0,0:0:0:0:
315,289,137928,2,0,B|299:318|299:318|281:334,1,48.4000014770508
155,327,138128,2,0,B|123:291|123:291|116:224,1,96.8000029541017,8|0,3:3|0:0,0:0:0:0:
179,69,138528,6,0,P|225:123|225:173,1,96.8000029541017,2|0,3:2|0:0,0:0:0:0:
228,188,138828,1,0,0:0:0:0:
228,188,138928,2,0,L|228:240,1,48.4000014770508,0|0,3:0|0:0,0:0:0:0:
70,139,139128,1,0,0:0:0:0:
21,296,139328,1,0,3:0:0:0:
151,150,139528,1,0,0:0:0:0:
3,216,139728,1,0,3:1:0:0:
173,309,139928,6,0,P|231:326|283:309,1,96.8000029541017,2|0,3:2|0:0,0:0:0:0:
299,298,140228,1,0,0:0:0:0:
299,298,140328,2,0,L|366:297,1,48.4000014770508
433,220,140528,2,0,L|379:220,1,48.4000014770508,0|0,0:0|0:0,0:0:0:0:
299,140,140728,2,0,L|178:140,1,96.8000029541017,0|0,3:2|0:0,0:0:0:0:
168,151,141028,1,0,0:0:0:0:
168,151,141128,2,0,L|92:151,1,48.4000014770508
119,318,141328,5,8,1:2:0:0:
180,362,141428,1,0,1:0:0:0:
240,317,141528,1,0,1:0:0:0:
215,246,141628,1,0,1:0:0:0:
139,247,141728,6,0,P|100:247|61:272,1,79.1999975830079,10|0,3:1|0:0,0:0:0:0:
49,135,142128,2,0,L|40:82,1,39.5999987915039,8|0,1:2|0:0,0:0:0:0:
136,53,142328,1,0,0:0:0:0:
153,63,142428,1,0,0:0:0:0:
170,73,142528,1,2,3:2:0:0:
248,150,142728,1,0,0:0:0:0:
333,82,142928,2,0,L|416:82,1,79.1999975830079,8|0,1:2|0:0,0:0:0:0:
466,192,143328,6,0,L|515:209,2,39.5999987915039,2|0|0,3:2|0:0|0:0,0:0:0:0:
334,166,143728,1,8,1:2:0:0:
431,262,143928,1,0,0:0:0:0:
450,268,144028,1,0,0:0:0:0:
469,274,144128,1,2,3:2:0:0:
328,252,144328,1,0,0:0:0:0:
309,258,144428,1,0,0:0:0:0:
290,264,144528,2,0,P|230:274|183:269,1,79.1999975830079,10|2,1:2|0:0,0:0:0:0:
158,176,144928,5,0,3:2:0:0:
189,182,145028,1,0,0:0:0:0:
221,183,145128,1,0,0:0:0:0:
252,179,145228,1,0,0:0:0:0:
283,171,145328,1,8,1:2:0:0:
312,158,145428,1,0,0:0:0:0:
339,142,145528,1,0,0:0:0:0:
362,121,145628,1,0,0:0:0:0:
383,96,145728,5,0,3:2:0:0:
345,110,145828,1,0,0:0:0:0:
306,116,145928,1,0,0:0:0:0:
266,115,146028,1,0,0:0:0:0:
228,107,146128,1,8,1:2:0:0:
192,92,146228,1,0,0:0:0:0:
158,71,146328,2,0,P|145:63|125:40,1,39.5999987915039
43,95,146528,6,0,P|30:139|43:194,1,79.1999975830079,2|0,3:2|0:0,0:0:0:0:
84,269,146928,1,8,1:2:0:0:
110,278,147028,1,0,0:0:0:0:
137,281,147128,1,0,0:0:0:0:
164,280,147228,1,0,0:0:0:0:
192,276,147328,6,0,P|221:260|239:235,1,39.5999987915039,0|0,3:2|0:0,0:0:0:0:
312,269,147528,2,0,P|313:236|300:207,1,39.5999987915039,2|0,0:0|0:0,0:0:0:0:
366,162,147728,2,0,P|338:144|307:140,1,39.5999987915039,10|0,1:2|0:0,0:0:0:0:
300,61,147928,2,0,P|270:76|252:101,1,39.5999987915039,2|0,0:0|0:0,0:0:0:0:
178,66,148128,5,4,3:2:0:0:
149,79,148228,1,0,0:0:0:0:
118,83,148328,1,0,0:0:0:0:
88,74,148428,1,0,0:0:0:0:
61,55,148528,2,0,P|42:38|31:13,3,39.5999987915039,8|0|0|0,1:2|0:0|0:0|0:0,0:0:0:0:
25,125,148928,5,2,3:2:0:0:
50,143,149028,1,0,0:0:0:0:
69,167,149128,1,0,0:0:0:0:
76,197,149228,1,0,0:0:0:0:
73,231,149328,2,0,P|67:255|51:277,3,39.5999987915039,8|0|0|0,1:2|0:0|0:0|0:0,0:0:0:0:
157,289,149728,5,2,3:2:0:0:
177,285,149828,1,0,0:0:0:0:
197,285,149928,1,0,0:0:0:0:
218,284,150028,1,0,0:0:0:0:
238,282,150128,2,0,P|263:270|279:254,1,39.5999987915039,8|0,1:2|0:0,0:0:0:0:
199,163,150328,2,0,P|173:174|157:190,1,39.5999987915039
298,174,150528,5,2,3:2:0:0:
300,146,150628,1,0,0:0:0:0:
293,119,150728,1,0,0:0:0:0:
277,97,150828,1,0,0:0:0:0:
254,81,150928,2,0,P|234:71|206:71,1,39.5999987915039,10|0,1:2|0:0,0:0:0:0:
356,37,151128,2,0,P|376:47|404:47,1,39.5999987915039,2|0,0:0|0:0,0:0:0:0:
370,156,151328,5,0,3:2:0:0:
370,187,151428,1,0,0:0:0:0:
356,217,151528,1,8,0:3:0:0:
330,238,151628,1,0,0:0:0:0:
297,242,151728,1,8,1:2:0:0:
265,233,151828,1,0,0:0:0:0:
239,211,151928,1,8,0:3:0:0:
230,178,152028,1,0,0:0:0:0:
232,142,152128,5,0,3:2:0:0:
199,176,152228,1,0,1:0:0:0:
197,223,152328,1,8,3:0:0:0:
224,261,152428,1,0,1:0:0:0:
266,283,152528,2,0,P|295:287|328:282,1,39.5999987915039,8|0,1:2|0:0,0:0:0:0:
370,187,152728,2,0,P|340:182|307:187,1,39.5999987915039,8|0,1:3|0:0,0:0:0:0:
417,280,152928,6,0,P|410:324|380:368,1,79.1999975830079,10|0,3:2|0:0,0:0:0:0:
265,357,153328,1,10,3:2:0:0:
157,289,153528,1,2,1:2:0:0:
148,277,153628,1,0,1:0:0:0:
142,269,153728,1,0,3:0:0:0:
79,157,153928,1,2,1:2:0:0:
89,149,154028,1,0,1:0:0:0:
97,142,154128,5,12,3:0:0:0:
144,141,154228,1,0,3:0:0:0:
192,141,154328,2,0,L|243:142,1,39.5999987915039,8|0,3:0|3:0,0:0:0:0:
327,201,154528,5,10,3:1:0:0:
333,157,154628,1,0,0:0:0:0:
325,113,154728,1,0,0:0:0:0:
301,77,154828,1,0,0:0:0:0:
265,51,154928,1,8,1:2:0:0:
223,39,155028,1,0,0:0:0:0:
180,45,155128,2,0,P|150:54|123:76,1,44
90,186,155328,6,0,P|119:174|145:150,3,44,2|0|0|0,3:2|0:0|0:0|0:0,0:0:0:0:
228,185,155728,2,0,P|232:153|225:119,1,44,8|0,1:2|0:0,0:0:0:0:
301,77,155928,2,0,P|276:58|243:47,1,44,0|0,0:2|0:0,0:0:0:0:
140,63,156128,5,14,3:2:0:0:
103,93,156228,1,0,0:0:0:0:
85,139,156328,1,0,0:0:0:0:
90,186,156428,1,0,0:0:0:0:
117,227,156528,1,8,1:2:0:0:
161,250,156628,1,0,0:0:0:0:
209,250,156728,1,0,0:0:0:0:
253,227,156828,1,0,0:0:0:0:
279,187,156928,5,0,3:2:0:0:
234,221,157028,1,0,0:0:0:0:
178,221,157128,1,0,0:0:0:0:
133,188,157228,1,0,0:0:0:0:
118,134,157328,1,8,1:2:0:0:
138,81,157428,1,0,0:0:0:0:
186,52,157528,2,0,P|214:48|254:66,1,44,0|0,0:2|0:0,0:0:0:0:
318,92,157728,5,10,3:2:0:0:
349,122,157828,1,0,0:0:0:0:
369,161,157928,1,0,0:0:0:0:
373,204,158028,1,0,0:0:0:0:
362,247,158128,1,8,1:2:0:0:
337,283,158228,1,0,0:0:0:0:
301,307,158328,2,0,P|272:319|235:320,1,44
268,203,158528,6,0,P|262:234|245:266,1,44,2|0,3:2|0:0,0:0:0:0:
160,179,158728,2,0,P|184:198|203:230,1,44
85,260,158928,2,0,P|114:248|151:247,1,44,10|0,1:2|0:0,0:0:0:0:
117,365,159128,2,0,P|122:333|139:301,1,44,2|0,0:2|0:0,0:0:0:0:
195,361,159328,5,8,3:2:0:0:
235,377,159428,1,0,0:0:0:0:
279,381,159528,1,0,0:0:0:0:
321,370,159628,1,0,0:0:0:0:
358,346,159728,1,8,1:2:0:0:
385,312,159828,1,0,0:0:0:0:
400,271,159928,1,0,0:0:0:0:
402,227,160028,1,0,0:0:0:0:
389,185,160128,5,0,3:2:0:0:
362,224,160228,1,0,0:0:0:0:
318,243,160328,1,0,0:0:0:0:
271,235,160428,1,0,0:0:0:0:
236,202,160528,1,8,1:2:0:0:
225,156,160628,1,0,0:0:0:0:
240,111,160728,2,0,P|248:85|276:62,1,44,0|0,0:2|0:0,0:0:0:0:
271,235,160928,5,10,3:2:0:0:
244,259,161028,1,0,0:0:0:0:
212,274,161128,1,0,0:0:0:0:
177,278,161228,1,0,0:0:0:0:
143,269,161328,1,8,1:2:0:0:
112,252,161428,1,0,0:0:0:0:
90,224,161528,2,0,P|72:199|71:176,1,44
167,162,161728,6,0,P|193:150|208:134,1,44,2|0,3:2|0:0,0:0:0:0:
252,56,161928,2,0,P|278:67|300:66,1,44
385,42,162128,2,0,P|394:69|411:84,1,44,10|0,1:2|0:0,0:0:0:0:
489,125,162328,2,0,P|476:152|477:174,1,44,2|0,0:2|0:0,0:0:0:0:
504,257,162528,5,14,3:2:0:0:
480,272,162628,1,0,0:0:0:0:
456,283,162728,1,0,0:0:0:0:
430,290,162828,1,0,0:0:0:0:
404,293,162928,1,8,1:2:0:0:
379,293,163028,1,0,0:0:0:0:
352,288,163128,1,0,0:0:0:0:
327,279,163228,1,0,0:0:0:0:
307,263,163328,5,0,3:2:0:0:
278,238,163428,1,0,0:0:0:0:
244,236,163528,1,0,0:0:0:0:
216,256,163628,1,0,0:0:0:0:
209,290,163728,1,8,1:2:0:0:
224,323,163828,1,0,0:0:0:0:
257,337,163928,1,0,0:2:0:0:
289,325,164028,1,0,0:0:0:0:
310,297,164128,5,2,3:1:0:0:
317,249,164228,1,0,0:0:0:0:
353,215,164328,1,0,3:0:0:0:
402,213,164428,1,0,0:0:0:0:
442,241,164528,1,8,3:0:0:0:
455,287,164628,1,0,0:0:0:0:
436,333,164728,1,0,3:0:0:0:
392,356,164828,1,0,0:0:0:0:
345,342,164928,5,6,3:0:0:0:
397,323,165028,1,0,3:0:0:0:
436,282,165128,1,0,3:0:0:0:
452,228,165228,1,0,3:0:0:0:
442,174,165328,1,8,3:0:0:0:
408,128,165428,1,0,3:0:0:0:
358,105,165528,1,0,3:0:0:0:
301,104,165628,1,0,3:0:0:0:
253,137,165728,6,0,L|211:148,1,24.2000007385254,0|0,3:2|0:2,0:0:0:0:
237,181,165828,2,0,L|215:213,1,24.2000007385254,0|0,0:2|0:2,0:0:0:0:
258,226,165928,2,0,L|263:264,1,24.2000007385254,0|0,0:2|0:2,0:0:0:0:
299,247,166028,2,0,L|328:271,1,24.2000007385254,0|0,0:2|0:2,0:0:0:0:
346,238,166128,6,0,L|383:236,1,24.2000007385254,0|0,3:2|0:2,0:0:0:0:
379,204,166228,2,0,L|407:177,1,24.2000007385254,0|0,0:2|0:2,0:0:0:0:
381,158,166328,2,0,L|386:118,1,24.2000007385254,0|0,0:2|0:2,0:0:0:0:
357,117,166428,2,0,L|336:81,1,24.2000007385254,0|0,0:2|0:2,0:0:0:0:
301,104,166528,5,0,3:2:0:0:
237,181,166728,6,0,L|206:221,2,44
295,18,167328,5,6,1:1:0:0:
311,176,167528,1,0,0:0:0:0:
189,49,167728,1,8,1:2:0:0:
189,49,167828,1,0,0:0:0:0:
189,49,167928,1,0,0:0:0:0:
374,89,168128,2,0,P|415:147|413:197,1,105.599996777344,2|0,3:2|0:0,0:0:0:0:
246,257,168528,2,0,P|212:218|204:167,1,105.599996777344,8|0,1:2|0:0,0:0:0:0:
369,299,168928,5,2,1:2:0:0:
178,362,169128,1,0,0:0:0:0:
288,188,169328,1,8,1:2:0:0:
311,176,169428,1,0,0:0:0:0:
335,166,169528,1,0,0:0:0:0:
280,359,169728,1,2,3:2:0:0:
204,167,169928,1,0,0:0:0:0:
76,345,170128,1,8,1:2:0:0:
252,259,170328,1,0,0:0:0:0:
57,196,170528,6,0,L|-2:308,1,105.599996777344,2|0,1:2|0:0,0:0:0:0:
204,167,170928,2,0,L|263:55,1,105.599996777344,8|0,1:2|0:0,0:0:0:0:
159,239,171328,2,0,P|233:246|286:195,1,105.599996777344,2|0,3:2|0:0,0:0:0:0:
102,124,171728,2,0,P|51:112|2:130,1,105.599996777344,8|0,1:2|0:0,0:0:0:0:
204,167,172128,5,2,1:2:0:0:
101,32,172328,1,0,0:0:0:0:
57,196,172528,1,10,1:2:0:0:
180,79,172728,1,0,0:0:0:0:
143,244,172928,2,0,P|104:278|54:294,1,105.599996777344,2|0,3:2|0:0,0:0:0:0:
56,108,173328,1,8,1:2:0:0:
211,185,173528,1,0,0:0:0:0:
101,32,173728,5,2,1:2:0:0:
254,107,173928,1,0,0:0:0:0:
104,178,174128,1,8,1:2:0:0:
104,178,174228,1,0,0:0:0:0:
104,178,174328,1,0,0:0:0:0:
238,33,174528,2,0,B|270:29|270:29|290:40|290:40|316:29|357:44,1,105.599996777344,2|0,3:2|0:0,0:0:0:0:
394,216,174928,1,8,1:2:0:0:
461,98,175128,1,0,0:0:0:0:
298,197,175328,5,2,1:2:0:0:
387,91,175528,1,0,0:0:0:0:
491,206,175728,1,8,1:2:0:0:
488,232,175828,1,0,0:0:0:0:
481,257,175928,1,0,0:0:0:0:
342,19,176128,2,0,P|309:59|304:111,1,105.599996777344,2|0,3:2|0:0,0:0:0:0:
394,216,176528,1,8,1:2:0:0:
246,227,176728,1,0,0:0:0:0:
415,313,176928,5,2,1:2:0:0:
207,301,177128,1,0,0:0:0:0:
307,131,177328,1,8,1:2:0:0:
308,152,177428,1,0,0:0:0:0:
309,173,177528,1,0,0:0:0:0:
330,346,177728,2,0,B|278:377|278:377|204:377,1,105.599996777344,2|0,3:2|0:0,0:0:0:0:
212,375,178028,1,0,0:0:0:0:
190,374,178128,1,8,1:2:0:0:
246,227,178328,1,0,0:0:0:0:
405,362,178528,5,2,1:2:0:0:
349,215,178728,1,0,0:0:0:0:
207,301,178928,1,10,1:2:0:0:
265,146,179128,1,0,0:0:0:0:
454,304,179328,1,6,3:2:0:0:
226,220,179528,1,0,0:3:0:0:
487,176,179728,1,8,1:2:0:0:
311,330,179928,1,0,0:0:0:0:
347,76,180128,6,0,L|476:71,1,105.599996777344,10|0,1:1|0:0,0:0:0:0:
265,146,180528,2,0,L|136:141,1,105.599996777344,8|0,1:2|0:0,0:0:0:0:
367,174,180928,2,0,P|368:122|346:75,1,105.599996777344,2|0,3:2|0:0,0:0:0:0:
210,252,181328,2,0,P|208:304|231:351,1,105.599996777344,8|0,1:2|0:0,0:0:0:0:
265,146,181728,5,2,1:2:0:0:
88,242,181928,1,0,0:0:0:0:
171,106,182128,1,8,1:2:0:0:
171,106,182228,1,0,0:0:0:0:
171,106,182328,1,0,0:0:0:0:
210,252,182528,1,2,3:2:0:0:
241,64,182728,1,0,0:0:0:0:
66,139,182928,1,8,1:2:0:0:
144,311,183128,1,0,0:0:0:0:
290,169,183328,6,0,P|342:167|387:193,1,105.599996777344,2|0,1:2|0:0,0:0:0:0:
241,335,183728,2,0,P|189:337|144:311,1,105.599996777344,8|0,1:2|0:0,0:0:0:0:
321,248,184128,2,0,L|352:350,1,105.599996777344,2|0,3:2|0:0,0:0:0:0:
209,255,184528,2,0,L|178:153,1,105.599996777344,8|0,1:2|0:0,0:0:0:0:
358,43,184928,5,2,1:2:0:0:
314,229,185128,1,0,0:0:0:0:
172,134,185328,1,10,1:2:0:0:
362,142,185528,1,0,0:0:0:0:
233,23,185728,2,0,B|202:37|202:37|156:24|123:45,1,105.599996777344,2|0,3:2|0:0,0:0:0:0:
132,39,186028,1,0,0:0:0:0:
132,39,186128,1,8,1:2:0:0:
252,140,186328,1,0,0:0:0:0:
353,34,186528,6,0,P|414:44|457:88,1,105.599996777344,6|0,1:2|0:0,0:0:0:0:
415,237,186928,1,8,1:2:0:0:
398,248,187028,1,0,0:0:0:0:
378,253,187128,1,0,0:0:0:0:
237,125,187328,2,0,P|175:117|121:147,1,105.599996777344,2|0,3:2|0:0,0:0:0:0:
182,320,187728,2,0,P|230:338|282:329,1,105.599996777344,8|0,1:2|0:0,0:0:0:0:
355,137,188128,5,6,1:2:0:0:
238,263,188328,1,0,0:0:0:0:
311,70,188528,6,0,P|292:89|280:113,1,52.7999983886719,8|0,1:2|0:0,0:0:0:0:
281,329,188728,2,0,P|300:310|312:286,1,52.7999983886719
428,160,188928,6,0,P|416:184|398:203,1,52.7999983886719,2|0,3:2|0:0,0:0:0:0:
163,238,189128,2,0,P|175:214|194:196,1,52.7999983886719
320,172,189328,5,8,1:2:0:0:
328,165,189428,1,0,0:0:0:0:
337,158,189528,1,0,0:0:0:0:
345,151,189628,1,0,0:0:0:0:
354,145,189728,5,12,1:2:0:0:
350,161,189828,1,0,1:0:0:0:
346,184,189928,1,0,1:2:0:0:
332,207,190028,1,0,1:0:0:0:
316,226,190128,5,4,3:0:0:0:
285,248,190228,1,0,1:0:0:0:
245,260,190328,1,0,3:2:0:0:
207,261,190428,1,0,1:0:0:0:
168,249,190528,5,8,3:0:0:0:
124,211,190628,1,0,3:0:0:0:
99,158,190728,1,0,3:2:0:0:
102,100,190828,1,0,3:0:0:0:
132,50,190928,6,0,P|174:19|198:15,1,52.7999983886719,14|2,3:3|3:0,0:0:0:0:
281,165,191128,2,0,P|237:195|213:199,1,52.7999983886719,10|2,3:0|3:0,0:0:0:0:
357,14,191328,5,10,1:0:0:0:
211,97,191528,1,8,1:0:0:0:
432,179,191828,5,10,1:3:0:0:
274,9,192128,5,14,1:2:0:0:
260,6,192228,1,0,1:0:0:0:
311,226,192428,1,8,1:0:0:0:
468,61,192728,5,6,1:3:0:0:
447,186,192928,6,0,B|433:229|426:253|426:253|388:234|342:247|324:296|324:296|295:256|234:254|206:294,1,330,2|0,0:0|0:0,0:0:0:0:
263,339,194528,2,0,B|294:387|382:377|397:308|397:308|335:243|376:163,1,330,0|0,0:0|0:0,0:0:0:0:
447,186,196128,2,0,B|459:105|395:74|337:79|311:133|311:133|299:96|260:75|220:86,1,330,0|0,0:0|0:0,0:0:0:0:
154,116,197728,2,0,B|185:168|241:156|241:156|248:226|211:267,1,220,0|0,0:0|0:0,0:0:0:0:
125,330,198928,5,0,0:0:0:0:
96,342,199128,1,0,0:0:0:0:
22,265,199328,1,0,0:0:0:0:
34,236,199528,1,0,0:0:0:0:
140,227,199728,1,0,0:0:0:0:
151,238,199828,1,0,0:0:0:0:
163,250,199928,1,0,0:0:0:0:
267,236,200128,6,0,B|202:161|202:161|226:169|263:163,1,154,2|0,0:0|0:0,0:0:0:0:
315,118,200928,2,0,B|348:89|354:26|354:26|367:89|471:124|422:228,1,330,0|0,0:0|0:0,0:0:0:0:
363,275,202528,2,0,B|245:354|102:292|102:292|126:260|123:220|123:220|238:274|332:207,1,572,0|0,0:0|0:0,0:0:0:0:
371,103,205328,5,0,0:0:0:0:
320,23,205528,1,0,0:0:0:0:
261,117,205728,1,0,0:0:0:0:
191,52,205928,1,0,0:0:0:0:
158,158,206128,1,0,0:0:0:0:
158,182,206228,1,0,0:0:0:0:
158,206,206328,1,0,0:0:0:0:
85,288,206528,6,0,B|59:309|59:309|56:178,1,154,2|0,0:0|0:0,0:0:0:0:
128,155,207328,2,0,B|130:231|130:231|165:193|220:200|246:237|246:237|280:204|330:212|354:243,1,330,0|0,0:0|0:0,0:0:0:0:
297,287,208928,2,0,B|267:317|217:317|186:277|186:277|155:313|86:314|64:255|64:255|65:309,1,330,0|0,0:0|0:0,0:0:0:0:
103,371,210528,2,0,B|178:384|186:332|186:332|129:228,1,220,0|0,0:0|0:0,0:0:0:0:
45,153,211728,5,0,0:0:0:0:
23,146,211928,1,0,0:0:0:0:
110,95,212128,1,0,0:0:0:0:
132,88,212328,1,0,0:0:0:0:
192,169,212528,1,0,0:0:0:0:
204,171,212628,1,0,0:0:0:0:
216,173,212728,1,0,0:0:0:0:
295,104,212928,6,0,P|372:95|373:158,1,154,2|0,0:0|0:0,0:0:0:0:
361,225,213728,2,0,B|316:231|316:231|276:204|227:227|227:227|183:199|139:222|139:222|90:192|39:229,1,330,0|0,0:0|0:0,0:0:0:0:
94,282,215328,2,0,B|137:306|179:284|179:284|222:313|269:288|269:288|305:306|305:306|385:294|385:294|440:329|482:335|530:303|520:220|476:209|399:236|454:286,1,572
377,183,218128,5,0,0:0:0:0:
342,106,218328,1,0,0:0:0:0:
267,189,218528,1,0,0:0:0:0:
233,112,218728,1,0,0:0:0:0:
156,193,218928,1,0,0:0:0:0:
175,231,219028,1,0,0:0:0:0:
192,269,219128,1,0,0:0:0:0:
302,264,219328,6,0,P|356:266|365:171,1,154,2|0,0:0|0:0,0:0:0:0:
334,119,220128,2,0,B|288:138|248:117|248:117|202:138|157:116|157:116|138:135|138:135|109:102|53:107|32:138,1,330,0|0,0:0|0:0,0:0:0:0:
17,211,221728,2,0,B|60:217|86:189|86:189|138:222|138:268|138:268|218:220|298:284,1,330,0|0,0:0|0:0,0:0:0:0:
347,318,223328,2,0,B|371:277|352:234|352:234|367:211|367:211|355:184|360:151|360:151|324:186,1,220
223,187,224528,5,0,0:0:0:0:
202,163,224728,1,0,0:0:0:0:
271,88,224928,5,0,3:0:0:0:
288,83,225028,1,0,0:0:0:0:
306,79,225128,1,0,0:0:0:0:
324,74,225228,1,0,0:0:0:0:
342,70,225328,1,0,3:0:0:0:
360,65,225428,1,0,0:0:0:0:
378,61,225528,1,0,0:0:0:0:
396,57,225628,1,0,0:0:0:0:
408,56,225728,5,0,3:0:0:0:
387,48,225828,1,0,0:0:0:0:
366,43,225928,1,0,0:0:0:0:
345,41,226028,1,0,0:0:0:0:
323,41,226128,1,0,3:0:0:0:
302,44,226228,1,0,0:0:0:0:
281,50,226328,1,0,0:0:0:0:
261,58,226428,1,0,0:0:0:0:
243,68,226528,5,2,3:0:0:0:
225,51,226628,1,0,1:0:0:0:
202,41,226728,1,8,2:3:0:0:
178,39,226828,1,0,1:0:0:0:
154,45,226928,1,0,3:0:0:0:
133,58,227028,1,0,1:0:0:0:
118,77,227128,1,8,2:3:0:0:
110,100,227228,1,0,1:0:0:0:
108,127,227328,5,4,3:0:0:0:
132,108,227428,1,0,1:0:0:0:
160,94,227528,1,8,2:3:0:0:
189,87,227628,1,0,1:0:0:0:
220,87,227728,1,0,3:0:0:0:
250,92,227828,1,0,1:0:0:0:
279,104,227928,1,8,2:3:0:0:
304,122,228028,1,0,1:0:0:0:
325,145,228128,5,2,3:0:0:0:
292,160,228228,1,0,1:0:0:0:
256,154,228328,1,8,2:3:0:0:
228,130,228428,1,0,1:0:0:0:
219,95,228528,1,0,3:0:0:0:
230,60,228628,1,0,1:0:0:0:
259,37,228728,1,8,2:3:0:0:
295,34,228828,1,0,1:0:0:0:
327,50,228928,5,4,3:0:0:0:
287,65,229028,1,0,1:0:0:0:
255,94,229128,1,8,1:3:0:0:
238,133,229228,1,0,1:0:0:0:
238,175,229328,1,0,3:0:0:0:
254,215,229428,1,0,3:0:0:0:
285,244,229528,1,8,3:0:0:0:
325,259,229628,1,0,3:0:0:0:
368,257,229728,6,0,L|394:284,1,22,2|0,3:0|0:0,0:0:0:0:
400,243,229828,2,0,L|432:261,1,22
426,219,229928,2,0,L|462:228,1,22,8|0,0:3|0:0,0:0:0:0:
444,189,230028,2,0,L|481:187,1,22
451,155,230128,6,0,L|486:143,1,22,0|0,3:0|0:0,0:0:0:0:
447,120,230228,2,0,L|478:99,1,22,0|0,0:0|0:0,0:0:0:0:
433,88,230328,2,0,L|457:59,1,22,8|0,0:3|0:0,0:0:0:0:
409,62,230428,2,0,L|424:27,1,22,0|0,0:0|0:0,0:0:0:0:
379,45,230528,6,0,L|384:7,1,22,0|0,3:0|0:0,0:0:0:0:
344,38,230628,2,0,L|338:0,1,22,0|0,0:0|0:0,0:0:0:0:
310,42,230728,6,0,L|240:41,2,57.1999973815919,10|4|0,0:3|3:0|0:0,0:0:0:0:
416,224,231328,5,14,1:1:0:0:
271,208,231528,1,0,0:0:0:0:
424,147,231728,1,8,1:2:0:0:
433,143,231828,1,0,0:0:0:0:
442,139,231928,1,0,0:0:0:0:
459,299,232128,2,0,P|417:308|348:281,1,96.8000029541017,10|0,3:2|0:0,0:0:0:0:
320,129,232528,2,0,P|305:174|270:207,1,96.8000029541017,8|0,1:2|0:0,0:0:0:0:
104,163,232928,5,10,1:2:0:0:
181,24,233128,1,0,0:0:0:0:
186,190,233328,1,8,1:2:0:0:
185,199,233428,1,0,0:0:0:0:
184,208,233528,1,0,0:0:0:0:
274,55,233728,1,10,3:2:0:0:
88,55,233928,1,0,0:0:0:0:
183,217,234128,1,8,1:2:0:0:
275,65,234328,1,0,0:0:0:0:
365,218,234528,6,0,L|344:312,1,96.8000029541017,10|0,1:2|0:0,0:0:0:0:
202,320,234928,2,0,L|182:226,1,96.8000029541017,8|0,1:2|0:0,0:0:0:0:
333,140,235328,2,0,P|380:134|423:156,1,96.8000029541017,10|0,3:2|0:0,0:0:0:0:
211,148,235728,2,0,P|164:143|121:165,1,96.8000029541017,8|0,1:2|0:0,0:0:0:0:
202,320,236128,5,10,1:2:0:0:
281,197,236328,1,0,0:0:0:0:
132,262,236528,1,10,1:2:0:0:
299,291,236728,1,0,0:0:0:0:
122,353,236928,2,0,P|72:331|46:291,1,96.8000029541017,10|0,3:2|0:0,0:0:0:0:
72,124,237328,1,8,1:2:0:0:
208,233,237528,1,0,0:0:0:0:
36,207,237728,5,10,1:2:0:0:
189,230,237928,1,0,0:0:0:0:
136,64,238128,1,8,1:2:0:0:
136,64,238228,1,0,0:0:0:0:
136,64,238328,1,0,0:0:0:0:
289,87,238528,2,0,B|290:128|290:128|281:148|281:148|282:194,1,96.8000029541017,10|0,3:2|0:0,0:0:0:0:
122,159,238928,1,8,1:2:0:0:
218,37,239128,1,0,0:0:0:0:
193,229,239328,5,10,1:2:0:0:
289,87,239528,1,0,0:0:0:0:
282,274,239728,1,8,1:2:0:0:
286,284,239828,1,0,0:0:0:0:
289,294,239928,1,0,0:0:0:0:
196,128,240128,2,0,P|149:137|110:164,1,96.8000029541017,10|0,3:2|0:0,0:0:0:0:
206,319,240528,1,8,1:2:0:0:
266,188,240728,1,0,0:0:0:0:
338,362,240928,5,10,1:2:0:0:
222,247,241128,1,0,0:0:0:0:
348,267,241328,1,8,1:2:0:0:
348,267,241428,1,0,0:0:0:0:
348,267,241528,1,0,0:0:0:0:
293,117,241728,2,0,L|179:115,1,96.8000029541017,10|0,3:2|0:0,0:0:0:0:
48,32,242128,5,8,1:2:0:0:
28,185,242328,1,0,0:0:0:0:
151,22,242528,5,10,1:2:0:0:
38,109,242728,1,0,0:0:0:0:
196,115,242928,5,10,1:2:0:0:
139,35,243128,1,0,0:0:0:0:
102,151,243328,5,10,3:2:0:0:
127,48,243528,1,0,0:0:0:0:
182,220,243728,5,8,1:2:0:0:
1,165,243928,1,0,0:0:0:0:
201,119,244128,6,0,B|260:130|260:130|302:114,1,96.8000029541017,10|0,1:1|0:0,0:0:0:0:
413,34,244528,1,8,1:2:0:0:
382,184,244728,1,0,1:0:0:0:
358,177,244828,1,0,1:0:0:0:
336,165,244928,1,2,1:2:0:0:
316,150,245028,1,0,1:0:0:0:
300,131,245128,1,0,1:0:0:0:
434,23,245328,1,8,1:2:0:0:
452,179,245528,1,0,1:0:0:0:
429,186,245628,1,0,1:0:0:0:
405,188,245728,5,2,1:2:0:0:
324,29,245928,1,0,0:0:0:0:
467,95,246128,1,8,1:2:0:0:
395,264,246328,2,0,L|421:304,1,48.4000014770508,0|0,1:0|1:0,0:0:0:0:
388,79,246528,2,0,L|414:38,1,48.4000014770508,2|0,1:2|1:0,0:0:0:0:
252,191,246728,1,0,1:0:0:0:
434,178,246928,1,8,1:2:0:0:
301,274,247128,1,0,1:0:0:0:
295,297,247228,1,0,1:0:0:0:
288,320,247328,6,0,B|278:343|278:343|250:351|188:330,1,96.8000029541017,2|0,1:2|0:0,0:0:0:0:
82,217,247728,2,0,P|130:211|168:183,1,96.8000029541017,8|0,1:2|1:0,0:0:0:0:
97,134,248028,1,0,1:0:0:0:
73,130,248128,2,0,P|45:117|23:99,2,48.4000014770508,2|0|0,1:2|1:0|1:0,0:0:0:0:
214,64,248528,2,0,P|265:89|294:138,1,96.8000029541017,8|0,1:2|1:0,0:0:0:0:
289,144,248828,1,0,1:0:0:0:
285,167,248928,5,2,1:2:0:0:
200,295,249128,1,0,0:0:0:0:
190,63,249328,1,10,1:2:0:0:
277,190,249528,1,0,1:0:0:0:
255,201,249628,1,0,1:0:0:0:
232,208,249728,1,2,1:2:0:0:
208,210,249828,1,0,1:0:0:0:
184,208,249928,1,0,1:0:0:0:
72,127,250128,1,8,1:2:0:0:
213,57,250328,1,0,1:0:0:0:
229,74,250428,1,0,1:0:0:0:
240,95,250528,6,0,P|286:86|349:103,1,96.8000029541017,6|0,1:2|0:0,0:0:0:0:
387,268,250928,2,0,P|378:222|395:159,1,96.8000029541017,8|0,1:2|1:0,0:0:0:0:
404,156,251228,1,0,1:0:0:0:
426,147,251328,1,2,1:2:0:0:
450,149,251428,1,0,1:0:0:0:
471,161,251528,1,0,1:0:0:0:
300,213,251728,2,0,P|252:222|205:213,1,96.8000029541017,8|0,1:2|1:0,0:0:0:0:
201,189,252028,1,0,1:0:0:0:
203,164,252128,5,6,1:2:0:0:
262,0,252328,1,0,0:0:0:0:
317,168,252528,6,0,L|294:231,1,48.4000014770508,8|0,1:2|1:0,0:0:0:0:
363,30,252728,2,0,L|340:97,1,48.4000014770508,0|0,1:0|1:0,0:0:0:0:
398,226,252928,6,0,L|375:289,1,48.4000014770508,8|0,1:1|1:0,0:0:0:0:
444,88,253128,2,0,L|421:151,1,48.4000014770508,0|0,1:0|1:0,0:0:0:0:
446,306,253328,5,8,1:3:0:0:
439,318,253428,1,0,1:0:0:0:
433,331,253528,1,0,1:0:0:0:
425,344,253628,1,0,1:0:0:0:
418,355,253728,5,14,1:2:0:0:
446,336,253828,1,0,1:0:0:0:
472,314,253928,1,0,1:2:0:0:
491,286,254028,1,0,1:0:0:0:
502,254,254128,5,4,3:0:0:0:
504,196,254228,1,0,1:0:0:0:
484,141,254328,1,0,3:2:0:0:
442,100,254428,1,0,1:0:0:0:
388,77,254528,5,8,3:0:0:0:
315,83,254628,1,0,3:0:0:0:
253,120,254728,1,0,3:2:0:0:
219,184,254828,1,0,3:0:0:0:
226,256,254928,6,0,P|233:295|249:320,1,48.4000014770508,14|2,3:3|3:0,0:0:0:0:
426,171,255128,2,0,P|436:193|440:217,1,48.4000014770508,10|2,3:0|3:0,0:0:0:0:
203,202,255328,6,0,P|211:245|228:272,1,48.4000014770508,14|2,3:3|3:0,0:0:0:0:
425,118,255528,2,0,P|434:141|438:165,1,48.4000014770508,10|2,3:0|3:0,0:0:0:0:
178,145,255728,6,0,P|187:193|206:222,1,48.4000014770508,14|2,3:3|3:0,0:0:0:0:
426,63,255928,2,0,P|433:84|436:112,1,48.4000014770508,10|2,3:0|3:0,0:0:0:0:
350,272,256128,6,0,L|374:332,1,48.4000014770508,4|0,3:2|3:0,0:0:0:0:
301,146,256328,6,0,L|280:86,2,44,8|0|0,3:0|0:0|3:0,0:0:0:0:
236,312,256928,5,6,1:1:0:0:
139,198,257128,1,0,0:0:0:0:
97,364,257328,1,8,1:2:0:0:
97,364,257428,1,0,0:0:0:0:
97,364,257528,1,0,0:0:0:0:
229,220,257728,2,0,P|279:232|334:313,1,105.599996777344,2|0,3:2|0:0,0:0:0:0:
106,278,258128,1,8,1:2:0:0:
201,138,258328,1,0,0:0:0:0:
14,258,258528,5,2,1:2:0:0:
131,114,258728,1,0,0:0:0:0:
237,267,258928,1,8,1:2:0:0:
237,267,259028,1,0,0:0:0:0:
237,267,259128,1,0,0:0:0:0:
354,123,259328,1,2,3:2:0:0:
179,188,259528,1,0,0:0:0:0:
364,251,259728,1,8,1:2:0:0:
244,94,259928,1,0,0:0:0:0:
144,274,260128,6,0,P|104:231|92:175,1,105.599996777344,2|0,1:2|0:0,0:0:0:0:
192,0,260528,2,0,P|149:40|93:52,1,105.599996777344,8|0,1:2|0:0,0:0:0:0:
320,0,260928,2,0,P|357:36|407:52,1,105.599996777344,2|0,3:2|0:0,0:0:0:0:
368,273,261328,2,0,P|404:236|420:186,1,105.599996777344,8|0,1:2|0:0,0:0:0:0:
256,50,261728,5,2,1:2:0:0:
198,231,261928,1,0,0:0:0:0:
333,97,262128,1,10,1:2:0:0:
275,278,262328,1,0,0:0:0:0:
158,119,262528,2,0,P|115:148|88:193,1,105.599996777344,2|0,3:2|0:0,0:0:0:0:
302,187,262928,1,8,1:2:0:0:
176,40,263128,1,0,0:0:0:0:
194,241,263328,5,2,1:2:0:0:
68,94,263528,1,0,0:0:0:0:
86,295,263728,1,8,1:2:0:0:
86,295,263828,1,0,0:2:0:0:
86,295,263928,1,0,0:0:0:0:
211,138,264128,2,0,B|235:140|253:132|253:132|270:139|270:139|292:129|336:139,1,105.599996777344,2|0,3:2|0:0,0:0:0:0:
437,298,264528,1,8,1:2:0:0:
276,292,264728,1,0,0:0:0:0:
448,162,264928,5,2,1:2:0:0:
356,305,265128,1,0,0:0:0:0:
388,103,265328,1,8,1:2:0:0:
418,82,265428,1,0,0:0:0:0:
454,76,265528,1,0,0:0:0:0:
394,216,265728,2,0,P|329:212|295:180,1,105.599996777344,2|0,3:2|0:0,0:0:0:0:
490,82,266128,1,8,1:2:0:0:
450,269,266328,1,0,0:0:0:0:
306,106,266528,5,2,1:2:0:0:
346,293,266728,1,0,0:0:0:0:
171,233,266928,1,8,1:2:0:0:
159,229,267028,1,0,0:0:0:0:
147,225,267128,1,0,0:0:0:0:
342,196,267328,2,0,L|445:155,1,105.599996777344,2|0,3:2|0:0,0:0:0:0:
451,153,267628,1,0,0:0:0:0:
462,149,267728,1,8,1:2:0:0:
309,9,267928,1,0,0:0:0:0:
243,209,268128,5,2,1:2:0:0:
374,85,268328,1,0,0:0:0:0:
365,306,268528,1,10,1:2:0:0:
292,130,268728,1,0,0:0:0:0:
512,246,268928,1,6,3:2:0:0:
284,283,269128,1,0,0:3:0:0:
499,140,269328,1,8,1:2:0:0:
433,365,269528,1,0,0:0:0:0:
243,209,269728,6,0,P|206:260|206:316,1,105.599996777344,10|0,1:1|0:0,0:0:0:0:
365,166,270128,2,0,P|402:115|402:59,1,105.599996777344,8|0,1:2|0:0,0:0:0:0:
284,283,270528,2,0,L|391:291,1,105.599996777344,2|0,3:2|0:0,0:0:0:0:
324,92,270928,2,0,L|217:84,1,105.599996777344,8|0,1:2|0:0,0:0:0:0:
415,221,271328,5,2,1:2:0:0:
391,32,271528,1,0,0:0:0:0:
273,183,271728,1,8,1:2:0:0:
273,183,271828,1,0,0:0:0:0:
273,183,271928,1,0,0:0:0:0:
200,6,272128,1,2,3:2:0:0:
82,157,272328,1,0,0:0:0:0:
286,74,272528,1,8,1:2:0:0:
79,33,272728,1,0,0:0:0:0:
168,242,272928,6,0,L|143:363,1,105.599996777344,2|0,1:2|0:0,0:0:0:0:
344,242,273328,2,0,L|365:345,1,105.599996777344,8|0,1:2|0:0,0:0:0:0:
207,152,273728,2,0,L|101:157,1,105.599996777344,2|0,3:2|0:0,0:0:0:0:
296,31,274128,2,0,L|404:37,1,105.599996777344,8|0,1:2|0:0,0:0:0:0:
256,218,274528,5,2,1:2:0:0:
195,50,274728,1,0,0:0:0:0:
128,239,274928,1,10,1:2:0:0:
189,71,275128,1,0,0:0:0:0:
202,288,275328,2,0,B|172:319|172:319|136:332|91:319,1,105.599996777344,2|0,3:2|0:0,0:0:0:0:
84,317,275628,1,0,0:0:0:0:
60,305,275728,1,8,1:2:0:0:
87,129,275928,1,0,0:0:0:0:
276,180,276128,6,0,B|296:177|296:177|287:227|309:286,1,105.599996777344,6|0,1:2|0:0,0:0:0:0:
478,360,276528,1,8,1:2:0:0:
476,333,276628,1,0,0:0:0:0:
477,306,276728,1,0,0:0:0:0:
460,116,276928,2,0,P|396:119|344:96,1,105.599996777344,2|0,3:2|0:0,0:0:0:0:
177,44,277328,2,0,P|241:47|293:24,1,105.599996777344,8|0,1:2|0:0,0:0:0:0:
209,242,277728,5,6,1:2:0:0:
344,92,277928,1,0,0:0:0:0:
167,143,278128,6,0,L|103:184,1,52.7999983886719,8|0,1:2|0:0,0:0:0:0:
385,190,278328,2,0,L|448:148,1,52.7999983886719,0|0,0:0|0:0,0:0:0:0:
238,51,278528,6,0,L|170:17,1,52.7999983886719,2|0,3:2|0:0,0:0:0:0:
312,282,278728,2,0,L|379:315,1,52.7999983886719
175,288,278928,5,8,1:2:0:0:
161,287,279028,1,0,0:0:0:0:
149,288,279128,1,0,0:0:0:0:
136,288,279228,1,0,0:0:0:0:
124,288,279328,5,12,1:2:0:0:
150,301,279428,1,0,1:0:0:0:
179,310,279528,1,0,1:2:0:0:
208,316,279628,1,0,1:0:0:0:
239,311,279728,5,4,3:0:0:0:
284,296,279828,1,0,1:0:0:0:
321,268,279928,1,0,3:2:0:0:
348,231,280028,1,0,1:0:0:0:
366,184,280128,5,8,3:0:0:0:
358,111,280228,1,0,3:0:0:0:
323,45,280328,1,0,3:2:0:0:
256,12,280428,1,0,3:0:0:0:
182,16,280528,6,0,P|119:34|98:53,1,52.7999983886719,14|2,3:3|3:0,0:0:0:0:
202,245,280728,2,0,P|260:221|282:203,1,52.7999983886719,10|2,3:0|3:0,0:0:0:0:
1,189,280928,5,10,1:0:0:0:
181,125,281128,1,8,1:0:0:0:
157,330,281428,5,10,1:3:0:0:
91,76,281728,5,14,1:2:0:0:
96,60,281828,1,0,1:0:0:0:
177,237,282028,1,8,1:0:0:0:
101,44,282328,5,6,1:3:0:0:
178,132,282528,6,0,P|229:145|278:118,1,96.8000029541017,10|0,0:1|0:0,0:0:0:0:
300,105,282828,1,0,0:0:0:0:
300,105,282928,2,0,P|302:73|299:51,1,48.4000014770508,0|0,3:0|0:0,0:0:0:0:
414,238,283128,2,0,P|363:225|314:252,1,96.8000029541017,0|0,0:0|3:0,0:0:0:0:
249,355,283528,1,0,0:0:0:0:
372,298,283728,1,0,3:0:0:0:
241,268,283928,6,0,B|206:261|206:261|184:243|184:243|130:233,1,96.8000029541017,2|0,0:0|3:0,0:0:0:0:
117,249,284228,1,0,0:0:0:0:
117,249,284328,2,0,P|85:253|58:247,1,48.4000014770508,0|0,0:0|0:0,0:0:0:0:
93,103,284528,1,0,3:0:0:0:
132,105,284628,1,0,0:0:0:0:
165,126,284728,2,0,B|202:125|202:125|227:134|227:134|289:132,1,96.8000029541017,0|0,0:0|3:0,0:0:0:0:
298,156,285028,1,0,0:0:0:0:
298,156,285128,2,0,P|330:160|357:154,1,48.4000014770508,0|0,0:0|0:0,0:0:0:0:
300,22,285328,2,0,P|257:15|185:40,1,96.8000029541017,0|0,3:2|0:0,0:0:0:0:
250,235,285728,6,0,P|296:247|344:240,1,96.8000029541017,2|0,3:2|0:0,0:0:0:0:
384,230,286028,1,0,0:0:0:0:
384,230,286128,2,0,L|459:230,1,48.4000014770508,0|0,3:0|0:0,0:0:0:0:
468,77,286328,1,0,0:0:0:0:
294,94,286528,1,0,3:0:0:0:
471,158,286728,1,0,0:0:0:0:
297,171,286928,1,0,3:0:0:0:
397,329,287128,6,0,B|351:342|351:342|300:336,1,96.8000029541017,2|0,0:0|3:0,0:0:0:0:
269,329,287428,1,0,0:0:0:0:
269,329,287528,2,0,P|241:333|218:330,1,48.4000014770508,0|0,0:0|0:0,0:0:0:0:
159,221,287728,2,0,P|187:217|210:220,1,48.4000014770508,0|0,3:0|0:0,0:0:0:0:
273,105,287928,2,0,B|224:96|224:96|175:108,1,96.8000029541017,0|0,0:0|3:0,0:0:0:0:
148,129,288228,1,0,0:0:0:0:
148,129,288328,2,0,L|71:129,1,48.4000014770508,0|0,0:0|0:0,0:0:0:0:
291,191,288528,1,0,3:0:0:0:
343,165,288628,1,0,0:0:0:0:
362,110,288728,1,0,0:0:0:0:
341,55,288828,1,0,0:0:0:0:
288,30,288928,6,0,B|225:18|225:18|194:30,1,96.8000029541017,2|0,3:2|0:0,0:0:0:0:
163,50,289228,1,0,0:0:0:0:
163,50,289328,2,0,L|102:50,1,48.4000014770508,0|0,3:0|0:0,0:0:0:0:
67,207,289528,2,0,B|131:205|131:205|159:221,1,96.8000029541017,0|0,0:0|3:0,0:0:0:0:
263,361,289928,1,0,0:0:0:0:
336,202,290128,1,0,3:0:0:0:
210,292,290328,6,0,P|145:304|106:288,1,96.8000029541017,2|0,0:2|3:0,0:0:0:0:
94,270,290628,1,0,0:0:0:0:
94,270,290728,2,0,L|30:270,1,48.4000014770508,0|0,0:0|0:0,0:0:0:0:
142,146,290928,2,0,L|78:146,1,48.4000014770508,0|0,3:0|0:0,0:0:0:0:
190,22,291128,2,0,B|245:39|245:39|307:39,1,96.8000029541017,0|0,0:2|3:0,0:0:0:0:
309,75,291428,1,0,0:0:0:0:
309,75,291528,2,0,L|374:71,1,48.4000014770508,0|0,0:0|0:0,0:0:0:0:
474,17,291728,2,0,P|493:60|492:108,1,96.8000029541017,0|0,3:2|0:0,0:0:0:0:
458,300,292128,6,0,P|421:270|374:259,1,96.8000029541017,2|0,3:2|0:0,0:0:0:0:
338,266,292428,1,0,0:0:0:0:
338,266,292528,2,0,L|247:266,1,48.4000014770508,0|0,3:0|0:0,0:0:0:0:
246,131,292728,1,0,0:0:0:0:
172,278,292928,1,0,3:0:0:0:
311,184,293128,1,0,0:0:0:0:
144,172,293328,1,0,3:1:0:0:
239,19,293528,6,0,P|287:29|351:75,1,96.8000029541017,2|0,3:2|0:0,0:0:0:0:
357,86,293828,1,0,0:0:0:0:
357,86,293928,2,0,L|419:84,1,48.4000014770508,0|0,0:0|0:0,0:0:0:0:
420,248,294128,2,0,L|482:246,1,48.4000014770508,0|0,0:0|0:0,0:0:0:0:
259,179,294328,2,0,B|148:177,1,96.8000029541017,0|0,3:2|0:0,0:0:0:0:
129,168,294628,1,0,0:0:0:0:
129,168,294728,2,0,L|52:166,1,48.4000014770508
70,305,294928,5,8,1:2:0:0:
120,362,295028,1,0,1:0:0:0:
175,308,295128,1,0,1:0:0:0:
227,364,295228,1,0,1:0:0:0:
279,308,295328,6,0,L|377:307,1,88,10|0,3:1|0:0,0:0:0:0:
401,329,295628,1,0,0:0:0:0:
401,329,295728,2,0,L|460:329,1,44,8|0,1:2|0:0,0:0:0:0:
408,186,295928,2,0,L|310:187,1,88,0|0,1:0|1:0,0:0:0:0:
320,186,296228,1,0,1:0:0:0:
320,186,296328,1,0,1:0:0:0:
268,60,296528,1,8,1:2:0:0:
208,224,296728,6,0,B|176:226|176:226|155:217|155:217|102:216,1,88,2|0,1:2|1:0,0:0:0:0:
91,228,297028,1,0,0:0:0:0:
91,228,297128,2,0,L|27:228,1,44,0|0,1:0|0:0,0:0:0:0:
127,361,297328,1,8,1:2:0:0:
162,360,297428,1,0,0:0:0:0:
197,358,297528,2,0,B|229:357|229:357|249:367|249:367|302:371,1,88,0|0,1:0|1:0,0:0:0:0:
322,375,297828,1,0,1:0:0:0:
322,375,297928,2,0,L|399:375,1,44,0|0,1:0|0:0,0:0:0:0:
418,260,298128,1,8,1:2:0:0:
356,137,298328,1,0,1:0:0:0:
320,136,298428,1,0,1:0:0:0:
288,136,298528,6,0,L|197:136,1,79.1999975830079,2|0,1:2|0:0,0:0:0:0:
208,136,298828,1,0,0:0:0:0:
208,136,298928,1,8,1:2:0:0:
116,46,299128,2,0,L|207:46,1,79.1999975830079,0|0,1:0|1:0,0:0:0:0:
195,46,299428,1,0,0:0:0:0:
195,46,299528,1,0,1:0:0:0:
109,154,299728,1,8,1:2:0:0:
218,265,299928,6,0,B|243:270|270:266|270:266|311:291,1,79.1999975830079,2|0,1:2|1:2,0:0:0:0:
320,305,300228,1,0,0:0:0:0:
320,305,300328,2,0,L|386:307,1,39.5999987915039
395,203,300528,2,0,L|329:201,1,39.5999987915039,8|0,1:2|0:0,0:0:0:0:
320,100,300728,1,0,1:2:0:0:
334,94,300828,1,0,1:2:0:0:
348,88,300928,1,0,1:2:0:0:
362,82,301028,1,0,2:2:0:0:
376,76,301128,2,0,L|442:74,1,39.5999987915039,0|0,1:0|0:0,0:0:0:0:
434,204,301328,2,0,L|368:202,1,39.5999987915039,8|0,1:2|0:0,0:0:0:0:
452,330,301528,1,0,1:0:0:0:
436,330,301628,1,0,0:0:0:0:
420,330,301728,6,0,B|321:327,1,70.4,2|0,1:2|1:2,0:0:0:0:
330,348,302028,1,0,0:0:0:0:
330,348,302128,2,0,L|282:348,1,35.2,8|0,1:2|0:0,0:0:0:0:
242,238,302328,2,0,L|168:236,1,70.4,0|0,1:0|1:0,0:0:0:0:
171,236,302628,1,0,0:0:0:0:
171,236,302728,1,0,1:0:0:0:
252,99,302928,1,8,1:2:0:0:
386,204,303128,6,0,L|388:302,1,70.4,2|0,1:2|1:2,0:2:0:0:
396,306,303428,1,0,0:0:0:0:
396,306,303528,2,0,L|396:363,1,35.2,0|0,1:0|0:0,0:0:0:0:
270,360,303728,1,8,1:2:0:0:
268,346,303828,1,0,0:0:0:0:
267,332,303928,2,0,L|264:235,1,70.4,0|0,1:0|1:0,0:0:0:0:
257,239,304228,1,0,1:0:0:0:
257,239,304328,2,0,L|253:184,1,35.2,0|0,1:0|0:0,0:0:0:0:
231,57,304528,1,8,1:2:0:0:
134,188,304728,1,0,1:0:0:0:
120,188,304828,1,0,1:0:0:0:
107,187,304928,6,0,B|73:181|73:181|31:165,1,61.5999981201172,2|0,1:2|0:0,0:0:0:0:
33,158,305228,1,0,0:0:0:0:
33,158,305328,2,0,L|29:106,1,30.7999990600586,8|0,1:2|0:0,0:0:0:0:
174,44,305528,2,0,B|208:50|208:50|250:66,1,61.5999981201172,0|0,1:0|1:0,0:0:0:0:
233,59,305828,1,0,1:0:0:0:
233,59,305928,1,0,1:0:0:0:
389,71,306128,1,8,0:0:0:0:
307,198,306328,6,0,P|272:203|228:195,1,61.5999981201172,6|0,1:2|1:0,0:0:0:0:
227,194,306628,1,0,1:0:0:0:
227,194,306728,2,0,L|185:190,1,30.7999990600586,0|0,1:0|0:0,0:0:0:0:
225,286,306928,2,0,L|267:290,1,30.7999990600586,0|0,1:0|0:0,0:0:0:0:
177,361,307128,2,0,L|91:365,1,61.5999981201172,4|0,1:2|1:0,0:0:0:0:
91,361,307428,1,0,1:0:0:0:
91,361,307528,2,0,L|40:354,1,30.7999990600586,0|2,1:2|0:0,0:0:0:0:
102,192,307728,5,12,3:2:0:0:
165,263,307828,1,0,3:0:0:0:
256,289,307928,1,0,3:0:0:0:
346,263,308028,1,0,3:0:0:0:
410,192,308128,1,2,3:1:0:0:
256,192,308178,12,0,312928,0:0:0:0:
