osu file format v14

[General]
AudioFilename: Byakuren.mp3
AudioLeadIn: 0
PreviewTime: 143699
Countdown: 0
SampleSet: Normal
StackLeniency: 0.7
Mode: 2
LetterboxInBreaks: 0
WidescreenStoryboard: 0

[Editor]
DistanceSpacing: 1.2
BeatDivisor: 12
GridSize: 4
TimelineZoom: 6.200001

[Metadata]
Title:Three Magic (DiGiTAL WiNG TRANCE Remix)
TitleUnicode:Three Magic (DiGiTAL WiNG TRANCE Remix)
Artist:Halozy
ArtistUnicode:Halozy
Creator:breathless
Version:Sealed Great Magician
Source:東方Project
Tags:聖 白蓮 Hijiri Byakuren 東方星蓮船 ~ Undefined Fantastic Object Touhou Seirensen ~ Undefined Fantastic Object th12 感情の摩天楼 ~ Cosmic Mind Kanjou no Matenrou ~ Cosmic Mind Emotional Skyscraper ~Cosmic Mind Trance Vocal 3L Future Love katsu すみじゅん Sumijun 海兎 Kaito reitaisai9 例大祭9
BeatmapID:915669
BeatmapSetID:423771

[Difficulty]
HPDrainRate:5
CircleSize:4.1
OverallDifficulty:9.5
ApproachRate:9.5
SliderMultiplier:2.2
SliderTickRate:1

[Events]
//Background and Video events
0,0,"BG.jpg",0,0
//Break Periods
2,62109,71870
//Storyboard Layer 0 (Background)
//Storyboard Layer 1 (Fail)
//Storyboard Layer 2 (Pass)
//Storyboard Layer 3 (Foreground)
//Storyboard Sound Samples

[TimingPoints]
2110,214.285714285714,4,1,1,15,1,0
3824,-100,4,2,1,50,0,0
14002,-100,4,2,1,50,0,0
15824,-100,4,2,1,50,0,0
17538,-100,4,2,1,60,0,0
23752,-100,4,2,1,50,0,0
24395,-100,4,2,1,70,0,0
28252,-200,4,2,1,70,0,0
29324,-100,4,2,1,60,0,0
30931,-100,4,2,1,5,0,0
31252,-200,4,2,3,55,0,0
38109,-200,4,2,3,55,0,0
41538,-133.333333333333,4,2,3,55,0,0
42877,-100,4,2,2,25,0,0
43038,-133.333333333333,4,2,3,55,0,0
43734,-100,4,2,2,25,0,0
44109,-133.333333333333,4,2,3,55,0,0
44967,-100,4,2,1,70,0,0
56967,-100,4,2,2,50,0,0
58895,-100,4,2,2,5,0,0
59109,-100,4,2,2,50,0,0
59324,-100,4,2,2,5,0,0
59538,-100,4,2,2,50,0,0
59752,-100,4,2,2,5,0,0
59967,-100,4,2,2,50,0,0
60181,-100,4,2,2,5,0,0
60395,-100,4,2,2,60,0,0
72395,-133.333333333333,4,1,1,5,0,0
74109,-100,4,2,3,80,0,0
80967,-166.666666666667,4,2,3,90,0,0
84395,-100,4,2,2,50,0,0
86109,-133.333333333333,4,2,1,75,0,0
87074,-133.333333333333,4,2,1,15,0,0
87824,-100,4,2,1,100,0,1
94681,-133.333333333333,4,2,1,100,0,1
111824,-100,4,2,2,50,0,0
113538,-100,4,1,1,5,0,0
115252,-133.333333333333,4,2,1,75,0,0
125538,-100,4,2,2,75,0,0
128109,-133.333333333333,4,2,1,75,0,0
128967,-133.333333333333,4,2,1,75,0,0
140967,-100,4,2,2,50,0,0
142681,-166.666666666667,4,1,1,15,0,0
144395,-133.333333333333,4,2,1,100,0,1
158109,-166.666666666667,4,2,1,100,0,1
168395,-166.666666666667,4,2,1,85,0,1
170109,-86.9565217391304,4,2,2,50,0,0
171824,-133.333333333333,4,2,3,90,0,0
173109,-166.666666666667,4,2,1,5,0,0
173538,-166.666666666667,4,2,1,5,0,0
187252,-181.818181818182,4,2,2,25,0,0
188967,-200,4,2,2,35,0,0
190681,-200,4,2,2,50,0,0
192395,-200,4,2,2,60,0,0
194109,-200,4,2,2,75,0,0
195824,-200,4,2,2,80,0,0
197538,-200,4,2,2,60,0,0
199252,-133.333333333333,4,2,2,70,0,0
200967,-181.818181818182,4,2,1,80,0,0
207824,-181.818181818182,4,2,1,80,0,0
211252,-181.818181818182,4,2,1,80,0,0
214681,-153.846153846154,4,2,1,80,0,0
221538,-136.986301369863,4,2,1,80,0,0
223252,-200,4,2,1,80,0,0
224967,-100,4,2,2,75,0,0
226681,-100,4,2,1,75,0,0
228395,-133.333333333333,4,2,1,100,0,1
252395,-166.666666666667,4,2,1,100,0,1
254109,-100,4,2,2,60,0,1
255824,-133.333333333333,4,2,1,100,0,1
279824,-100,4,2,2,60,0,1
281538,-200,4,1,1,15,0,0
283252,-100,4,2,1,5,0,0
296109,-100,4,2,1,75,0,0
296967,-100,4,2,1,50,0,0
297020,-100,4,2,1,5,0,0
303824,-200,4,2,1,30,0,0
304681,-200,4,2,1,40,0,0
305538,-200,4,2,1,50,0,0
306395,-200,4,2,1,60,0,0
307252,-100,4,2,2,50,0,0
308967,-200,4,2,1,15,0,0
310788,-200,4,2,1,5,0,0

[Colours]
Combo1 : 239,239,239
Combo2 : 206,94,255
Combo3 : 255,232,193
Combo4 : 253,185,255

[HitObjects]
208,344,2110,5,0,0:0:0:0:
320,304,2431,6,0,L|280:200,1,110
408,168,2752,5,0,0:0:0:0:
232,128,2967,5,0,0:0:0:0:
368,72,3288,6,0,L|472:112,1,110
328,288,3609,5,0,0:0:0:0:
464,304,3824,5,6,0:0:0:0:
272,328,3931,1,0,0:0:0:0:
304,240,4038,1,0,0:0:0:0:
376,200,4145,1,0,0:0:0:0:
184,224,4252,6,0,L|136:120,2,110,2|0|0,0:0|0:0|0:0,0:0:0:0:
416,216,4574,1,0,0:0:0:0:
136,248,4681,6,0,L|64:152,2,110,2|0|0,0:0|0:0|0:0,0:0:0:0:
448,216,5002,1,0,0:0:0:0:
104,296,5109,6,0,L|16:216,2,110,2|0|0,0:0|0:0|0:0,0:0:0:0:
400,216,5431,1,0,0:0:0:0:
456,224,5538,5,2,0:0:0:0:
488,272,5645,1,0,0:0:0:0:
464,328,5752,1,0,0:0:0:0:
408,344,5859,1,0,0:0:0:0:
104,280,5967,5,2,0:0:0:0:
32,192,6074,1,0,0:0:0:0:
64,96,6181,1,0,0:0:0:0:
152,56,6288,1,0,0:0:0:0:
408,280,6395,5,2,0:0:0:0:
480,192,6502,1,0,0:0:0:0:
448,96,6609,1,0,0:0:0:0:
360,56,6717,1,0,0:0:0:0:
56,224,6824,5,2,0:0:0:0:
24,272,6931,1,0,0:0:0:0:
48,328,7038,1,0,0:0:0:0:
104,344,7145,1,0,0:0:0:0:
296,344,7252,5,2,0:0:0:0:
352,296,7359,1,0,0:0:0:0:
296,248,7467,1,0,0:0:0:0:
240,200,7574,1,0,0:0:0:0:
432,296,7681,5,2,0:0:0:0:
488,248,7788,1,0,0:0:0:0:
432,200,7895,1,0,0:0:0:0:
376,152,8002,1,0,0:0:0:0:
216,256,8109,5,2,0:0:0:0:
160,208,8217,1,0,0:0:0:0:
216,160,8324,1,0,0:0:0:0:
272,112,8431,1,0,0:0:0:0:
80,208,8538,5,2,0:0:0:0:
24,160,8645,1,0,0:0:0:0:
80,112,8752,1,0,0:0:0:0:
136,64,8859,1,0,0:0:0:0:
376,344,8967,5,2,0:0:0:0:
440,288,9074,1,0,0:0:0:0:
376,232,9181,1,0,0:0:0:0:
296,232,9288,1,0,0:0:0:0:
432,176,9395,5,2,0:0:0:0:
488,120,9502,1,0,0:0:0:0:
424,56,9609,1,0,0:0:0:0:
480,48,9717,1,0,0:0:0:0:
136,344,9824,5,2,0:0:0:0:
72,288,9931,1,0,0:0:0:0:
136,232,10038,1,0,0:0:0:0:
216,232,10145,1,0,0:0:0:0:
80,176,10252,5,2,0:0:0:0:
24,120,10359,1,0,0:0:0:0:
88,56,10467,1,0,0:0:0:0:
32,48,10574,1,0,0:0:0:0:
376,344,10681,5,2,0:0:0:0:
440,312,10788,1,0,0:0:0:0:
472,248,10895,1,0,0:0:0:0:
464,176,11002,1,0,0:0:0:0:
216,232,11109,6,0,P|272:144|384:144,1,220,10|0,0:0|0:0,0:0:0:0:
304,88,11431,1,0,0:0:0:0:
136,344,11538,5,2,0:0:0:0:
72,312,11645,1,0,0:0:0:0:
40,248,11752,1,0,0:0:0:0:
48,176,11859,1,0,0:0:0:0:
296,232,11967,6,0,P|240:144|128:144,1,220,10|0,0:0|0:0,0:0:0:0:
208,88,12288,1,0,0:0:0:0:
408,152,12395,5,2,0:0:0:0:
488,112,12502,1,0,0:0:0:0:
408,72,12609,1,0,0:0:0:0:
328,112,12717,1,0,0:0:0:0:
416,232,12824,6,0,L|192:232,1,220,10|0,0:0|0:0,0:0:0:0:
272,168,13145,1,0,0:0:0:0:
104,232,13252,5,2,0:0:0:0:
24,272,13359,1,0,0:0:0:0:
104,312,13467,1,0,0:0:0:0:
184,272,13574,1,0,0:0:0:0:
96,152,13681,6,0,L|320:152,1,220,10|0,0:0|0:0,0:0:0:0:
256,232,14002,1,0,0:0:0:0:
176,256,14109,5,2,0:0:0:0:
96,240,14217,1,0,0:0:0:0:
32,184,14324,1,0,0:0:0:0:
56,104,14431,1,0,0:0:0:0:
384,176,14538,6,0,L|464:96,1,110,10|0,0:0|0:0,0:0:0:0:
216,40,14752,2,0,L|136:120,1,110
424,152,14967,5,2,0:0:0:0:
472,216,15074,1,0,0:0:0:0:
448,296,15181,1,0,0:0:0:0:
376,344,15288,1,0,0:0:0:0:
128,208,15395,6,0,L|48:288,1,110,10|0,0:0|0:0,0:0:0:0:
296,344,15609,2,0,L|376:264,1,110
136,272,15824,5,2,0:0:0:0:
72,200,15931,1,0,0:0:0:0:
96,104,16038,1,0,0:0:0:0:
176,56,16145,1,0,0:0:0:0:
376,160,16252,6,0,L|464:248,1,110,10|0,0:0|0:0,0:0:0:0:
344,256,16467,2,0,L|264:176,1,110
376,288,16681,5,2,0:0:0:0:
440,232,16788,1,0,0:0:0:0:
472,144,16895,1,0,0:0:0:0:
384,88,17002,1,0,0:0:0:0:
120,328,17109,6,0,L|64:232,1,110,10|0,0:0|0:0,0:0:0:0:
368,272,17324,2,0,L|480:272,1,110,8|8,0:0|0:0,0:0:0:0:
264,256,17538,5,6,0:0:0:0:
232,176,17645,1,0,0:0:0:0:
264,104,17752,1,0,0:0:0:0:
344,80,17859,1,0,0:0:0:0:
96,80,17967,6,0,P|40:184|128:256,1,220,10|0,0:0|0:0,0:0:0:0:
192,232,18288,1,0,0:0:0:0:
288,248,18395,5,2,0:0:0:0:
320,320,18502,1,0,0:0:0:0:
248,344,18609,1,0,0:0:0:0:
184,296,18717,1,0,0:0:0:0:
376,192,18824,6,0,P|296:88|192:88,1,220,10|0,0:0|0:0,0:0:0:0:
144,136,19145,1,0,0:0:0:0:
480,176,19252,5,2,0:0:0:0:
456,96,19359,1,0,0:0:0:0:
392,48,19467,1,0,0:0:0:0:
312,40,19574,1,0,0:0:0:0:
72,160,19681,6,0,P|112:256|208:184,1,220,10|0,0:0|0:0,0:0:0:0:
152,144,20002,1,0,0:0:0:0:
248,160,20109,5,2,0:0:0:0:
336,192,20217,1,0,0:0:0:0:
384,120,20324,1,0,0:0:0:0:
312,64,20431,1,0,0:0:0:0:
96,152,20538,6,0,P|40:120|144:72,1,220,10|0,0:0|0:0,0:0:0:0:
208,56,20859,1,0,0:0:0:0:
432,336,20967,5,2,0:0:0:0:
472,256,21074,1,0,0:0:0:0:
456,176,21181,1,0,0:0:0:0:
400,112,21288,1,0,0:0:0:0:
136,336,21395,6,0,P|51:287|80:176,1,220,10|0,0:0|0:0,0:0:0:0:
168,160,21717,1,0,0:0:0:0:
248,208,21824,5,2,0:0:0:0:
320,160,21931,1,0,0:0:0:0:
320,80,22038,1,0,0:0:0:0:
256,56,22145,1,0,0:0:0:0:
80,152,22252,6,0,P|80:264|168:264,1,220,10|0,0:0|0:0,0:0:0:0:
248,248,22574,1,0,0:0:0:0:
312,176,22681,5,2,0:0:0:0:
240,112,22788,1,0,0:0:0:0:
160,168,22895,1,0,0:0:0:0:
184,264,23002,1,0,0:0:0:0:
376,304,23109,6,0,P|384:200|284:184,1,220,10|0,0:0|0:0,0:0:0:0:
220,224,23431,1,0,0:0:0:0:
132,196,23538,1,2,0:0:0:0:
100,116,23645,1,0,0:0:0:0:
440,336,23752,5,2,0:0:0:0:
480,312,23806,1,2,0:0:0:0:
496,256,23859,1,2,0:0:0:0:
480,208,23913,1,2,0:0:0:0:
444,188,23967,6,0,L|448:168,1,18.3333333333333,8|0,0:0|0:0,0:0:0:0:
300,192,24074,2,0,L|304:172,1,18.3333333333333,2|0,0:0|0:0,0:0:0:0:
156,192,24181,2,0,L|160:172,1,18.3333333333333,2|0,0:0|0:0,0:0:0:0:
12,192,24288,2,0,L|16:172,1,18.3333333333333,2|0,0:0|0:0,0:0:0:0:
100,160,24395,5,0,0:0:0:0:
148,208,24502,1,0,0:0:0:0:
124,276,24609,1,0,0:0:0:0:
60,288,24717,1,0,0:0:0:0:
400,344,24824,5,8,0:0:0:0:
456,288,24931,1,0,0:0:0:0:
424,224,25038,1,0,0:0:0:0:
360,216,25145,1,0,0:0:0:0:
312,160,25252,5,0,0:0:0:0:
336,88,25359,1,0,0:0:0:0:
408,48,25467,1,0,0:0:0:0:
472,88,25574,1,0,0:0:0:0:
184,304,25681,5,8,0:0:0:0:
120,296,25788,1,0,0:0:0:0:
64,264,25895,1,0,0:0:0:0:
40,216,26002,1,0,0:0:0:0:
160,232,26109,5,0,0:0:0:0:
120,176,26217,1,0,0:0:0:0:
152,112,26324,1,0,0:0:0:0:
216,80,26431,1,0,0:0:0:0:
424,288,26538,5,8,0:0:0:0:
352,264,26645,1,0,0:0:0:0:
312,200,26752,1,0,0:0:0:0:
384,200,26859,1,0,0:0:0:0:
424,152,26967,5,0,0:0:0:0:
424,88,27074,1,0,0:0:0:0:
376,48,27181,1,0,0:0:0:0:
312,48,27288,1,0,0:0:0:0:
120,96,27395,5,8,0:0:0:0:
200,136,27502,1,0,0:0:0:0:
224,216,27609,1,0,0:0:0:0:
160,272,27717,1,0,0:0:0:0:
88,224,27824,5,0,0:0:0:0:
40,296,27931,1,0,0:0:0:0:
104,344,28038,1,0,0:0:0:0:
192,336,28145,1,0,0:0:0:0:
432,344,28252,6,0,L|472:304,1,55,8|0,0:0|0:0,0:0:0:0:
396,264,28467,2,0,L|340:264,1,55
416,216,28681,6,0,L|456:176,1,55
380,152,28895,2,0,L|324:152,1,55
104,144,29109,2,0,L|48:144,1,55,8|0,0:0|0:0,0:0:0:0:
232,240,29324,5,8,0:0:0:0:
272,264,29377,1,8,0:0:0:0:
284,304,29431,1,8,0:0:0:0:
260,344,29484,1,8,0:0:0:0:
216,352,29538,6,0,L|196:352,1,18.3333333333333,8|0,0:0|0:0,0:0:0:0:
120,348,29645,2,0,L|104:324,1,18.3333333333333,8|0,0:0|0:0,0:0:0:0:
32,272,29752,2,0,L|36:252,1,18.3333333333333,8|0,0:0|0:0,0:0:0:0:
120,184,29859,2,0,L|136:176,1,18.3333333333333,8|0,0:0|0:0,0:0:0:0:
240,144,29967,6,0,L|260:144,1,18.3333333333333,8|0,0:0|0:0,0:0:0:0:
360,168,30074,2,0,L|380:168,1,18.3333333333333,8|0,0:0|0:0,0:0:0:0:
480,224,30181,2,0,L|476:244,1,18.3333333333333,8|0,0:0|0:0,0:0:0:0:
376,304,30288,2,0,L|356:304,1,18.3333333333333,8|0,0:0|0:0,0:0:0:0:
144,300,30395,6,0,L|128:284,1,18.3333333333333,8|0,0:0|0:0,0:0:0:0:
20,212,30502,2,0,L|36:196,1,18.3333333333333,8|0,0:0|0:0,0:0:0:0:
368,84,30609,2,0,L|384:100,1,18.3333333333333,8|0,0:0|0:0,0:0:0:0:
492,172,30717,2,0,L|476:188,1,18.3333333333333,8|0,0:0|0:0,0:0:0:0:
112,344,30824,6,0,L|32:264,1,110,8|0,0:0|0:0,0:0:0:0:
56,240,30949,1,0,0:0:0:0:
248,208,31038,2,0,L|272:184,1,18.3333333333333
456,160,31145,2,0,L|480:160,1,18.3333333333333
80,264,31252,6,0,P|56:256|56:168,2,110,2|0|2,0:0|0:0|0:0,0:0:0:0:
200,248,31895,1,0,0:0:0:0:
288,296,32109,2,0,L|176:256,1,110,2|0,0:0|0:0,0:0:0:0:
472,176,32538,1,2,0:0:0:0:
144,216,32752,6,0,P|184:248|200:304,2,110,0|2|0,0:0|0:0|0:0,0:0:0:0:
368,336,33395,2,0,L|480:336,1,110,2|0,0:0|0:0,0:0:0:0:
48,240,33824,2,0,L|128:160,2,110,2|0|2,0:0|0:0|0:0,0:0:0:0:
176,328,34467,1,0,0:0:0:0:
304,320,34681,5,2,0:0:0:0:
224,264,34895,1,0,0:0:0:0:
304,216,35109,1,2,0:0:0:0:
472,280,35324,2,0,L|360:280,1,110,0|2,0:0|0:0,0:0:0:0:
272,144,35752,1,0,0:0:0:0:
408,176,35967,1,2,0:0:0:0:
96,328,36181,6,0,P|40:304|24:248,1,110,0|2,0:0|0:0,0:0:0:0:
208,264,36609,6,0,L|192:208,1,55
112,192,36824,2,0,L|136:136,1,55,2|0,0:0|0:0,0:0:0:0:
296,264,37038,6,0,L|280:208,1,55
200,192,37252,2,0,L|224:136,1,55,2|0,0:0|0:0,0:0:0:0:
384,264,37467,6,0,L|368:208,1,55
288,192,37681,2,0,L|312:136,1,55,2|0,0:0|0:0,0:0:0:0:
472,264,37895,2,0,L|488:208,1,55
144,336,38109,6,0,P|80:312|64:256,1,110,2|0,0:0|0:0,0:0:0:0:
128,200,38431,1,0,0:0:0:0:
368,168,38538,2,0,L|472:120,1,110,10|0,0:0|0:0,0:0:0:0:
152,136,38967,5,2,0:0:0:0:
104,136,39074,1,0,0:0:0:0:
56,136,39181,1,0,0:0:0:0:
232,264,39395,5,10,0:0:0:0:
168,280,39502,1,0,0:0:0:0:
104,280,39609,2,0,P|136:312|200:312,2,110,0|2|0,0:0|0:0|0:0,0:0:0:0:
424,248,40252,6,0,L|480:224,1,55,10|0,0:0|0:0,0:0:0:0:
208,176,40467,2,0,L|88:152,2,110,0|2|0,0:0|0:0|0:0,0:0:0:0:
32,240,41109,2,0,L|144:248,1,110,10|0,0:0|0:0,0:0:0:0:
464,256,41538,6,0,P|352:240|328:200,3,165.000006294251,2|0|10|0,0:0|0:0|0:0|0:0,0:0:0:0:
416,160,42395,6,0,L|480:96,1,82.5000031471254,2|0,0:0|0:0,0:0:0:0:
168,344,42609,2,0,P|96:344|32:280,1,165.000006294251,0|10,0:0|0:0,0:0:0:0:
72,248,42877,5,0,0:0:0:0:
88,192,42931,1,0,0:0:0:0:
64,136,42984,1,0,0:0:0:0:
32,104,43038,2,0,P|80:48|176:48,1,165.000006294251,0|2,0:0|0:0,0:0:0:0:
392,344,43467,6,0,L|224:344,1,165.000006294251,0|10,0:0|0:0,0:0:0:0:
184,320,43734,1,0,0:0:0:0:
159,272,43788,1,0,0:0:0:0:
177,222,43842,1,0,0:0:0:0:
227,201,43895,1,0,0:0:0:0:
275,222,43949,1,0,0:0:0:0:
293,273,44002,1,0,0:0:0:0:
268,320,44056,1,0,0:0:0:0:
96,232,44109,6,0,L|24:304,2,82.5000031471254,2|0|0,0:0|0:0|0:0,0:0:0:0:
384,296,44431,1,0,0:0:0:0:
488,288,44538,6,0,L|416:216,1,82.5000031471254,2|0,0:0|0:0,0:0:0:0:
160,344,44752,1,0,0:0:0:0:
88,320,44859,1,0,0:0:0:0:
152,296,44967,5,2,0:0:0:0:
104,264,45074,1,0,0:0:0:0:
96,216,45181,1,0,0:0:0:0:
128,168,45288,1,0,0:0:0:0:
240,232,45395,5,10,0:0:0:0:
176,216,45502,1,0,0:0:0:0:
160,152,45609,1,0,0:0:0:0:
200,96,45717,1,0,0:0:0:0:
336,72,45824,5,2,0:0:0:0:
384,88,45931,1,0,0:0:0:0:
432,128,46038,1,0,0:0:0:0:
448,184,46145,1,0,0:0:0:0:
304,208,46252,5,10,0:0:0:0:
264,248,46359,1,0,0:0:0:0:
280,312,46467,1,0,0:0:0:0:
336,336,46574,1,0,0:0:0:0:
464,280,46681,5,2,0:0:0:0:
424,240,46788,1,0,0:0:0:0:
368,216,46895,1,0,0:0:0:0:
312,208,47002,1,0,0:0:0:0:
200,208,47109,5,10,0:0:0:0:
152,192,47217,1,0,0:0:0:0:
128,144,47324,1,0,0:0:0:0:
144,88,47431,1,0,0:0:0:0:
264,64,47538,5,2,0:0:0:0:
216,40,47645,1,0,0:0:0:0:
160,40,47752,1,0,0:0:0:0:
112,56,47859,1,0,0:0:0:0:
32,128,47967,5,10,0:0:0:0:
56,176,48074,1,0,0:0:0:0:
104,200,48181,1,0,0:0:0:0:
160,192,48288,1,0,0:0:0:0:
392,320,48395,5,2,0:0:0:0:
440,296,48502,1,0,0:0:0:0:
480,232,48609,1,0,0:0:0:0:
448,168,48717,1,0,0:0:0:0:
344,200,48824,5,10,0:0:0:0:
272,168,48931,1,0,0:0:0:0:
312,104,49038,1,0,0:0:0:0:
376,104,49145,1,0,0:0:0:0:
464,104,49252,5,2,0:0:0:0:
416,120,49359,1,0,0:0:0:0:
312,168,49467,1,0,0:0:0:0:
344,224,49574,1,0,0:0:0:0:
440,232,49681,5,10,0:0:0:0:
488,280,49788,1,0,0:0:0:0:
392,328,49895,1,0,0:0:0:0:
312,328,50002,1,0,0:0:0:0:
96,352,50109,5,2,0:0:0:0:
40,288,50217,1,0,0:0:0:0:
64,208,50324,1,0,0:0:0:0:
144,184,50431,1,0,0:0:0:0:
216,256,50538,5,10,0:0:0:0:
144,272,50645,1,0,0:0:0:0:
72,256,50752,1,0,0:0:0:0:
32,192,50859,1,0,0:0:0:0:
128,160,50967,5,2,0:0:0:0:
80,104,51074,1,0,0:0:0:0:
168,80,51181,1,0,0:0:0:0:
232,64,51288,1,0,0:0:0:0:
304,72,51395,5,10,0:0:0:0:
368,120,51502,1,0,0:0:0:0:
368,192,51609,1,0,0:0:0:0:
320,248,51717,1,0,0:0:0:0:
80,216,51824,5,6,0:0:0:0:
56,264,51931,1,0,0:0:0:0:
72,320,52038,1,0,0:0:0:0:
120,344,52145,1,0,0:0:0:0:
224,336,52252,5,10,0:0:0:0:
256,288,52359,1,0,0:0:0:0:
240,232,52467,1,0,0:0:0:0:
192,208,52574,1,0,0:0:0:0:
424,336,52681,5,2,0:0:0:0:
456,264,52788,1,0,0:0:0:0:
432,192,52895,1,0,0:0:0:0:
368,160,53002,1,0,0:0:0:0:
456,120,53109,5,10,0:0:0:0:
400,80,53217,1,0,0:0:0:0:
328,80,53324,1,0,0:0:0:0:
272,120,53431,1,0,0:0:0:0:
96,312,53538,5,2,0:0:0:0:
40,240,53645,1,0,0:0:0:0:
56,144,53752,1,0,0:0:0:0:
120,80,53859,1,0,0:0:0:0:
288,168,53967,5,10,0:0:0:0:
232,240,54074,1,0,0:0:0:0:
296,312,54181,1,0,0:0:0:0:
384,312,54288,1,0,0:0:0:0:
216,304,54395,5,2,0:0:0:0:
144,272,54502,1,0,0:0:0:0:
136,192,54609,1,0,0:0:0:0:
216,184,54717,1,0,0:0:0:0:
128,152,54824,5,10,0:0:0:0:
72,104,54931,1,0,0:0:0:0:
112,48,55038,1,0,0:0:0:0:
184,64,55145,1,0,0:0:0:0:
440,128,55252,5,2,0:0:0:0:
360,160,55359,1,0,0:0:0:0:
336,232,55467,1,0,0:0:0:0:
424,232,55574,1,0,0:0:0:0:
464,304,55681,5,10,0:0:0:0:
392,344,55788,1,0,0:0:0:0:
312,328,55895,1,0,0:0:0:0:
272,264,56002,1,0,0:0:0:0:
144,64,56109,5,2,0:0:0:0:
216,64,56217,1,0,0:0:0:0:
296,104,56324,1,0,0:0:0:0:
336,184,56431,1,0,0:0:0:0:
368,320,56538,5,10,0:0:0:0:
296,320,56645,1,0,0:0:0:0:
216,280,56752,1,0,0:0:0:0:
176,200,56859,1,0,0:0:0:0:
344,96,56967,5,0,0:0:0:0:
395,137,57020,1,0,0:0:0:0:
389,202,57074,1,0,0:0:0:0:
330,232,57127,1,0,0:0:0:0:
168,288,57181,5,0,0:0:0:0:
116,246,57234,1,0,0:0:0:0:
122,181,57288,1,0,0:0:0:0:
181,151,57342,1,0,0:0:0:0:
376,96,57395,5,0,0:0:0:0:
427,137,57449,1,0,0:0:0:0:
421,202,57502,1,0,0:0:0:0:
362,232,57556,1,0,0:0:0:0:
136,288,57609,5,0,0:0:0:0:
85,247,57663,1,0,0:0:0:0:
91,182,57717,1,0,0:0:0:0:
150,152,57770,1,0,0:0:0:0:
404,96,57824,5,0,0:0:0:0:
455,137,57877,1,0,0:0:0:0:
449,202,57931,1,0,0:0:0:0:
390,232,57984,1,0,0:0:0:0:
108,288,58038,5,0,0:0:0:0:
57,247,58092,1,0,0:0:0:0:
63,182,58145,1,0,0:0:0:0:
122,152,58199,1,0,0:0:0:0:
444,96,58252,5,0,0:0:0:0:
495,137,58306,1,0,0:0:0:0:
489,202,58359,1,0,0:0:0:0:
430,232,58413,1,0,0:0:0:0:
68,288,58467,5,0,0:0:0:0:
17,247,58520,1,0,0:0:0:0:
23,182,58574,1,0,0:0:0:0:
82,152,58627,1,0,0:0:0:0:
320,192,58681,6,0,L|480:352,1,220
192,192,59109,2,0,L|32:32,1,220
320,192,59538,1,0,0:0:0:0:
144,288,59752,6,0,L|256:96,2,220
472,144,60395,1,4,0:0:0:0:
256,344,72395,5,0,0:0:0:0:
231,331,72431,1,0,0:0:0:0:
210,313,72467,1,0,0:0:0:0:
193,292,72502,1,0,0:0:0:0:
182,267,72538,1,0,0:0:0:0:
176,240,72574,1,0,0:0:0:0:
175,212,72609,5,0,0:0:0:0:
181,186,72645,1,0,0:0:0:0:
193,161,72681,1,0,0:0:0:0:
209,139,72717,1,0,0:0:0:0:
230,121,72752,1,0,0:0:0:0:
254,108,72788,1,0,0:0:0:0:
272,340,72824,5,0,0:0:0:0:
298,325,72859,1,0,0:0:0:0:
321,305,72895,1,0,0:0:0:0:
340,282,72931,1,0,0:0:0:0:
352,255,72967,1,0,0:0:0:0:
358,225,73002,1,0,0:0:0:0:
359,194,73038,5,0,0:0:0:0:
353,166,73074,1,0,0:0:0:0:
340,138,73109,1,0,0:0:0:0:
322,114,73145,1,0,0:0:0:0:
299,94,73181,1,0,0:0:0:0:
273,80,73217,1,0,0:0:0:0:
256,340,73252,5,0,0:0:0:0:
227,323,73288,1,0,0:0:0:0:
202,301,73324,1,0,0:0:0:0:
181,276,73359,1,0,0:0:0:0:
168,246,73395,1,0,0:0:0:0:
161,213,73431,1,0,0:0:0:0:
160,179,73467,5,0,0:0:0:0:
166,148,73502,1,0,0:0:0:0:
181,117,73538,1,0,0:0:0:0:
201,91,73574,1,0,0:0:0:0:
226,69,73609,1,0,0:0:0:0:
254,53,73645,1,0,0:0:0:0:
272,340,73681,5,0,0:0:0:0:
303,321,73717,1,0,0:0:0:0:
331,297,73752,1,0,0:0:0:0:
354,269,73788,1,0,0:0:0:0:
368,236,73824,1,0,0:0:0:0:
376,200,73859,1,0,0:0:0:0:
377,162,73895,5,0,0:0:0:0:
371,128,73931,1,0,0:0:0:0:
354,94,73967,1,0,0:0:0:0:
332,66,74002,1,0,0:0:0:0:
305,41,74038,1,0,0:0:0:0:
274,24,74074,1,0,0:0:0:0:
64,324,74109,5,2,0:0:0:0:
19,267,74217,1,0,0:0:0:0:
35,195,74324,1,0,0:0:0:0:
91,151,74431,1,0,0:0:0:0:
204,152,74538,5,2,0:0:0:0:
276,152,74645,1,0,0:0:0:0:
332,184,74752,1,0,0:0:0:0:
356,248,74859,1,0,0:0:0:0:
224,336,74967,5,2,0:0:0:0:
160,312,75074,1,0,0:0:0:0:
136,248,75181,1,0,0:0:0:0:
160,184,75288,1,0,0:0:0:0:
440,200,75395,5,2,0:0:0:0:
416,136,75502,1,0,0:0:0:0:
360,96,75609,1,0,0:0:0:0:
296,88,75717,1,0,0:0:0:0:
192,200,75824,5,2,0:0:0:0:
216,144,75931,1,0,0:0:0:0:
272,120,76038,1,0,0:0:0:0:
328,128,76145,1,0,0:0:0:0:
224,48,76252,5,2,0:0:0:0:
288,48,76359,1,0,0:0:0:0:
344,72,76467,1,0,0:0:0:0:
376,128,76574,1,0,0:0:0:0:
480,200,76681,5,2,0:0:0:0:
464,264,76788,1,0,0:0:0:0:
400,288,76895,1,0,0:0:0:0:
336,280,77002,1,0,0:0:0:0:
56,216,77109,5,2,0:0:0:0:
80,160,77217,1,0,0:0:0:0:
128,128,77324,1,0,0:0:0:0:
192,128,77431,1,0,0:0:0:0:
296,168,77538,5,2,0:0:0:0:
280,104,77645,1,0,0:0:0:0:
224,72,77752,1,0,0:0:0:0:
152,72,77859,1,0,0:0:0:0:
424,304,77967,5,2,0:0:0:0:
464,264,78074,1,0,0:0:0:0:
456,208,78181,1,0,0:0:0:0:
416,168,78288,1,0,0:0:0:0:
312,232,78395,5,2,0:0:0:0:
360,224,78502,1,0,0:0:0:0:
400,192,78609,1,0,0:0:0:0:
416,144,78717,1,0,0:0:0:0:
88,344,78824,5,2,0:0:0:0:
48,304,78931,1,0,0:0:0:0:
56,248,79038,1,0,0:0:0:0:
96,208,79145,1,0,0:0:0:0:
200,272,79252,5,2,0:0:0:0:
152,264,79359,1,0,0:0:0:0:
112,232,79467,1,0,0:0:0:0:
96,184,79574,1,0,0:0:0:0:
348,120,79681,5,2,0:0:0:0:
324,176,79788,1,0,0:0:0:0:
276,208,79895,1,0,0:0:0:0:
220,216,80002,1,0,0:0:0:0:
324,264,80109,5,2,0:0:0:0:
388,256,80217,1,0,0:0:0:0:
436,224,80324,1,0,0:0:0:0:
460,168,80431,1,0,0:0:0:0:
268,148,80538,5,2,0:0:0:0:
204,140,80645,1,0,0:0:0:0:
156,108,80752,1,0,0:0:0:0:
132,52,80859,1,0,0:0:0:0:
192,264,80967,6,2,L|120:264,3,65.9999979858399,2|2|2|2,0:0|0:0|0:0|0:0,0:0:0:0:
40,176,81395,6,2,L|112:176,3,65.9999979858399,2|2|2|2,0:0|0:0|0:0|0:0,0:0:0:0:
312,144,81824,6,2,L|384:144,3,65.9999979858399,2|2|2|2,0:0|0:0|0:0|0:0,0:0:0:0:
440,224,82252,6,2,L|368:224,3,65.9999979858399,2|2|2|2,0:0|0:0|0:0|0:0,0:0:0:0:
256,296,82681,6,2,L|184:296,2,65.9999979858399,2|2|2,0:0|0:0|0:0,0:0:0:0:
160,232,83002,2,2,L|88:232,2,65.9999979858399,2|2|2,0:0|0:0|0:0,0:0:0:0:
256,160,83324,6,2,L|184:160,2,65.9999979858399,2|2|2,0:0|0:0|0:0,0:0:0:0:
352,112,83645,2,2,L|424:112,2,65.9999979858399
152,64,83967,6,2,L|80:64,2,65.9999979858399,2|2|2,0:0|0:0|0:0,0:0:0:0:
240,136,84288,1,2,0:0:0:0:
96,176,84395,5,0,0:0:0:0:
50,205,84449,1,0,0:0:0:0:
36,256,84502,1,0,0:0:0:0:
60,305,84556,1,0,0:0:0:0:
110,325,84609,1,0,0:0:0:0:
160,306,84663,1,0,0:0:0:0:
185,258,84717,1,0,0:0:0:0:
172,206,84770,1,0,0:0:0:0:
148,172,84824,5,0,0:0:0:0:
124,123,84877,1,0,0:0:0:0:
136,71,84931,1,0,0:0:0:0:
179,38,84984,1,0,0:0:0:0:
233,39,85038,1,0,0:0:0:0:
274,75,85092,1,0,0:0:0:0:
283,128,85145,1,0,0:0:0:0:
256,175,85199,1,0,0:0:0:0:
224,216,85252,5,0,0:0:0:0:
202,265,85306,1,0,0:0:0:0:
216,317,85359,1,0,0:0:0:0:
260,349,85413,1,0,0:0:0:0:
313,347,85467,1,0,0:0:0:0:
354,312,85520,1,0,0:0:0:0:
365,259,85574,1,0,0:0:0:0:
340,211,85627,1,0,0:0:0:0:
296,188,85681,5,0,0:0:0:0:
290,134,85734,1,0,0:0:0:0:
322,92,85788,1,0,0:0:0:0:
375,83,85842,1,0,0:0:0:0:
419,114,85895,1,0,0:0:0:0:
429,167,85949,1,0,0:0:0:0:
400,212,86002,1,0,0:0:0:0:
348,224,86056,1,0,0:0:0:0:
296,176,86109,6,0,P|272:232|384:288,1,206.250007867813,2|0,0:0|0:0,0:0:0:0:
104,352,86431,2,0,P|40:280|88:192,1,206.250007867813,2|0,0:0|0:0,0:0:0:0:
312,336,86752,2,0,L|480:336,1,165.000006294251,2|0,0:0|0:0,0:0:0:0:
216,328,87074,5,0,0:0:0:0:
144,312,87181,1,0,0:0:0:0:
112,232,87288,1,0,0:0:0:0:
152,152,87395,1,0,0:0:0:0:
224,112,87502,1,0,0:0:0:0:
160,64,87609,1,0,0:0:0:0:
80,56,87717,1,0,0:0:0:0:
448,96,87824,5,2,0:0:0:0:
400,152,87931,2,0,P|336:168|320:216,2,110
344,272,88252,1,2,0:0:0:0:
304,288,88359,2,0,P|360:344|416:336,2,110
216,256,88681,5,2,0:0:0:0:
168,272,88788,2,0,P|80:248|64:224,2,110
104,240,89109,1,2,0:0:0:0:
48,176,89217,2,0,P|80:128|136:120,2,110
136,216,89538,5,2,0:0:0:0:
208,176,89645,2,0,P|296:192|312:224,2,110
296,232,89967,1,2,0:0:0:0:
376,192,90074,2,0,P|320:176|288:128,2,110
432,176,90395,5,2,0:0:0:0:
480,200,90502,2,0,P|416:256|384:256,2,110
376,232,90824,1,2,0:0:0:0:
304,272,90931,2,0,P|352:320|392:320,2,110
104,264,91252,5,2,0:0:0:0:
40,224,91359,2,0,P|104:208|120:160,2,110
128,200,91681,1,2,0:0:0:0:
184,128,91788,2,0,P|128:72|72:80,2,110
272,136,92109,5,2,0:0:0:0:
336,104,92217,2,0,P|424:128|440:152,2,110
408,144,92538,1,2,0:0:0:0:
472,208,92645,2,0,P|440:256|384:264,2,110
376,168,92967,5,2,0:0:0:0:
304,208,93074,2,0,P|216:192|200:160,2,110
216,152,93395,1,2,0:0:0:0:
136,192,93502,2,0,P|192:208|224:256,2,110
72,208,93824,5,2,0:0:0:0:
40,144,93931,1,0,0:0:0:0:
88,80,94038,1,0,0:0:0:0:
152,96,94145,1,0,0:0:0:0:
256,160,94252,5,2,0:0:0:0:
344,120,94359,1,0,0:0:0:0:
168,48,94467,1,0,0:0:0:0:
80,120,94574,1,0,0:0:0:0:
392,240,94681,6,0,L|480:240,3,82.5000031471254,2|0|0|0,0:0|0:0|0:0|0:0,0:0:0:0:
392,144,95109,2,0,L|304:144,3,82.5000031471254,2|0|0|0,0:0|0:0|0:0|0:0,0:0:0:0:
200,200,95538,2,0,L|112:200,3,82.5000031471254,2|0|0|0,0:0|0:0|0:0|0:0,0:0:0:0:
40,280,95967,2,0,L|128:280,3,82.5000031471254,2|0|0|0,0:0|0:0|0:0|0:0,0:0:0:0:
368,336,96395,6,0,L|456:336,3,82.5000031471254,2|0|0|0,0:0|0:0|0:0|0:0,0:0:0:0:
400,256,96824,2,0,L|312:256,3,82.5000031471254,2|0|0|0,0:0|0:0|0:0|0:0,0:0:0:0:
136,280,97252,2,0,L|48:280,3,82.5000031471254,2|0|0|0,0:0|0:0|0:0|0:0,0:0:0:0:
120,200,97681,2,0,L|208:200,3,82.5000031471254,2|0|0|0,0:0|0:0|0:0|0:0,0:0:0:0:
344,336,98109,5,2,0:0:0:0:
392,272,98217,2,0,L|480:272,2,82.5000031471254
160,336,98538,1,2,0:0:0:0:
112,280,98645,1,0,0:0:0:0:
128,208,98752,1,0,0:0:0:0:
184,160,98859,1,0,0:0:0:0:
296,144,98967,5,2,0:0:0:0:
216,88,99074,2,0,L|128:88,2,82.5000031471254
80,176,99395,1,2,0:0:0:0:
40,232,99502,1,0,0:0:0:0:
64,296,99609,1,0,0:0:0:0:
128,320,99717,1,0,0:0:0:0:
392,96,99824,5,2,0:0:0:0:
448,144,99931,1,0,0:0:0:0:
384,168,100038,1,0,0:0:0:0:
320,160,100145,1,0,0:0:0:0:
392,224,100252,5,2,0:0:0:0:
416,288,100359,1,0,0:0:0:0:
352,312,100467,1,0,0:0:0:0:
288,304,100574,1,0,0:0:0:0:
184,280,100681,5,2,0:0:0:0:
240,256,100788,1,0,0:0:0:0:
264,208,100895,1,0,0:0:0:0:
248,160,101002,1,0,0:0:0:0:
176,128,101109,1,2,0:0:0:0:
256,96,101217,1,0,0:0:0:0:
448,168,101324,1,2,0:0:0:0:
408,112,101431,1,2,0:0:0:0:
184,192,101538,5,2,0:0:0:0:
104,224,101645,2,0,P|56:224|24:256,2,82.5000031471254
200,272,101967,1,2,0:0:0:0:
272,312,102074,2,0,P|320:312|352:280,2,82.5000031471254
336,216,102395,5,2,0:0:0:0:
272,160,102502,2,0,P|240:128|200:128,2,82.5000031471254
352,160,102824,1,2,0:0:0:0:
424,176,102931,2,0,P|456:208|496:208,2,82.5000031471254
200,88,103252,5,2,0:0:0:0:
128,40,103359,2,0,P|80:40|56:64,2,82.5000031471254
256,144,103681,1,2,0:0:0:0:
176,168,103788,2,0,P|128:168|104:192,2,82.5000031471254
312,224,104109,5,2,0:0:0:0:
240,264,104217,2,0,P|192:264|168:240,2,82.5000031471254
376,296,104538,1,2,0:0:0:0:
296,336,104645,2,0,P|248:336|216:304,2,82.5000031471254
400,344,104967,5,2,0:0:0:0:
456,312,105074,1,0,0:0:0:0:
472,248,105181,1,0,0:0:0:0:
432,184,105288,1,0,0:0:0:0:
64,112,105395,5,2,0:0:0:0:
32,176,105502,1,0,0:0:0:0:
56,232,105609,1,0,0:0:0:0:
112,264,105717,1,0,0:0:0:0:
352,224,105824,5,2,0:0:0:0:
416,168,105931,2,0,P|448:136|488:136,2,82.5000031471254
288,208,106252,1,2,0:0:0:0:
200,184,106359,2,0,P|232:152|272:152,2,82.5000031471254
104,160,106681,5,2,0:0:0:0:
160,112,106788,2,0,P|192:80|232:80,2,82.5000031471254
40,104,107109,1,2,0:0:0:0:
96,56,107217,2,0,P|144:56|168:32,2,82.5000031471254
192,328,107538,5,2,0:0:0:0:
144,248,107645,1,0,0:0:0:0:
216,200,107752,1,0,0:0:0:0:
280,200,107859,1,0,0:0:0:0:
360,160,107967,1,2,0:0:0:0:
304,112,108074,1,0,0:0:0:0:
392,88,108181,1,0,0:0:0:0:
336,48,108288,1,0,0:0:0:0:
144,56,108395,5,2,0:0:0:0:
64,104,108502,2,0,P|112:104|144:136,2,82.5000031471254
168,152,108824,1,2,0:0:0:0:
232,200,108931,2,0,P|184:200|152:232,2,82.5000031471254
168,256,109252,5,2,0:0:0:0:
96,272,109359,2,0,P|48:272|16:240,2,82.5000031471254
352,232,109681,1,2,0:0:0:0:
416,272,109788,2,0,P|464:272|496:240,2,82.5000031471254
224,264,110109,5,2,0:0:0:0:
160,208,110217,2,0,P|192:176|232:176,2,82.5000031471254
296,192,110538,1,2,0:0:0:0:
376,160,110645,2,0,P|344:128|304:128,2,82.5000031471254
464,120,110967,5,2,0:0:0:0:
384,88,111074,2,0,P|416:56|456:56,2,82.5000031471254
200,128,111395,1,2,0:0:0:0:
112,128,111502,2,0,P|64:128|32:160,2,82.5000031471254
272,344,111824,5,0,0:0:0:0:
320,328,111877,1,0,0:0:0:0:
328,288,111931,1,0,0:0:0:0:
304,256,111984,1,0,0:0:0:0:
264,232,112038,1,0,0:0:0:0:
224,208,112092,1,0,0:0:0:0:
208,152,112145,1,0,0:0:0:0:
232,104,112199,1,0,0:0:0:0:
280,88,112252,5,0,0:0:0:0:
328,96,112306,1,0,0:0:0:0:
360,136,112359,1,0,0:0:0:0:
352,184,112413,1,0,0:0:0:0:
320,224,112467,1,0,0:0:0:0:
272,232,112520,1,0,0:0:0:0:
224,208,112574,1,0,0:0:0:0:
208,152,112627,1,0,0:0:0:0:
168,120,112681,5,0,0:0:0:0:
120,112,112734,1,0,0:0:0:0:
72,128,112788,1,0,0:0:0:0:
48,168,112842,1,0,0:0:0:0:
40,216,112895,1,0,0:0:0:0:
56,264,112949,1,0,0:0:0:0:
96,288,113002,1,0,0:0:0:0:
144,288,113056,1,0,0:0:0:0:
400,344,113109,5,0,0:0:0:0:
448,328,113163,1,0,0:0:0:0:
464,280,113217,1,0,0:0:0:0:
432,240,113270,1,0,0:0:0:0:
384,224,113324,1,0,0:0:0:0:
336,200,113377,1,0,0:0:0:0:
320,152,113431,1,0,0:0:0:0:
336,112,113484,1,0,0:0:0:0:
384,88,113538,5,0,0:0:0:0:
472,160,113645,1,0,0:0:0:0:
432,80,113752,1,0,0:0:0:0:
368,72,113859,1,0,0:0:0:0:
288,112,113967,1,0,0:0:0:0:
336,176,114074,1,0,0:0:0:0:
400,136,114181,1,0,0:0:0:0:
344,104,114288,1,0,0:0:0:0:
224,168,114395,5,0,0:0:0:0:
160,152,114502,1,0,0:0:0:0:
128,96,114609,1,0,0:0:0:0:
160,40,114717,1,0,0:0:0:0:
240,80,114824,1,0,0:0:0:0:
208,48,114931,1,0,0:0:0:0:
160,40,115038,1,0,0:0:0:0:
112,64,115145,1,0,0:0:0:0:
280,336,115252,6,0,L|360:280,1,82.5000031471254,2|0,0:0|0:0,0:0:0:0:
128,280,115467,2,0,L|40:256,1,82.5000031471254
416,296,115681,2,0,L|456:216,1,82.5000031471254,8|0,0:0|0:0,0:0:0:0:
360,224,115895,5,0,0:0:0:0:
336,144,116002,1,0,0:0:0:0:
424,144,116109,1,2,0:0:0:0:
480,112,116217,1,0,0:0:0:0:
408,40,116324,1,0,0:0:0:0:
344,56,116431,1,0,0:0:0:0:
96,336,116538,5,8,0:0:0:0:
40,264,116645,1,0,0:0:0:0:
104,192,116752,6,0,L|152:120,1,82.5000031471254
240,136,116967,2,0,L|200:64,1,82.5000031471254,2|0,0:0|0:0,0:0:0:0:
440,208,117181,2,0,L|480:128,1,82.5000031471254
232,240,117395,2,0,L|168:304,1,82.5000031471254,8|0,0:0|0:0,0:0:0:0:
96,320,117609,1,0,0:0:0:0:
32,272,117717,1,0,0:0:0:0:
392,216,117824,5,2,0:0:0:0:
464,184,117931,1,0,0:0:0:0:
384,128,118038,1,0,0:0:0:0:
312,112,118145,1,0,0:0:0:0:
400,72,118252,1,8,0:0:0:0:
480,72,118359,1,0,0:0:0:0:
376,160,118467,1,0,0:0:0:0:
312,192,118574,1,0,0:0:0:0:
128,344,118681,5,2,0:0:0:0:
88,280,118788,1,0,0:0:0:0:
120,216,118895,1,0,0:0:0:0:
176,200,119002,1,0,0:0:0:0:
384,296,119109,1,8,0:0:0:0:
424,216,119217,1,0,0:0:0:0:
352,160,119324,6,0,L|272:136,1,82.5000031471254
448,144,119538,2,0,L|480:64,1,82.5000031471254,2|0,0:0|0:0,0:0:0:0:
224,144,119752,2,0,L|160:80,1,82.5000031471254
304,160,119967,2,0,L|368:96,1,82.5000031471254,8|0,0:0|0:0,0:0:0:0:
136,136,120181,5,0,0:0:0:0:
112,208,120288,1,0,0:0:0:0:
152,272,120395,1,2,0:0:0:0:
216,288,120502,1,0,0:0:0:0:
280,272,120609,6,0,L|192:272,1,82.5000031471254
64,336,120824,2,0,L|40:256,1,82.5000031471254,8|0,0:0|0:0,0:0:0:0:
144,272,121038,2,0,L|192:200,1,82.5000031471254
96,192,121252,6,0,L|24:120,1,82.5000031471254,2|0,0:0|0:0,0:0:0:0:
320,176,121467,2,0,L|416:136,1,82.5000031471254
456,168,121681,1,8,0:0:0:0:
488,224,121788,1,0,0:0:0:0:
472,288,121895,1,0,0:0:0:0:
424,312,122002,1,0,0:0:0:0:
168,336,122109,5,2,0:0:0:0:
96,304,122217,2,0,P|72:232|144:184,1,165.000006294251,2|2,0:0|0:0,0:0:0:0:
440,224,122538,2,0,P|472:168|456:136,1,82.5000031471254,12|0,0:0|0:0,0:0:0:0:
424,104,122752,1,0,0:0:0:0:
352,88,122859,1,0,0:0:0:0:
64,344,122967,5,2,0:0:0:0:
32,288,123074,1,0,0:0:0:0:
56,224,123181,1,0,0:0:0:0:
112,192,123288,1,0,0:0:0:0:
208,240,123395,1,8,0:0:0:0:
152,232,123502,1,0,0:0:0:0:
112,192,123609,1,0,0:0:0:0:
120,136,123717,1,0,0:0:0:0:
448,40,123824,5,2,0:0:0:0:
480,96,123931,1,0,0:0:0:0:
456,160,124038,1,0,0:0:0:0:
400,192,124145,1,0,0:0:0:0:
304,144,124252,1,8,0:0:0:0:
360,152,124359,1,0,0:0:0:0:
400,192,124467,1,0,0:0:0:0:
392,248,124574,1,0,0:0:0:0:
248,216,124681,5,2,0:0:0:0:
184,224,124788,1,0,0:0:0:0:
152,280,124895,1,0,0:0:0:0:
184,336,125002,1,0,0:0:0:0:
96,344,125109,5,8,0:0:0:0:
40,304,125217,1,0,0:0:0:0:
48,248,125324,1,0,0:0:0:0:
104,200,125431,1,0,0:0:0:0:
288,336,125538,5,0,0:0:0:0:
368,272,125752,1,0,0:0:0:0:
40,248,125967,1,0,0:0:0:0:
144,160,126181,1,0,0:0:0:0:
472,232,126395,5,0,0:0:0:0:
376,160,126609,1,0,0:0:0:0:
488,104,126824,1,0,0:0:0:0:
208,280,127038,1,0,0:0:0:0:
320,328,127252,5,0,0:0:0:0:
392,328,127359,1,0,0:0:0:0:
336,280,127467,1,0,0:0:0:0:
408,280,127574,1,0,0:0:0:0:
336,224,127681,1,0,0:0:0:0:
408,224,127788,1,0,0:0:0:0:
320,176,127895,1,0,0:0:0:0:
384,176,128002,1,0,0:0:0:0:
440,152,128109,6,0,L|488:80,1,82.5000031471254,2|0,0:0|0:0,0:0:0:0:
256,128,128324,1,0,0:0:0:0:
184,184,128431,1,2,0:0:0:0:
304,216,128538,2,0,L|384:176,1,82.5000031471254
104,272,128752,1,2,0:0:0:0:
40,344,128859,1,0,0:0:0:0:
272,344,128967,5,2,0:0:0:0:
312,320,129074,1,0,0:0:0:0:
320,272,129181,1,0,0:0:0:0:
144,272,129288,2,0,L|64:232,1,82.5000031471254,0|8,0:0|0:0,0:0:0:0:
32,176,129502,1,0,0:0:0:0:
288,160,129609,2,0,L|368:120,1,82.5000031471254
456,136,129824,6,0,L|416:56,1,82.5000031471254,2|0,0:0|0:0,0:0:0:0:
144,168,130038,2,0,L|64:128,1,82.5000031471254
312,208,130252,2,0,L|392:168,1,82.5000031471254,8|0,0:0|0:0,0:0:0:0:
112,216,130467,2,0,L|32:176,1,82.5000031471254
344,256,130681,6,0,L|424:216,1,82.5000031471254,2|0,0:0|0:0,0:0:0:0:
488,192,130895,5,0,0:0:0:0:
424,176,131002,1,0,0:0:0:0:
400,128,131109,1,8,0:0:0:0:
424,72,131217,1,0,0:0:0:0:
472,56,131324,1,0,0:0:0:0:
416,40,131431,1,0,0:0:0:0:
248,120,131538,5,2,0:0:0:0:
192,152,131645,1,0,0:0:0:0:
168,216,131752,1,0,0:0:0:0:
184,272,131859,1,0,0:0:0:0:
240,304,131967,1,8,0:0:0:0:
304,312,132074,1,0,0:0:0:0:
360,288,132181,1,0,0:0:0:0:
384,232,132288,1,0,0:0:0:0:
240,40,132395,5,2,0:0:0:0:
200,64,132502,1,0,0:0:0:0:
192,112,132609,1,0,0:0:0:0:
352,128,132717,2,0,L|432:168,1,82.5000031471254,0|8,0:0|0:0,0:0:0:0:
480,208,132931,1,0,0:0:0:0:
224,224,133038,2,0,L|144:264,1,82.5000031471254
56,248,133252,6,0,L|96:328,1,82.5000031471254,2|0,0:0|0:0,0:0:0:0:
368,216,133467,2,0,L|448:256,1,82.5000031471254
200,176,133681,2,0,L|120:216,1,82.5000031471254,8|0,0:0|0:0,0:0:0:0:
400,168,133895,2,0,L|480:208,1,82.5000031471254
168,128,134109,6,0,L|88:168,1,82.5000031471254,2|0,0:0|0:0,0:0:0:0:
24,192,134324,5,0,0:0:0:0:
88,208,134431,1,0,0:0:0:0:
112,256,134538,1,8,0:0:0:0:
88,312,134645,1,0,0:0:0:0:
40,328,134752,1,0,0:0:0:0:
96,344,134859,1,0,0:0:0:0:
264,264,134967,5,2,0:0:0:0:
320,232,135074,1,0,0:0:0:0:
344,168,135181,1,0,0:0:0:0:
328,112,135288,1,0,0:0:0:0:
272,80,135395,1,8,0:0:0:0:
208,72,135502,1,0,0:0:0:0:
152,96,135609,1,0,0:0:0:0:
128,152,135717,1,0,0:0:0:0:
264,352,135824,5,6,0:0:0:0:
328,352,135931,1,0,0:0:0:0:
352,320,135984,1,0,0:0:0:0:
152,288,136038,2,0,L|72:248,1,82.5000031471254
360,288,136252,2,0,L|440:248,1,82.5000031471254,8|0,0:0|0:0,0:0:0:0:
208,344,136467,6,0,L|128:304,1,82.5000031471254
304,240,136681,2,0,L|384:200,1,82.5000031471254,2|0,0:0|0:0,0:0:0:0:
152,208,136895,2,0,L|72:168,1,82.5000031471254
432,224,137109,6,0,L|464:144,1,82.5000031471254,8|0,0:0|0:0,0:0:0:0:
392,120,137324,2,0,L|336:56,1,82.5000031471254
88,120,137538,2,0,L|16:192,1,82.5000031471254,2|0,0:0|0:0,0:0:0:0:
96,192,137752,5,0,0:0:0:0:
160,224,137859,1,0,0:0:0:0:
176,296,137967,1,8,0:0:0:0:
128,352,138074,1,0,0:0:0:0:
64,352,138181,1,0,0:0:0:0:
16,312,138288,1,0,0:0:0:0:
416,120,138395,6,0,L|488:192,1,82.5000031471254,2|0,0:0|0:0,0:0:0:0:
416,184,138609,1,0,0:0:0:0:
368,216,138717,1,0,0:0:0:0:
352,272,138824,5,8,0:0:0:0:
376,328,138931,1,0,0:0:0:0:
432,352,139038,1,0,0:0:0:0:
488,336,139145,1,0,0:0:0:0:
248,32,139252,5,2,0:0:0:0:
184,32,139359,1,0,0:0:0:0:
160,64,139413,1,0,0:0:0:0:
360,96,139467,2,0,L|440:136,1,82.5000031471254
152,96,139681,2,0,L|72:136,1,82.5000031471254,8|0,0:0|0:0,0:0:0:0:
376,48,139895,6,0,L|456:88,1,82.5000031471254
244,116,140109,2,0,L|172:156,1,82.5000031471254,2|0,0:0|0:0,0:0:0:0:
396,176,140324,2,0,L|324:216,1,82.5000031471254
152,216,140538,6,0,L|216:268,1,82.5000031471254,8|0,0:0|0:0,0:0:0:0:
40,284,140752,2,0,L|116:316,1,82.5000031471254
308,344,140967,5,0,0:0:0:0:
344,326,141020,1,0,0:0:0:0:
368,293,141074,1,0,0:0:0:0:
372,252,141127,1,0,0:0:0:0:
355,215,141181,1,0,0:0:0:0:
321,191,141234,1,0,0:0:0:0:
281,187,141288,1,0,0:0:0:0:
244,204,141342,1,0,0:0:0:0:
204,344,141395,5,0,0:0:0:0:
167,326,141449,1,0,0:0:0:0:
143,293,141502,1,0,0:0:0:0:
139,252,141556,1,0,0:0:0:0:
156,215,141609,1,0,0:0:0:0:
190,191,141663,1,0,0:0:0:0:
230,187,141717,1,0,0:0:0:0:
267,204,141770,1,0,0:0:0:0:
416,268,141824,5,0,0:0:0:0:
451,247,141877,1,0,0:0:0:0:
474,213,141931,1,0,0:0:0:0:
479,172,141984,1,0,0:0:0:0:
467,133,142038,1,0,0:0:0:0:
440,103,142092,1,0,0:0:0:0:
402,88,142145,1,0,0:0:0:0:
361,91,142199,1,0,0:0:0:0:
96,268,142252,5,0,0:0:0:0:
60,247,142306,1,0,0:0:0:0:
37,213,142359,1,0,0:0:0:0:
32,172,142413,1,0,0:0:0:0:
44,133,142467,1,0,0:0:0:0:
71,103,142520,1,0,0:0:0:0:
109,88,142574,1,0,0:0:0:0:
150,91,142627,1,0,0:0:0:0:
320,160,142681,5,0,0:0:0:0:
456,144,142895,2,0,L|360:48,1,131.99999597168
192,120,143324,1,0,0:0:0:0:
336,264,143538,1,0,0:0:0:0:
112,320,143752,2,0,L|208:224,2,131.99999597168
240,280,144395,5,2,0:0:0:0:
472,232,144502,1,0,0:0:0:0:
448,176,144609,1,0,0:0:0:0:
392,144,144717,1,0,0:0:0:0:
272,152,144824,1,2,0:0:0:0:
80,176,144931,1,0,0:0:0:0:
40,216,145038,1,0,0:0:0:0:
32,272,145145,1,0,0:0:0:0:
328,344,145252,5,2,0:0:0:0:
424,288,145359,1,0,0:0:0:0:
448,240,145467,1,0,0:0:0:0:
440,184,145574,1,0,0:0:0:0:
312,144,145681,1,2,0:0:0:0:
176,160,145788,1,0,0:0:0:0:
136,120,145895,1,0,0:0:0:0:
136,64,146002,1,0,0:0:0:0:
272,160,146109,5,2,0:0:0:0:
104,184,146217,1,0,0:0:0:0:
56,160,146324,1,0,0:0:0:0:
40,112,146431,1,0,0:0:0:0:
344,344,146538,1,2,0:0:0:0:
448,320,146645,1,0,0:0:0:0:
480,272,146752,1,0,0:0:0:0:
472,216,146859,1,0,0:0:0:0:
184,336,146967,5,2,0:0:0:0:
64,312,147074,1,0,0:0:0:0:
40,264,147181,1,0,0:0:0:0:
56,208,147288,1,0,0:0:0:0:
288,256,147395,1,2,0:0:0:0:
392,240,147502,1,0,0:0:0:0:
424,200,147609,1,0,0:0:0:0:
416,152,147717,1,0,0:0:0:0:
320,88,147824,5,2,0:0:0:0:
136,144,147931,1,0,0:0:0:0:
80,176,148038,1,0,0:0:0:0:
64,232,148145,1,0,0:0:0:0:
120,304,148252,1,2,0:0:0:0:
368,328,148359,1,0,0:0:0:0:
416,304,148467,1,0,0:0:0:0:
432,248,148574,1,0,0:0:0:0:
336,200,148681,5,2,0:0:0:0:
40,328,148788,1,0,0:0:0:0:
48,272,148895,1,0,0:0:0:0:
96,240,149002,1,0,0:0:0:0:
208,256,149109,1,2,0:0:0:0:
472,336,149217,1,0,0:0:0:0:
464,280,149324,1,0,0:0:0:0:
416,248,149431,1,0,0:0:0:0:
176,264,149538,5,2,0:0:0:0:
72,208,149645,1,0,0:0:0:0:
80,152,149752,1,0,0:0:0:0:
120,120,149859,1,0,0:0:0:0:
240,128,149967,1,2,0:0:0:0:
360,144,150074,1,0,0:0:0:0:
352,88,150181,1,0,0:0:0:0:
304,56,150288,1,0,0:0:0:0:
40,344,150395,5,2,0:0:0:0:
104,336,150502,1,0,0:0:0:0:
144,312,150609,1,0,0:0:0:0:
160,264,150717,1,0,0:0:0:0:
376,264,150824,2,0,L|464:240,1,82.5000031471254,2|2,0:0|0:0,0:0:0:0:
200,168,151038,2,0,L|112:144,1,82.5000031471254,2|2,0:0|0:0,0:0:0:0:
320,216,151252,5,6,0:0:0:0:
440,168,151359,1,0,0:0:0:0:
456,120,151467,1,0,0:0:0:0:
472,72,151574,1,0,0:0:0:0:
176,328,151681,1,2,0:0:0:0:
264,280,151788,1,0,0:0:0:0:
280,232,151895,1,0,0:0:0:0:
296,184,152002,1,0,0:0:0:0:
184,168,152109,5,2,0:0:0:0:
72,160,152217,1,0,0:0:0:0:
56,112,152324,1,0,0:0:0:0:
40,64,152431,1,0,0:0:0:0:
464,208,152538,1,2,0:0:0:0:
376,168,152645,1,0,0:0:0:0:
360,120,152752,1,0,0:0:0:0:
344,72,152859,1,0,0:0:0:0:
128,344,152967,5,2,0:0:0:0:
40,272,153074,1,0,0:0:0:0:
56,224,153181,1,0,0:0:0:0:
72,176,153288,1,0,0:0:0:0:
296,288,153395,1,2,0:0:0:0:
392,248,153502,1,0,0:0:0:0:
408,200,153609,1,0,0:0:0:0:
424,152,153717,1,0,0:0:0:0:
208,240,153824,5,2,0:0:0:0:
112,200,153931,1,0,0:0:0:0:
96,152,154038,1,0,0:0:0:0:
80,104,154145,1,0,0:0:0:0:
384,344,154252,1,2,0:0:0:0:
472,272,154359,1,0,0:0:0:0:
456,224,154467,1,0,0:0:0:0:
440,176,154574,1,0,0:0:0:0:
168,56,154681,5,2,0:0:0:0:
64,88,154788,1,0,0:0:0:0:
40,152,154895,1,0,0:0:0:0:
64,216,155002,1,0,0:0:0:0:
240,144,155109,1,2,0:0:0:0:
144,184,155217,1,0,0:0:0:0:
120,240,155324,1,0,0:0:0:0:
136,304,155431,1,0,0:0:0:0:
392,80,155538,5,2,0:0:0:0:
288,112,155645,1,0,0:0:0:0:
264,176,155752,1,0,0:0:0:0:
288,240,155859,1,0,0:0:0:0:
464,168,155967,1,2,0:0:0:0:
368,208,156074,1,0,0:0:0:0:
344,264,156181,1,0,0:0:0:0:
360,328,156288,1,0,0:0:0:0:
88,344,156395,5,2,0:0:0:0:
40,296,156502,1,0,0:0:0:0:
56,224,156609,1,0,0:0:0:0:
120,192,156717,1,0,0:0:0:0:
328,304,156824,1,2,0:0:0:0:
432,272,156931,1,0,0:0:0:0:
456,208,157038,1,0,0:0:0:0:
432,144,157145,1,0,0:0:0:0:
232,56,157252,6,0,L|144:56,1,82.5000031471254,2|2,0:0|0:0,0:0:0:0:
72,168,157467,2,0,L|32:248,1,82.5000031471254,2|2,0:0|0:0,0:0:0:0:
280,328,157681,2,0,L|368:328,1,82.5000031471254,2|2,0:0|0:0,0:0:0:0:
440,216,157895,2,0,L|480:136,1,82.5000031471254,0|2,0:0|0:0,0:0:0:0:
224,320,158109,5,6,0:0:0:0:
184,288,158217,1,0,0:0:0:0:
176,240,158324,1,0,0:0:0:0:
200,200,158431,1,0,0:0:0:0:
328,168,158538,2,0,L|400:144,1,65.9999979858399,2|0,0:0|0:0,0:0:0:0:
104,224,158752,2,0,L|32:248,1,65.9999979858399
96,184,158967,5,2,0:0:0:0:
32,136,159074,1,0,0:0:0:0:
288,168,159181,2,0,L|360:144,1,65.9999979858399
432,160,159395,1,2,0:0:0:0:
464,240,159502,1,0,0:0:0:0:
168,272,159609,2,0,L|88:248,1,65.9999979858399
304,240,159824,6,0,L|376:216,1,65.9999979858399,2|0,0:0|0:0,0:0:0:0:
296,184,160038,1,0,0:0:0:0:
256,120,160145,1,0,0:0:0:0:
456,104,160252,2,0,L|480:176,1,65.9999979858399,2|0,0:0|0:0,0:0:0:0:
216,168,160467,2,0,L|144:144,1,65.9999979858399
80,184,160681,5,2,0:0:0:0:
40,264,160788,1,0,0:0:0:0:
328,288,160895,2,0,L|376:240,1,65.9999979858399
184,288,161109,2,0,L|136:240,1,65.9999979858399,2|0,0:0|0:0,0:0:0:0:
384,312,161324,2,0,L|456:288,1,65.9999979858399
136,320,161538,2,0,P|64:296|48:240,1,131.99999597168,2|0,0:0|0:0,0:0:0:0:
136,216,161859,5,0,0:0:0:0:
80,160,161967,2,0,L|56:88,1,65.9999979858399,2|0,0:0|0:0,0:0:0:0:
352,168,162181,2,0,L|424:144,1,65.9999979858399
360,88,162395,1,2,0:0:0:0:
288,72,162502,1,0,0:0:0:0:
96,200,162609,2,0,L|24:224,1,65.9999979858399
328,336,162824,2,0,L|400:312,1,65.9999979858399,2|0,0:0|0:0,0:0:0:0:
144,176,163038,2,0,L|80:144,1,65.9999979858399
392,264,163252,5,2,0:0:0:0:
448,240,163359,1,0,0:0:0:0:
472,192,163467,1,0,0:0:0:0:
248,176,163574,1,0,0:0:0:0:
192,160,163681,1,2,0:0:0:0:
160,112,163788,1,0,0:0:0:0:
336,128,163895,6,0,L|408:152,1,65.9999979858399
128,216,164109,2,0,L|56:240,1,65.9999979858399,2|0,0:0|0:0,0:0:0:0:
280,240,164324,2,0,L|352:264,1,65.9999979858399
176,264,164538,2,0,L|104:288,1,65.9999979858399,2|0,0:0|0:0,0:0:0:0:
376,336,164752,2,0,L|448:312,1,65.9999979858399
160,264,164967,6,0,L|136:192,1,65.9999979858399,2|0,0:0|0:0,0:0:0:0:
176,136,165181,1,0,0:0:0:0:
240,128,165288,1,0,0:0:0:0:
448,152,165395,2,0,L|472:80,1,65.9999979858399,2|0,0:0|0:0,0:0:0:0:
40,232,165609,2,0,L|16:160,1,65.9999979858399
88,160,165824,1,2,0:0:0:0:
144,112,165931,1,0,0:0:0:0:
344,232,166038,6,0,L|416:256,1,65.9999979858399
480,304,166252,1,2,0:0:0:0:
448,344,166359,1,0,0:0:0:0:
240,328,166467,2,0,L|168:304,1,65.9999979858399
400,224,166681,2,0,L|432:160,1,65.9999979858399,2|0,0:0|0:0,0:0:0:0:
488,120,166895,1,0,0:0:0:0:
440,64,167002,1,0,0:0:0:0:
96,248,167109,6,0,L|24:224,1,65.9999979858399,2|0,0:0|0:0,0:0:0:0:
232,232,167324,2,0,L|280:168,1,65.9999979858399
248,112,167538,1,2,0:0:0:0:
192,96,167645,1,0,0:0:0:0:
416,216,167752,2,0,L|488:240,1,65.9999979858399
312,344,167967,2,0,L|240:320,1,65.9999979858399,2|0,0:0|0:0,0:0:0:0:
64,280,168181,2,0,L|40:208,1,65.9999979858399
88,176,168395,5,2,0:0:0:0:
136,176,168502,1,2,0:0:0:0:
400,248,168609,2,0,L|472:248,2,65.9999979858399,2|2|2,0:0|0:0|0:0,0:0:0:0:
320,248,168931,1,2,0:0:0:0:
264,192,169038,1,2,0:0:0:0:
280,112,169145,1,2,0:0:0:0:
104,232,169252,6,0,L|32:232,2,65.9999979858399,2|2|2,0:0|0:0|0:0,0:0:0:0:
352,336,169574,1,2,0:0:0:0:
240,312,169681,1,2,0:0:0:0:
192,224,169788,1,2,0:0:0:0:
232,136,169895,1,2,0:0:0:0:
320,104,170002,1,2,0:0:0:0:
124,48,170109,5,0,0:0:0:0:
78,90,170163,1,0,0:0:0:0:
65,151,170217,1,0,0:0:0:0:
89,209,170270,1,0,0:0:0:0:
142,242,170324,1,0,0:0:0:0:
203,236,170377,1,0,0:0:0:0:
245,190,170431,1,0,0:0:0:0:
251,128,170484,1,0,0:0:0:0:
222,73,170538,5,0,0:0:0:0:
168,42,170592,1,0,0:0:0:0:
107,53,170645,1,0,0:0:0:0:
60,94,170699,1,0,0:0:0:0:
44,155,170752,1,0,0:0:0:0:
60,215,170806,1,0,0:0:0:0:
100,256,170859,1,0,0:0:0:0:
148,260,170913,1,0,0:0:0:0:
388,336,170967,5,0,0:0:0:0:
433,293,171020,1,0,0:0:0:0:
446,232,171074,1,0,0:0:0:0:
422,174,171127,1,0,0:0:0:0:
369,141,171181,1,0,0:0:0:0:
308,147,171234,1,0,0:0:0:0:
266,193,171288,1,0,0:0:0:0:
260,255,171342,1,0,0:0:0:0:
289,310,171395,5,0,0:0:0:0:
343,341,171449,1,0,0:0:0:0:
404,330,171502,1,0,0:0:0:0:
451,289,171556,1,0,0:0:0:0:
467,228,171609,1,0,0:0:0:0:
451,168,171663,1,0,0:0:0:0:
412,128,171717,1,0,0:0:0:0:
364,124,171770,1,0,0:0:0:0:
56,352,171824,6,0,P|40:240|136:216,1,206.250007867813,10|0,0:0|0:0,0:0:0:0:
456,352,172145,6,0,P|472:240|376:216,1,206.250007867813,10|0,0:0|0:0,0:0:0:0:
184,216,172467,6,0,P|120:200|96:128,1,123.750004720688,10|0,0:0|0:0,0:0:0:0:
288,112,172681,5,8,0:0:0:0:
200,248,173109,2,0,L|304:144,1,131.99999597168
120,344,173538,5,6,0:0:0:0:
40,280,173752,1,0,0:0:0:0:
112,216,173967,1,0,0:0:0:0:
216,248,174181,1,0,0:0:0:0:
312,320,174395,5,0,0:0:0:0:
424,336,174609,1,0,0:0:0:0:
488,248,174824,1,0,0:0:0:0:
160,256,175038,6,0,P|96:192|200:88,1,263.99999194336
352,248,175681,5,0,0:0:0:0:
272,144,175895,1,0,0:0:0:0:
152,152,176109,1,0,0:0:0:0:
72,264,176324,1,0,0:0:0:0:
168,336,176538,1,0,0:0:0:0:
288,256,176752,1,0,0:0:0:0:
408,272,176967,5,0,0:0:0:0:
472,184,177181,1,0,0:0:0:0:
368,104,177395,1,0,0:0:0:0:
264,168,177609,1,0,0:0:0:0:
160,264,177824,5,0,0:0:0:0:
40,216,178038,1,0,0:0:0:0:
120,120,178252,1,0,0:0:0:0:
424,328,178467,2,0,P|472:280|360:168,1,263.99999194336
248,256,179109,5,0,0:0:0:0:
352,304,179324,1,0,0:0:0:0:
240,344,179538,1,0,0:0:0:0:
120,336,179752,1,0,0:0:0:0:
40,232,179967,1,0,0:0:0:0:
120,88,180181,1,0,0:0:0:0:
240,48,180395,5,0,0:0:0:0:
128,88,180609,1,0,0:0:0:0:
72,208,180824,1,0,0:0:0:0:
144,304,181038,1,0,0:0:0:0:
248,256,181252,5,0,0:0:0:0:
360,216,181467,1,0,0:0:0:0:
464,264,181681,1,0,0:0:0:0:
136,56,181895,2,0,P|48:176|120:224,1,263.99999194336
248,272,182538,5,0,0:0:0:0:
184,184,182752,1,0,0:0:0:0:
240,72,182967,1,0,0:0:0:0:
344,48,183181,1,0,0:0:0:0:
432,104,183395,1,0,0:0:0:0:
472,216,183609,1,0,0:0:0:0:
376,312,183824,5,0,0:0:0:0:
264,264,184038,1,0,0:0:0:0:
152,240,184252,1,0,0:0:0:0:
256,192,184467,1,0,0:0:0:0:
200,96,184681,5,0,0:0:0:0:
96,96,184895,1,0,0:0:0:0:
40,192,185109,1,0,0:0:0:0:
432,336,185324,6,0,P|464:224|344:224,1,263.99999194336
256,344,185967,5,0,0:0:0:0:
119,268,186181,1,0,0:0:0:0:
130,112,186395,1,0,0:0:0:0:
275,55,186609,1,0,0:0:0:0:
388,163,186824,1,0,0:0:0:0:
339,311,187038,1,0,0:0:0:0:
96,344,187252,6,0,L|32:336,3,60.5000018463135
144,312,187681,6,0,L|80:304,3,60.5000018463135
192,280,188109,6,0,L|128:272,3,60.5000018463135
240,248,188538,6,0,L|176:240,3,60.5000018463135
432,344,188967,6,0,L|488:344,2,55
352,312,189288,1,0,0:0:0:0:
424,264,189395,6,0,L|480:264,2,55
344,232,189717,1,0,0:0:0:0:
416,176,189824,6,0,L|472:176,2,55
336,144,190145,1,0,0:0:0:0:
408,96,190252,6,0,L|464:96,2,55
328,64,190574,1,0,0:0:0:0:
128,344,190681,5,0,0:0:0:0:
80,320,190788,1,0,0:0:0:0:
64,264,190895,1,0,0:0:0:0:
88,216,191002,1,0,0:0:0:0:
136,192,191109,1,0,0:0:0:0:
192,208,191217,1,0,0:0:0:0:
248,184,191324,1,0,0:0:0:0:
256,128,191431,1,0,0:0:0:0:
224,80,191538,5,0,0:0:0:0:
176,56,191645,1,0,0:0:0:0:
120,72,191752,1,0,0:0:0:0:
72,104,191859,1,0,0:0:0:0:
56,160,191967,1,0,0:0:0:0:
80,208,192074,1,0,0:0:0:0:
128,240,192181,1,0,0:0:0:0:
184,248,192288,1,0,0:0:0:0:
384,344,192395,5,0,0:0:0:0:
432,320,192502,1,0,0:0:0:0:
448,264,192609,1,0,0:0:0:0:
424,216,192717,1,0,0:0:0:0:
376,192,192824,1,0,0:0:0:0:
320,208,192931,1,0,0:0:0:0:
264,184,193038,1,0,0:0:0:0:
256,128,193145,1,0,0:0:0:0:
288,80,193252,5,0,0:0:0:0:
336,56,193359,1,0,0:0:0:0:
392,72,193467,1,0,0:0:0:0:
440,104,193574,1,0,0:0:0:0:
456,160,193681,1,0,0:0:0:0:
432,208,193788,1,0,0:0:0:0:
384,240,193895,1,0,0:0:0:0:
328,248,194002,1,0,0:0:0:0:
72,344,194109,6,0,L|32:304,1,55
120,256,194324,2,0,L|144:200,1,55
232,200,194538,2,0,L|208:144,1,55
120,104,194752,2,0,L|64:104,1,55
256,160,194967,6,0,L|280:216,1,55
184,224,195181,2,0,L|160:280,1,55
256,296,195395,2,0,L|232:352,1,55
144,344,195609,2,0,L|120:288,1,55
440,40,195824,6,0,L|480:80,1,55
392,128,196038,2,0,L|368:184,1,55
280,184,196252,2,0,L|304:240,1,55
392,280,196467,2,0,L|448:280,1,55
256,224,196681,6,0,L|232:168,1,55
328,160,196895,2,0,L|352:104,1,55
256,88,197109,2,0,L|280:32,1,55
368,40,197324,2,0,L|392:96,1,55
168,344,197538,5,0,0:0:0:0:
120,344,197592,1,0,0:0:0:0:
72,328,197645,1,0,0:0:0:0:
40,288,197699,1,0,0:0:0:0:
32,240,197752,1,0,0:0:0:0:
48,192,197806,1,0,0:0:0:0:
88,160,197859,1,0,0:0:0:0:
136,160,197913,1,0,0:0:0:0:
248,240,197967,5,0,0:0:0:0:
296,240,198020,1,0,0:0:0:0:
336,216,198074,1,0,0:0:0:0:
352,168,198127,1,0,0:0:0:0:
336,120,198181,1,0,0:0:0:0:
304,88,198234,1,0,0:0:0:0:
264,80,198288,1,0,0:0:0:0:
224,96,198342,1,0,0:0:0:0:
336,40,198395,5,0,0:0:0:0:
384,40,198449,1,0,0:0:0:0:
432,56,198502,1,0,0:0:0:0:
464,96,198556,1,0,0:0:0:0:
472,144,198609,1,0,0:0:0:0:
456,192,198663,1,0,0:0:0:0:
416,224,198717,1,0,0:0:0:0:
368,224,198770,1,0,0:0:0:0:
248,144,198824,5,0,0:0:0:0:
200,144,198877,1,0,0:0:0:0:
160,168,198931,1,0,0:0:0:0:
144,216,198984,1,0,0:0:0:0:
152,264,199038,1,0,0:0:0:0:
184,304,199092,1,0,0:0:0:0:
232,320,199145,1,0,0:0:0:0:
280,304,199199,1,0,0:0:0:0:
296,256,199252,6,0,L|264:256,11,27.5000010490418
224,224,199681,6,0,L|192:224,11,27.5000010490418
104,344,200109,5,0,0:0:0:0:
48,328,200163,1,0,0:0:0:0:
32,280,200217,1,0,0:0:0:0:
56,224,200270,1,0,0:0:0:0:
104,208,200324,6,0,L|120:208,1,13.7500005245209
288,184,200431,2,0,L|304:184,1,13.7500005245209
472,176,200538,2,0,L|456:176,1,13.7500005245209
256,136,200645,6,0,L|240:136,1,13.7500005245209
40,128,200752,2,0,L|56:128,1,13.7500005245209
256,80,200859,2,0,L|272:80,1,13.7500005245209
432,160,200967,6,0,L|488:272,1,121.000003692627,8|0,0:0|0:0,0:0:0:0:
304,320,201395,2,0,P|336:312|368:232,1,121.000003692627,8|0,0:0|0:0,0:0:0:0:
208,248,201824,2,0,P|152:208|144:136,1,121.000003692627,8|0,0:0|0:0,0:0:0:0:
448,160,202252,2,0,P|472:120|432:48,1,121.000003692627,8|0,0:0|0:0,0:0:0:0:
304,176,202681,6,0,P|272:120|288:56,1,121.000003692627,8|0,0:0|0:0,0:0:0:0:
144,96,203109,2,0,P|64:128|48:168,1,121.000003692627,8|0,0:0|0:0,0:0:0:0:
176,248,203538,2,0,P|240:256|288:208,1,121.000003692627,8|0,0:0|0:0,0:0:0:0:
176,144,203967,1,8,0:0:0:0:
480,112,204181,1,8,0:0:0:0:
368,136,204395,6,0,P|328:192|360:256,1,121.000003692627,8|0,0:0|0:0,0:0:0:0:
168,288,204824,2,0,P|256:336|280:320,1,121.000003692627,8|0,0:0|0:0,0:0:0:0:
96,224,205252,2,0,P|56:168|72:112,1,121.000003692627,8|0,0:0|0:0,0:0:0:0:
280,64,205681,2,0,P|312:128|288:184,1,121.000003692627,8|0,0:0|0:0,0:0:0:0:
136,216,206109,6,0,P|88:232|40:288,1,121.000003692627,8|0,0:0|0:0,0:0:0:0:
376,328,206538,2,0,P|464:312|472:280,1,121.000003692627,8|0,0:0|0:0,0:0:0:0:
288,296,206967,2,0,P|248:240|256:192,1,121.000003692627,8|0,0:0|0:0,0:0:0:0:
416,168,207395,1,8,0:0:0:0:
72,144,207609,1,8,0:0:0:0:
152,168,207717,1,8,0:0:0:0:
64,160,207824,6,0,P|32:224|48:280,1,121.000003692627,8|0,0:0|0:0,0:0:0:0:
312,336,208252,2,0,P|352:288|336:232,1,121.000003692627,8|0,0:0|0:0,0:0:0:0:
184,240,208681,2,0,P|128:248|80:288,1,121.000003692627,8|0,0:0|0:0,0:0:0:0:
376,256,209109,2,0,P|440:248|480:208,1,121.000003692627,8|0,0:0|0:0,0:0:0:0:
152,264,209538,6,0,P|112:216|144:160,1,121.000003692627,8|0,0:0|0:0,0:0:0:0:
336,192,209967,2,0,P|368:128|320:96,1,121.000003692627,8|0,0:0|0:0,0:0:0:0:
104,136,210395,2,0,P|72:200|96:264,1,121.000003692627,8|0,0:0|0:0,0:0:0:0:
200,280,210824,1,8,0:0:0:0:
104,296,211038,1,8,0:0:0:0:
400,296,211252,6,0,P|416:224|384:192,1,121.000003692627,8|0,0:0|0:0,0:0:0:0:
208,136,211681,2,0,P|160:144|104:208,1,121.000003692627,8|0,0:0|0:0,0:0:0:0:
392,152,212109,2,0,P|456:176|480:232,1,121.000003692627,8|0,0:0|0:0,0:0:0:0:
64,336,212538,2,0,P|40:304|64:216,1,121.000003692627,8|0,0:0|0:0,0:0:0:0:
360,192,212967,6,0,L|488:184,1,121.000003692627,8|0,0:0|0:0,0:0:0:0:
80,272,213395,5,8,0:0:0:0:
392,288,213609,1,8,0:0:0:0:
328,216,213717,1,8,0:0:0:0:
392,152,213824,1,8,0:0:0:0:
48,176,214038,1,8,0:0:0:0:
360,336,214252,6,0,L|424:312,1,60.5000018463135,8|8,0:0|0:0,0:0:0:0:
200,296,214467,2,0,L|136:272,1,60.5000018463135,8|8,0:0|0:0,0:0:0:0:
424,288,214681,6,0,P|456:248|416:168,1,142.99999345398,2|0,0:0|0:0,0:0:0:0:
216,224,215109,2,0,P|128:184|128:128,1,142.99999345398,10|0,0:0|0:0,0:0:0:0:
328,128,215538,2,0,P|408:128|440:184,1,142.99999345398,2|0,0:0|0:0,0:0:0:0:
224,216,215967,2,0,P|272:240|272:328,1,142.99999345398,10|0,0:0|0:0,0:0:0:0:
40,224,216395,6,0,P|104:240|160:168,1,142.99999345398,2|0,0:0|0:0,0:0:0:0:
440,152,216824,2,0,P|480:208|440:280,1,142.99999345398,10|0,0:0|0:0,0:0:0:0:
216,288,217252,5,2,0:0:0:0:
160,224,217359,1,0,0:0:0:0:
184,144,217467,1,0,0:0:0:0:
256,104,217574,1,0,0:0:0:0:
472,224,217681,6,0,L|448:144,1,71.4999967269899,10|0,0:0|0:0,0:0:0:0:
272,264,217895,2,0,L|248:192,1,71.4999967269899,2|0,0:0|0:0,0:0:0:0:
80,160,218109,6,0,P|32:232|88:272,1,142.99999345398,2|0,0:0|0:0,0:0:0:0:
216,320,218538,2,0,P|296:304|320:240,1,142.99999345398,10|0,0:0|0:0,0:0:0:0:
152,248,218967,2,0,P|112:200|160:128,1,142.99999345398,2|0,0:0|0:0,0:0:0:0:
440,208,219395,2,0,P|464:112|440:80,1,142.99999345398,10|0,0:0|0:0,0:0:0:0:
144,144,219824,6,0,P|72:168|32:224,1,142.99999345398,2|0,0:0|0:0,0:0:0:0:
336,224,220252,2,0,P|432:216|472:160,1,142.99999345398,10|0,0:0|0:0,0:0:0:0:
232,248,220681,5,2,0:0:0:0:
176,248,220788,1,0,0:0:0:0:
120,248,220895,1,0,0:0:0:0:
320,344,221002,5,2,0:0:0:0:
360,288,221109,1,0,0:0:0:0:
400,232,221217,1,0,0:0:0:0:
200,336,221324,5,2,0:0:0:0:
144,336,221431,1,0,0:0:0:0:
344,328,221538,6,0,L|424:328,1,80.3000022055055,6|0,0:0|0:0,0:0:0:0:
352,264,221752,2,0,L|432:264,1,80.3000022055055
360,200,221967,2,0,L|440:200,1,80.3000022055055,2|0,0:0|0:0,0:0:0:0:
368,136,222181,2,0,L|448:136,1,80.3000022055055
168,56,222395,6,0,L|88:56,1,80.3000022055055,6|0,0:0|0:0,0:0:0:0:
160,120,222609,2,0,L|80:120,1,80.3000022055055
152,184,222824,2,0,L|72:184,1,80.3000022055055,2|0,0:0|0:0,0:0:0:0:
144,248,223038,2,0,L|64:248,1,80.3000022055055
328,104,223252,6,0,L|384:104,1,55,6|0,0:0|0:0,0:0:0:0:
184,104,223467,2,0,L|128:104,1,55
368,120,223681,2,0,L|424:120,1,55,2|0,0:0|0:0,0:0:0:0:
144,120,223895,2,0,L|88:120,1,55
400,160,224109,6,0,L|456:160,1,55,6|0,0:0|0:0,0:0:0:0:
112,160,224324,2,0,L|56:160,1,55
424,208,224538,2,0,L|480:208,1,55,2|0,0:0|0:0,0:0:0:0:
88,208,224752,2,0,L|32:208,1,55
360,344,224967,6,0,L|416:344,1,55
360,344,225074,2,0,L|304:344,1,55
152,344,225181,6,0,L|96:344,1,55
152,344,225288,2,0,L|208:344,1,55
428,264,225395,6,0,L|484:264,1,55
428,264,225502,2,0,L|372:264,1,55
84,264,225609,6,0,L|28:264,1,55
84,264,225717,2,0,L|140:264,1,55
272,268,225824,6,0,L|312:228,1,55
472,152,225931,2,0,L|432:112,1,55
272,40,226038,6,0,L|232:80,1,55
44,232,226145,2,0,L|84:272,1,55
256,344,226252,6,0,L|296:304,1,55
464,268,226359,2,0,L|504:228,1,55
256,40,226467,6,0,L|216:80,1,55
48,116,226574,2,0,L|8:156,1,55
256,192,226681,5,2,0:0:0:0:
80,240,227538,5,2,0:0:0:0:
96,184,227645,1,2,0:0:0:0:
368,160,227859,1,2,0:0:0:0:
136,144,228181,1,2,0:0:0:0:
296,344,228395,5,6,0:0:0:0:
344,272,228502,1,0,0:0:0:0:
296,192,228609,2,0,L|232:128,1,82.5000031471254
424,272,228824,1,2,0:0:0:0:
472,200,228931,1,0,0:0:0:0:
424,120,229038,2,0,L|360:56,1,82.5000031471254
216,344,229252,5,2,0:0:0:0:
168,272,229359,1,0,0:0:0:0:
216,192,229467,2,0,L|280:128,1,82.5000031471254
88,272,229681,1,2,0:0:0:0:
40,200,229788,1,0,0:0:0:0:
88,120,229895,2,0,L|152:56,1,82.5000031471254
320,344,230109,5,2,0:0:0:0:
360,304,230217,1,0,0:0:0:0:
440,304,230324,2,0,L|376:240,1,82.5000031471254
192,320,230538,1,2,0:0:0:0:
152,280,230645,1,0,0:0:0:0:
72,280,230752,2,0,L|136:216,1,82.5000031471254
360,208,230967,5,2,0:0:0:0:
400,168,231074,1,0,0:0:0:0:
480,168,231181,2,0,L|416:104,1,82.5000031471254
152,184,231395,1,2,0:0:0:0:
112,144,231502,1,0,0:0:0:0:
32,144,231609,2,0,L|96:80,1,82.5000031471254
384,344,231824,5,2,0:0:0:0:
432,304,231931,1,0,0:0:0:0:
416,248,232038,1,0,0:0:0:0:
224,232,232145,2,0,L|296:192,1,82.5000031471254,0|2,0:0|0:0,0:0:0:0:
376,176,232359,1,0,0:0:0:0:
136,240,232467,2,0,L|64:280,1,82.5000031471254
328,344,232681,5,2,0:0:0:0:
408,320,232788,2,0,L|352:248,2,82.5000031471254
96,240,233109,5,2,0:0:0:0:
32,184,233217,2,0,L|112:152,2,82.5000031471254
88,208,233538,1,2,0:0:0:0:
152,208,233645,2,0,L|216:152,2,82.5000031471254
208,200,233967,1,2,0:0:0:0:
264,184,234074,2,0,L|336:136,2,82.5000031471254
416,344,234395,5,2,0:0:0:0:
440,288,234502,1,0,0:0:0:0:
400,240,234609,2,0,L|336:176,1,82.5000031471254
456,168,234824,2,0,L|480:80,1,82.5000031471254,2|0,0:0|0:0,0:0:0:0:
120,256,235038,2,0,L|40:232,1,82.5000031471254,2|2,0:0|0:0,0:0:0:0:
304,232,235252,5,2,0:0:0:0:
352,200,235359,1,0,0:0:0:0:
400,192,235467,2,0,L|480:216,1,82.5000031471254
192,168,235681,1,2,0:0:0:0:
232,136,235788,1,0,0:0:0:0:
280,128,235895,2,0,L|360:152,1,82.5000031471254
216,272,236109,5,2,0:0:0:0:
168,248,236217,1,0,0:0:0:0:
112,248,236324,2,0,L|32:272,1,82.5000031471254
320,224,236538,1,2,0:0:0:0:
272,192,236645,1,0,0:0:0:0:
224,184,236752,2,0,L|144:208,1,82.5000031471254
272,104,236967,5,2,0:0:0:0:
320,136,237074,1,0,0:0:0:0:
344,192,237181,2,0,L|408:256,1,82.5000031471254
160,256,237395,2,0,L|88:296,1,82.5000031471254,2|0,0:0|0:0,0:0:0:0:
376,288,237609,2,0,L|456:304,1,82.5000031471254
256,312,237824,5,2,0:0:0:0:
200,280,237931,1,0,0:0:0:0:
136,280,238038,2,0,L|72:216,1,82.5000031471254
288,216,238252,2,0,L|376:216,1,82.5000031471254,2|0,0:0|0:0,0:0:0:0:
464,168,238467,1,0,0:0:0:0:
128,176,238574,1,0,0:0:0:0:
72,184,238681,5,2,0:0:0:0:
40,232,238788,1,0,0:0:0:0:
56,288,238895,2,0,L|120:352,1,82.5000031471254
320,336,239109,2,0,L|408:312,1,82.5000031471254,2|0,0:0|0:0,0:0:0:0:
224,240,239324,2,0,L|136:264,1,82.5000031471254
432,272,239538,5,2,0:0:0:0:
432,208,239645,1,0,0:0:0:0:
400,160,239752,1,0,0:0:0:0:
208,112,239859,1,0,0:0:0:0:
152,120,239967,1,2,0:0:0:0:
104,152,240074,1,0,0:0:0:0:
256,208,240181,2,0,L|336:232,1,82.5000031471254
152,344,240395,6,0,L|112:272,1,82.5000031471254,2|0,0:0|0:0,0:0:0:0:
24,216,240609,2,0,L|64:144,1,82.5000031471254
144,104,240824,1,2,0:0:0:0:
336,128,240931,2,0,L|416:152,1,82.5000031471254
488,232,241145,1,0,0:0:0:0:
296,264,241252,5,2,0:0:0:0:
248,256,241359,1,0,0:0:0:0:
208,232,241467,1,0,0:0:0:0:
104,216,241574,1,0,0:0:0:0:
128,176,241681,1,2,0:0:0:0:
176,152,241788,1,0,0:0:0:0:
48,136,241895,2,0,L|24:216,1,82.5000031471254,2|2,0:0|0:0,0:0:0:0:
296,344,242109,6,0,L|384:320,1,82.5000031471254,6|0,0:0|0:0,0:0:0:0:
304,296,242324,1,0,0:0:0:0:
248,248,242431,1,0,0:0:0:0:
392,184,242538,2,0,L|480:208,1,82.5000031471254,2|0,0:0|0:0,0:0:0:0:
256,200,242752,2,0,L|168:176,1,82.5000031471254
440,152,242967,5,2,0:0:0:0:
480,112,243074,1,0,0:0:0:0:
328,48,243181,2,0,L|240:72,1,82.5000031471254
176,72,243395,1,2,0:0:0:0:
104,104,243502,1,0,0:0:0:0:
220,164,243609,2,0,L|144:196,1,82.5000031471254
424,288,243824,6,0,L|456:208,1,82.5000031471254,2|0,0:0|0:0,0:0:0:0:
376,200,244038,1,0,0:0:0:0:
312,152,244145,1,0,0:0:0:0:
128,160,244252,2,0,L|40:184,1,82.5000031471254,2|0,0:0|0:0,0:0:0:0:
240,320,244467,2,0,L|328:296,1,82.5000031471254
376,288,244681,5,2,0:0:0:0:
416,240,244788,1,0,0:0:0:0:
216,232,244895,2,0,L|128:208,1,82.5000031471254
440,192,245109,2,0,L|464:112,1,82.5000031471254,2|0,0:0|0:0,0:0:0:0:
72,192,245324,2,0,L|48:112,1,82.5000031471254
224,40,245538,5,2,0:0:0:0:
280,48,245645,1,0,0:0:0:0:
328,72,245752,1,0,0:0:0:0:
360,120,245859,1,0,0:0:0:0:
184,152,245967,2,0,L|104:176,1,82.5000031471254,2|0,0:0|0:0,0:0:0:0:
392,256,246181,2,0,L|472:232,1,82.5000031471254
440,168,246395,5,2,0:0:0:0:
392,160,246502,1,0,0:0:0:0:
256,176,246609,1,0,0:0:0:0:
216,216,246717,1,0,0:0:0:0:
80,168,246824,1,2,0:0:0:0:
32,136,246931,1,0,0:0:0:0:
152,72,247038,1,0,0:0:0:0:
208,64,247145,1,0,0:0:0:0:
344,88,247252,5,2,0:0:0:0:
376,136,247359,1,0,0:0:0:0:
440,232,247467,1,0,0:0:0:0:
400,272,247574,1,0,0:0:0:0:
184,152,247681,5,2,0:0:0:0:
152,200,247788,1,0,0:0:0:0:
88,296,247895,1,0,0:0:0:0:
128,336,248002,1,0,0:0:0:0:
280,344,248109,6,0,L|368:320,1,82.5000031471254,2|0,0:0|0:0,0:0:0:0:
472,168,248324,2,0,L|384:144,1,82.5000031471254
232,40,248538,2,0,L|144:64,1,82.5000031471254,2|0,0:0|0:0,0:0:0:0:
40,216,248752,2,0,L|128:240,1,82.5000031471254
352,328,248967,5,2,0:0:0:0:
424,288,249074,1,0,0:0:0:0:
440,208,249181,2,0,L|360:184,1,82.5000031471254
152,136,249395,2,0,L|64:160,1,82.5000031471254,2|0,0:0|0:0,0:0:0:0:
272,232,249609,2,0,L|296:320,1,82.5000031471254
248,336,249824,5,2,0:0:0:0:
192,336,249931,1,0,0:0:0:0:
408,304,250038,2,0,L|432:224,1,82.5000031471254
480,200,250252,5,2,0:0:0:0:
448,144,250359,1,0,0:0:0:0:
192,232,250467,2,0,L|104:208,1,82.5000031471254
360,288,250681,6,0,L|448:264,1,82.5000031471254,2|0,0:0|0:0,0:0:0:0:
392,248,250895,1,0,0:0:0:0:
344,216,251002,1,0,0:0:0:0:
160,200,251109,6,0,L|184:120,1,82.5000031471254,2|0,0:0|0:0,0:0:0:0:
360,112,251324,2,0,L|440:136,1,82.5000031471254
368,200,251538,5,2,0:0:0:0:
272,224,251645,1,0,0:0:0:0:
56,304,251752,2,0,L|32:224,1,82.5000031471254
184,152,251967,6,0,L|264:128,1,82.5000031471254,2|0,0:0|0:0,0:0:0:0:
448,216,252181,2,0,L|472:296,1,82.5000031471254
224,344,252395,6,0,L|152:344,2,65.9999979858399,2|0|0,0:0|0:0|0:0,0:0:0:0:
296,288,252717,2,0,L|224:288,2,65.9999979858399,0|2|0,0:0|0:0|0:0,0:0:0:0:
224,224,253038,6,0,L|152:224,2,65.9999979858399,0|0|2,0:0|0:0|0:0,0:0:0:0:
152,184,253359,2,0,L|224:184,2,65.9999979858399
224,120,253681,6,0,L|296:120,2,65.9999979858399,2|0|0,0:0|0:0|0:0,0:0:0:0:
136,152,254002,1,0,0:0:0:0:
336,328,254109,5,0,0:0:0:0:
400,336,254163,1,0,0:0:0:0:
456,312,254217,1,0,0:0:0:0:
472,256,254270,1,0,0:0:0:0:
464,200,254324,5,0,0:0:0:0:
432,152,254377,1,0,0:0:0:0:
376,136,254431,1,0,0:0:0:0:
320,144,254484,1,0,0:0:0:0:
176,328,254538,5,0,0:0:0:0:
112,336,254592,1,0,0:0:0:0:
56,312,254645,1,0,0:0:0:0:
40,256,254699,1,0,0:0:0:0:
48,200,254752,5,0,0:0:0:0:
80,152,254806,1,0,0:0:0:0:
136,136,254859,1,0,0:0:0:0:
192,144,254913,1,0,0:0:0:0:
336,56,254967,5,0,0:0:0:0:
400,48,255020,1,0,0:0:0:0:
456,72,255074,1,0,0:0:0:0:
472,128,255127,1,0,0:0:0:0:
464,184,255181,5,0,0:0:0:0:
432,232,255234,1,0,0:0:0:0:
376,248,255288,1,0,0:0:0:0:
320,240,255342,1,0,0:0:0:0:
176,56,255395,5,0,0:0:0:0:
112,48,255449,1,0,0:0:0:0:
56,72,255502,1,0,0:0:0:0:
40,128,255556,1,0,0:0:0:0:
48,184,255609,5,0,0:0:0:0:
80,232,255663,1,0,0:0:0:0:
136,248,255717,1,0,0:0:0:0:
192,240,255770,1,0,0:0:0:0:
232,200,255824,5,6,0:0:0:0:
144,200,255931,1,0,0:0:0:0:
72,256,256038,1,0,0:0:0:0:
40,336,256145,1,0,0:0:0:0:
256,128,256252,5,2,0:0:0:0:
200,128,256359,1,0,0:0:0:0:
96,152,256467,1,0,0:0:0:0:
40,152,256574,1,0,0:0:0:0:
320,200,256681,5,2,0:0:0:0:
368,224,256788,1,0,0:0:0:0:
440,248,256895,1,0,0:0:0:0:
488,272,257002,1,0,0:0:0:0:
256,128,257109,5,2,0:0:0:0:
312,128,257217,1,0,0:0:0:0:
416,152,257324,1,0,0:0:0:0:
472,152,257431,1,0,0:0:0:0:
152,344,257538,6,0,L|216:280,1,82.5000031471254,2|0,0:0|0:0,0:0:0:0:
40,344,257752,2,0,L|104:280,1,82.5000031471254
208,216,257967,2,0,L|288:192,1,82.5000031471254,2|0,0:0|0:0,0:0:0:0:
120,184,258181,2,0,L|40:160,1,82.5000031471254
360,40,258395,6,0,L|296:104,1,82.5000031471254,2|0,0:0|0:0,0:0:0:0:
472,40,258609,2,0,L|408:104,1,82.5000031471254
304,168,258824,2,0,L|224:192,1,82.5000031471254,2|0,0:0|0:0,0:0:0:0:
392,200,259038,2,0,L|472:224,1,82.5000031471254
216,344,259252,6,0,L|136:320,1,82.5000031471254,2|0,0:0|0:0,0:0:0:0:
56,304,259467,2,0,L|32:224,1,82.5000031471254
280,292,259681,2,0,L|220:232,1,82.5000031471254,2|0,0:0|0:0,0:0:0:0:
472,176,259895,2,0,L|432:104,1,82.5000031471254
248,48,260109,6,0,L|328:72,1,82.5000031471254,2|0,0:0|0:0,0:0:0:0:
440,136,260324,2,0,L|464:216,1,82.5000031471254
256,120,260538,2,0,L|232:200,1,82.5000031471254,2|0,0:0|0:0,0:0:0:0:
40,208,260752,2,0,L|64:288,1,82.5000031471254
312,344,260967,5,2,0:0:0:0:
368,336,261074,1,0,0:0:0:0:
416,304,261181,1,0,0:0:0:0:
272,296,261288,1,0,0:0:0:0:
240,248,261395,5,2,0:0:0:0:
248,200,261502,1,0,0:0:0:0:
400,136,261609,1,0,0:0:0:0:
448,112,261717,1,0,0:0:0:0:
120,56,261824,5,2,0:0:0:0:
64,64,261931,1,0,0:0:0:0:
216,96,262038,1,0,0:0:0:0:
264,120,262145,1,0,0:0:0:0:
176,208,262252,5,2,0:0:0:0:
128,224,262359,1,0,0:0:0:0:
40,240,262467,1,0,0:0:0:0:
80,264,262574,1,0,0:0:0:0:
296,344,262681,6,0,L|376:328,1,82.5000031471254,2|0,0:0|0:0,0:0:0:0:
456,304,262895,2,0,L|480:224,1,82.5000031471254
144,168,263109,2,0,L|64:144,1,82.5000031471254,2|0,0:0|0:0,0:0:0:0:
368,168,263324,2,0,L|448:144,1,82.5000031471254
224,72,263538,6,0,L|144:48,1,82.5000031471254,2|0,0:0|0:0,0:0:0:0:
432,104,263752,2,0,L|488:168,1,82.5000031471254
400,192,263967,2,0,L|456:256,1,82.5000031471254,2|0,0:0|0:0,0:0:0:0:
152,304,264181,2,0,L|88:240,1,82.5000031471254
304,208,264395,6,0,L|368:144,1,82.5000031471254,2|0,0:0|0:0,0:0:0:0:
408,120,264609,1,0,0:0:0:0:
384,72,264717,1,0,0:0:0:0:
96,288,264824,6,0,L|32:224,1,82.5000031471254,2|0,0:0|0:0,0:0:0:0:
208,208,265038,2,0,L|144:144,1,82.5000031471254
88,136,265252,5,2,0:0:0:0:
32,168,265359,1,0,0:0:0:0:
400,256,265467,2,0,L|440:184,1,82.5000031471254
192,152,265681,6,0,L|168:72,1,82.5000031471254,2|0,0:0|0:0,0:0:0:0:
352,152,265895,2,0,L|376:72,1,82.5000031471254
176,136,266109,5,2,0:0:0:0:
120,144,266217,1,0,0:0:0:0:
72,176,266324,1,0,0:0:0:0:
40,224,266431,1,0,0:0:0:0:
344,344,266538,5,2,0:0:0:0:
400,336,266645,1,0,0:0:0:0:
440,304,266752,1,0,0:0:0:0:
456,256,266859,1,0,0:0:0:0:
240,216,266967,6,0,L|152:216,1,82.5000031471254,2|0,0:0|0:0,0:0:0:0:
224,184,267181,2,0,L|136:184,1,82.5000031471254
208,152,267395,2,0,L|120:152,1,82.5000031471254,2|0,0:0|0:0,0:0:0:0:
72,168,267609,5,0,0:0:0:0:
40,216,267717,1,0,0:0:0:0:
64,272,267824,1,2,0:0:0:0:
112,296,267931,1,0,0:0:0:0:
344,272,268038,6,0,L|424:248,1,82.5000031471254
464,224,268252,1,2,0:0:0:0:
480,168,268359,1,0,0:0:0:0:
240,128,268467,2,0,L|160:152,1,82.5000031471254
344,280,268681,5,2,0:0:0:0:
416,272,268788,2,0,L|480:208,1,82.5000031471254
64,256,269002,1,0,0:0:0:0:
152,256,269109,6,0,L|232:216,1,82.5000031471254,2|0,0:0|0:0,0:0:0:0:
280,152,269324,1,2,0:0:0:0:
40,144,269431,1,2,0:0:0:0:
112,88,269538,6,0,L|200:88,1,82.5000031471254,6|0,0:0|0:0,0:0:0:0:
464,216,269752,2,0,L|392:264,1,82.5000031471254
200,296,269967,2,0,L|112:296,1,82.5000031471254,2|0,0:0|0:0,0:0:0:0:
376,176,270181,2,0,L|440:112,1,82.5000031471254
128,136,270395,6,0,L|40:136,1,82.5000031471254,2|0,0:0|0:0,0:0:0:0:
136,64,270609,2,0,L|224:64,1,82.5000031471254
408,136,270824,2,0,L|480:176,1,82.5000031471254,2|0,0:0|0:0,0:0:0:0:
232,152,271038,2,0,L|168:216,1,82.5000031471254
120,88,271252,6,0,L|208:88,1,82.5000031471254,2|0,0:0|0:0,0:0:0:0:
464,216,271467,2,0,L|392:264,1,82.5000031471254
200,296,271681,2,0,L|112:296,1,82.5000031471254,2|0,0:0|0:0,0:0:0:0:
376,176,271895,2,0,L|440:112,1,82.5000031471254
128,136,272109,6,0,L|40:136,1,82.5000031471254,2|0,0:0|0:0,0:0:0:0:
136,64,272324,2,0,L|224:64,1,82.5000031471254
408,136,272538,2,0,L|480:176,1,82.5000031471254,2|0,0:0|0:0,0:0:0:0:
232,152,272752,2,0,L|168:216,1,82.5000031471254
392,336,272967,6,0,L|480:312,1,82.5000031471254,2|0,0:0|0:0,0:0:0:0:
296,336,273181,2,0,L|208:336,1,82.5000031471254
48,304,273395,2,0,L|24:224,1,82.5000031471254,2|0,0:0|0:0,0:0:0:0:
280,208,273609,2,0,L|344:144,1,82.5000031471254
120,48,273824,6,0,L|32:72,1,82.5000031471254,2|0,0:0|0:0,0:0:0:0:
216,48,274038,2,0,L|304:48,1,82.5000031471254
464,80,274252,2,0,L|488:160,1,82.5000031471254,2|0,0:0|0:0,0:0:0:0:
232,176,274467,2,0,L|168:240,1,82.5000031471254
392,336,274681,6,0,L|480:312,1,82.5000031471254,2|0,0:0|0:0,0:0:0:0:
296,336,274895,2,0,L|208:336,1,82.5000031471254
48,304,275109,2,0,L|24:224,1,82.5000031471254,2|0,0:0|0:0,0:0:0:0:
280,208,275324,2,0,L|344:144,1,82.5000031471254
120,48,275538,6,0,L|32:72,1,82.5000031471254,2|0,0:0|0:0,0:0:0:0:
216,48,275752,2,0,L|304:48,1,82.5000031471254
464,80,275967,2,0,L|488:160,1,82.5000031471254,2|0,0:0|0:0,0:0:0:0:
232,176,276181,2,0,L|168:240,1,82.5000031471254,2|2,0:0|0:0,0:0:0:0:
80,200,276395,6,0,L|32:272,1,82.5000031471254,2|0,0:0|0:0,0:0:0:0:
240,344,276609,2,0,L|328:344,1,82.5000031471254
408,312,276824,2,0,L|448:216,1,82.5000031471254,2|0,0:0|0:0,0:0:0:0:
192,280,277038,2,0,L|152:208,1,82.5000031471254
432,184,277252,6,0,L|480:112,1,82.5000031471254,2|0,0:0|0:0,0:0:0:0:
272,40,277467,2,0,L|184:40,1,82.5000031471254
104,72,277681,2,0,L|64:168,1,82.5000031471254,2|0,0:0|0:0,0:0:0:0:
320,104,277895,2,0,L|360:176,1,82.5000031471254
80,200,278109,6,0,L|32:272,1,82.5000031471254,2|0,0:0|0:0,0:0:0:0:
240,344,278324,2,0,L|328:344,1,82.5000031471254
408,312,278538,2,0,L|448:216,1,82.5000031471254,2|0,0:0|0:0,0:0:0:0:
192,280,278752,2,0,L|152:208,1,82.5000031471254
432,184,278967,6,0,L|480:112,1,82.5000031471254,2|0,0:0|0:0,0:0:0:0:
272,40,279181,2,0,L|184:40,1,82.5000031471254
104,72,279395,2,0,L|56:168,1,82.5000031471254,2|0,0:0|0:0,0:0:0:0:
256,160,279609,2,0,L|192:224,1,82.5000031471254
448,208,279824,5,0,0:0:0:0:
472,256,279877,1,0,0:0:0:0:
456,312,279931,1,0,0:0:0:0:
416,344,279984,1,0,0:0:0:0:
360,344,280038,1,0,0:0:0:0:
304,320,280092,1,0,0:0:0:0:
288,264,280145,1,0,0:0:0:0:
312,216,280199,1,0,0:0:0:0:
360,200,280252,5,0,0:0:0:0:
384,144,280306,1,0,0:0:0:0:
368,88,280359,1,0,0:0:0:0:
320,56,280413,1,0,0:0:0:0:
264,56,280467,1,0,0:0:0:0:
216,88,280520,1,0,0:0:0:0:
208,144,280574,1,0,0:0:0:0:
248,184,280627,1,0,0:0:0:0:
304,192,280681,5,0,0:0:0:0:
352,208,280734,1,0,0:0:0:0:
384,248,280788,1,0,0:0:0:0:
384,296,280842,1,0,0:0:0:0:
344,336,280895,1,0,0:0:0:0:
288,344,280949,1,0,0:0:0:0:
240,320,281002,1,0,0:0:0:0:
224,272,281056,1,0,0:0:0:0:
248,224,281109,5,0,0:0:0:0:
264,168,281163,1,0,0:0:0:0:
240,112,281217,1,0,0:0:0:0:
184,88,281270,1,0,0:0:0:0:
128,88,281324,1,0,0:0:0:0:
80,128,281377,1,0,0:0:0:0:
72,184,281431,1,0,0:0:0:0:
96,240,281484,1,0,0:0:0:0:
424,272,281538,6,0,L|480:272,1,55
424,216,281752,2,0,L|368:216,1,55
424,160,281967,2,0,L|480:160,1,55
424,104,282181,2,0,L|368:104,1,55
88,112,282395,6,0,L|32:112,1,55
88,168,282609,2,0,L|144:168,1,55
88,224,282824,2,0,L|32:224,1,55
88,280,283038,2,0,L|144:280,1,55
392,192,283252,5,0,0:0:0:0:
440,200,283342,1,0,0:0:0:0:
472,240,283431,1,0,0:0:0:0:
464,288,283520,1,0,0:0:0:0:
424,312,283609,1,0,0:0:0:0:
384,288,283699,1,0,0:0:0:0:
336,280,283788,1,0,0:0:0:0:
304,312,283877,1,0,0:0:0:0:
376,344,283967,5,0,0:0:0:0:
424,336,284056,1,0,0:0:0:0:
464,304,284145,1,0,0:0:0:0:
472,256,284234,1,0,0:0:0:0:
376,248,284324,1,0,0:0:0:0:
424,232,284413,1,0,0:0:0:0:
456,192,284502,1,0,0:0:0:0:
464,144,284592,1,0,0:0:0:0:
448,96,284681,5,0,0:0:0:0:
416,64,284770,1,0,0:0:0:0:
368,56,284859,1,0,0:0:0:0:
328,72,284949,1,0,0:0:0:0:
280,120,285038,1,0,0:0:0:0:
296,168,285127,1,0,0:0:0:0:
344,184,285217,1,0,0:0:0:0:
400,184,285306,1,0,0:0:0:0:
352,296,285395,5,0,0:0:0:0:
304,296,285484,1,0,0:0:0:0:
256,272,285574,1,0,0:0:0:0:
232,224,285663,1,0,0:0:0:0:
248,176,285752,1,0,0:0:0:0:
296,144,285842,1,0,0:0:0:0:
256,104,285931,1,0,0:0:0:0:
200,104,286020,1,0,0:0:0:0:
256,64,286109,5,0,0:0:0:0:
200,64,286199,1,0,0:0:0:0:
152,88,286288,1,0,0:0:0:0:
128,136,286377,1,0,0:0:0:0:
136,192,286467,1,0,0:0:0:0:
168,224,286556,1,0,0:0:0:0:
216,232,286645,1,0,0:0:0:0:
264,232,286734,1,0,0:0:0:0:
208,176,286824,5,0,0:0:0:0:
160,200,286913,1,0,0:0:0:0:
136,248,287002,1,0,0:0:0:0:
160,304,287092,1,0,0:0:0:0:
112,320,287181,1,0,0:0:0:0:
64,304,287270,1,0,0:0:0:0:
40,264,287359,1,0,0:0:0:0:
56,216,287449,1,0,0:0:0:0:
144,160,287538,5,0,0:0:0:0:
192,136,287627,1,0,0:0:0:0:
240,144,287717,1,0,0:0:0:0:
288,168,287806,1,0,0:0:0:0:
344,176,287895,1,0,0:0:0:0:
392,160,287984,1,0,0:0:0:0:
416,112,288074,1,0,0:0:0:0:
400,64,288163,1,0,0:0:0:0:
280,56,288252,5,0,0:0:0:0:
232,72,288342,1,0,0:0:0:0:
208,120,288431,1,0,0:0:0:0:
224,168,288520,1,0,0:0:0:0:
304,200,288609,1,0,0:0:0:0:
360,176,288699,1,0,0:0:0:0:
304,176,288788,1,0,0:0:0:0:
272,128,288877,1,0,0:0:0:0:
344,104,288967,5,0,0:0:0:0:
392,128,289056,1,0,0:0:0:0:
416,176,289145,1,0,0:0:0:0:
408,224,289234,1,0,0:0:0:0:
376,264,289324,1,0,0:0:0:0:
320,264,289413,1,0,0:0:0:0:
272,240,289502,1,0,0:0:0:0:
248,192,289592,1,0,0:0:0:0:
176,72,289681,5,0,0:0:0:0:
120,88,289770,1,0,0:0:0:0:
88,136,289859,1,0,0:0:0:0:
96,192,289949,1,0,0:0:0:0:
160,216,290038,1,0,0:0:0:0:
104,224,290127,1,0,0:0:0:0:
64,256,290217,1,0,0:0:0:0:
48,304,290306,1,0,0:0:0:0:
176,320,290395,5,0,0:0:0:0:
120,320,290484,1,0,0:0:0:0:
80,288,290574,1,0,0:0:0:0:
64,240,290663,1,0,0:0:0:0:
160,192,290752,1,0,0:0:0:0:
208,176,290842,1,0,0:0:0:0:
256,184,290931,1,0,0:0:0:0:
296,208,291020,1,0,0:0:0:0:
240,304,291109,5,0,0:0:0:0:
288,320,291199,1,0,0:0:0:0:
336,304,291288,1,0,0:0:0:0:
368,264,291377,1,0,0:0:0:0:
360,216,291467,1,0,0:0:0:0:
320,176,291556,1,0,0:0:0:0:
368,144,291645,1,0,0:0:0:0:
416,152,291734,1,0,0:0:0:0:
376,104,291824,5,0,0:0:0:0:
320,104,291913,1,0,0:0:0:0:
272,136,292002,1,0,0:0:0:0:
328,160,292092,1,0,0:0:0:0:
368,200,292181,1,0,0:0:0:0:
312,216,292270,1,0,0:0:0:0:
272,256,292359,1,0,0:0:0:0:
256,304,292449,1,0,0:0:0:0:
296,344,292538,5,0,0:0:0:0:
240,344,292627,1,0,0:0:0:0:
200,320,292717,1,0,0:0:0:0:
176,272,292806,1,0,0:0:0:0:
120,248,292895,1,0,0:0:0:0:
104,200,292984,1,0,0:0:0:0:
128,152,293074,1,0,0:0:0:0:
176,128,293163,1,0,0:0:0:0:
264,192,293252,5,0,0:0:0:0:
296,144,293342,1,0,0:0:0:0:
280,88,293431,1,0,0:0:0:0:
232,64,293520,1,0,0:0:0:0:
152,80,293609,1,0,0:0:0:0:
200,112,293699,1,0,0:0:0:0:
208,168,293788,1,0,0:0:0:0:
176,208,293877,1,0,0:0:0:0:
272,312,293967,5,0,0:0:0:0:
216,296,294056,1,0,0:0:0:0:
192,248,294145,1,0,0:0:0:0:
216,192,294234,1,0,0:0:0:0:
176,160,294324,1,0,0:0:0:0:
128,184,294413,1,0,0:0:0:0:
104,232,294502,1,0,0:0:0:0:
128,280,294592,1,0,0:0:0:0:
192,296,294681,5,0,0:0:0:0:
144,328,294770,1,0,0:0:0:0:
96,320,294859,1,0,0:0:0:0:
56,288,294949,1,0,0:0:0:0:
120,296,295038,1,0,0:0:0:0:
72,280,295127,1,0,0:0:0:0:
40,240,295217,1,0,0:0:0:0:
48,192,295306,1,0,0:0:0:0:
136,152,295395,5,0,0:0:0:0:
184,160,295484,1,0,0:0:0:0:
216,200,295574,1,0,0:0:0:0:
200,248,295663,1,0,0:0:0:0:
152,264,295752,1,0,0:0:0:0:
136,312,295842,1,0,0:0:0:0:
160,344,295931,1,0,0:0:0:0:
200,344,296020,1,0,0:0:0:0:
344,320,296109,6,0,L|456:320,2,110
168,256,296431,6,0,L|56:256,2,110
344,216,296752,2,0,L|424:136,1,110
120,192,296967,5,6,0:0:0:0:
72,184,297056,1,0,0:0:0:0:
40,144,297145,1,0,0:0:0:0:
48,96,297234,1,0,0:0:0:0:
88,72,297324,1,0,0:0:0:0:
128,96,297413,1,0,0:0:0:0:
176,104,297502,1,0,0:0:0:0:
208,72,297592,1,0,0:0:0:0:
136,40,297681,5,0,0:0:0:0:
88,48,297770,1,0,0:0:0:0:
48,80,297859,1,0,0:0:0:0:
40,128,297949,1,0,0:0:0:0:
136,136,298038,1,0,0:0:0:0:
88,152,298127,1,0,0:0:0:0:
56,192,298217,1,0,0:0:0:0:
48,240,298306,1,0,0:0:0:0:
64,288,298395,5,0,0:0:0:0:
96,320,298484,1,0,0:0:0:0:
144,328,298574,1,0,0:0:0:0:
184,312,298663,1,0,0:0:0:0:
232,264,298752,1,0,0:0:0:0:
216,216,298842,1,0,0:0:0:0:
168,200,298931,1,0,0:0:0:0:
112,200,299020,1,0,0:0:0:0:
160,88,299109,5,0,0:0:0:0:
208,88,299199,1,0,0:0:0:0:
256,112,299288,1,0,0:0:0:0:
280,160,299377,1,0,0:0:0:0:
264,208,299467,1,0,0:0:0:0:
216,240,299556,1,0,0:0:0:0:
256,280,299645,1,0,0:0:0:0:
312,280,299734,1,0,0:0:0:0:
256,320,299824,5,0,0:0:0:0:
312,320,299913,1,0,0:0:0:0:
360,296,300002,1,0,0:0:0:0:
384,248,300092,1,0,0:0:0:0:
376,192,300181,1,0,0:0:0:0:
344,160,300270,1,0,0:0:0:0:
296,152,300359,1,0,0:0:0:0:
248,152,300449,1,0,0:0:0:0:
304,208,300538,5,0,0:0:0:0:
352,184,300627,1,0,0:0:0:0:
376,136,300717,1,0,0:0:0:0:
352,80,300806,1,0,0:0:0:0:
400,64,300895,1,0,0:0:0:0:
448,80,300984,1,0,0:0:0:0:
472,120,301074,1,0,0:0:0:0:
456,168,301163,1,0,0:0:0:0:
368,224,301252,5,0,0:0:0:0:
320,248,301342,1,0,0:0:0:0:
272,240,301431,1,0,0:0:0:0:
224,216,301520,1,0,0:0:0:0:
168,208,301609,1,0,0:0:0:0:
120,224,301699,1,0,0:0:0:0:
96,272,301788,1,0,0:0:0:0:
112,320,301877,1,0,0:0:0:0:
232,328,301967,5,0,0:0:0:0:
280,312,302056,1,0,0:0:0:0:
304,264,302145,1,0,0:0:0:0:
288,216,302234,1,0,0:0:0:0:
208,184,302324,1,0,0:0:0:0:
152,208,302413,1,0,0:0:0:0:
208,208,302502,1,0,0:0:0:0:
240,256,302592,1,0,0:0:0:0:
168,280,302681,5,0,0:0:0:0:
120,256,302770,1,0,0:0:0:0:
96,208,302859,1,0,0:0:0:0:
104,160,302949,1,0,0:0:0:0:
136,120,303038,1,0,0:0:0:0:
192,120,303127,1,0,0:0:0:0:
240,144,303217,1,0,0:0:0:0:
264,192,303306,1,0,0:0:0:0:
344,200,303395,5,0,0:0:0:0:
384,224,303484,1,0,0:0:0:0:
392,264,303574,1,0,0:0:0:0:
376,288,303663,1,0,0:0:0:0:
344,296,303752,1,0,0:0:0:0:
280,320,303824,6,0,L|224:320,1,55,2|0,0:0|0:0,0:0:0:0:
152,320,304038,2,0,L|112:280,1,55,2|0,0:0|0:0,0:0:0:0:
40,264,304252,2,0,L|80:224,1,55,2|0,0:0|0:0,0:0:0:0:
152,208,304467,2,0,L|208:208,1,55,2|0,0:0|0:0,0:0:0:0:
288,224,304681,6,0,L|304:168,1,55,2|0,0:0|0:0,0:0:0:0:
224,192,304895,2,0,L|208:136,1,55,2|0,0:0|0:0,0:0:0:0:
296,128,305109,2,0,L|312:72,1,55,2|0,0:0|0:0,0:0:0:0:
216,96,305324,2,0,L|200:40,1,55,2|0,0:0|0:0,0:0:0:0:
472,216,305538,6,0,L|416:216,1,55,2|0,0:0|0:0,0:0:0:0:
344,248,305752,2,0,L|400:248,1,55,2|0,0:0|0:0,0:0:0:0:
320,272,305967,2,0,L|376:272,1,55,2|0,0:0|0:0,0:0:0:0:
296,296,306181,2,0,L|352:296,1,55,2|0,0:0|0:0,0:0:0:0:
104,272,306395,6,0,L|48:272,1,55,2|0,0:0|0:0,0:0:0:0:
144,240,306609,2,0,L|88:240,1,55,2|0,0:0|0:0,0:0:0:0:
184,208,306824,2,0,L|128:208,1,55,2|0,0:0|0:0,0:0:0:0:
344,152,307038,2,0,L|288:152,1,55,2|0,0:0|0:0,0:0:0:0:
84,344,307252,5,0,0:0:0:0:
45,330,307305,1,0,0:0:0:0:
18,300,307359,1,0,0:0:0:0:
11,260,307412,1,0,0:0:0:0:
24,221,307466,1,0,0:0:0:0:
55,195,307519,1,0,0:0:0:0:
96,188,307573,1,0,0:0:0:0:
134,202,307626,1,0,0:0:0:0:
176,200,307681,5,0,0:0:0:0:
215,186,307734,1,0,0:0:0:0:
242,156,307788,1,0,0:0:0:0:
249,116,307841,1,0,0:0:0:0:
236,77,307895,1,0,0:0:0:0:
205,51,307948,1,0,0:0:0:0:
164,44,308002,1,0,0:0:0:0:
126,58,308055,1,0,0:0:0:0:
428,344,308109,5,0,0:0:0:0:
467,330,308162,1,0,0:0:0:0:
494,300,308216,1,0,0:0:0:0:
501,260,308269,1,0,0:0:0:0:
488,221,308323,1,0,0:0:0:0:
457,195,308376,1,0,0:0:0:0:
416,188,308430,1,0,0:0:0:0:
378,202,308483,1,0,0:0:0:0:
336,200,308538,5,0,0:0:0:0:
297,186,308591,1,0,0:0:0:0:
270,156,308645,1,0,0:0:0:0:
263,116,308698,1,0,0:0:0:0:
276,77,308752,1,0,0:0:0:0:
307,51,308805,1,0,0:0:0:0:
348,44,308859,1,0,0:0:0:0:
386,58,308912,1,0,0:0:0:0:
408,100,308967,6,0,L|432:156,1,55
320,280,309181,2,0,L|264:280,1,55
96,312,309395,2,0,L|48:264,1,55
352,224,309609,6,0,L|408:224,1,55
160,208,309824,2,0,L|104:208,1,55
384,168,310038,2,0,L|440:168,1,55
128,168,310252,2,0,L|72:168,1,55
416,112,310467,2,0,L|472:112,1,55
256,192,310681,5,4,0:0:0:0:
256,192,310788,12,0,316788,0:0:0:0:
