osu file format v14

[General]
AudioFilename: audio.mp3
AudioLeadIn: 0
PreviewTime: 143761
Countdown: 0
SampleSet: Soft
StackLeniency: 0.7
Mode: 3
LetterboxInBreaks: 0
SpecialStyle: 0
WidescreenStoryboard: 0

[Editor]
DistanceSpacing: 1.1
BeatDivisor: 4
GridSize: 16
TimelineZoom: 2.599999

[Metadata]
Title:Three Magic (DiGiTAL WiNG TRANCE Remix)
TitleUnicode:Three Magic (DiGiTAL WiNG TRANCE Remix)
Artist:Halozy
ArtistUnicode:Halozy
Creator:Virtue-
Version:Lunatic of Love
Source:東方星蓮船 ~ Undefined Fantastic Object.
Tags:Star Lotus Ship Byakuren Hijiri Seirensen 東方Project cao. sumijun もちこ katsu すみじゅん 海兎 Future Love 感情の摩天楼 ~ Cosmic Mind 3L Electronic Vocal touhou ZUN
BeatmapID:1192531
BeatmapSetID:564014

[Difficulty]
HPDrainRate:8.5
CircleSize:4
OverallDifficulty:8.5
ApproachRate:5
SliderMultiplier:1.4
SliderTickRate:1

[Events]
//Background and Video events
0,0,"BG.jpg",0,0
//Break Periods
//Storyboard Layer 0 (Background)
//Storyboard Layer 1 (Fail)
//Storyboard Layer 2 (Pass)
//Storyboard Layer 3 (Foreground)
//Storyboard Sound Samples

[TimingPoints]
2119,428.571428571429,4,2,1,40,1,0
60404,-133.333333333333,4,2,1,40,0,0
72404,-131.578947368421,4,2,1,40,0,0
72476,-129.87012987013,4,2,1,40,0,0
72547,-128.205128205128,4,2,1,40,0,0
72619,-126.582278481013,4,2,1,40,0,0
72690,-125,4,2,1,40,0,0
72761,-123.456790123457,4,2,1,40,0,0
72833,-121.951219512195,4,2,1,40,0,0
72904,-120.481927710843,4,2,1,40,0,0
72976,-119.047619047619,4,2,1,40,0,0
73047,-117.647058823529,4,2,1,40,0,0
73119,-116.279069767442,4,2,1,40,0,0
73190,-114.942528735632,4,2,1,40,0,0
73261,-113.636363636364,4,2,1,40,0,0
73333,-112.359550561798,4,2,1,40,0,0
73404,-111.111111111111,4,2,1,40,0,0
73476,-109.89010989011,4,2,1,40,0,0
73547,-108.695652173913,4,2,1,40,0,0
73619,-107.52688172043,4,2,1,40,0,0
73690,-106.382978723404,4,2,1,40,0,0
73761,-105.263157894737,4,2,1,40,0,0
73833,-104.166666666667,4,2,1,40,0,0
73904,-103.092783505155,4,2,1,40,0,0
73976,-102.040816326531,4,2,1,40,0,0
74047,-101.010101010101,4,2,1,40,0,0
74119,-100,4,2,1,40,0,0
87833,-100,4,2,1,40,0,1
111833,-100,4,2,1,40,0,0
144404,-100,4,2,1,40,0,1
170119,-100,4,2,1,40,0,0
228404,-100,4,2,1,40,0,1
254119,-100,4,2,1,40,0,0
255833,-100,4,2,1,40,0,1
279833,-100,4,2,1,40,0,0

[HitObjects]
64,192,2119,128,0,2333:0:0:0:0:
64,192,2440,128,0,2654:0:0:0:0:
64,192,2761,128,0,2869:0:0:0:0:
64,192,2976,128,0,3190:0:0:0:0:
64,192,3297,128,0,3511:0:0:0:0:
64,192,3619,128,0,3833:0:0:0:0:
448,192,3833,1,4,0:0:0:0:
320,192,3833,1,2,0:0:0:0:
192,192,3833,1,0,0:0:0:0:
64,192,3940,1,0,0:0:0:0:
320,192,4047,1,0,0:0:0:0:
192,192,4154,1,0,0:0:0:0:
448,192,4261,1,2,0:0:0:0:
64,192,4261,1,0,0:0:0:0:
320,192,4369,1,0,0:0:0:0:
64,192,4476,1,0,0:0:0:0:
192,192,4583,1,0,0:0:0:0:
448,192,4690,1,2,0:0:0:0:
320,192,4690,1,0,0:0:0:0:
64,192,4797,1,0,0:0:0:0:
192,192,4904,1,0,0:0:0:0:
320,192,5011,1,0,0:0:0:0:
448,192,5119,1,0,0:0:0:0:
64,192,5119,1,2,0:0:0:0:
192,192,5226,1,0,0:0:0:0:
448,192,5333,1,0,0:0:0:0:
320,192,5440,1,0,0:0:0:0:
64,192,5547,1,2,0:0:0:0:
192,192,5547,1,0,0:0:0:0:
448,192,5654,1,0,0:0:0:0:
320,192,5761,1,0,0:0:0:0:
64,192,5869,1,0,0:0:0:0:
320,192,5976,1,0,0:0:0:0:
448,192,5976,1,2,0:0:0:0:
192,192,6083,1,0,0:0:0:0:
64,192,6190,1,0,0:0:0:0:
448,192,6297,1,0,0:0:0:0:
192,192,6404,1,2,0:0:0:0:
64,192,6404,1,0,0:0:0:0:
448,192,6511,1,0,0:0:0:0:
320,192,6619,1,0,0:0:0:0:
64,192,6726,1,0,0:0:0:0:
320,192,6833,1,2,0:0:0:0:
448,192,6833,1,0,0:0:0:0:
192,192,6940,1,0,0:0:0:0:
64,192,7047,1,0,0:0:0:0:
448,192,7154,1,0,0:0:0:0:
64,192,7261,1,0,0:0:0:0:
192,192,7261,1,2,0:0:0:0:
320,192,7369,1,0,0:0:0:0:
448,192,7476,1,0,0:0:0:0:
64,192,7583,1,0,0:0:0:0:
448,192,7690,1,0,0:0:0:0:
320,192,7690,1,2,0:0:0:0:
192,192,7797,1,0,0:0:0:0:
64,192,7904,1,0,0:0:0:0:
320,192,8011,1,0,0:0:0:0:
448,192,8119,1,2,0:0:0:0:
64,192,8119,1,0,0:0:0:0:
192,192,8226,1,0,0:0:0:0:
320,192,8333,1,0,0:0:0:0:
448,192,8440,1,0,0:0:0:0:
64,192,8547,1,0,0:0:0:0:
192,192,8547,1,2,0:0:0:0:
320,192,8654,1,0,0:0:0:0:
448,192,8761,1,0,0:0:0:0:
64,192,8869,1,0,0:0:0:0:
192,192,8976,1,2,0:0:0:0:
320,192,8976,1,0,0:0:0:0:
448,192,9083,1,0,0:0:0:0:
64,192,9190,1,0,0:0:0:0:
192,192,9297,1,0,0:0:0:0:
320,192,9404,1,2,0:0:0:0:
448,192,9404,1,0,0:0:0:0:
64,192,9511,1,0,0:0:0:0:
192,192,9619,1,0,0:0:0:0:
320,192,9726,1,0,0:0:0:0:
64,192,9833,1,2,0:0:0:0:
448,192,9833,1,0,0:0:0:0:
192,192,9940,1,0,0:0:0:0:
448,192,10047,1,0,0:0:0:0:
320,192,10154,1,0,0:0:0:0:
192,192,10261,1,0,0:0:0:0:
64,192,10261,1,2,0:0:0:0:
448,192,10369,1,0,0:0:0:0:
320,192,10476,1,0,0:0:0:0:
192,192,10583,1,0,0:0:0:0:
448,192,10690,1,2,0:0:0:0:
64,192,10690,1,0,0:0:0:0:
320,192,10797,1,0,0:0:0:0:
64,192,10904,1,0,0:0:0:0:
192,192,11011,1,0,0:0:0:0:
64,192,11119,1,0,0:0:0:0:
448,192,11119,1,8,0:0:0:0:
320,192,11119,1,2,0:0:0:0:
192,192,11226,1,0,0:0:0:0:
448,192,11333,1,0,0:0:0:0:
64,192,11440,1,0,0:0:0:0:
320,192,11547,1,2,0:0:0:0:
192,192,11547,1,0,0:0:0:0:
448,192,11654,1,0,0:0:0:0:
64,192,11761,1,0,0:0:0:0:
192,192,11869,1,0,0:0:0:0:
448,192,11976,1,8,0:0:0:0:
320,192,11976,1,2,0:0:0:0:
64,192,11976,1,0,0:0:0:0:
192,192,12083,1,0,0:0:0:0:
448,192,12190,1,0,0:0:0:0:
320,192,12297,1,0,0:0:0:0:
192,192,12404,1,2,0:0:0:0:
64,192,12404,1,0,0:0:0:0:
448,192,12511,1,0,0:0:0:0:
320,192,12619,1,0,0:0:0:0:
192,192,12726,1,0,0:0:0:0:
448,192,12833,1,8,0:0:0:0:
320,192,12833,1,2,0:0:0:0:
64,192,12833,1,0,0:0:0:0:
192,192,12940,1,0,0:0:0:0:
64,192,13047,1,0,0:0:0:0:
448,192,13154,1,0,0:0:0:0:
320,192,13261,1,2,0:0:0:0:
192,192,13261,1,0,0:0:0:0:
64,192,13369,1,0,0:0:0:0:
448,192,13476,1,0,0:0:0:0:
320,192,13583,1,0,0:0:0:0:
448,192,13690,1,0,0:0:0:0:
192,192,13690,1,2,0:0:0:0:
64,192,13690,1,8,0:0:0:0:
320,192,13797,1,0,0:0:0:0:
192,192,13904,1,0,0:0:0:0:
320,192,14011,1,0,0:0:0:0:
448,192,14119,1,2,0:0:0:0:
64,192,14119,1,0,0:0:0:0:
192,192,14226,1,0,0:0:0:0:
320,192,14333,1,0,0:0:0:0:
448,192,14440,1,0,0:0:0:0:
320,192,14547,1,0,0:0:0:0:
64,192,14547,1,2,0:0:0:0:
192,192,14547,1,8,0:0:0:0:
448,192,14654,1,0,0:0:0:0:
192,192,14761,1,0,0:0:0:0:
320,192,14869,1,0,0:0:0:0:
64,192,14976,1,2,0:0:0:0:
448,192,14976,1,0,0:0:0:0:
192,192,15083,1,0,0:0:0:0:
320,192,15190,1,0,0:0:0:0:
64,192,15297,1,0,0:0:0:0:
448,192,15404,1,8,0:0:0:0:
320,192,15404,1,0,0:0:0:0:
192,192,15404,1,2,0:0:0:0:
64,192,15511,1,0,0:0:0:0:
448,192,15619,1,0,0:0:0:0:
320,192,15726,1,0,0:0:0:0:
192,192,15833,1,2,0:0:0:0:
64,192,15833,1,0,0:0:0:0:
448,192,15940,1,0,0:0:0:0:
320,192,16047,1,0,0:0:0:0:
192,192,16154,1,0,0:0:0:0:
448,192,16261,1,8,0:0:0:0:
320,192,16261,1,2,0:0:0:0:
64,192,16261,1,0,0:0:0:0:
192,192,16369,1,0,0:0:0:0:
64,192,16476,1,0,0:0:0:0:
320,192,16583,1,0,0:0:0:0:
448,192,16690,1,2,0:0:0:0:
192,192,16690,1,0,0:0:0:0:
64,192,16797,1,0,0:0:0:0:
320,192,16904,1,0,0:0:0:0:
192,192,17011,1,2,0:0:0:0:
64,192,17011,1,0,0:0:0:0:
448,192,17119,1,0,0:0:0:0:
320,192,17119,1,8,0:0:0:0:
192,192,17226,1,0,0:0:0:0:
64,192,17333,1,2,0:0:0:0:
448,192,17333,1,0,0:0:0:0:
320,192,17440,1,0,0:0:0:0:
448,192,17547,1,4,0:0:0:0:
64,192,17547,1,0,0:0:0:0:
192,192,17547,1,2,0:0:0:0:
320,192,17654,1,0,0:0:0:0:
64,192,17761,1,0,0:0:0:0:
192,192,17869,1,0,0:0:0:0:
448,192,17976,1,8,0:0:0:0:
320,192,17976,1,2,0:0:0:0:
64,192,17976,1,0,0:0:0:0:
192,192,18083,1,0,0:0:0:0:
320,192,18190,1,0,0:0:0:0:
448,192,18297,1,0,0:0:0:0:
64,192,18404,1,2,0:0:0:0:
192,192,18404,1,0,0:0:0:0:
320,192,18511,1,0,0:0:0:0:
448,192,18619,1,0,0:0:0:0:
192,192,18726,1,0,0:0:0:0:
448,192,18833,1,8,0:0:0:0:
320,192,18833,1,2,0:0:0:0:
64,192,18833,1,0,0:0:0:0:
192,192,18940,1,0,0:0:0:0:
320,192,19047,1,0,0:0:0:0:
64,192,19154,1,0,0:0:0:0:
192,192,19261,1,2,0:0:0:0:
448,192,19261,1,0,0:0:0:0:
320,192,19369,1,0,0:0:0:0:
192,192,19476,1,0,0:0:0:0:
64,192,19583,1,0,0:0:0:0:
192,192,19690,1,0,0:0:0:0:
320,192,19690,1,2,0:0:0:0:
448,192,19690,1,8,0:0:0:0:
64,192,19797,1,0,0:0:0:0:
448,192,19904,1,0,0:0:0:0:
320,192,20011,1,0,0:0:0:0:
64,192,20119,1,2,0:0:0:0:
192,192,20119,1,0,0:0:0:0:
448,192,20226,1,0,0:0:0:0:
64,192,20333,1,0,0:0:0:0:
320,192,20440,1,0,0:0:0:0:
64,192,20547,1,2,0:0:0:0:
192,192,20547,1,8,0:0:0:0:
448,192,20547,1,0,0:0:0:0:
320,192,20654,1,0,0:0:0:0:
64,192,20761,1,0,0:0:0:0:
192,192,20869,1,0,0:0:0:0:
320,192,20976,1,2,0:0:0:0:
448,192,20976,1,0,0:0:0:0:
64,192,21083,1,0,0:0:0:0:
192,192,21190,1,0,0:0:0:0:
320,192,21297,1,0,0:0:0:0:
448,192,21404,1,0,0:0:0:0:
64,192,21404,1,2,0:0:0:0:
192,192,21404,1,8,0:0:0:0:
320,192,21511,1,0,0:0:0:0:
64,192,21619,1,0,0:0:0:0:
192,192,21726,1,0,0:0:0:0:
448,192,21833,1,0,0:0:0:0:
320,192,21833,1,2,0:0:0:0:
64,192,21940,1,0,0:0:0:0:
192,192,22047,1,0,0:0:0:0:
320,192,22154,1,0,0:0:0:0:
448,192,22261,1,0,0:0:0:0:
64,192,22261,1,2,0:0:0:0:
192,192,22261,1,8,0:0:0:0:
320,192,22369,1,0,0:0:0:0:
448,192,22476,1,0,0:0:0:0:
192,192,22583,1,0,0:0:0:0:
64,192,22690,5,2,0:0:0:0:
448,192,22690,1,0,0:0:0:0:
320,192,22797,1,0,0:0:0:0:
192,192,22904,1,0,0:0:0:0:
64,192,23011,1,0,0:0:0:0:
448,192,23119,1,8,0:0:0:0:
320,192,23119,1,2,0:0:0:0:
192,192,23119,1,0,0:0:0:0:
64,192,23226,1,0,0:0:0:0:
448,192,23333,1,0,0:0:0:0:
320,192,23440,1,0,0:0:0:0:
64,192,23547,1,2,0:0:0:0:
192,192,23547,1,0,0:0:0:0:
448,192,23654,1,0,0:0:0:0:
64,192,23761,5,2,0:0:0:0:
192,192,23815,1,2,0:0:0:0:
320,192,23869,1,2,0:0:0:0:
448,192,23922,1,2,0:0:0:0:
64,192,23976,1,2,0:0:0:0:
192,192,23976,1,2,0:0:0:0:
192,192,24083,1,2,0:0:0:0:
64,192,24083,1,0,0:0:0:0:
320,192,24190,1,2,0:0:0:0:
448,192,24190,1,0,0:0:0:0:
320,192,24297,1,2,0:0:0:0:
448,192,24297,1,0,0:0:0:0:
64,192,24404,1,0,0:0:0:0:
192,192,24404,1,2,0:0:0:0:
448,192,24511,1,0,0:0:0:0:
320,192,24619,1,0,0:0:0:0:
192,192,24726,1,0,0:0:0:0:
448,192,24833,1,0,0:0:0:0:
64,192,24833,1,8,0:0:0:0:
320,192,24940,1,0,0:0:0:0:
64,192,25047,1,0,0:0:0:0:
192,192,25154,1,0,0:0:0:0:
320,192,25261,1,0,0:0:0:0:
448,192,25369,1,0,0:0:0:0:
192,192,25476,1,0,0:0:0:0:
64,192,25583,1,0,0:0:0:0:
448,192,25690,1,0,0:0:0:0:
320,192,25690,1,8,0:0:0:0:
192,192,25797,1,0,0:0:0:0:
64,192,25904,1,0,0:0:0:0:
448,192,26011,1,0,0:0:0:0:
320,192,26119,1,0,0:0:0:0:
192,192,26226,1,0,0:0:0:0:
64,192,26333,1,0,0:0:0:0:
448,192,26440,1,0,0:0:0:0:
64,192,26547,1,0,0:0:0:0:
192,192,26547,1,8,0:0:0:0:
320,192,26654,1,0,0:0:0:0:
448,192,26761,1,0,0:0:0:0:
64,192,26869,1,0,0:0:0:0:
192,192,26976,1,0,0:0:0:0:
448,192,27083,1,0,0:0:0:0:
320,192,27190,1,0,0:0:0:0:
192,192,27297,1,0,0:0:0:0:
448,192,27404,1,0,0:0:0:0:
64,192,27404,1,8,0:0:0:0:
320,192,27511,1,0,0:0:0:0:
64,192,27619,1,0,0:0:0:0:
192,192,27726,1,0,0:0:0:0:
320,192,27833,1,0,0:0:0:0:
448,192,27940,1,0,0:0:0:0:
192,192,28047,1,0,0:0:0:0:
64,192,28154,1,0,0:0:0:0:
320,192,28261,1,8,0:0:0:0:
448,192,28261,1,0,0:0:0:0:
64,192,28369,1,0,0:0:0:0:
192,192,28476,1,0,0:0:0:0:
320,192,28583,1,0,0:0:0:0:
448,192,28690,1,0,0:0:0:0:
192,192,28797,1,0,0:0:0:0:
64,192,28904,1,0,0:0:0:0:
320,192,29011,1,0,0:0:0:0:
64,192,29119,1,0,0:0:0:0:
192,192,29119,1,8,0:0:0:0:
448,192,29226,1,0,0:0:0:0:
64,192,29333,1,2,0:0:0:0:
192,192,29386,1,2,0:0:0:0:
320,192,29440,1,2,0:0:0:0:
448,192,29494,1,2,0:0:0:0:
64,192,29547,1,0,0:0:0:0:
192,192,29547,1,2,0:0:0:0:
448,192,29654,1,0,0:0:0:0:
320,192,29654,1,2,0:0:0:0:
64,192,29761,1,0,0:0:0:0:
192,192,29761,1,2,0:0:0:0:
448,192,29869,1,0,0:0:0:0:
320,192,29869,1,2,0:0:0:0:
64,192,29976,1,0,0:0:0:0:
192,192,29976,1,2,0:0:0:0:
320,192,30083,1,2,0:0:0:0:
448,192,30083,1,0,0:0:0:0:
64,192,30190,1,0,0:0:0:0:
192,192,30190,1,2,0:0:0:0:
448,192,30297,1,0,0:0:0:0:
320,192,30297,1,2,0:0:0:0:
64,192,30404,1,0,0:0:0:0:
192,192,30404,1,2,0:0:0:0:
448,192,30511,1,0,0:0:0:0:
320,192,30511,1,2,0:0:0:0:
64,192,30619,1,0,0:0:0:0:
192,192,30619,1,2,0:0:0:0:
448,192,30726,1,0,0:0:0:0:
320,192,30726,1,2,0:0:0:0:
64,192,30833,1,0,0:0:0:0:
192,192,30886,1,0,0:0:0:0:
448,192,30940,1,0,0:0:0:0:
320,192,30994,1,0,0:0:0:0:
64,192,31047,1,0,0:0:0:0:
192,192,31101,1,0,0:0:0:0:
448,192,31154,1,0,0:0:0:0:
320,192,31208,1,0,0:0:0:0:
64,192,31261,1,2,0:0:0:0:
192,192,31261,1,4,0:0:0:0:
64,192,31476,128,0,31690:0:0:0:0:
448,192,31690,1,2,0:0:0:0:
320,192,31690,1,0,0:0:0:0:
64,192,31904,128,0,32119:0:0:0:0:
448,192,32119,1,2,0:0:0:0:
320,192,32119,1,0,0:0:0:0:
64,192,32333,128,0,32547:0:0:0:0:
448,192,32547,1,2,0:0:0:0:
320,192,32547,1,0,0:0:0:0:
64,192,32761,128,0,32976:0:0:0:0:
448,192,32976,1,2,0:0:0:0:
320,192,32976,1,0,0:0:0:0:
64,192,33190,128,0,33404:0:0:0:0:
448,192,33404,1,2,0:0:0:0:
320,192,33404,1,0,0:0:0:0:
64,192,33619,128,0,33833:0:0:0:0:
448,192,33833,1,2,0:0:0:0:
320,192,33833,1,0,0:0:0:0:
64,192,34047,128,0,34261:0:0:0:0:
448,192,34261,1,2,0:0:0:0:
320,192,34261,1,0,0:0:0:0:
64,192,34476,128,0,34690:0:0:0:0:
448,192,34690,1,2,0:0:0:0:
320,192,34690,1,0,0:0:0:0:
448,192,34904,128,0,35119:0:0:0:0:
64,192,35119,1,2,0:0:0:0:
192,192,35119,1,0,0:0:0:0:
448,192,35333,128,0,35547:0:0:0:0:
64,192,35547,1,2,0:0:0:0:
192,192,35547,1,0,0:0:0:0:
448,192,35761,128,0,35976:0:0:0:0:
64,192,35976,1,2,0:0:0:0:
192,192,35976,1,0,0:0:0:0:
448,192,36190,128,0,36404:0:0:0:0:
64,192,36404,1,2,0:0:0:0:
192,192,36404,1,0,0:0:0:0:
448,192,36619,128,0,36833:0:0:0:0:
64,192,36833,1,2,0:0:0:0:
192,192,36833,1,0,0:0:0:0:
448,192,37047,128,0,37261:0:0:0:0:
64,192,37261,1,2,0:0:0:0:
192,192,37261,1,0,0:0:0:0:
448,192,37476,128,0,37690:0:0:0:0:
64,192,37690,1,2,0:0:0:0:
192,192,37690,1,0,0:0:0:0:
448,192,37904,128,0,38119:0:0:0:0:
192,192,38119,1,0,0:0:0:0:
64,192,38119,1,2,0:0:0:0:
192,192,38333,128,0,38547:0:0:0:0:
448,192,38547,1,2,0:0:0:0:
320,192,38547,1,8,0:0:0:0:
64,192,38547,1,0,0:0:0:0:
192,192,38761,128,0,38976:0:0:0:0:
448,192,38976,1,2,0:0:0:0:
64,192,38976,1,0,0:0:0:0:
192,192,39190,128,0,39404:0:0:0:0:
448,192,39404,1,2,0:0:0:0:
64,192,39404,1,0,0:0:0:0:
320,192,39404,1,8,0:0:0:0:
192,192,39619,128,0,39833:0:0:0:0:
64,192,39833,1,0,0:0:0:0:
448,192,39833,1,2,0:0:0:0:
192,192,40047,128,0,40261:0:0:0:0:
448,192,40261,1,2,0:0:0:0:
320,192,40261,1,8,0:0:0:0:
64,192,40261,1,0,0:0:0:0:
192,192,40476,128,0,40690:0:0:0:0:
64,192,40690,1,0,0:0:0:0:
448,192,40690,1,2,0:0:0:0:
192,192,40904,128,0,41119:0:0:0:0:
64,192,41119,1,0,0:0:0:0:
320,192,41119,1,8,0:0:0:0:
448,192,41119,1,2,0:0:0:0:
320,192,41333,128,0,41547:0:0:0:0:
64,192,41547,1,2,0:0:0:0:
448,192,41547,1,0,0:0:0:0:
320,192,41761,128,0,41976:0:0:0:0:
64,192,41976,1,2,0:0:0:0:
192,192,41976,1,8,0:0:0:0:
448,192,41976,1,0,0:0:0:0:
320,192,42190,128,0,42404:0:0:0:0:
448,192,42404,1,0,0:0:0:0:
64,192,42404,1,2,0:0:0:0:
448,192,42619,128,0,42833:0:0:0:0:
64,192,42833,1,2,0:0:0:0:
320,192,42833,1,8,0:0:0:0:
192,192,42886,1,0,0:0:0:0:
448,192,42940,1,0,0:0:0:0:
320,192,42994,1,0,0:0:0:0:
192,192,43047,128,0,43261:0:0:0:0:
448,192,43261,1,0,0:0:0:0:
64,192,43261,1,2,0:0:0:0:
192,192,43476,128,0,43690:0:0:0:0:
64,192,43690,128,0,44119:0:0:0:0:
448,192,43690,1,2,0:0:0:0:
320,192,43690,1,8,0:0:0:0:
320,192,43904,128,0,44119:0:0:0:0:
448,192,44119,128,0,44547:0:0:0:0:
192,192,44119,1,2,0:0:0:0:
192,192,44440,1,0,0:0:0:0:
64,192,44440,1,2,0:0:0:0:
320,192,44547,1,0,0:0:0:0:
192,192,44619,1,0,0:0:0:0:
64,192,44690,1,0,0:0:0:0:
448,192,44761,1,2,0:0:0:0:
320,192,44761,1,0,0:0:0:0:
192,192,44833,1,0,0:0:0:0:
64,192,44904,1,0,0:0:0:0:
320,192,44976,1,2,0:0:0:0:
448,192,44976,128,4,46047:0:0:0:0:
192,192,45190,1,0,0:0:0:0:
320,192,45404,1,0,0:0:0:0:
192,192,45404,1,2,0:0:0:0:
64,192,45404,1,8,0:0:0:0:
64,192,45619,1,0,0:0:0:0:
320,192,45833,1,2,0:0:0:0:
192,192,45833,1,0,0:0:0:0:
64,192,46047,1,0,0:0:0:0:
448,192,46261,1,8,0:0:0:0:
320,192,46261,1,2,0:0:0:0:
64,192,46261,128,0,46476:0:0:0:0:
192,192,46476,128,0,46690:0:0:0:0:
64,192,46690,1,2,0:0:0:0:
320,192,46690,128,0,47761:0:0:0:0:
448,192,46904,1,0,0:0:0:0:
64,192,47119,1,2,0:0:0:0:
192,192,47119,1,8,0:0:0:0:
448,192,47119,1,0,0:0:0:0:
192,192,47333,1,0,0:0:0:0:
448,192,47547,1,0,0:0:0:0:
64,192,47547,1,2,0:0:0:0:
192,192,47761,1,0,0:0:0:0:
448,192,47976,128,0,48190:0:0:0:0:
64,192,47976,1,2,0:0:0:0:
192,192,47976,1,8,0:0:0:0:
320,192,48190,128,0,48404:0:0:0:0:
64,192,48404,1,2,0:0:0:0:
192,192,48404,128,0,49047:0:0:0:0:
448,192,48619,1,0,0:0:0:0:
448,192,48833,1,8,0:0:0:0:
320,192,48833,1,2,0:0:0:0:
64,192,48833,1,0,0:0:0:0:
64,192,49047,1,0,0:0:0:0:
448,192,49261,128,0,49904:0:0:0:0:
320,192,49261,1,2,0:0:0:0:
64,192,49476,1,0,0:0:0:0:
320,192,49690,1,8,0:0:0:0:
192,192,49690,1,2,0:0:0:0:
64,192,49690,1,0,0:0:0:0:
192,192,49904,1,0,0:0:0:0:
320,192,50119,1,2,0:0:0:0:
64,192,50119,128,0,50976:0:0:0:0:
448,192,50333,1,0,0:0:0:0:
192,192,50547,1,0,0:0:0:0:
448,192,50547,1,8,0:0:0:0:
320,192,50547,1,2,0:0:0:0:
192,192,50761,1,0,0:0:0:0:
448,192,50976,1,0,0:0:0:0:
320,192,50976,1,2,0:0:0:0:
192,192,51190,1,0,0:0:0:0:
448,192,51404,1,8,0:0:0:0:
320,192,51404,1,2,0:0:0:0:
64,192,51404,1,0,0:0:0:0:
192,192,51619,1,0,0:0:0:0:
448,192,51833,1,0,0:0:0:0:
320,192,51833,128,4,52690:0:0:0:0:
64,192,51833,1,2,0:0:0:0:
192,192,52047,1,0,0:0:0:0:
448,192,52261,1,0,0:0:0:0:
64,192,52261,1,2,0:0:0:0:
192,192,52261,1,8,0:0:0:0:
64,192,52476,1,0,0:0:0:0:
448,192,52690,1,0,0:0:0:0:
192,192,52690,1,2,0:0:0:0:
320,192,52904,1,0,0:0:0:0:
448,192,53119,1,0,0:0:0:0:
192,192,53119,1,2,0:0:0:0:
64,192,53119,1,8,0:0:0:0:
320,192,53333,1,0,0:0:0:0:
64,192,53547,1,2,0:0:0:0:
192,192,53547,128,0,54404:0:0:0:0:
448,192,53761,1,0,0:0:0:0:
64,192,53976,1,0,0:0:0:0:
448,192,53976,1,8,0:0:0:0:
320,192,53976,1,2,0:0:0:0:
64,192,54190,1,0,0:0:0:0:
320,192,54404,1,2,0:0:0:0:
448,192,54404,1,0,0:0:0:0:
192,192,54619,1,0,0:0:0:0:
448,192,54833,1,8,0:0:0:0:
320,192,54833,1,2,0:0:0:0:
64,192,54833,1,0,0:0:0:0:
192,192,55047,1,0,0:0:0:0:
448,192,55261,128,0,56119:0:0:0:0:
64,192,55261,1,2,0:0:0:0:
192,192,55476,1,0,0:0:0:0:
320,192,55690,1,8,0:0:0:0:
192,192,55690,1,2,0:0:0:0:
64,192,55690,1,0,0:0:0:0:
64,192,55904,1,0,0:0:0:0:
320,192,56119,1,0,0:0:0:0:
192,192,56119,1,2,0:0:0:0:
448,192,56333,1,0,0:0:0:0:
64,192,56547,1,2,0:0:0:0:
320,192,56547,1,8,0:0:0:0:
192,192,56547,1,0,0:0:0:0:
448,192,56761,1,0,0:0:0:0:
64,192,56976,1,2,0:0:0:0:
192,192,57029,1,2,0:0:0:0:
320,192,57083,1,2,0:0:0:0:
448,192,57136,1,2,0:0:0:0:
64,192,57190,1,2,0:0:0:0:
192,192,57244,1,2,0:0:0:0:
448,192,57297,1,2,0:0:0:0:
320,192,57351,1,2,0:0:0:0:
192,192,57404,1,2,0:0:0:0:
64,192,57458,1,2,0:0:0:0:
448,192,57511,1,2,0:0:0:0:
320,192,57565,1,2,0:0:0:0:
64,192,57619,1,2,0:0:0:0:
192,192,57672,1,2,0:0:0:0:
320,192,57726,1,2,0:0:0:0:
448,192,57779,1,2,0:0:0:0:
192,192,57833,1,2,0:0:0:0:
64,192,57886,1,2,0:0:0:0:
320,192,57940,1,2,0:0:0:0:
448,192,57994,1,2,0:0:0:0:
64,192,58047,1,2,0:0:0:0:
192,192,58101,1,2,0:0:0:0:
320,192,58154,1,2,0:0:0:0:
448,192,58208,1,2,0:0:0:0:
192,192,58261,1,2,0:0:0:0:
64,192,58315,1,2,0:0:0:0:
320,192,58369,1,2,0:0:0:0:
448,192,58422,1,2,0:0:0:0:
64,192,58476,1,2,0:0:0:0:
192,192,58529,1,2,0:0:0:0:
448,192,58583,1,2,0:0:0:0:
320,192,58636,1,2,0:0:0:0:
192,192,58690,128,2,60297:0:0:0:0:
64,192,58690,128,0,60297:0:0:0:0:
320,192,59119,128,0,60297:0:0:0:0:
448,192,59547,128,0,60297:0:0:0:0:
64,192,60404,128,0,62119:0:0:0:0:
448,192,60404,1,4,0:0:0:0:
320,192,60404,1,2,0:0:0:0:
320,192,61476,1,0,0:0:0:0:
448,192,61690,1,0,0:0:0:0:
192,192,61797,128,0,62119:0:0:0:0:
320,192,62119,128,0,63833:0:0:0:0:
64,192,63190,1,0,0:0:0:0:
448,192,63404,1,0,0:0:0:0:
192,192,63511,128,0,63833:0:0:0:0:
64,192,63833,128,0,65547:0:0:0:0:
192,192,64904,1,0,0:0:0:0:
320,192,65011,1,0,0:0:0:0:
448,192,65119,1,0,0:0:0:0:
192,192,65226,128,0,65547:0:0:0:0:
448,192,65547,128,0,67261:0:0:0:0:
320,192,65869,128,0,66190:0:0:0:0:
64,192,66190,1,0,0:0:0:0:
192,192,66619,1,0,0:0:0:0:
64,192,66833,1,0,0:0:0:0:
320,192,67047,1,0,0:0:0:0:
64,192,67154,1,0,0:0:0:0:
192,192,67261,128,0,68976:0:0:0:0:
320,192,67476,1,0,0:0:0:0:
448,192,67690,1,0,0:0:0:0:
64,192,67904,1,0,0:0:0:0:
320,192,68011,1,0,0:0:0:0:
448,192,68333,1,0,0:0:0:0:
64,192,68547,1,0,0:0:0:0:
320,192,68761,1,0,0:0:0:0:
64,192,68869,1,0,0:0:0:0:
448,192,68976,128,0,70690:0:0:0:0:
320,192,69190,1,0,0:0:0:0:
64,192,69404,1,0,0:0:0:0:
320,192,69619,1,0,0:0:0:0:
192,192,69726,1,0,0:0:0:0:
64,192,70047,1,0,0:0:0:0:
320,192,70261,1,0,0:0:0:0:
192,192,70476,1,0,0:0:0:0:
320,192,70583,1,0,0:0:0:0:
64,192,70690,128,0,72404:0:0:0:0:
192,192,70904,1,0,0:0:0:0:
320,192,71011,1,0,0:0:0:0:
448,192,71119,128,0,71333:0:0:0:0:
192,192,71333,128,0,71547:0:0:0:0:
320,192,71547,128,0,71869:0:0:0:0:
448,192,71869,128,0,72190:0:0:0:0:
192,192,72190,128,0,72404:0:0:0:0:
320,192,72404,128,0,73261:0:0:0:0:
64,192,73261,128,0,73690:0:0:0:0:
448,192,73690,128,0,74119:0:0:0:0:
192,192,74119,1,2,0:0:0:0:
64,192,74119,1,4,0:0:0:0:
320,192,74119,1,0,0:0:0:0:
448,192,74333,1,0,0:0:0:0:
64,192,74547,1,0,0:0:0:0:
192,192,74547,1,0,0:0:0:0:
320,192,74761,1,0,0:0:0:0:
64,192,74976,1,0,0:0:0:0:
448,192,75190,1,0,0:0:0:0:
64,192,75404,1,0,0:0:0:0:
192,192,75404,1,0,0:0:0:0:
320,192,75619,1,0,0:0:0:0:
64,192,75833,1,0,0:0:0:0:
448,192,76047,1,0,0:0:0:0:
64,192,76261,1,0,0:0:0:0:
192,192,76261,1,0,0:0:0:0:
320,192,76476,1,0,0:0:0:0:
64,192,76690,1,0,0:0:0:0:
448,192,76904,1,0,0:0:0:0:
64,192,77119,1,0,0:0:0:0:
192,192,77119,1,0,0:0:0:0:
448,192,77333,1,0,0:0:0:0:
64,192,77547,1,0,0:0:0:0:
192,192,77761,1,0,0:0:0:0:
448,192,77976,1,0,0:0:0:0:
320,192,77976,1,0,0:0:0:0:
192,192,78190,1,0,0:0:0:0:
448,192,78404,1,0,0:0:0:0:
64,192,78619,1,0,0:0:0:0:
448,192,78833,1,0,0:0:0:0:
320,192,78833,1,0,0:0:0:0:
192,192,79047,1,0,0:0:0:0:
448,192,79261,1,0,0:0:0:0:
64,192,79476,1,0,0:0:0:0:
448,192,79690,1,0,0:0:0:0:
320,192,79690,1,0,0:0:0:0:
192,192,79904,5,0,0:0:0:0:
448,192,80119,1,0,0:0:0:0:
64,192,80333,1,0,0:0:0:0:
320,192,80547,5,0,0:0:0:0:
448,192,80547,1,0,0:0:0:0:
192,192,80761,1,0,0:0:0:0:
448,192,80976,5,0,0:0:0:0:
64,192,80976,1,2,0:0:0:0:
192,192,81083,1,2,0:0:0:0:
320,192,81083,1,0,0:0:0:0:
64,192,81190,1,2,0:0:0:0:
448,192,81190,1,0,0:0:0:0:
192,192,81297,1,2,0:0:0:0:
320,192,81297,1,0,0:0:0:0:
64,192,81404,1,2,0:0:0:0:
448,192,81404,1,0,0:0:0:0:
192,192,81511,1,2,0:0:0:0:
320,192,81511,1,0,0:0:0:0:
64,192,81619,1,2,0:0:0:0:
448,192,81619,1,0,0:0:0:0:
192,192,81726,1,2,0:0:0:0:
320,192,81726,1,0,0:0:0:0:
64,192,81833,1,2,0:0:0:0:
448,192,81833,1,0,0:0:0:0:
192,192,81940,1,2,0:0:0:0:
320,192,81940,1,0,0:0:0:0:
64,192,82047,1,2,0:0:0:0:
448,192,82047,1,0,0:0:0:0:
192,192,82154,1,2,0:0:0:0:
320,192,82154,1,0,0:0:0:0:
64,192,82261,1,2,0:0:0:0:
448,192,82261,1,0,0:0:0:0:
192,192,82369,1,2,0:0:0:0:
320,192,82369,1,0,0:0:0:0:
64,192,82476,1,2,0:0:0:0:
448,192,82476,1,0,0:0:0:0:
320,192,82583,1,2,0:0:0:0:
192,192,82690,1,2,0:0:0:0:
64,192,82690,1,0,0:0:0:0:
320,192,82797,1,2,0:0:0:0:
448,192,82797,1,0,0:0:0:0:
64,192,82904,1,0,0:0:0:0:
192,192,82904,1,2,0:0:0:0:
320,192,83011,1,2,0:0:0:0:
448,192,83011,1,0,0:0:0:0:
64,192,83119,1,0,0:0:0:0:
192,192,83119,1,2,0:0:0:0:
320,192,83226,1,2,0:0:0:0:
448,192,83226,1,0,0:0:0:0:
64,192,83333,1,0,0:0:0:0:
192,192,83333,1,2,0:0:0:0:
448,192,83440,1,0,0:0:0:0:
320,192,83440,1,2,0:0:0:0:
64,192,83547,1,0,0:0:0:0:
192,192,83547,1,2,0:0:0:0:
448,192,83654,1,0,0:0:0:0:
320,192,83654,1,2,0:0:0:0:
64,192,83761,1,0,0:0:0:0:
192,192,83761,1,2,0:0:0:0:
448,192,83869,1,0,0:0:0:0:
320,192,83869,1,2,0:0:0:0:
64,192,83976,1,0,0:0:0:0:
192,192,83976,1,2,0:0:0:0:
448,192,84083,1,0,0:0:0:0:
320,192,84083,1,2,0:0:0:0:
64,192,84190,1,0,0:0:0:0:
192,192,84190,1,2,0:0:0:0:
448,192,84297,1,0,0:0:0:0:
320,192,84297,1,2,0:0:0:0:
64,192,84404,1,2,0:0:0:0:
192,192,84458,1,2,0:0:0:0:
448,192,84511,1,2,0:0:0:0:
320,192,84565,1,2,0:0:0:0:
192,192,84619,1,2,0:0:0:0:
64,192,84672,1,2,0:0:0:0:
320,192,84726,1,2,0:0:0:0:
448,192,84779,1,2,0:0:0:0:
64,192,84833,1,2,0:0:0:0:
192,192,84886,1,2,0:0:0:0:
320,192,84940,1,2,0:0:0:0:
448,192,84994,1,2,0:0:0:0:
192,192,85047,1,2,0:0:0:0:
64,192,85101,1,2,0:0:0:0:
448,192,85154,1,2,0:0:0:0:
320,192,85208,1,2,0:0:0:0:
192,192,85261,1,2,0:0:0:0:
64,192,85315,1,2,0:0:0:0:
320,192,85369,1,2,0:0:0:0:
448,192,85422,1,2,0:0:0:0:
64,192,85476,1,2,0:0:0:0:
192,192,85529,1,2,0:0:0:0:
448,192,85583,1,2,0:0:0:0:
320,192,85636,1,2,0:0:0:0:
192,192,85690,1,2,0:0:0:0:
64,192,85744,1,2,0:0:0:0:
320,192,85797,1,2,0:0:0:0:
448,192,85851,1,2,0:0:0:0:
64,192,85904,1,2,0:0:0:0:
192,192,85958,1,2,0:0:0:0:
320,192,86011,1,2,0:0:0:0:
448,192,86065,1,2,0:0:0:0:
64,192,86119,1,0,0:0:0:0:
192,192,86119,1,2,0:0:0:0:
448,192,86226,1,0,0:0:0:0:
64,192,86333,1,0,0:0:0:0:
448,192,86440,1,0,0:0:0:0:
320,192,86440,1,2,0:0:0:0:
64,192,86547,1,0,0:0:0:0:
448,192,86654,1,0,0:0:0:0:
64,192,86761,1,0,0:0:0:0:
192,192,86761,1,2,0:0:0:0:
320,192,86869,1,0,0:0:0:0:
64,192,86976,1,2,0:0:0:0:
448,192,86976,1,0,0:0:0:0:
192,192,87083,1,0,0:0:0:0:
320,192,87190,1,0,0:0:0:0:
448,192,87297,1,0,0:0:0:0:
64,192,87404,1,0,0:0:0:0:
192,192,87511,1,0,0:0:0:0:
448,192,87619,1,0,0:0:0:0:
320,192,87726,1,0,0:0:0:0:
192,192,87833,1,2,0:0:0:0:
448,192,87833,1,4,0:0:0:0:
64,192,87833,128,0,88047:0:0:0:0:
320,192,87940,1,0,0:0:0:0:
192,192,88047,128,0,88261:0:0:0:0:
448,192,88154,1,0,0:0:0:0:
320,192,88261,128,0,88476:0:0:0:0:
64,192,88261,1,2,0:0:0:0:
192,192,88369,1,0,0:0:0:0:
448,192,88476,128,0,88690:0:0:0:0:
64,192,88583,1,0,0:0:0:0:
192,192,88690,128,0,88904:0:0:0:0:
320,192,88690,1,2,0:0:0:0:
448,192,88797,1,0,0:0:0:0:
64,192,88904,128,0,89119:0:0:0:0:
320,192,89011,1,0,0:0:0:0:
448,192,89119,128,0,89333:0:0:0:0:
192,192,89119,1,2,0:0:0:0:
320,192,89226,1,0,0:0:0:0:
64,192,89333,128,0,89547:0:0:0:0:
192,192,89440,1,0,0:0:0:0:
320,192,89547,1,2,0:0:0:0:
448,192,89547,1,0,0:0:0:0:
192,192,89654,1,0,0:0:0:0:
64,192,89761,128,0,89976:0:0:0:0:
320,192,89869,1,0,0:0:0:0:
192,192,89976,128,0,90190:0:0:0:0:
448,192,89976,1,2,0:0:0:0:
64,192,90083,1,0,0:0:0:0:
320,192,90190,128,0,90404:0:0:0:0:
192,192,90297,1,0,0:0:0:0:
64,192,90404,1,2,0:0:0:0:
448,192,90404,128,0,90619:0:0:0:0:
320,192,90511,1,0,0:0:0:0:
192,192,90619,128,0,90833:0:0:0:0:
64,192,90726,1,0,0:0:0:0:
320,192,90833,1,2,0:0:0:0:
448,192,90833,128,0,91047:0:0:0:0:
64,192,90940,1,0,0:0:0:0:
320,192,91047,128,0,91261:0:0:0:0:
448,192,91154,1,0,0:0:0:0:
192,192,91261,1,2,0:0:0:0:
64,192,91261,128,0,91476:0:0:0:0:
320,192,91369,1,0,0:0:0:0:
448,192,91476,128,0,91690:0:0:0:0:
64,192,91583,1,0,0:0:0:0:
192,192,91690,128,0,91904:0:0:0:0:
320,192,91690,1,2,0:0:0:0:
448,192,91797,1,0,0:0:0:0:
64,192,91904,128,0,92119:0:0:0:0:
192,192,92011,1,0,0:0:0:0:
448,192,92119,128,0,92333:0:0:0:0:
320,192,92119,1,2,0:0:0:0:
192,192,92226,1,0,0:0:0:0:
64,192,92333,128,0,92547:0:0:0:0:
448,192,92440,1,0,0:0:0:0:
320,192,92547,128,0,92761:0:0:0:0:
192,192,92547,1,2,0:0:0:0:
64,192,92654,1,0,0:0:0:0:
448,192,92761,128,0,92976:0:0:0:0:
320,192,92869,1,0,0:0:0:0:
192,192,92976,1,2,0:0:0:0:
64,192,92976,1,0,0:0:0:0:
448,192,93083,1,0,0:0:0:0:
320,192,93190,128,0,93404:0:0:0:0:
192,192,93297,1,0,0:0:0:0:
448,192,93404,128,0,93619:0:0:0:0:
64,192,93404,1,2,0:0:0:0:
320,192,93511,1,0,0:0:0:0:
64,192,93619,128,0,93833:0:0:0:0:
192,192,93726,1,0,0:0:0:0:
448,192,93833,128,0,94047:0:0:0:0:
320,192,93833,1,2,0:0:0:0:
64,192,93940,1,0,0:0:0:0:
192,192,94047,128,0,94261:0:0:0:0:
320,192,94154,1,0,0:0:0:0:
64,192,94261,128,0,94476:0:0:0:0:
448,192,94261,1,2,0:0:0:0:
192,192,94369,1,0,0:0:0:0:
448,192,94476,128,0,94690:0:0:0:0:
320,192,94583,1,0,0:0:0:0:
64,192,94690,128,0,94904:0:0:0:0:
192,192,94690,1,2,0:0:0:0:
448,192,94797,1,0,0:0:0:0:
320,192,94904,128,0,95119:0:0:0:0:
192,192,95011,1,0,0:0:0:0:
448,192,95119,128,0,95333:0:0:0:0:
64,192,95119,1,2,0:0:0:0:
320,192,95226,1,0,0:0:0:0:
192,192,95333,128,0,95547:0:0:0:0:
64,192,95440,1,0,0:0:0:0:
320,192,95547,128,0,95761:0:0:0:0:
448,192,95547,1,2,0:0:0:0:
192,192,95654,1,0,0:0:0:0:
64,192,95761,128,0,95976:0:0:0:0:
448,192,95869,1,0,0:0:0:0:
192,192,95976,128,0,96190:0:0:0:0:
320,192,95976,1,2,0:0:0:0:
448,192,96083,1,0,0:0:0:0:
320,192,96190,128,0,96404:0:0:0:0:
192,192,96297,1,0,0:0:0:0:
64,192,96404,1,2,0:0:0:0:
448,192,96404,1,0,0:0:0:0:
320,192,96511,1,0,0:0:0:0:
192,192,96619,128,0,96833:0:0:0:0:
64,192,96726,1,0,0:0:0:0:
448,192,96833,1,2,0:0:0:0:
320,192,96833,128,0,97047:0:0:0:0:
192,192,96940,1,0,0:0:0:0:
64,192,97047,128,0,97261:0:0:0:0:
192,192,97154,1,0,0:0:0:0:
320,192,97261,1,2,0:0:0:0:
448,192,97261,128,0,97476:0:0:0:0:
64,192,97369,1,0,0:0:0:0:
192,192,97476,128,0,97690:0:0:0:0:
320,192,97583,1,0,0:0:0:0:
64,192,97690,1,2,0:0:0:0:
448,192,97690,128,0,97904:0:0:0:0:
192,192,97797,1,0,0:0:0:0:
320,192,97904,128,0,98119:0:0:0:0:
448,192,98011,1,0,0:0:0:0:
192,192,98119,1,2,0:0:0:0:
64,192,98119,128,0,98333:0:0:0:0:
320,192,98226,1,0,0:0:0:0:
448,192,98333,128,0,98547:0:0:0:0:
64,192,98440,1,0,0:0:0:0:
320,192,98547,1,2,0:0:0:0:
192,192,98547,128,0,98761:0:0:0:0:
448,192,98654,1,0,0:0:0:0:
64,192,98761,128,0,98976:0:0:0:0:
320,192,98869,1,0,0:0:0:0:
448,192,98976,128,0,99190:0:0:0:0:
192,192,98976,1,2,0:0:0:0:
64,192,99083,1,0,0:0:0:0:
320,192,99190,128,0,99404:0:0:0:0:
192,192,99297,1,0,0:0:0:0:
64,192,99404,128,0,99619:0:0:0:0:
448,192,99404,1,2,0:0:0:0:
192,192,99511,1,0,0:0:0:0:
320,192,99619,128,0,99833:0:0:0:0:
448,192,99726,1,0,0:0:0:0:
192,192,99833,1,2,0:0:0:0:
64,192,99833,1,0,0:0:0:0:
320,192,99940,1,0,0:0:0:0:
448,192,100047,128,0,100261:0:0:0:0:
64,192,100154,1,0,0:0:0:0:
320,192,100261,1,2,0:0:0:0:
192,192,100261,128,0,100476:0:0:0:0:
448,192,100369,1,0,0:0:0:0:
64,192,100476,128,0,100690:0:0:0:0:
320,192,100583,1,0,0:0:0:0:
192,192,100690,1,2,0:0:0:0:
448,192,100690,128,0,100904:0:0:0:0:
320,192,100797,1,0,0:0:0:0:
64,192,100904,128,0,101119:0:0:0:0:
320,192,101011,1,0,0:0:0:0:
192,192,101011,1,2,0:0:0:0:
448,192,101119,1,0,0:0:0:0:
320,192,101226,1,0,0:0:0:0:
64,192,101333,1,2,0:0:0:0:
448,192,101333,1,0,0:0:0:0:
192,192,101440,1,0,0:0:0:0:
448,192,101547,128,0,101761:0:0:0:0:
320,192,101547,1,4,0:0:0:0:
64,192,101547,1,2,0:0:0:0:
192,192,101654,1,0,0:0:0:0:
320,192,101761,128,0,101976:0:0:0:0:
64,192,101869,1,0,0:0:0:0:
448,192,101976,1,2,0:0:0:0:
192,192,101976,128,0,102190:0:0:0:0:
320,192,102083,1,0,0:0:0:0:
64,192,102190,128,0,102404:0:0:0:0:
448,192,102297,1,0,0:0:0:0:
192,192,102404,1,2,0:0:0:0:
320,192,102404,128,0,102619:0:0:0:0:
64,192,102511,1,0,0:0:0:0:
448,192,102619,128,0,102833:0:0:0:0:
192,192,102726,1,0,0:0:0:0:
64,192,102833,128,0,103047:0:0:0:0:
320,192,102833,1,2,0:0:0:0:
192,192,102940,1,0,0:0:0:0:
448,192,103047,128,0,103261:0:0:0:0:
320,192,103154,1,0,0:0:0:0:
192,192,103261,1,2,0:0:0:0:
64,192,103261,1,0,0:0:0:0:
320,192,103369,1,0,0:0:0:0:
448,192,103476,128,0,103690:0:0:0:0:
192,192,103583,1,0,0:0:0:0:
64,192,103690,1,2,0:0:0:0:
320,192,103690,128,0,103904:0:0:0:0:
448,192,103797,1,0,0:0:0:0:
192,192,103904,128,0,104119:0:0:0:0:
320,192,104011,1,0,0:0:0:0:
64,192,104119,128,0,104333:0:0:0:0:
448,192,104119,1,2,0:0:0:0:
192,192,104226,1,0,0:0:0:0:
320,192,104333,128,0,104547:0:0:0:0:
448,192,104440,1,0,0:0:0:0:
64,192,104547,128,0,104761:0:0:0:0:
192,192,104547,1,2,0:0:0:0:
448,192,104654,1,0,0:0:0:0:
192,192,104761,128,0,104976:0:0:0:0:
64,192,104869,1,0,0:0:0:0:
320,192,104976,1,0,0:0:0:0:
448,192,104976,128,2,105190:0:0:0:0:
192,192,105083,1,0,0:0:0:0:
64,192,105190,128,0,105404:0:0:0:0:
448,192,105297,1,0,0:0:0:0:
192,192,105404,1,2,0:0:0:0:
320,192,105404,128,0,105619:0:0:0:0:
64,192,105511,1,0,0:0:0:0:
448,192,105619,128,0,105833:0:0:0:0:
320,192,105726,1,0,0:0:0:0:
64,192,105833,128,0,106047:0:0:0:0:
192,192,105833,1,2,0:0:0:0:
320,192,105940,1,0,0:0:0:0:
448,192,106047,128,0,106261:0:0:0:0:
64,192,106154,1,0,0:0:0:0:
320,192,106261,1,2,0:0:0:0:
192,192,106261,128,0,106476:0:0:0:0:
448,192,106369,1,0,0:0:0:0:
64,192,106476,128,0,106690:0:0:0:0:
192,192,106583,1,0,0:0:0:0:
320,192,106690,1,2,0:0:0:0:
448,192,106690,1,0,0:0:0:0:
64,192,106797,1,0,0:0:0:0:
192,192,106904,128,0,107119:0:0:0:0:
320,192,107011,1,0,0:0:0:0:
448,192,107119,1,2,0:0:0:0:
64,192,107119,128,0,107333:0:0:0:0:
192,192,107226,1,0,0:0:0:0:
448,192,107333,128,0,107547:0:0:0:0:
320,192,107440,1,0,0:0:0:0:
192,192,107547,1,2,0:0:0:0:
64,192,107547,128,0,107761:0:0:0:0:
448,192,107654,1,0,0:0:0:0:
320,192,107761,128,0,107976:0:0:0:0:
192,192,107869,1,0,0:0:0:0:
64,192,107976,1,2,0:0:0:0:
448,192,107976,128,0,108190:0:0:0:0:
320,192,108083,1,0,0:0:0:0:
64,192,108190,128,0,108404:0:0:0:0:
192,192,108297,1,0,0:0:0:0:
448,192,108404,128,0,108619:0:0:0:0:
320,192,108404,1,2,0:0:0:0:
64,192,108511,1,0,0:0:0:0:
192,192,108619,128,0,108833:0:0:0:0:
320,192,108726,1,0,0:0:0:0:
448,192,108833,1,2,0:0:0:0:
64,192,108833,128,0,109047:0:0:0:0:
192,192,108940,1,0,0:0:0:0:
320,192,109047,128,0,109261:0:0:0:0:
448,192,109154,1,0,0:0:0:0:
64,192,109261,1,2,0:0:0:0:
192,192,109261,128,0,109476:0:0:0:0:
320,192,109369,1,0,0:0:0:0:
448,192,109476,128,0,109690:0:0:0:0:
64,192,109583,1,0,0:0:0:0:
320,192,109690,128,0,109904:0:0:0:0:
192,192,109690,1,2,0:0:0:0:
64,192,109797,1,0,0:0:0:0:
192,192,109904,128,0,110119:0:0:0:0:
320,192,110011,1,0,0:0:0:0:
448,192,110119,1,2,0:0:0:0:
64,192,110119,1,0,0:0:0:0:
192,192,110226,1,0,0:0:0:0:
320,192,110333,128,0,110547:0:0:0:0:
448,192,110440,1,0,0:0:0:0:
64,192,110547,1,2,0:0:0:0:
192,192,110547,128,0,110761:0:0:0:0:
320,192,110654,1,0,0:0:0:0:
448,192,110761,128,0,110976:0:0:0:0:
320,192,110869,1,0,0:0:0:0:
64,192,110976,128,0,111190:0:0:0:0:
192,192,110976,1,2,0:0:0:0:
448,192,111083,1,0,0:0:0:0:
320,192,111190,128,0,111404:0:0:0:0:
192,192,111297,1,0,0:0:0:0:
64,192,111404,128,0,111619:0:0:0:0:
448,192,111404,1,2,0:0:0:0:
320,192,111511,1,0,0:0:0:0:
192,192,111619,128,0,111833:0:0:0:0:
64,192,111726,1,0,0:0:0:0:
448,192,111833,1,2,0:0:0:0:
320,192,111886,1,2,0:0:0:0:
64,192,111940,1,2,0:0:0:0:
192,192,111994,1,2,0:0:0:0:
320,192,112047,1,2,0:0:0:0:
448,192,112101,1,2,0:0:0:0:
192,192,112154,1,2,0:0:0:0:
64,192,112208,1,2,0:0:0:0:
448,192,112261,1,2,0:0:0:0:
320,192,112315,1,2,0:0:0:0:
192,192,112369,1,2,0:0:0:0:
64,192,112422,1,2,0:0:0:0:
320,192,112476,1,2,0:0:0:0:
448,192,112529,1,2,0:0:0:0:
64,192,112583,1,2,0:0:0:0:
192,192,112636,1,2,0:0:0:0:
320,192,112690,1,2,0:0:0:0:
448,192,112744,1,2,0:0:0:0:
192,192,112797,1,2,0:0:0:0:
64,192,112851,1,2,0:0:0:0:
320,192,112904,1,2,0:0:0:0:
448,192,112958,1,2,0:0:0:0:
64,192,113011,1,2,0:0:0:0:
192,192,113065,1,2,0:0:0:0:
320,192,113119,1,2,0:0:0:0:
448,192,113172,1,2,0:0:0:0:
64,192,113226,1,2,0:0:0:0:
192,192,113279,1,2,0:0:0:0:
448,192,113333,1,2,0:0:0:0:
320,192,113386,1,2,0:0:0:0:
64,192,113440,1,2,0:0:0:0:
192,192,113494,1,2,0:0:0:0:
448,192,113547,1,0,0:0:0:0:
64,192,113654,1,0,0:0:0:0:
192,192,113761,1,0,0:0:0:0:
320,192,113869,1,0,0:0:0:0:
448,192,113976,128,0,114190:0:0:0:0:
320,192,114190,128,0,114404:0:0:0:0:
192,192,114404,128,0,114619:0:0:0:0:
64,192,114619,128,0,115154:0:0:0:0:
448,192,114833,128,0,115154:0:0:0:0:
320,192,115261,1,2,0:0:0:0:
448,192,115261,1,4,0:0:0:0:
192,192,115261,1,0,0:0:0:0:
64,192,115261,1,0,0:0:0:0:
320,192,115476,1,0,0:0:0:0:
448,192,115690,1,0,0:0:0:0:
192,192,115690,1,2,0:0:0:0:
64,192,115690,1,8,0:0:0:0:
320,192,115904,1,0,0:0:0:0:
448,192,116119,1,0,0:0:0:0:
64,192,116119,1,2,0:0:0:0:
192,192,116333,1,0,0:0:0:0:
448,192,116547,1,8,0:0:0:0:
320,192,116547,1,2,0:0:0:0:
64,192,116547,1,0,0:0:0:0:
192,192,116761,1,0,0:0:0:0:
320,192,116976,1,2,0:0:0:0:
448,192,116976,1,0,0:0:0:0:
192,192,117190,1,0,0:0:0:0:
448,192,117404,1,8,0:0:0:0:
320,192,117404,1,2,0:0:0:0:
64,192,117404,1,0,0:0:0:0:
192,192,117619,1,0,0:0:0:0:
448,192,117833,1,0,0:0:0:0:
64,192,117833,1,2,0:0:0:0:
320,192,118047,1,0,0:0:0:0:
448,192,118261,1,0,0:0:0:0:
64,192,118261,1,8,0:0:0:0:
192,192,118261,1,2,0:0:0:0:
320,192,118476,1,0,0:0:0:0:
448,192,118690,1,2,0:0:0:0:
192,192,118690,1,0,0:0:0:0:
64,192,118904,1,0,0:0:0:0:
192,192,119119,1,8,0:0:0:0:
320,192,119119,1,0,0:0:0:0:
64,192,119119,1,2,0:0:0:0:
448,192,119333,1,0,0:0:0:0:
64,192,119547,1,0,0:0:0:0:
192,192,119547,1,2,0:0:0:0:
320,192,119761,1,0,0:0:0:0:
448,192,119976,1,0,0:0:0:0:
192,192,119976,1,2,0:0:0:0:
64,192,119976,1,8,0:0:0:0:
320,192,120190,1,0,0:0:0:0:
448,192,120404,1,2,0:0:0:0:
64,192,120404,1,0,0:0:0:0:
192,192,120619,1,0,0:0:0:0:
320,192,120833,1,8,0:0:0:0:
448,192,120833,1,2,0:0:0:0:
64,192,120833,1,0,0:0:0:0:
192,192,121047,1,0,0:0:0:0:
448,192,121261,1,2,0:0:0:0:
64,192,121261,1,0,0:0:0:0:
320,192,121476,1,0,0:0:0:0:
64,192,121690,1,8,0:0:0:0:
448,192,121690,1,0,0:0:0:0:
192,192,121690,1,2,0:0:0:0:
320,192,121904,1,0,0:0:0:0:
64,192,122119,1,0,0:0:0:0:
192,192,122119,1,2,0:0:0:0:
448,192,122226,1,0,0:0:0:0:
320,192,122226,1,2,0:0:0:0:
448,192,122440,1,0,0:0:0:0:
320,192,122440,1,2,0:0:0:0:
64,192,122547,1,8,0:0:0:0:
192,192,122547,1,2,0:0:0:0:
448,192,122547,1,4,0:0:0:0:
320,192,122761,1,0,0:0:0:0:
448,192,122976,1,2,0:0:0:0:
64,192,122976,1,0,0:0:0:0:
192,192,123190,1,0,0:0:0:0:
448,192,123404,1,8,0:0:0:0:
320,192,123404,1,2,0:0:0:0:
64,192,123404,1,0,0:0:0:0:
192,192,123619,1,0,0:0:0:0:
448,192,123833,1,2,0:0:0:0:
64,192,123833,1,0,0:0:0:0:
320,192,124047,1,0,0:0:0:0:
448,192,124261,1,0,0:0:0:0:
64,192,124261,1,8,0:0:0:0:
192,192,124261,1,2,0:0:0:0:
320,192,124476,1,0,0:0:0:0:
448,192,124690,1,0,0:0:0:0:
192,192,124690,1,2,0:0:0:0:
64,192,124904,1,0,0:0:0:0:
320,192,125119,1,2,0:0:0:0:
192,192,125119,1,8,0:0:0:0:
64,192,125119,1,0,0:0:0:0:
448,192,125333,1,0,0:0:0:0:
192,192,125547,1,0,0:0:0:0:
320,192,125547,1,2,0:0:0:0:
448,192,125761,1,2,0:0:0:0:
64,192,125761,1,0,0:0:0:0:
320,192,125976,1,2,0:0:0:0:
64,192,125976,1,0,0:0:0:0:
448,192,126190,1,2,0:0:0:0:
192,192,126190,1,0,0:0:0:0:
448,192,126404,1,2,0:0:0:0:
64,192,126404,1,0,0:0:0:0:
320,192,126619,5,2,0:0:0:0:
64,192,126619,1,0,0:0:0:0:
448,192,126833,5,2,0:0:0:0:
192,192,126833,1,0,0:0:0:0:
448,192,127047,5,2,0:0:0:0:
64,192,127047,1,0,0:0:0:0:
192,192,127261,1,2,0:0:0:0:
64,192,127261,1,0,0:0:0:0:
320,192,127369,1,2,0:0:0:0:
448,192,127369,1,0,0:0:0:0:
192,192,127476,1,2,0:0:0:0:
64,192,127476,1,0,0:0:0:0:
320,192,127583,1,2,0:0:0:0:
448,192,127583,1,0,0:0:0:0:
192,192,127690,1,2,0:0:0:0:
64,192,127690,1,0,0:0:0:0:
320,192,127797,1,2,0:0:0:0:
448,192,127797,1,0,0:0:0:0:
192,192,127904,1,2,0:0:0:0:
64,192,127904,1,0,0:0:0:0:
320,192,128011,1,2,0:0:0:0:
448,192,128011,1,0,0:0:0:0:
192,192,128119,1,2,0:0:0:0:
64,192,128119,128,0,128440:0:0:0:0:
320,192,128440,1,2,0:0:0:0:
448,192,128440,1,0,0:0:0:0:
192,192,128547,1,0,0:0:0:0:
64,192,128619,1,0,0:0:0:0:
448,192,128690,1,0,0:0:0:0:
192,192,128761,1,0,0:0:0:0:
320,192,128761,1,2,0:0:0:0:
64,192,128833,1,0,0:0:0:0:
448,192,128904,1,0,0:0:0:0:
64,192,128976,128,4,130261:0:0:0:0:
192,192,128976,1,2,0:0:0:0:
448,192,129190,1,0,0:0:0:0:
192,192,129404,1,0,0:0:0:0:
320,192,129404,1,2,0:0:0:0:
448,192,129404,1,8,0:0:0:0:
192,192,129619,1,0,0:0:0:0:
448,192,129833,1,0,0:0:0:0:
320,192,129833,1,2,0:0:0:0:
192,192,130047,1,0,0:0:0:0:
448,192,130261,1,8,0:0:0:0:
192,192,130261,1,2,0:0:0:0:
320,192,130261,128,0,130476:0:0:0:0:
64,192,130476,128,0,130690:0:0:0:0:
192,192,130690,1,2,0:0:0:0:
448,192,130690,128,0,131976:0:0:0:0:
64,192,130904,1,0,0:0:0:0:
64,192,131119,1,0,0:0:0:0:
192,192,131119,1,2,0:0:0:0:
320,192,131119,1,8,0:0:0:0:
192,192,131333,1,0,0:0:0:0:
320,192,131547,1,2,0:0:0:0:
64,192,131547,1,0,0:0:0:0:
192,192,131761,1,0,0:0:0:0:
192,192,131976,1,8,0:0:0:0:
64,192,131976,1,2,0:0:0:0:
320,192,131976,128,0,132190:0:0:0:0:
64,192,132190,128,0,132404:0:0:0:0:
320,192,132404,1,2,0:0:0:0:
192,192,132404,128,0,133047:0:0:0:0:
448,192,132619,1,0,0:0:0:0:
64,192,132833,1,0,0:0:0:0:
320,192,132833,1,2,0:0:0:0:
448,192,132833,1,8,0:0:0:0:
64,192,133047,1,0,0:0:0:0:
448,192,133261,128,0,133904:0:0:0:0:
192,192,133261,1,2,0:0:0:0:
320,192,133476,1,0,0:0:0:0:
64,192,133690,1,2,0:0:0:0:
192,192,133690,1,8,0:0:0:0:
320,192,133690,1,0,0:0:0:0:
192,192,133904,1,0,0:0:0:0:
64,192,134119,128,0,134761:0:0:0:0:
448,192,134119,1,2,0:0:0:0:
192,192,134333,1,0,0:0:0:0:
448,192,134547,1,8,0:0:0:0:
320,192,134547,1,2,0:0:0:0:
192,192,134547,1,0,0:0:0:0:
320,192,134761,1,0,0:0:0:0:
448,192,134976,1,0,0:0:0:0:
64,192,134976,1,2,0:0:0:0:
320,192,135190,1,0,0:0:0:0:
448,192,135404,1,0,0:0:0:0:
64,192,135404,1,2,0:0:0:0:
192,192,135404,1,8,0:0:0:0:
320,192,135619,1,0,0:0:0:0:
448,192,135833,1,0,0:0:0:0:
192,192,135833,1,2,0:0:0:0:
64,192,135833,128,4,136690:0:0:0:0:
320,192,136047,1,0,0:0:0:0:
192,192,136261,1,0,0:0:0:0:
320,192,136261,1,2,0:0:0:0:
448,192,136261,1,8,0:0:0:0:
448,192,136476,1,0,0:0:0:0:
320,192,136690,1,2,0:0:0:0:
192,192,136690,1,0,0:0:0:0:
192,192,136904,1,0,0:0:0:0:
448,192,137119,1,8,0:0:0:0:
64,192,137119,1,0,0:0:0:0:
320,192,137119,1,2,0:0:0:0:
192,192,137333,1,0,0:0:0:0:
64,192,137547,1,2,0:0:0:0:
448,192,137547,128,0,138404:0:0:0:0:
320,192,137761,1,0,0:0:0:0:
64,192,137976,1,0,0:0:0:0:
192,192,137976,1,2,0:0:0:0:
320,192,137976,1,8,0:0:0:0:
192,192,138190,1,0,0:0:0:0:
64,192,138404,1,0,0:0:0:0:
320,192,138404,1,2,0:0:0:0:
192,192,138619,128,0,139261:0:0:0:0:
64,192,138833,1,0,0:0:0:0:
448,192,138833,1,8,0:0:0:0:
320,192,138833,1,2,0:0:0:0:
320,192,139047,1,0,0:0:0:0:
64,192,139261,1,2,0:0:0:0:
448,192,139261,128,0,140976:0:0:0:0:
192,192,139369,1,2,0:0:0:0:
320,192,139476,1,2,0:0:0:0:
64,192,139583,1,2,0:0:0:0:
320,192,139690,1,2,0:0:0:0:
192,192,139690,1,8,0:0:0:0:
64,192,139797,1,2,0:0:0:0:
320,192,139904,1,2,0:0:0:0:
192,192,140011,1,2,0:0:0:0:
320,192,140119,1,2,0:0:0:0:
64,192,140119,1,0,0:0:0:0:
192,192,140226,1,2,0:0:0:0:
64,192,140333,1,2,0:0:0:0:
320,192,140440,1,2,0:0:0:0:
192,192,140547,1,2,0:0:0:0:
64,192,140547,1,8,0:0:0:0:
320,192,140654,1,2,0:0:0:0:
192,192,140761,1,2,0:0:0:0:
320,192,140869,1,2,0:0:0:0:
64,192,140976,1,2,0:0:0:0:
192,192,141029,1,2,0:0:0:0:
448,192,141083,1,2,0:0:0:0:
320,192,141136,1,2,0:0:0:0:
192,192,141190,1,2,0:0:0:0:
64,192,141244,1,2,0:0:0:0:
320,192,141297,1,2,0:0:0:0:
448,192,141351,1,2,0:0:0:0:
64,192,141404,1,2,0:0:0:0:
192,192,141458,1,2,0:0:0:0:
448,192,141511,1,2,0:0:0:0:
320,192,141565,1,2,0:0:0:0:
192,192,141619,1,2,0:0:0:0:
64,192,141672,1,2,0:0:0:0:
448,192,141726,1,2,0:0:0:0:
320,192,141779,1,2,0:0:0:0:
64,192,141833,1,2,0:0:0:0:
192,192,141886,1,2,0:0:0:0:
320,192,141940,1,2,0:0:0:0:
448,192,141994,1,2,0:0:0:0:
192,192,142047,1,2,0:0:0:0:
64,192,142101,1,2,0:0:0:0:
320,192,142154,1,2,0:0:0:0:
448,192,142208,1,2,0:0:0:0:
64,192,142261,1,2,0:0:0:0:
192,192,142315,1,2,0:0:0:0:
320,192,142369,1,2,0:0:0:0:
448,192,142422,1,2,0:0:0:0:
64,192,142476,1,2,0:0:0:0:
192,192,142529,1,2,0:0:0:0:
448,192,142583,1,2,0:0:0:0:
320,192,142636,1,2,0:0:0:0:
64,192,142690,128,0,143119:0:0:0:0:
192,192,142690,128,2,143547:0:0:0:0:
320,192,143119,128,0,143761:0:0:0:0:
448,192,143547,128,0,143976:0:0:0:0:
64,192,143761,128,0,143976:0:0:0:0:
192,192,143976,128,0,144190:0:0:0:0:
320,192,144190,128,0,144404:0:0:0:0:
64,192,144404,1,4,0:0:0:0:
192,192,144404,1,2,0:0:0:0:
448,192,144404,128,0,146119:0:0:0:0:
320,192,144511,1,0,0:0:0:0:
64,192,144619,1,0,0:0:0:0:
192,192,144726,1,0,0:0:0:0:
64,192,144833,1,0,0:0:0:0:
320,192,144833,1,2,0:0:0:0:
192,192,144940,1,0,0:0:0:0:
320,192,145047,1,0,0:0:0:0:
64,192,145154,1,0,0:0:0:0:
320,192,145261,1,2,0:0:0:0:
192,192,145261,1,0,0:0:0:0:
64,192,145369,1,0,0:0:0:0:
320,192,145476,1,0,0:0:0:0:
192,192,145583,1,0,0:0:0:0:
320,192,145690,1,2,0:0:0:0:
64,192,145690,1,0,0:0:0:0:
192,192,145797,1,0,0:0:0:0:
64,192,145904,1,0,0:0:0:0:
320,192,146011,1,0,0:0:0:0:
192,192,146119,1,2,0:0:0:0:
64,192,146119,128,0,147833:0:0:0:0:
320,192,146226,1,0,0:0:0:0:
448,192,146333,1,0,0:0:0:0:
192,192,146440,1,0,0:0:0:0:
448,192,146547,1,0,0:0:0:0:
320,192,146547,1,2,0:0:0:0:
192,192,146654,1,0,0:0:0:0:
448,192,146761,1,0,0:0:0:0:
320,192,146869,1,0,0:0:0:0:
448,192,146976,1,0,0:0:0:0:
192,192,146976,1,2,0:0:0:0:
320,192,147083,1,0,0:0:0:0:
192,192,147190,1,0,0:0:0:0:
448,192,147297,1,0,0:0:0:0:
192,192,147404,1,2,0:0:0:0:
320,192,147404,1,0,0:0:0:0:
448,192,147511,1,0,0:0:0:0:
192,192,147619,1,0,0:0:0:0:
320,192,147726,1,0,0:0:0:0:
448,192,147833,128,0,149547:0:0:0:0:
192,192,147833,1,2,0:0:0:0:
320,192,147940,1,0,0:0:0:0:
64,192,148047,1,0,0:0:0:0:
192,192,148154,1,0,0:0:0:0:
320,192,148261,1,0,0:0:0:0:
64,192,148261,1,2,0:0:0:0:
192,192,148369,1,0,0:0:0:0:
320,192,148476,1,0,0:0:0:0:
64,192,148583,1,0,0:0:0:0:
320,192,148690,1,0,0:0:0:0:
192,192,148690,1,2,0:0:0:0:
64,192,148797,1,0,0:0:0:0:
320,192,148904,1,0,0:0:0:0:
192,192,149011,1,0,0:0:0:0:
64,192,149119,1,2,0:0:0:0:
320,192,149119,1,0,0:0:0:0:
192,192,149226,1,0,0:0:0:0:
64,192,149333,1,0,0:0:0:0:
320,192,149440,1,0,0:0:0:0:
64,192,149547,1,2,0:0:0:0:
192,192,149547,128,0,151261:0:0:0:0:
320,192,149654,1,0,0:0:0:0:
448,192,149761,1,0,0:0:0:0:
64,192,149869,1,0,0:0:0:0:
448,192,149976,1,2,0:0:0:0:
320,192,149976,1,0,0:0:0:0:
64,192,150083,1,0,0:0:0:0:
448,192,150190,1,0,0:0:0:0:
320,192,150297,1,0,0:0:0:0:
64,192,150404,1,0,0:0:0:0:
448,192,150404,1,2,0:0:0:0:
320,192,150511,1,0,0:0:0:0:
64,192,150619,1,0,0:0:0:0:
448,192,150726,1,0,0:0:0:0:
64,192,150833,1,0,0:0:0:0:
320,192,150833,1,2,0:0:0:0:
448,192,150940,1,0,0:0:0:0:
64,192,151047,1,0,0:0:0:0:
320,192,151154,1,0,0:0:0:0:
448,192,151261,128,0,152976:0:0:0:0:
64,192,151261,1,2,0:0:0:0:
320,192,151369,1,0,0:0:0:0:
64,192,151476,1,0,0:0:0:0:
192,192,151583,1,0,0:0:0:0:
64,192,151690,1,2,0:0:0:0:
320,192,151690,1,0,0:0:0:0:
192,192,151797,1,0,0:0:0:0:
320,192,151904,1,0,0:0:0:0:
64,192,152011,1,0,0:0:0:0:
320,192,152119,1,0,0:0:0:0:
192,192,152119,1,2,0:0:0:0:
64,192,152226,1,0,0:0:0:0:
320,192,152333,1,0,0:0:0:0:
192,192,152440,1,0,0:0:0:0:
320,192,152547,1,0,0:0:0:0:
64,192,152547,1,2,0:0:0:0:
192,192,152654,1,0,0:0:0:0:
64,192,152761,1,0,0:0:0:0:
320,192,152869,1,0,0:0:0:0:
192,192,152976,1,2,0:0:0:0:
64,192,152976,128,0,154690:0:0:0:0:
320,192,153083,1,0,0:0:0:0:
448,192,153190,1,0,0:0:0:0:
192,192,153297,1,0,0:0:0:0:
448,192,153404,1,0,0:0:0:0:
320,192,153404,1,2,0:0:0:0:
192,192,153511,1,0,0:0:0:0:
448,192,153619,1,0,0:0:0:0:
320,192,153726,1,0,0:0:0:0:
448,192,153833,1,0,0:0:0:0:
192,192,153833,1,2,0:0:0:0:
320,192,153940,1,0,0:0:0:0:
192,192,154047,1,0,0:0:0:0:
448,192,154154,1,0,0:0:0:0:
192,192,154261,1,0,0:0:0:0:
320,192,154261,1,2,0:0:0:0:
448,192,154369,1,0,0:0:0:0:
320,192,154476,1,0,0:0:0:0:
192,192,154583,1,0,0:0:0:0:
448,192,154690,1,2,0:0:0:0:
320,192,154690,128,0,156404:0:0:0:0:
192,192,154797,1,0,0:0:0:0:
64,192,154904,1,0,0:0:0:0:
448,192,155011,1,0,0:0:0:0:
192,192,155119,1,2,0:0:0:0:
64,192,155119,1,0,0:0:0:0:
448,192,155226,1,0,0:0:0:0:
64,192,155333,1,0,0:0:0:0:
192,192,155440,1,0,0:0:0:0:
448,192,155547,1,2,0:0:0:0:
64,192,155547,1,0,0:0:0:0:
192,192,155654,1,0,0:0:0:0:
448,192,155761,1,0,0:0:0:0:
64,192,155869,1,0,0:0:0:0:
448,192,155976,1,0,0:0:0:0:
192,192,155976,1,2,0:0:0:0:
64,192,156083,1,0,0:0:0:0:
448,192,156190,1,0,0:0:0:0:
192,192,156297,1,0,0:0:0:0:
448,192,156404,1,2,0:0:0:0:
64,192,156404,128,0,157261:0:0:0:0:
320,192,156511,1,0,0:0:0:0:
192,192,156619,1,0,0:0:0:0:
448,192,156726,1,0,0:0:0:0:
320,192,156833,1,2,0:0:0:0:
192,192,156833,1,0,0:0:0:0:
448,192,156940,1,0,0:0:0:0:
192,192,157047,1,0,0:0:0:0:
320,192,157154,1,0,0:0:0:0:
192,192,157261,1,2,0:0:0:0:
448,192,157261,128,0,157476:0:0:0:0:
320,192,157369,1,0,0:0:0:0:
64,192,157476,1,0,0:0:0:0:
320,192,157583,1,0,0:0:0:0:
192,192,157583,1,2,0:0:0:0:
448,192,157690,128,0,158119:0:0:0:0:
64,192,157797,1,0,0:0:0:0:
320,192,157904,1,0,0:0:0:0:
192,192,157904,1,2,0:0:0:0:
64,192,158011,1,0,0:0:0:0:
320,192,158119,1,2,0:0:0:0:
192,192,158119,128,4,159833:0:0:0:0:
448,192,158226,1,0,0:0:0:0:
64,192,158333,1,0,0:0:0:0:
320,192,158440,1,0,0:0:0:0:
64,192,158547,1,2,0:0:0:0:
448,192,158547,1,0,0:0:0:0:
320,192,158654,1,0,0:0:0:0:
448,192,158761,1,0,0:0:0:0:
64,192,158869,1,0,0:0:0:0:
448,192,158976,1,0,0:0:0:0:
320,192,158976,1,2,0:0:0:0:
64,192,159083,1,0,0:0:0:0:
448,192,159190,1,0,0:0:0:0:
320,192,159297,1,0,0:0:0:0:
64,192,159404,1,0,0:0:0:0:
448,192,159404,1,2,0:0:0:0:
320,192,159511,1,0,0:0:0:0:
64,192,159619,1,0,0:0:0:0:
320,192,159726,1,0,0:0:0:0:
448,192,159833,128,0,161547:0:0:0:0:
64,192,159833,1,2,0:0:0:0:
320,192,159940,1,0,0:0:0:0:
64,192,160047,1,0,0:0:0:0:
192,192,160154,1,0,0:0:0:0:
64,192,160261,1,0,0:0:0:0:
320,192,160261,1,2,0:0:0:0:
192,192,160369,1,0,0:0:0:0:
320,192,160476,1,0,0:0:0:0:
64,192,160583,1,0,0:0:0:0:
320,192,160690,1,2,0:0:0:0:
192,192,160690,1,0,0:0:0:0:
64,192,160797,1,0,0:0:0:0:
320,192,160904,1,0,0:0:0:0:
192,192,161011,1,0,0:0:0:0:
320,192,161119,1,2,0:0:0:0:
64,192,161119,1,0,0:0:0:0:
192,192,161226,1,0,0:0:0:0:
64,192,161333,1,0,0:0:0:0:
320,192,161440,1,0,0:0:0:0:
192,192,161547,1,2,0:0:0:0:
64,192,161547,128,0,163261:0:0:0:0:
320,192,161654,1,0,0:0:0:0:
448,192,161761,1,0,0:0:0:0:
192,192,161869,1,0,0:0:0:0:
448,192,161976,1,0,0:0:0:0:
320,192,161976,1,2,0:0:0:0:
192,192,162083,1,0,0:0:0:0:
448,192,162190,1,0,0:0:0:0:
320,192,162297,1,0,0:0:0:0:
448,192,162404,1,0,0:0:0:0:
192,192,162404,1,2,0:0:0:0:
320,192,162511,1,0,0:0:0:0:
192,192,162619,1,0,0:0:0:0:
448,192,162726,1,0,0:0:0:0:
192,192,162833,1,2,0:0:0:0:
320,192,162833,1,0,0:0:0:0:
448,192,162940,1,0,0:0:0:0:
192,192,163047,1,0,0:0:0:0:
320,192,163154,1,0,0:0:0:0:
448,192,163261,128,0,164976:0:0:0:0:
192,192,163261,1,2,0:0:0:0:
64,192,163369,1,0,0:0:0:0:
320,192,163476,1,0,0:0:0:0:
192,192,163583,1,0,0:0:0:0:
64,192,163690,1,2,0:0:0:0:
320,192,163690,1,0,0:0:0:0:
192,192,163797,1,0,0:0:0:0:
64,192,163904,1,0,0:0:0:0:
320,192,164011,1,0,0:0:0:0:
64,192,164119,1,2,0:0:0:0:
192,192,164119,1,0,0:0:0:0:
320,192,164226,1,0,0:0:0:0:
64,192,164333,1,0,0:0:0:0:
192,192,164440,1,0,0:0:0:0:
64,192,164547,1,2,0:0:0:0:
320,192,164547,1,0,0:0:0:0:
192,192,164654,1,0,0:0:0:0:
64,192,164761,1,0,0:0:0:0:
320,192,164869,1,0,0:0:0:0:
64,192,164976,1,2,0:0:0:0:
192,192,164976,128,0,166690:0:0:0:0:
320,192,165083,1,0,0:0:0:0:
448,192,165190,1,0,0:0:0:0:
64,192,165297,1,0,0:0:0:0:
448,192,165404,1,2,0:0:0:0:
320,192,165404,1,0,0:0:0:0:
64,192,165511,1,0,0:0:0:0:
448,192,165619,1,0,0:0:0:0:
320,192,165726,1,0,0:0:0:0:
64,192,165833,1,0,0:0:0:0:
448,192,165833,1,2,0:0:0:0:
320,192,165940,1,0,0:0:0:0:
64,192,166047,1,0,0:0:0:0:
448,192,166154,1,0,0:0:0:0:
64,192,166261,1,0,0:0:0:0:
320,192,166261,1,2,0:0:0:0:
448,192,166369,1,0,0:0:0:0:
64,192,166476,1,0,0:0:0:0:
320,192,166583,1,0,0:0:0:0:
448,192,166690,128,0,168404:0:0:0:0:
64,192,166690,1,2,0:0:0:0:
320,192,166797,1,0,0:0:0:0:
64,192,166904,1,0,0:0:0:0:
192,192,167011,1,0,0:0:0:0:
64,192,167119,1,2,0:0:0:0:
320,192,167119,1,0,0:0:0:0:
192,192,167226,1,0,0:0:0:0:
320,192,167333,1,0,0:0:0:0:
64,192,167440,1,0,0:0:0:0:
320,192,167547,1,0,0:0:0:0:
192,192,167547,1,2,0:0:0:0:
64,192,167654,1,0,0:0:0:0:
320,192,167761,1,0,0:0:0:0:
192,192,167869,1,0,0:0:0:0:
320,192,167976,1,0,0:0:0:0:
64,192,167976,1,2,0:0:0:0:
192,192,168083,1,0,0:0:0:0:
64,192,168190,1,0,0:0:0:0:
320,192,168297,1,0,0:0:0:0:
192,192,168404,1,2,0:0:0:0:
64,192,168404,128,0,170119:0:0:0:0:
320,192,168511,1,0,0:0:0:0:
448,192,168619,1,0,0:0:0:0:
192,192,168726,1,0,0:0:0:0:
448,192,168833,1,2,0:0:0:0:
320,192,168833,1,0,0:0:0:0:
192,192,168940,1,0,0:0:0:0:
448,192,169047,1,0,0:0:0:0:
320,192,169154,1,0,0:0:0:0:
448,192,169261,1,2,0:0:0:0:
192,192,169261,1,0,0:0:0:0:
320,192,169369,1,0,0:0:0:0:
192,192,169476,1,0,0:0:0:0:
448,192,169583,1,0,0:0:0:0:
192,192,169690,1,0,0:0:0:0:
320,192,169690,1,2,0:0:0:0:
448,192,169797,1,0,0:0:0:0:
192,192,169904,1,0,0:0:0:0:
320,192,170011,1,0,0:0:0:0:
448,192,170119,1,2,0:0:0:0:
320,192,170172,1,2,0:0:0:0:
192,192,170226,1,2,0:0:0:0:
64,192,170279,1,2,0:0:0:0:
320,192,170333,1,2,0:0:0:0:
448,192,170386,1,2,0:0:0:0:
64,192,170440,1,2,0:0:0:0:
192,192,170494,1,2,0:0:0:0:
320,192,170547,1,2,0:0:0:0:
448,192,170601,1,2,0:0:0:0:
64,192,170654,1,2,0:0:0:0:
192,192,170708,1,2,0:0:0:0:
448,192,170761,1,2,0:0:0:0:
320,192,170815,1,2,0:0:0:0:
192,192,170869,1,2,0:0:0:0:
64,192,170922,1,2,0:0:0:0:
320,192,170976,1,2,0:0:0:0:
448,192,171029,1,2,0:0:0:0:
192,192,171083,1,2,0:0:0:0:
64,192,171136,1,2,0:0:0:0:
448,192,171190,1,2,0:0:0:0:
320,192,171244,1,2,0:0:0:0:
192,192,171297,1,2,0:0:0:0:
64,192,171351,1,2,0:0:0:0:
320,192,171404,1,2,0:0:0:0:
448,192,171458,1,2,0:0:0:0:
64,192,171511,1,2,0:0:0:0:
192,192,171565,1,2,0:0:0:0:
320,192,171619,1,2,0:0:0:0:
448,192,171672,1,2,0:0:0:0:
64,192,171726,1,2,0:0:0:0:
192,192,171779,1,2,0:0:0:0:
320,192,171833,1,0,0:0:0:0:
448,192,171833,1,2,0:0:0:0:
448,192,172154,1,2,0:0:0:0:
320,192,172154,1,0,0:0:0:0:
64,192,172476,1,0,0:0:0:0:
192,192,172476,1,2,0:0:0:0:
320,192,172690,1,2,0:0:0:0:
448,192,172690,128,0,173119:0:0:0:0:
320,192,173119,128,0,173333:0:0:0:0:
64,192,173119,128,0,173547:0:0:0:0:
192,192,173333,128,0,173547:0:0:0:0:
448,192,173547,128,4,175261:0:0:0:0:
320,192,173547,128,2,173761:0:0:0:0:
64,192,173761,128,0,173976:0:0:0:0:
192,192,173976,128,0,174190:0:0:0:0:
320,192,174190,128,0,174404:0:0:0:0:
192,192,174404,128,0,174619:0:0:0:0:
64,192,174619,128,0,174833:0:0:0:0:
320,192,174833,128,0,175047:0:0:0:0:
192,192,175047,128,0,175261:0:0:0:0:
64,192,175261,128,0,176976:0:0:0:0:
448,192,175476,128,0,175690:0:0:0:0:
192,192,175690,128,0,175904:0:0:0:0:
320,192,175904,128,0,176119:0:0:0:0:
448,192,176119,128,0,176333:0:0:0:0:
320,192,176333,128,0,176547:0:0:0:0:
192,192,176547,128,0,176761:0:0:0:0:
448,192,176761,128,0,176976:0:0:0:0:
320,192,176976,128,0,177190:0:0:0:0:
192,192,176976,128,0,177833:0:0:0:0:
64,192,177190,128,0,177404:0:0:0:0:
448,192,177404,128,0,177619:0:0:0:0:
320,192,177619,128,0,177833:0:0:0:0:
64,192,177833,128,0,178047:0:0:0:0:
448,192,177833,128,0,179547:0:0:0:0:
192,192,178047,128,0,178261:0:0:0:0:
320,192,178261,128,0,178476:0:0:0:0:
64,192,178476,128,0,178690:0:0:0:0:
320,192,178904,128,0,179119:0:0:0:0:
64,192,179119,128,0,179333:0:0:0:0:
192,192,179333,128,0,179547:0:0:0:0:
64,192,179547,128,0,179976:0:0:0:0:
320,192,179547,128,0,179761:0:0:0:0:
448,192,179761,128,0,179976:0:0:0:0:
192,192,179976,128,0,180404:0:0:0:0:
320,192,179976,128,0,180190:0:0:0:0:
64,192,180190,128,0,180404:0:0:0:0:
448,192,180404,128,0,180619:0:0:0:0:
320,192,180404,128,0,182119:0:0:0:0:
192,192,180619,128,0,180833:0:0:0:0:
64,192,180833,128,0,181047:0:0:0:0:
448,192,181047,128,0,181261:0:0:0:0:
192,192,181261,128,0,181476:0:0:0:0:
64,192,181476,128,0,181690:0:0:0:0:
448,192,181690,128,0,181904:0:0:0:0:
64,192,181904,128,0,182119:0:0:0:0:
448,192,182119,128,0,182976:0:0:0:0:
320,192,182333,128,0,182547:0:0:0:0:
192,192,182547,128,0,182761:0:0:0:0:
64,192,182761,128,0,182976:0:0:0:0:
320,192,182976,128,0,183190:0:0:0:0:
64,192,183190,128,0,183404:0:0:0:0:
448,192,183404,128,0,183619:0:0:0:0:
320,192,183619,128,0,185976:0:0:0:0:
192,192,183619,128,0,183833:0:0:0:0:
448,192,183833,128,0,184047:0:0:0:0:
64,192,184047,128,0,184261:0:0:0:0:
448,192,184261,128,0,184476:0:0:0:0:
192,192,184476,128,0,184690:0:0:0:0:
64,192,184690,128,0,184904:0:0:0:0:
448,192,184904,128,0,185119:0:0:0:0:
192,192,185119,128,0,185333:0:0:0:0:
64,192,185333,128,0,185547:0:0:0:0:
448,192,185761,128,0,185976:0:0:0:0:
64,192,185976,128,0,186190:0:0:0:0:
192,192,186190,128,0,186404:0:0:0:0:
448,192,186404,128,0,186833:0:0:0:0:
320,192,186404,128,0,186619:0:0:0:0:
64,192,186619,128,0,186833:0:0:0:0:
320,192,186833,128,0,187261:0:0:0:0:
192,192,186833,128,0,187047:0:0:0:0:
448,192,187047,128,0,187261:0:0:0:0:
192,192,187261,128,0,188976:0:0:0:0:
64,192,187261,128,0,187476:0:0:0:0:
320,192,187476,128,0,187690:0:0:0:0:
448,192,187690,128,0,187904:0:0:0:0:
64,192,187904,128,0,188119:0:0:0:0:
320,192,188119,128,0,188333:0:0:0:0:
448,192,188333,128,0,188547:0:0:0:0:
64,192,188547,128,0,188761:0:0:0:0:
320,192,188761,128,0,188976:0:0:0:0:
448,192,188976,128,0,190690:0:0:0:0:
64,192,189190,128,0,189404:0:0:0:0:
192,192,189404,128,0,189619:0:0:0:0:
320,192,189619,128,0,189833:0:0:0:0:
64,192,189833,128,0,190047:0:0:0:0:
192,192,190047,128,0,190261:0:0:0:0:
320,192,190261,128,0,190476:0:0:0:0:
192,192,190476,128,0,190690:0:0:0:0:
64,192,190690,128,0,192404:0:0:0:0:
320,192,190690,128,0,190904:0:0:0:0:
448,192,190904,128,0,191119:0:0:0:0:
192,192,191119,128,0,191333:0:0:0:0:
320,192,191333,128,0,191547:0:0:0:0:
448,192,191547,128,0,191761:0:0:0:0:
192,192,191761,128,0,191976:0:0:0:0:
320,192,191976,128,0,192190:0:0:0:0:
448,192,192190,128,0,192404:0:0:0:0:
320,192,192404,128,0,194119:0:0:0:0:
64,192,192619,128,0,192833:0:0:0:0:
448,192,192833,128,0,193047:0:0:0:0:
192,192,193047,128,0,193261:0:0:0:0:
64,192,193261,128,0,193476:0:0:0:0:
448,192,193476,128,0,193690:0:0:0:0:
192,192,193690,128,0,193904:0:0:0:0:
448,192,193904,128,0,194119:0:0:0:0:
64,192,194119,128,0,195833:0:0:0:0:
192,192,194119,128,0,194333:0:0:0:0:
320,192,194333,128,0,194547:0:0:0:0:
448,192,194547,128,0,194761:0:0:0:0:
192,192,194761,128,0,194976:0:0:0:0:
320,192,194976,128,0,195190:0:0:0:0:
448,192,195190,128,0,195404:0:0:0:0:
192,192,195404,128,0,195619:0:0:0:0:
320,192,195619,128,0,195833:0:0:0:0:
448,192,195833,128,0,197547:0:0:0:0:
64,192,196047,128,0,196261:0:0:0:0:
192,192,196261,128,0,196476:0:0:0:0:
320,192,196476,128,0,196690:0:0:0:0:
192,192,196690,128,0,196904:0:0:0:0:
64,192,196904,128,0,197119:0:0:0:0:
192,192,197119,128,0,197333:0:0:0:0:
320,192,197333,128,0,197547:0:0:0:0:
64,192,197547,5,2,0:0:0:0:
192,192,197601,1,2,0:0:0:0:
320,192,197654,1,2,0:0:0:0:
448,192,197708,1,2,0:0:0:0:
64,192,197761,1,2,0:0:0:0:
192,192,197815,1,2,0:0:0:0:
448,192,197869,1,2,0:0:0:0:
320,192,197922,1,2,0:0:0:0:
192,192,197976,1,2,0:0:0:0:
64,192,198029,1,2,0:0:0:0:
320,192,198083,1,2,0:0:0:0:
448,192,198136,1,2,0:0:0:0:
64,192,198190,1,2,0:0:0:0:
192,192,198244,1,2,0:0:0:0:
320,192,198297,1,2,0:0:0:0:
448,192,198351,1,2,0:0:0:0:
64,192,198404,1,2,0:0:0:0:
192,192,198458,1,2,0:0:0:0:
448,192,198511,1,2,0:0:0:0:
320,192,198565,1,2,0:0:0:0:
192,192,198619,1,2,0:0:0:0:
64,192,198672,1,2,0:0:0:0:
320,192,198726,1,2,0:0:0:0:
448,192,198779,1,2,0:0:0:0:
192,192,198833,1,2,0:0:0:0:
64,192,198886,1,2,0:0:0:0:
448,192,198940,1,2,0:0:0:0:
320,192,198994,1,2,0:0:0:0:
192,192,199047,1,2,0:0:0:0:
64,192,199101,1,2,0:0:0:0:
320,192,199154,1,2,0:0:0:0:
448,192,199208,1,2,0:0:0:0:
64,192,199261,1,2,0:0:0:0:
192,192,199315,1,2,0:0:0:0:
320,192,199369,1,2,0:0:0:0:
448,192,199422,1,2,0:0:0:0:
64,192,199476,1,2,0:0:0:0:
192,192,199529,1,2,0:0:0:0:
448,192,199583,1,2,0:0:0:0:
320,192,199636,1,2,0:0:0:0:
192,192,199690,1,2,0:0:0:0:
64,192,199744,1,2,0:0:0:0:
448,192,199797,1,2,0:0:0:0:
320,192,199851,1,2,0:0:0:0:
192,192,199904,1,2,0:0:0:0:
64,192,199958,1,2,0:0:0:0:
320,192,200011,1,2,0:0:0:0:
192,192,200065,1,2,0:0:0:0:
448,192,200119,1,0,0:0:0:0:
64,192,200119,1,2,0:0:0:0:
320,192,200172,1,2,0:0:0:0:
64,192,200226,1,2,0:0:0:0:
192,192,200226,1,0,0:0:0:0:
448,192,200279,1,2,0:0:0:0:
192,192,200333,1,0,0:0:0:0:
320,192,200333,1,2,0:0:0:0:
64,192,200386,1,2,0:0:0:0:
448,192,200440,1,2,0:0:0:0:
320,192,200440,1,0,0:0:0:0:
192,192,200547,1,2,0:0:0:0:
64,192,200547,1,0,0:0:0:0:
192,192,200654,1,2,0:0:0:0:
64,192,200654,1,0,0:0:0:0:
320,192,200761,1,2,0:0:0:0:
448,192,200761,1,0,0:0:0:0:
320,192,200869,1,2,0:0:0:0:
448,192,200869,1,0,0:0:0:0:
448,192,200976,1,4,0:0:0:0:
64,192,200976,1,2,0:0:0:0:
192,192,200976,1,0,0:0:0:0:
320,192,201083,1,0,0:0:0:0:
192,192,201190,1,0,0:0:0:0:
64,192,201297,1,0,0:0:0:0:
448,192,201404,1,8,0:0:0:0:
320,192,201404,1,0,0:0:0:0:
192,192,201511,1,0,0:0:0:0:
320,192,201619,1,0,0:0:0:0:
64,192,201726,1,0,0:0:0:0:
448,192,201833,1,8,0:0:0:0:
320,192,201833,1,0,0:0:0:0:
192,192,201940,1,0,0:0:0:0:
320,192,202047,1,0,0:0:0:0:
64,192,202154,1,0,0:0:0:0:
448,192,202261,1,8,0:0:0:0:
320,192,202261,1,0,0:0:0:0:
192,192,202369,1,0,0:0:0:0:
320,192,202476,1,0,0:0:0:0:
64,192,202583,1,0,0:0:0:0:
448,192,202690,1,8,0:0:0:0:
320,192,202690,1,0,0:0:0:0:
192,192,202797,1,0,0:0:0:0:
320,192,202904,1,0,0:0:0:0:
64,192,203011,1,0,0:0:0:0:
320,192,203119,1,0,0:0:0:0:
448,192,203119,1,8,0:0:0:0:
192,192,203226,1,0,0:0:0:0:
320,192,203333,1,0,0:0:0:0:
64,192,203440,1,0,0:0:0:0:
448,192,203547,1,8,0:0:0:0:
320,192,203547,1,0,0:0:0:0:
192,192,203654,1,0,0:0:0:0:
320,192,203761,1,0,0:0:0:0:
64,192,203869,1,0,0:0:0:0:
448,192,203976,1,8,0:0:0:0:
320,192,203976,1,0,0:0:0:0:
192,192,204083,1,0,0:0:0:0:
448,192,204190,1,8,0:0:0:0:
64,192,204190,1,0,0:0:0:0:
320,192,204297,1,0,0:0:0:0:
64,192,204404,1,8,0:0:0:0:
192,192,204404,1,0,0:0:0:0:
320,192,204511,1,0,0:0:0:0:
192,192,204619,1,0,0:0:0:0:
448,192,204726,1,0,0:0:0:0:
64,192,204833,1,8,0:0:0:0:
192,192,204833,1,0,0:0:0:0:
320,192,204940,1,0,0:0:0:0:
192,192,205047,1,0,0:0:0:0:
448,192,205154,1,0,0:0:0:0:
64,192,205261,1,8,0:0:0:0:
192,192,205261,1,0,0:0:0:0:
320,192,205369,1,0,0:0:0:0:
192,192,205476,1,0,0:0:0:0:
448,192,205583,1,0,0:0:0:0:
192,192,205690,1,0,0:0:0:0:
64,192,205690,1,8,0:0:0:0:
320,192,205797,1,0,0:0:0:0:
192,192,205904,1,0,0:0:0:0:
448,192,206011,1,0,0:0:0:0:
64,192,206119,1,8,0:0:0:0:
192,192,206119,1,0,0:0:0:0:
320,192,206226,1,0,0:0:0:0:
192,192,206333,1,0,0:0:0:0:
448,192,206440,1,0,0:0:0:0:
64,192,206547,1,8,0:0:0:0:
192,192,206547,1,0,0:0:0:0:
320,192,206654,1,0,0:0:0:0:
192,192,206761,1,0,0:0:0:0:
448,192,206869,1,0,0:0:0:0:
64,192,206976,1,8,0:0:0:0:
192,192,206976,1,0,0:0:0:0:
320,192,207083,1,0,0:0:0:0:
192,192,207190,1,0,0:0:0:0:
448,192,207297,1,0,0:0:0:0:
192,192,207404,1,0,0:0:0:0:
64,192,207404,1,8,0:0:0:0:
320,192,207511,1,0,0:0:0:0:
448,192,207619,1,0,0:0:0:0:
64,192,207619,1,8,0:0:0:0:
320,192,207726,1,0,0:0:0:0:
192,192,207726,1,8,0:0:0:0:
448,192,207833,1,0,0:0:0:0:
64,192,207833,1,8,0:0:0:0:
192,192,207940,1,0,0:0:0:0:
320,192,208047,1,0,0:0:0:0:
64,192,208154,1,0,0:0:0:0:
448,192,208261,1,8,0:0:0:0:
320,192,208261,1,0,0:0:0:0:
64,192,208369,1,0,0:0:0:0:
192,192,208476,1,0,0:0:0:0:
448,192,208583,1,0,0:0:0:0:
64,192,208690,1,8,0:0:0:0:
192,192,208690,1,0,0:0:0:0:
448,192,208797,1,0,0:0:0:0:
320,192,208904,1,0,0:0:0:0:
64,192,209011,1,0,0:0:0:0:
320,192,209119,1,0,0:0:0:0:
448,192,209119,1,8,0:0:0:0:
64,192,209226,1,0,0:0:0:0:
192,192,209333,1,0,0:0:0:0:
448,192,209440,1,0,0:0:0:0:
64,192,209547,1,8,0:0:0:0:
192,192,209547,1,0,0:0:0:0:
448,192,209654,1,0,0:0:0:0:
320,192,209761,1,0,0:0:0:0:
64,192,209869,1,0,0:0:0:0:
448,192,209976,1,8,0:0:0:0:
320,192,209976,1,0,0:0:0:0:
64,192,210083,1,0,0:0:0:0:
192,192,210190,1,0,0:0:0:0:
448,192,210297,1,0,0:0:0:0:
64,192,210404,1,8,0:0:0:0:
192,192,210404,1,0,0:0:0:0:
448,192,210511,1,0,0:0:0:0:
320,192,210619,1,0,0:0:0:0:
64,192,210726,1,0,0:0:0:0:
448,192,210833,1,8,0:0:0:0:
320,192,210833,1,0,0:0:0:0:
192,192,210940,1,0,0:0:0:0:
448,192,211047,1,8,0:0:0:0:
64,192,211047,1,0,0:0:0:0:
320,192,211154,1,0,0:0:0:0:
64,192,211261,1,8,0:0:0:0:
192,192,211261,1,0,0:0:0:0:
448,192,211369,1,0,0:0:0:0:
320,192,211476,1,0,0:0:0:0:
64,192,211583,1,0,0:0:0:0:
448,192,211690,1,8,0:0:0:0:
320,192,211690,1,0,0:0:0:0:
64,192,211797,1,0,0:0:0:0:
192,192,211904,1,0,0:0:0:0:
448,192,212011,1,0,0:0:0:0:
64,192,212119,1,8,0:0:0:0:
192,192,212119,1,0,0:0:0:0:
448,192,212226,1,0,0:0:0:0:
320,192,212333,1,0,0:0:0:0:
64,192,212440,1,0,0:0:0:0:
448,192,212547,1,8,0:0:0:0:
320,192,212547,1,0,0:0:0:0:
64,192,212654,1,0,0:0:0:0:
192,192,212761,1,0,0:0:0:0:
448,192,212869,1,0,0:0:0:0:
192,192,212976,1,0,0:0:0:0:
64,192,212976,1,8,0:0:0:0:
448,192,213083,1,0,0:0:0:0:
320,192,213190,1,0,0:0:0:0:
64,192,213297,1,0,0:0:0:0:
448,192,213404,1,8,0:0:0:0:
320,192,213404,1,0,0:0:0:0:
192,192,213511,1,0,0:0:0:0:
64,192,213619,1,0,0:0:0:0:
448,192,213619,1,8,0:0:0:0:
320,192,213726,1,8,0:0:0:0:
192,192,213726,1,0,0:0:0:0:
64,192,213833,1,0,0:0:0:0:
448,192,213833,1,8,0:0:0:0:
192,192,213940,1,0,0:0:0:0:
448,192,214047,1,8,0:0:0:0:
64,192,214047,1,0,0:0:0:0:
320,192,214154,1,0,0:0:0:0:
64,192,214261,1,0,0:0:0:0:
192,192,214261,1,8,0:0:0:0:
320,192,214369,1,8,0:0:0:0:
448,192,214369,1,0,0:0:0:0:
64,192,214476,1,0,0:0:0:0:
192,192,214476,1,8,0:0:0:0:
320,192,214583,1,8,0:0:0:0:
448,192,214583,1,0,0:0:0:0:
192,192,214690,1,0,0:0:0:0:
64,192,214690,1,4,0:0:0:0:
448,192,214690,1,2,0:0:0:0:
64,192,214904,1,0,0:0:0:0:
448,192,215119,1,8,0:0:0:0:
320,192,215119,1,2,0:0:0:0:
192,192,215119,1,0,0:0:0:0:
64,192,215333,1,0,0:0:0:0:
448,192,215547,1,0,0:0:0:0:
320,192,215547,1,2,0:0:0:0:
64,192,215761,1,0,0:0:0:0:
448,192,215976,1,8,0:0:0:0:
320,192,215976,1,2,0:0:0:0:
192,192,215976,1,0,0:0:0:0:
64,192,216190,1,0,0:0:0:0:
64,192,216404,1,0,0:0:0:0:
192,192,216404,1,2,0:0:0:0:
448,192,216619,1,0,0:0:0:0:
320,192,216833,1,0,0:0:0:0:
64,192,216833,1,2,0:0:0:0:
192,192,216833,1,8,0:0:0:0:
448,192,217047,1,0,0:0:0:0:
64,192,217261,1,2,0:0:0:0:
192,192,217261,1,0,0:0:0:0:
448,192,217476,1,0,0:0:0:0:
64,192,217690,1,2,0:0:0:0:
192,192,217690,1,8,0:0:0:0:
320,192,217690,1,0,0:0:0:0:
448,192,217904,1,0,0:0:0:0:
192,192,217904,1,2,0:0:0:0:
64,192,218119,1,0,0:0:0:0:
320,192,218119,1,2,0:0:0:0:
192,192,218333,1,0,0:0:0:0:
64,192,218547,1,0,0:0:0:0:
448,192,218547,1,2,0:0:0:0:
320,192,218547,1,8,0:0:0:0:
192,192,218761,1,0,0:0:0:0:
448,192,218976,1,2,0:0:0:0:
64,192,218976,1,0,0:0:0:0:
320,192,219190,1,0,0:0:0:0:
448,192,219404,1,0,0:0:0:0:
64,192,219404,1,8,0:0:0:0:
192,192,219404,1,2,0:0:0:0:
320,192,219619,1,0,0:0:0:0:
64,192,219833,5,2,0:0:0:0:
448,192,219833,1,0,0:0:0:0:
192,192,220047,1,0,0:0:0:0:
64,192,220261,1,0,0:0:0:0:
448,192,220261,1,8,0:0:0:0:
320,192,220261,1,2,0:0:0:0:
192,192,220476,1,0,0:0:0:0:
448,192,220690,1,0,0:0:0:0:
320,192,220690,1,2,0:0:0:0:
64,192,220904,1,0,0:0:0:0:
448,192,221011,1,0,0:0:0:0:
320,192,221011,1,2,0:0:0:0:
64,192,221119,1,0,0:0:0:0:
448,192,221333,1,8,0:0:0:0:
320,192,221333,1,2,0:0:0:0:
448,192,221547,1,4,0:0:0:0:
64,192,221547,1,2,0:0:0:0:
192,192,221547,1,0,0:0:0:0:
320,192,221654,1,2,0:0:0:0:
192,192,221761,1,0,0:0:0:0:
64,192,221761,1,2,0:0:0:0:
448,192,221869,1,2,0:0:0:0:
64,192,221976,1,2,0:0:0:0:
192,192,221976,1,0,0:0:0:0:
448,192,222083,1,2,0:0:0:0:
192,192,222190,1,0,0:0:0:0:
64,192,222190,1,2,0:0:0:0:
448,192,222297,1,2,0:0:0:0:
320,192,222404,1,2,0:0:0:0:
192,192,222404,1,4,0:0:0:0:
64,192,222511,1,2,0:0:0:0:
448,192,222619,1,0,0:0:0:0:
320,192,222619,1,2,0:0:0:0:
64,192,222726,1,2,0:0:0:0:
448,192,222833,1,0,0:0:0:0:
320,192,222833,1,2,0:0:0:0:
64,192,222940,1,2,0:0:0:0:
448,192,223047,1,0,0:0:0:0:
320,192,223047,1,2,0:0:0:0:
64,192,223154,1,2,0:0:0:0:
320,192,223261,1,4,0:0:0:0:
192,192,223261,1,2,0:0:0:0:
448,192,223369,1,2,0:0:0:0:
64,192,223476,1,0,0:0:0:0:
192,192,223476,1,2,0:0:0:0:
448,192,223583,1,2,0:0:0:0:
64,192,223690,1,0,0:0:0:0:
192,192,223690,1,2,0:0:0:0:
448,192,223797,1,2,0:0:0:0:
64,192,223904,1,0,0:0:0:0:
192,192,223904,1,2,0:0:0:0:
448,192,224011,1,2,0:0:0:0:
320,192,224119,1,2,0:0:0:0:
192,192,224119,1,4,0:0:0:0:
64,192,224226,1,2,0:0:0:0:
320,192,224333,1,2,0:0:0:0:
448,192,224333,1,0,0:0:0:0:
64,192,224440,1,2,0:0:0:0:
448,192,224547,1,0,0:0:0:0:
320,192,224547,1,2,0:0:0:0:
64,192,224654,1,2,0:0:0:0:
448,192,224761,1,0,0:0:0:0:
320,192,224761,1,2,0:0:0:0:
64,192,224869,1,2,0:0:0:0:
448,192,224976,1,0,0:0:0:0:
320,192,224976,1,2,0:0:0:0:
64,192,225029,1,2,0:0:0:0:
192,192,225083,1,2,0:0:0:0:
320,192,225136,1,2,0:0:0:0:
448,192,225190,1,2,0:0:0:0:
64,192,225244,1,2,0:0:0:0:
192,192,225297,1,2,0:0:0:0:
448,192,225351,1,2,0:0:0:0:
320,192,225404,1,2,0:0:0:0:
192,192,225458,1,2,0:0:0:0:
64,192,225511,1,2,0:0:0:0:
320,192,225565,1,2,0:0:0:0:
448,192,225619,1,2,0:0:0:0:
64,192,225672,1,2,0:0:0:0:
192,192,225726,1,2,0:0:0:0:
320,192,225779,1,2,0:0:0:0:
448,192,225833,1,2,0:0:0:0:
192,192,225886,1,2,0:0:0:0:
64,192,225940,1,2,0:0:0:0:
320,192,225994,1,2,0:0:0:0:
448,192,226047,1,2,0:0:0:0:
64,192,226101,1,2,0:0:0:0:
192,192,226154,1,2,0:0:0:0:
320,192,226208,1,2,0:0:0:0:
448,192,226261,1,2,0:0:0:0:
64,192,226315,1,2,0:0:0:0:
192,192,226369,1,2,0:0:0:0:
448,192,226422,1,2,0:0:0:0:
320,192,226476,1,2,0:0:0:0:
64,192,226529,1,2,0:0:0:0:
192,192,226583,1,2,0:0:0:0:
320,192,226636,1,2,0:0:0:0:
448,192,226690,128,0,227547:0:0:0:0:
64,192,226690,1,2,0:0:0:0:
192,192,227547,1,0,0:0:0:0:
64,192,227547,1,2,0:0:0:0:
448,192,227654,1,0,0:0:0:0:
320,192,227654,1,2,0:0:0:0:
64,192,227761,128,0,227976:0:0:0:0:
448,192,227869,1,0,0:0:0:0:
320,192,227869,1,2,0:0:0:0:
192,192,227976,128,0,228190:0:0:0:0:
320,192,228190,1,2,0:0:0:0:
448,192,228190,128,0,228404:0:0:0:0:
64,192,228404,128,0,230119:0:0:0:0:
192,192,228404,1,2,0:0:0:0:
320,192,228404,1,4,0:0:0:0:
448,192,228511,1,0,0:0:0:0:
192,192,228619,1,0,0:0:0:0:
320,192,228726,1,0,0:0:0:0:
448,192,228833,1,2,0:0:0:0:
192,192,228833,1,0,0:0:0:0:
320,192,228940,1,0,0:0:0:0:
448,192,229047,1,0,0:0:0:0:
192,192,229154,1,0,0:0:0:0:
320,192,229261,1,0,0:0:0:0:
448,192,229261,1,2,0:0:0:0:
192,192,229369,1,0,0:0:0:0:
448,192,229476,1,0,0:0:0:0:
320,192,229583,1,0,0:0:0:0:
192,192,229690,1,0,0:0:0:0:
448,192,229690,1,2,0:0:0:0:
320,192,229797,1,0,0:0:0:0:
192,192,229904,1,0,0:0:0:0:
320,192,230011,1,0,0:0:0:0:
448,192,230119,128,0,231833:0:0:0:0:
192,192,230119,1,2,0:0:0:0:
64,192,230226,1,0,0:0:0:0:
320,192,230333,1,0,0:0:0:0:
192,192,230440,1,0,0:0:0:0:
64,192,230547,1,2,0:0:0:0:
320,192,230547,1,0,0:0:0:0:
192,192,230654,1,0,0:0:0:0:
64,192,230761,1,0,0:0:0:0:
320,192,230869,1,0,0:0:0:0:
192,192,230976,1,0,0:0:0:0:
64,192,230976,1,2,0:0:0:0:
320,192,231083,1,0,0:0:0:0:
64,192,231190,1,0,0:0:0:0:
192,192,231297,1,0,0:0:0:0:
320,192,231404,1,0,0:0:0:0:
64,192,231404,1,2,0:0:0:0:
192,192,231511,1,0,0:0:0:0:
320,192,231619,1,0,0:0:0:0:
64,192,231726,1,0,0:0:0:0:
192,192,231833,128,0,233547:0:0:0:0:
320,192,231833,1,2,0:0:0:0:
448,192,231940,1,0,0:0:0:0:
64,192,232047,1,0,0:0:0:0:
320,192,232154,1,0,0:0:0:0:
448,192,232261,1,2,0:0:0:0:
64,192,232261,1,0,0:0:0:0:
320,192,232369,1,0,0:0:0:0:
448,192,232476,1,0,0:0:0:0:
64,192,232583,1,0,0:0:0:0:
320,192,232690,1,0,0:0:0:0:
448,192,232690,1,2,0:0:0:0:
64,192,232797,1,0,0:0:0:0:
448,192,232904,1,0,0:0:0:0:
320,192,233011,1,0,0:0:0:0:
64,192,233119,1,0,0:0:0:0:
448,192,233119,1,2,0:0:0:0:
320,192,233226,1,0,0:0:0:0:
64,192,233333,1,0,0:0:0:0:
320,192,233440,1,0,0:0:0:0:
448,192,233547,128,0,235261:0:0:0:0:
64,192,233547,1,2,0:0:0:0:
192,192,233654,1,0,0:0:0:0:
320,192,233761,1,0,0:0:0:0:
64,192,233869,1,0,0:0:0:0:
192,192,233976,1,2,0:0:0:0:
320,192,233976,1,0,0:0:0:0:
64,192,234083,1,0,0:0:0:0:
320,192,234190,1,0,0:0:0:0:
192,192,234297,1,0,0:0:0:0:
64,192,234404,1,0,0:0:0:0:
320,192,234404,1,2,0:0:0:0:
192,192,234511,1,0,0:0:0:0:
64,192,234619,1,0,0:0:0:0:
320,192,234726,1,0,0:0:0:0:
192,192,234833,1,2,0:0:0:0:
64,192,234833,1,0,0:0:0:0:
320,192,234940,1,0,0:0:0:0:
192,192,235047,1,0,0:0:0:0:
320,192,235154,1,0,0:0:0:0:
64,192,235261,128,0,236976:0:0:0:0:
192,192,235261,1,2,0:0:0:0:
320,192,235369,1,0,0:0:0:0:
448,192,235476,1,0,0:0:0:0:
192,192,235583,1,0,0:0:0:0:
320,192,235690,1,2,0:0:0:0:
448,192,235690,1,0,0:0:0:0:
192,192,235797,1,0,0:0:0:0:
448,192,235904,1,0,0:0:0:0:
320,192,236011,1,0,0:0:0:0:
192,192,236119,1,0,0:0:0:0:
448,192,236119,1,2,0:0:0:0:
320,192,236226,1,0,0:0:0:0:
192,192,236333,1,0,0:0:0:0:
448,192,236440,1,0,0:0:0:0:
320,192,236547,1,2,0:0:0:0:
192,192,236547,1,0,0:0:0:0:
448,192,236654,1,0,0:0:0:0:
192,192,236761,1,0,0:0:0:0:
320,192,236869,1,0,0:0:0:0:
448,192,236976,128,0,238690:0:0:0:0:
192,192,236976,1,2,0:0:0:0:
64,192,237083,1,0,0:0:0:0:
320,192,237190,1,0,0:0:0:0:
192,192,237297,1,0,0:0:0:0:
64,192,237404,1,2,0:0:0:0:
320,192,237404,1,0,0:0:0:0:
192,192,237511,1,0,0:0:0:0:
64,192,237619,1,0,0:0:0:0:
320,192,237726,1,0,0:0:0:0:
192,192,237833,1,2,0:0:0:0:
64,192,237833,1,0,0:0:0:0:
320,192,237940,1,0,0:0:0:0:
64,192,238047,1,0,0:0:0:0:
192,192,238154,1,0,0:0:0:0:
320,192,238261,1,2,0:0:0:0:
64,192,238261,1,0,0:0:0:0:
192,192,238369,1,0,0:0:0:0:
320,192,238476,1,0,0:0:0:0:
64,192,238583,1,0,0:0:0:0:
192,192,238690,128,0,240404:0:0:0:0:
320,192,238690,1,2,0:0:0:0:
448,192,238797,1,0,0:0:0:0:
64,192,238904,1,0,0:0:0:0:
320,192,239011,1,0,0:0:0:0:
448,192,239119,1,2,0:0:0:0:
64,192,239119,1,0,0:0:0:0:
320,192,239226,1,0,0:0:0:0:
448,192,239333,1,0,0:0:0:0:
64,192,239440,1,0,0:0:0:0:
320,192,239547,1,2,0:0:0:0:
448,192,239547,1,0,0:0:0:0:
64,192,239654,1,0,0:0:0:0:
448,192,239761,1,0,0:0:0:0:
320,192,239869,1,0,0:0:0:0:
64,192,239976,1,2,0:0:0:0:
448,192,239976,1,0,0:0:0:0:
320,192,240083,1,0,0:0:0:0:
64,192,240190,1,0,0:0:0:0:
320,192,240297,1,0,0:0:0:0:
448,192,240404,128,0,241261:0:0:0:0:
64,192,240404,1,2,0:0:0:0:
192,192,240511,1,0,0:0:0:0:
320,192,240619,1,0,0:0:0:0:
64,192,240726,1,0,0:0:0:0:
320,192,240833,1,2,0:0:0:0:
192,192,240833,1,0,0:0:0:0:
64,192,240940,1,0,0:0:0:0:
320,192,241047,1,0,0:0:0:0:
192,192,241154,1,0,0:0:0:0:
320,192,241261,1,2,0:0:0:0:
64,192,241261,128,0,241476:0:0:0:0:
192,192,241369,1,0,0:0:0:0:
448,192,241476,1,0,0:0:0:0:
192,192,241583,1,0,0:0:0:0:
320,192,241583,1,2,0:0:0:0:
64,192,241690,128,0,242119:0:0:0:0:
448,192,241797,1,0,0:0:0:0:
192,192,241904,1,0,0:0:0:0:
320,192,241904,1,2,0:0:0:0:
448,192,242011,1,0,0:0:0:0:
320,192,242119,1,2,0:0:0:0:
192,192,242119,128,4,243833:0:0:0:0:
448,192,242226,1,0,0:0:0:0:
64,192,242333,1,0,0:0:0:0:
320,192,242440,1,0,0:0:0:0:
64,192,242547,1,2,0:0:0:0:
448,192,242547,1,0,0:0:0:0:
320,192,242654,1,0,0:0:0:0:
448,192,242761,1,0,0:0:0:0:
64,192,242869,1,0,0:0:0:0:
448,192,242976,1,0,0:0:0:0:
320,192,242976,1,2,0:0:0:0:
64,192,243083,1,0,0:0:0:0:
448,192,243190,1,0,0:0:0:0:
320,192,243297,1,0,0:0:0:0:
448,192,243404,1,0,0:0:0:0:
64,192,243404,1,2,0:0:0:0:
320,192,243511,1,0,0:0:0:0:
64,192,243619,1,0,0:0:0:0:
320,192,243726,1,0,0:0:0:0:
448,192,243833,128,0,245547:0:0:0:0:
64,192,243833,1,2,0:0:0:0:
320,192,243940,1,0,0:0:0:0:
64,192,244047,1,0,0:0:0:0:
192,192,244154,1,0,0:0:0:0:
320,192,244261,1,2,0:0:0:0:
64,192,244261,1,0,0:0:0:0:
192,192,244369,1,0,0:0:0:0:
320,192,244476,1,0,0:0:0:0:
64,192,244583,1,0,0:0:0:0:
320,192,244690,1,2,0:0:0:0:
192,192,244690,1,0,0:0:0:0:
64,192,244797,1,0,0:0:0:0:
320,192,244904,1,0,0:0:0:0:
192,192,245011,1,0,0:0:0:0:
64,192,245119,1,0,0:0:0:0:
320,192,245119,1,2,0:0:0:0:
192,192,245226,1,0,0:0:0:0:
64,192,245333,1,0,0:0:0:0:
320,192,245440,1,0,0:0:0:0:
192,192,245547,1,2,0:0:0:0:
64,192,245547,128,0,247261:0:0:0:0:
320,192,245654,1,0,0:0:0:0:
448,192,245761,1,0,0:0:0:0:
192,192,245869,1,0,0:0:0:0:
448,192,245976,1,0,0:0:0:0:
320,192,245976,1,2,0:0:0:0:
192,192,246083,1,0,0:0:0:0:
448,192,246190,1,0,0:0:0:0:
320,192,246297,1,0,0:0:0:0:
192,192,246404,1,2,0:0:0:0:
448,192,246404,1,0,0:0:0:0:
320,192,246511,1,0,0:0:0:0:
192,192,246619,1,0,0:0:0:0:
448,192,246726,1,0,0:0:0:0:
192,192,246833,1,0,0:0:0:0:
320,192,246833,1,2,0:0:0:0:
448,192,246940,1,0,0:0:0:0:
192,192,247047,1,0,0:0:0:0:
320,192,247154,1,0,0:0:0:0:
448,192,247261,128,0,248976:0:0:0:0:
192,192,247261,1,2,0:0:0:0:
64,192,247369,1,0,0:0:0:0:
320,192,247476,1,0,0:0:0:0:
192,192,247583,1,0,0:0:0:0:
64,192,247690,1,0,0:0:0:0:
320,192,247690,1,2,0:0:0:0:
192,192,247797,1,0,0:0:0:0:
64,192,247904,1,0,0:0:0:0:
320,192,248011,1,0,0:0:0:0:
192,192,248119,1,2,0:0:0:0:
64,192,248119,1,0,0:0:0:0:
320,192,248226,1,0,0:0:0:0:
64,192,248333,1,0,0:0:0:0:
192,192,248440,1,0,0:0:0:0:
64,192,248547,1,2,0:0:0:0:
320,192,248547,1,0,0:0:0:0:
192,192,248654,1,0,0:0:0:0:
64,192,248761,1,0,0:0:0:0:
320,192,248869,1,0,0:0:0:0:
64,192,248976,1,2,0:0:0:0:
192,192,248976,128,0,250690:0:0:0:0:
320,192,249083,1,0,0:0:0:0:
448,192,249190,1,0,0:0:0:0:
64,192,249297,1,0,0:0:0:0:
448,192,249404,1,0,0:0:0:0:
320,192,249404,1,2,0:0:0:0:
64,192,249511,1,0,0:0:0:0:
448,192,249619,1,0,0:0:0:0:
320,192,249726,1,0,0:0:0:0:
64,192,249833,1,0,0:0:0:0:
448,192,249833,1,2,0:0:0:0:
320,192,249940,1,0,0:0:0:0:
64,192,250047,1,0,0:0:0:0:
448,192,250154,1,0,0:0:0:0:
320,192,250261,1,2,0:0:0:0:
64,192,250261,1,0,0:0:0:0:
448,192,250369,1,0,0:0:0:0:
64,192,250476,1,0,0:0:0:0:
320,192,250583,1,0,0:0:0:0:
448,192,250690,128,0,252404:0:0:0:0:
64,192,250690,1,2,0:0:0:0:
320,192,250797,1,0,0:0:0:0:
64,192,250904,1,0,0:0:0:0:
192,192,251011,1,0,0:0:0:0:
64,192,251119,1,0,0:0:0:0:
320,192,251119,1,2,0:0:0:0:
192,192,251226,5,0,0:0:0:0:
320,192,251333,1,0,0:0:0:0:
64,192,251440,1,0,0:0:0:0:
320,192,251547,1,2,0:0:0:0:
192,192,251547,1,0,0:0:0:0:
64,192,251654,1,0,0:0:0:0:
320,192,251761,1,0,0:0:0:0:
192,192,251869,1,0,0:0:0:0:
320,192,251976,1,2,0:0:0:0:
64,192,251976,1,0,0:0:0:0:
192,192,252083,1,0,0:0:0:0:
64,192,252190,1,0,0:0:0:0:
320,192,252297,1,0,0:0:0:0:
192,192,252404,1,2,0:0:0:0:
64,192,252404,128,0,254119:0:0:0:0:
320,192,252511,1,0,0:0:0:0:
448,192,252619,1,0,0:0:0:0:
192,192,252726,1,0,0:0:0:0:
448,192,252833,1,0,0:0:0:0:
320,192,252833,1,2,0:0:0:0:
192,192,252940,1,0,0:0:0:0:
448,192,253047,1,0,0:0:0:0:
320,192,253154,1,0,0:0:0:0:
448,192,253261,1,2,0:0:0:0:
192,192,253261,1,0,0:0:0:0:
320,192,253369,1,0,0:0:0:0:
192,192,253476,1,0,0:0:0:0:
448,192,253583,1,0,0:0:0:0:
192,192,253690,1,0,0:0:0:0:
320,192,253690,1,2,0:0:0:0:
448,192,253797,1,0,0:0:0:0:
192,192,253904,1,0,0:0:0:0:
320,192,254011,1,0,0:0:0:0:
448,192,254119,1,2,0:0:0:0:
320,192,254172,1,2,0:0:0:0:
192,192,254226,1,2,0:0:0:0:
64,192,254279,1,2,0:0:0:0:
320,192,254333,1,2,0:0:0:0:
448,192,254386,1,2,0:0:0:0:
64,192,254440,1,2,0:0:0:0:
192,192,254494,1,2,0:0:0:0:
320,192,254547,1,2,0:0:0:0:
448,192,254601,1,2,0:0:0:0:
192,192,254654,1,2,0:0:0:0:
64,192,254708,1,2,0:0:0:0:
448,192,254761,1,2,0:0:0:0:
320,192,254815,1,2,0:0:0:0:
192,192,254869,1,2,0:0:0:0:
64,192,254922,1,2,0:0:0:0:
448,192,254976,1,2,0:0:0:0:
320,192,255029,1,2,0:0:0:0:
64,192,255083,1,2,0:0:0:0:
192,192,255136,1,2,0:0:0:0:
320,192,255190,1,2,0:0:0:0:
448,192,255244,1,2,0:0:0:0:
64,192,255297,1,2,0:0:0:0:
192,192,255351,1,2,0:0:0:0:
448,192,255404,1,2,0:0:0:0:
320,192,255458,1,2,0:0:0:0:
192,192,255511,1,2,0:0:0:0:
64,192,255565,1,2,0:0:0:0:
448,192,255619,1,2,0:0:0:0:
320,192,255672,1,2,0:0:0:0:
64,192,255726,1,2,0:0:0:0:
192,192,255779,1,2,0:0:0:0:
448,192,255833,128,4,257547:0:0:0:0:
320,192,255833,1,2,0:0:0:0:
192,192,255940,1,0,0:0:0:0:
64,192,256047,1,0,0:0:0:0:
320,192,256154,1,0,0:0:0:0:
64,192,256261,1,2,0:0:0:0:
192,192,256261,1,0,0:0:0:0:
320,192,256369,1,0,0:0:0:0:
64,192,256476,1,0,0:0:0:0:
192,192,256583,1,0,0:0:0:0:
320,192,256690,1,0,0:0:0:0:
64,192,256690,1,2,0:0:0:0:
192,192,256797,1,0,0:0:0:0:
320,192,256904,1,0,0:0:0:0:
64,192,257011,1,0,0:0:0:0:
320,192,257119,1,0,0:0:0:0:
192,192,257119,1,2,0:0:0:0:
64,192,257226,1,0,0:0:0:0:
320,192,257333,1,0,0:0:0:0:
192,192,257440,1,0,0:0:0:0:
64,192,257547,128,0,259261:0:0:0:0:
320,192,257547,1,2,0:0:0:0:
448,192,257654,1,0,0:0:0:0:
192,192,257761,1,0,0:0:0:0:
320,192,257869,1,0,0:0:0:0:
448,192,257976,1,2,0:0:0:0:
192,192,257976,1,0,0:0:0:0:
320,192,258083,1,0,0:0:0:0:
448,192,258190,1,0,0:0:0:0:
192,192,258297,1,0,0:0:0:0:
320,192,258404,1,0,0:0:0:0:
448,192,258404,1,2,0:0:0:0:
192,192,258511,1,0,0:0:0:0:
448,192,258619,1,0,0:0:0:0:
320,192,258726,1,0,0:0:0:0:
192,192,258833,1,0,0:0:0:0:
448,192,258833,1,2,0:0:0:0:
320,192,258940,1,0,0:0:0:0:
192,192,259047,1,0,0:0:0:0:
448,192,259154,1,0,0:0:0:0:
320,192,259261,128,0,260976:0:0:0:0:
192,192,259261,1,2,0:0:0:0:
64,192,259369,1,0,0:0:0:0:
448,192,259476,1,0,0:0:0:0:
192,192,259583,1,0,0:0:0:0:
64,192,259690,1,2,0:0:0:0:
448,192,259690,1,0,0:0:0:0:
192,192,259797,1,0,0:0:0:0:
64,192,259904,1,0,0:0:0:0:
448,192,260011,1,0,0:0:0:0:
192,192,260119,1,0,0:0:0:0:
64,192,260119,1,2,0:0:0:0:
448,192,260226,1,0,0:0:0:0:
64,192,260333,1,0,0:0:0:0:
192,192,260440,1,0,0:0:0:0:
448,192,260547,1,0,0:0:0:0:
64,192,260547,1,2,0:0:0:0:
192,192,260654,1,0,0:0:0:0:
448,192,260761,1,0,0:0:0:0:
192,192,260869,1,0,0:0:0:0:
64,192,260976,128,0,262690:0:0:0:0:
448,192,260976,1,2,0:0:0:0:
320,192,261083,1,0,0:0:0:0:
192,192,261190,1,0,0:0:0:0:
448,192,261297,1,0,0:0:0:0:
320,192,261404,1,2,0:0:0:0:
192,192,261404,1,0,0:0:0:0:
448,192,261511,1,0,0:0:0:0:
192,192,261619,1,0,0:0:0:0:
320,192,261726,1,0,0:0:0:0:
448,192,261833,1,0,0:0:0:0:
192,192,261833,1,2,0:0:0:0:
320,192,261940,1,0,0:0:0:0:
448,192,262047,1,0,0:0:0:0:
192,192,262154,1,0,0:0:0:0:
320,192,262261,1,2,0:0:0:0:
448,192,262261,1,0,0:0:0:0:
192,192,262369,1,0,0:0:0:0:
448,192,262476,1,0,0:0:0:0:
320,192,262583,1,0,0:0:0:0:
448,192,262690,128,0,264404:0:0:0:0:
192,192,262690,1,2,0:0:0:0:
64,192,262797,1,0,0:0:0:0:
320,192,262904,1,0,0:0:0:0:
192,192,263011,1,0,0:0:0:0:
64,192,263119,1,2,0:0:0:0:
320,192,263119,1,0,0:0:0:0:
192,192,263226,1,0,0:0:0:0:
64,192,263333,1,0,0:0:0:0:
320,192,263440,1,0,0:0:0:0:
192,192,263547,1,2,0:0:0:0:
64,192,263547,1,0,0:0:0:0:
320,192,263654,1,0,0:0:0:0:
64,192,263761,1,0,0:0:0:0:
192,192,263869,1,0,0:0:0:0:
320,192,263976,1,2,0:0:0:0:
64,192,263976,1,0,0:0:0:0:
192,192,264083,1,0,0:0:0:0:
320,192,264190,1,0,0:0:0:0:
64,192,264297,1,0,0:0:0:0:
320,192,264404,1,2,0:0:0:0:
192,192,264404,128,0,266119:0:0:0:0:
448,192,264511,1,0,0:0:0:0:
64,192,264619,1,0,0:0:0:0:
320,192,264726,1,0,0:0:0:0:
448,192,264833,1,2,0:0:0:0:
64,192,264833,1,0,0:0:0:0:
320,192,264940,1,0,0:0:0:0:
448,192,265047,1,0,0:0:0:0:
64,192,265154,1,0,0:0:0:0:
320,192,265261,1,2,0:0:0:0:
448,192,265261,1,0,0:0:0:0:
64,192,265369,1,0,0:0:0:0:
448,192,265476,1,0,0:0:0:0:
320,192,265583,1,0,0:0:0:0:
64,192,265690,1,2,0:0:0:0:
448,192,265690,1,0,0:0:0:0:
320,192,265797,1,0,0:0:0:0:
64,192,265904,1,0,0:0:0:0:
320,192,266011,1,0,0:0:0:0:
448,192,266119,128,0,267833:0:0:0:0:
64,192,266119,1,2,0:0:0:0:
192,192,266226,1,0,0:0:0:0:
320,192,266333,1,0,0:0:0:0:
64,192,266440,1,0,0:0:0:0:
192,192,266547,1,2,0:0:0:0:
320,192,266547,1,0,0:0:0:0:
64,192,266654,1,0,0:0:0:0:
320,192,266761,1,0,0:0:0:0:
192,192,266869,1,0,0:0:0:0:
64,192,266976,1,2,0:0:0:0:
320,192,266976,1,0,0:0:0:0:
192,192,267083,1,0,0:0:0:0:
64,192,267190,1,0,0:0:0:0:
320,192,267297,1,0,0:0:0:0:
192,192,267404,1,2,0:0:0:0:
64,192,267404,1,0,0:0:0:0:
320,192,267511,1,0,0:0:0:0:
64,192,267619,1,0,0:0:0:0:
192,192,267726,1,0,0:0:0:0:
64,192,267833,128,0,269119:0:0:0:0:
320,192,267833,1,2,0:0:0:0:
448,192,267940,1,0,0:0:0:0:
192,192,268047,1,0,0:0:0:0:
320,192,268154,1,0,0:0:0:0:
448,192,268261,1,0,0:0:0:0:
192,192,268261,1,2,0:0:0:0:
320,192,268369,1,0,0:0:0:0:
448,192,268476,1,0,0:0:0:0:
192,192,268583,1,0,0:0:0:0:
320,192,268690,1,2,0:0:0:0:
448,192,268690,1,0,0:0:0:0:
192,192,268797,1,0,0:0:0:0:
448,192,268904,1,0,0:0:0:0:
320,192,269011,1,2,0:0:0:0:
192,192,269011,1,0,0:0:0:0:
448,192,269119,1,0,0:0:0:0:
320,192,269226,1,0,0:0:0:0:
64,192,269333,1,2,0:0:0:0:
448,192,269333,1,0,0:0:0:0:
192,192,269440,1,0,0:0:0:0:
448,192,269547,128,4,269761:0:0:0:0:
320,192,269547,1,2,0:0:0:0:
64,192,269547,1,0,0:0:0:0:
192,192,269654,1,0,0:0:0:0:
320,192,269761,128,0,269976:0:0:0:0:
64,192,269869,1,0,0:0:0:0:
192,192,269976,128,0,270190:0:0:0:0:
448,192,269976,1,2,0:0:0:0:
320,192,270083,1,0,0:0:0:0:
64,192,270190,128,0,270404:0:0:0:0:
448,192,270297,1,0,0:0:0:0:
192,192,270404,1,2,0:0:0:0:
320,192,270404,128,0,270619:0:0:0:0:
64,192,270511,1,0,0:0:0:0:
448,192,270619,128,0,270833:0:0:0:0:
192,192,270726,1,0,0:0:0:0:
64,192,270833,128,0,271047:0:0:0:0:
320,192,270833,1,2,0:0:0:0:
192,192,270940,1,0,0:0:0:0:
448,192,271047,128,0,271261:0:0:0:0:
320,192,271154,1,0,0:0:0:0:
192,192,271261,1,2,0:0:0:0:
64,192,271261,1,0,0:0:0:0:
320,192,271369,1,0,0:0:0:0:
448,192,271476,128,0,271690:0:0:0:0:
192,192,271583,1,0,0:0:0:0:
64,192,271690,1,2,0:0:0:0:
320,192,271690,128,0,271904:0:0:0:0:
448,192,271797,1,0,0:0:0:0:
192,192,271904,128,0,272119:0:0:0:0:
320,192,272011,1,0,0:0:0:0:
64,192,272119,128,0,272333:0:0:0:0:
448,192,272119,1,2,0:0:0:0:
192,192,272226,1,0,0:0:0:0:
320,192,272333,128,0,272547:0:0:0:0:
448,192,272440,1,0,0:0:0:0:
64,192,272547,128,0,272761:0:0:0:0:
192,192,272547,1,2,0:0:0:0:
448,192,272654,1,0,0:0:0:0:
192,192,272761,128,0,272976:0:0:0:0:
64,192,272869,1,0,0:0:0:0:
448,192,272976,128,2,273190:0:0:0:0:
320,192,272976,1,0,0:0:0:0:
192,192,273083,1,0,0:0:0:0:
64,192,273190,128,0,273404:0:0:0:0:
448,192,273297,1,0,0:0:0:0:
192,192,273404,1,2,0:0:0:0:
320,192,273404,128,0,273619:0:0:0:0:
64,192,273511,1,0,0:0:0:0:
448,192,273619,128,0,273833:0:0:0:0:
320,192,273726,1,0,0:0:0:0:
64,192,273833,128,0,274047:0:0:0:0:
192,192,273833,1,2,0:0:0:0:
320,192,273940,1,0,0:0:0:0:
448,192,274047,128,0,274261:0:0:0:0:
64,192,274154,1,0,0:0:0:0:
192,192,274261,128,0,274476:0:0:0:0:
320,192,274261,1,2,0:0:0:0:
448,192,274369,1,0,0:0:0:0:
64,192,274476,128,0,274690:0:0:0:0:
192,192,274583,1,0,0:0:0:0:
320,192,274690,1,2,0:0:0:0:
448,192,274690,1,0,0:0:0:0:
64,192,274797,1,0,0:0:0:0:
192,192,274904,128,0,275119:0:0:0:0:
320,192,275011,1,0,0:0:0:0:
448,192,275119,1,2,0:0:0:0:
64,192,275119,128,0,275333:0:0:0:0:
192,192,275226,1,0,0:0:0:0:
448,192,275333,128,0,275547:0:0:0:0:
320,192,275440,1,0,0:0:0:0:
192,192,275547,1,2,0:0:0:0:
64,192,275547,128,0,275761:0:0:0:0:
448,192,275654,1,0,0:0:0:0:
320,192,275761,128,0,275976:0:0:0:0:
192,192,275869,1,0,0:0:0:0:
64,192,275976,1,2,0:0:0:0:
448,192,275976,128,0,276190:0:0:0:0:
320,192,276083,1,0,0:0:0:0:
64,192,276190,128,0,276404:0:0:0:0:
192,192,276297,1,0,0:0:0:0:
448,192,276404,128,0,276619:0:0:0:0:
320,192,276404,1,2,0:0:0:0:
64,192,276511,1,0,0:0:0:0:
192,192,276619,128,0,276833:0:0:0:0:
320,192,276726,1,0,0:0:0:0:
448,192,276833,1,2,0:0:0:0:
64,192,276833,128,0,277047:0:0:0:0:
192,192,276940,1,0,0:0:0:0:
320,192,277047,128,0,277261:0:0:0:0:
448,192,277154,1,0,0:0:0:0:
64,192,277261,1,2,0:0:0:0:
192,192,277261,128,0,277476:0:0:0:0:
320,192,277369,1,0,0:0:0:0:
448,192,277476,128,0,277690:0:0:0:0:
64,192,277583,1,0,0:0:0:0:
320,192,277690,128,0,277904:0:0:0:0:
192,192,277690,1,2,0:0:0:0:
64,192,277797,1,0,0:0:0:0:
192,192,277904,128,0,278119:0:0:0:0:
320,192,278011,1,0,0:0:0:0:
448,192,278119,1,2,0:0:0:0:
64,192,278119,1,0,0:0:0:0:
192,192,278226,1,0,0:0:0:0:
320,192,278333,128,0,278547:0:0:0:0:
448,192,278440,1,0,0:0:0:0:
64,192,278547,1,2,0:0:0:0:
192,192,278547,128,0,278761:0:0:0:0:
320,192,278654,1,0,0:0:0:0:
448,192,278761,128,0,278976:0:0:0:0:
320,192,278869,1,0,0:0:0:0:
64,192,278976,128,0,279190:0:0:0:0:
192,192,278976,1,2,0:0:0:0:
448,192,279083,1,0,0:0:0:0:
320,192,279190,128,0,279404:0:0:0:0:
192,192,279297,1,0,0:0:0:0:
64,192,279404,128,0,279619:0:0:0:0:
448,192,279404,1,2,0:0:0:0:
320,192,279511,1,0,0:0:0:0:
192,192,279619,128,0,279833:0:0:0:0:
64,192,279726,1,0,0:0:0:0:
448,192,279833,1,2,0:0:0:0:
320,192,279886,1,2,0:0:0:0:
64,192,279940,1,2,0:0:0:0:
192,192,279994,1,2,0:0:0:0:
320,192,280047,1,2,0:0:0:0:
448,192,280101,1,2,0:0:0:0:
192,192,280154,1,2,0:0:0:0:
64,192,280208,1,2,0:0:0:0:
448,192,280261,1,2,0:0:0:0:
320,192,280315,1,2,0:0:0:0:
192,192,280369,1,2,0:0:0:0:
64,192,280422,1,2,0:0:0:0:
320,192,280476,1,2,0:0:0:0:
448,192,280529,1,2,0:0:0:0:
64,192,280583,1,2,0:0:0:0:
192,192,280636,1,2,0:0:0:0:
320,192,280690,1,2,0:0:0:0:
448,192,280744,1,2,0:0:0:0:
192,192,280797,1,2,0:0:0:0:
64,192,280851,1,2,0:0:0:0:
320,192,280904,1,2,0:0:0:0:
448,192,280958,1,2,0:0:0:0:
64,192,281011,1,2,0:0:0:0:
192,192,281065,1,2,0:0:0:0:
320,192,281119,1,2,0:0:0:0:
448,192,281172,1,2,0:0:0:0:
64,192,281226,1,2,0:0:0:0:
192,192,281279,1,2,0:0:0:0:
448,192,281333,1,2,0:0:0:0:
320,192,281386,1,2,0:0:0:0:
64,192,281440,1,2,0:0:0:0:
192,192,281494,1,2,0:0:0:0:
320,192,281547,1,0,0:0:0:0:
64,192,281654,1,0,0:0:0:0:
320,192,281761,1,0,0:0:0:0:
448,192,281869,1,0,0:0:0:0:
64,192,281976,128,0,282190:0:0:0:0:
448,192,282190,128,0,282404:0:0:0:0:
320,192,282404,128,0,282619:0:0:0:0:
64,192,282619,128,0,283261:0:0:0:0:
448,192,283261,5,4,0:0:0:0:
320,192,283261,5,2,0:0:0:0:
192,192,283261,5,0,0:0:0:0:
64,192,283369,1,0,0:0:0:0:
448,192,283476,1,0,0:0:0:0:
320,192,283583,1,0,0:0:0:0:
64,192,283690,1,2,0:0:0:0:
192,192,283690,1,8,0:0:0:0:
448,192,283690,1,0,0:0:0:0:
320,192,283797,1,0,0:0:0:0:
64,192,283904,1,0,0:0:0:0:
192,192,284011,1,0,0:0:0:0:
320,192,284119,1,2,0:0:0:0:
448,192,284119,1,0,0:0:0:0:
192,192,284226,1,0,0:0:0:0:
64,192,284333,1,0,0:0:0:0:
448,192,284440,1,0,0:0:0:0:
320,192,284547,1,2,0:0:0:0:
192,192,284547,1,8,0:0:0:0:
64,192,284547,1,0,0:0:0:0:
448,192,284654,1,0,0:0:0:0:
64,192,284761,1,0,0:0:0:0:
192,192,284869,1,0,0:0:0:0:
320,192,284976,1,2,0:0:0:0:
448,192,284976,1,0,0:0:0:0:
64,192,285083,1,0,0:0:0:0:
192,192,285190,1,0,0:0:0:0:
320,192,285297,1,0,0:0:0:0:
448,192,285404,1,0,0:0:0:0:
192,192,285404,1,2,0:0:0:0:
64,192,285404,1,8,0:0:0:0:
320,192,285511,1,0,0:0:0:0:
448,192,285619,1,0,0:0:0:0:
64,192,285726,1,0,0:0:0:0:
192,192,285833,1,2,0:0:0:0:
320,192,285833,1,0,0:0:0:0:
448,192,285940,1,0,0:0:0:0:
64,192,286047,1,0,0:0:0:0:
192,192,286154,1,0,0:0:0:0:
320,192,286261,1,2,0:0:0:0:
448,192,286261,1,8,0:0:0:0:
64,192,286261,1,0,0:0:0:0:
192,192,286369,1,0,0:0:0:0:
448,192,286476,1,0,0:0:0:0:
320,192,286583,1,0,0:0:0:0:
192,192,286690,1,2,0:0:0:0:
64,192,286690,1,0,0:0:0:0:
448,192,286797,1,0,0:0:0:0:
320,192,286904,1,0,0:0:0:0:
192,192,287011,1,0,0:0:0:0:
64,192,287119,1,0,0:0:0:0:
320,192,287119,1,2,0:0:0:0:
448,192,287119,1,8,0:0:0:0:
192,192,287226,1,0,0:0:0:0:
448,192,287333,1,0,0:0:0:0:
64,192,287440,1,0,0:0:0:0:
192,192,287547,1,0,0:0:0:0:
320,192,287547,1,2,0:0:0:0:
448,192,287654,1,0,0:0:0:0:
64,192,287761,1,0,0:0:0:0:
192,192,287869,1,0,0:0:0:0:
448,192,287976,1,8,0:0:0:0:
320,192,287976,1,2,0:0:0:0:
64,192,287976,1,0,0:0:0:0:
192,192,288083,1,0,0:0:0:0:
448,192,288190,1,0,0:0:0:0:
320,192,288297,1,0,0:0:0:0:
64,192,288404,1,0,0:0:0:0:
192,192,288404,1,2,0:0:0:0:
320,192,288511,1,0,0:0:0:0:
448,192,288619,1,0,0:0:0:0:
64,192,288726,1,0,0:0:0:0:
192,192,288833,1,8,0:0:0:0:
448,192,288833,1,0,0:0:0:0:
320,192,288833,1,2,0:0:0:0:
64,192,288940,1,0,0:0:0:0:
448,192,289047,1,0,0:0:0:0:
320,192,289154,1,0,0:0:0:0:
64,192,289261,1,0,0:0:0:0:
192,192,289261,1,2,0:0:0:0:
448,192,289369,1,0,0:0:0:0:
320,192,289476,1,0,0:0:0:0:
192,192,289583,1,0,0:0:0:0:
64,192,289690,1,0,0:0:0:0:
320,192,289690,1,2,0:0:0:0:
448,192,289690,1,8,0:0:0:0:
192,192,289797,1,0,0:0:0:0:
448,192,289904,1,0,0:0:0:0:
320,192,290011,1,0,0:0:0:0:
64,192,290119,1,0,0:0:0:0:
192,192,290119,1,2,0:0:0:0:
320,192,290226,1,0,0:0:0:0:
448,192,290333,1,0,0:0:0:0:
64,192,290440,1,0,0:0:0:0:
192,192,290547,1,2,0:0:0:0:
320,192,290547,1,8,0:0:0:0:
448,192,290547,1,0,0:0:0:0:
64,192,290654,1,0,0:0:0:0:
448,192,290761,1,0,0:0:0:0:
320,192,290869,1,0,0:0:0:0:
192,192,290976,1,2,0:0:0:0:
64,192,290976,1,0,0:0:0:0:
448,192,291083,1,0,0:0:0:0:
320,192,291190,1,0,0:0:0:0:
192,192,291297,1,0,0:0:0:0:
64,192,291404,1,0,0:0:0:0:
320,192,291404,1,2,0:0:0:0:
448,192,291404,1,8,0:0:0:0:
192,192,291511,1,0,0:0:0:0:
64,192,291619,1,0,0:0:0:0:
448,192,291726,1,0,0:0:0:0:
320,192,291833,1,2,0:0:0:0:
192,192,291833,1,0,0:0:0:0:
64,192,291940,1,0,0:0:0:0:
448,192,292047,1,0,0:0:0:0:
320,192,292154,1,0,0:0:0:0:
64,192,292261,1,8,0:0:0:0:
192,192,292261,1,2,0:0:0:0:
448,192,292261,1,0,0:0:0:0:
320,192,292369,1,0,0:0:0:0:
64,192,292476,1,0,0:0:0:0:
192,192,292583,1,0,0:0:0:0:
320,192,292690,1,2,0:0:0:0:
448,192,292690,1,0,0:0:0:0:
64,192,292797,1,0,0:0:0:0:
192,192,292904,1,0,0:0:0:0:
320,192,293011,1,0,0:0:0:0:
448,192,293119,1,0,0:0:0:0:
192,192,293119,1,2,0:0:0:0:
64,192,293119,1,8,0:0:0:0:
320,192,293226,1,0,0:0:0:0:
448,192,293333,1,0,0:0:0:0:
64,192,293440,1,0,0:0:0:0:
192,192,293547,1,0,0:0:0:0:
320,192,293547,1,2,0:0:0:0:
448,192,293654,1,0,0:0:0:0:
64,192,293761,1,0,0:0:0:0:
192,192,293869,1,0,0:0:0:0:
320,192,293976,1,2,0:0:0:0:
448,192,293976,1,8,0:0:0:0:
64,192,293976,1,0,0:0:0:0:
192,192,294083,1,0,0:0:0:0:
448,192,294190,1,0,0:0:0:0:
320,192,294297,1,0,0:0:0:0:
192,192,294404,1,2,0:0:0:0:
64,192,294404,1,0,0:0:0:0:
448,192,294511,1,0,0:0:0:0:
320,192,294619,1,0,0:0:0:0:
64,192,294726,1,0,0:0:0:0:
192,192,294833,1,0,0:0:0:0:
320,192,294833,1,2,0:0:0:0:
448,192,294833,1,8,0:0:0:0:
64,192,294940,5,0,0:0:0:0:
448,192,295047,1,0,0:0:0:0:
320,192,295154,1,0,0:0:0:0:
192,192,295261,1,2,0:0:0:0:
64,192,295261,1,0,0:0:0:0:
448,192,295369,1,0,0:0:0:0:
320,192,295476,1,0,0:0:0:0:
192,192,295583,1,0,0:0:0:0:
320,192,295690,1,2,0:0:0:0:
448,192,295690,1,0,0:0:0:0:
64,192,295690,1,0,0:0:0:0:
192,192,295797,1,0,0:0:0:0:
448,192,295904,1,0,0:0:0:0:
64,192,296011,1,0,0:0:0:0:
192,192,296119,5,0,0:0:0:0:
320,192,296119,1,2,0:0:0:0:
64,192,296226,1,0,0:0:0:0:
192,192,296333,1,0,0:0:0:0:
448,192,296440,1,2,0:0:0:0:
320,192,296440,1,0,0:0:0:0:
64,192,296547,1,0,0:0:0:0:
192,192,296547,1,0,0:0:0:0:
448,192,296654,1,0,0:0:0:0:
192,192,296761,1,8,0:0:0:0:
64,192,296761,1,2,0:0:0:0:
320,192,296869,1,0,0:0:0:0:
192,192,296976,1,2,0:0:0:0:
64,192,296976,1,4,0:0:0:0:
448,192,296976,1,0,0:0:0:0:
320,192,297083,1,0,0:0:0:0:
64,192,297190,1,0,0:0:0:0:
192,192,297297,1,0,0:0:0:0:
448,192,297404,1,8,0:0:0:0:
64,192,297404,1,0,0:0:0:0:
320,192,297404,1,2,0:0:0:0:
192,192,297511,1,0,0:0:0:0:
448,192,297619,1,0,0:0:0:0:
320,192,297726,1,0,0:0:0:0:
64,192,297833,1,0,0:0:0:0:
192,192,297833,1,2,0:0:0:0:
448,192,297940,1,0,0:0:0:0:
320,192,298047,1,0,0:0:0:0:
192,192,298154,1,0,0:0:0:0:
448,192,298261,1,8,0:0:0:0:
64,192,298261,1,0,0:0:0:0:
320,192,298261,1,2,0:0:0:0:
192,192,298369,1,0,0:0:0:0:
64,192,298476,1,0,0:0:0:0:
320,192,298583,1,0,0:0:0:0:
448,192,298690,1,0,0:0:0:0:
64,192,298690,1,2,0:0:0:0:
192,192,298797,1,0,0:0:0:0:
448,192,298904,1,0,0:0:0:0:
320,192,299011,1,0,0:0:0:0:
448,192,299119,1,0,0:0:0:0:
64,192,299119,1,8,0:0:0:0:
192,192,299119,1,2,0:0:0:0:
320,192,299226,1,0,0:0:0:0:
192,192,299333,1,0,0:0:0:0:
64,192,299440,1,0,0:0:0:0:
448,192,299547,1,0,0:0:0:0:
320,192,299547,1,2,0:0:0:0:
192,192,299654,1,0,0:0:0:0:
64,192,299761,1,0,0:0:0:0:
448,192,299869,1,0,0:0:0:0:
64,192,299976,1,0,0:0:0:0:
192,192,299976,1,8,0:0:0:0:
320,192,299976,1,2,0:0:0:0:
448,192,300083,1,0,0:0:0:0:
64,192,300190,1,0,0:0:0:0:
192,192,300297,1,0,0:0:0:0:
448,192,300404,1,0,0:0:0:0:
320,192,300404,1,2,0:0:0:0:
64,192,300511,1,0,0:0:0:0:
192,192,300619,1,0,0:0:0:0:
320,192,300726,1,0,0:0:0:0:
448,192,300833,1,0,0:0:0:0:
64,192,300833,1,8,0:0:0:0:
192,192,300833,1,2,0:0:0:0:
320,192,300940,1,0,0:0:0:0:
64,192,301047,1,0,0:0:0:0:
192,192,301154,1,0,0:0:0:0:
448,192,301261,1,2,0:0:0:0:
64,192,301261,1,0,0:0:0:0:
320,192,301369,1,0,0:0:0:0:
192,192,301476,1,0,0:0:0:0:
64,192,301583,1,0,0:0:0:0:
448,192,301690,1,8,0:0:0:0:
320,192,301690,1,2,0:0:0:0:
192,192,301690,1,0,0:0:0:0:
64,192,301797,1,0,0:0:0:0:
448,192,301904,1,0,0:0:0:0:
320,192,302011,1,0,0:0:0:0:
64,192,302119,1,0,0:0:0:0:
192,192,302119,1,2,0:0:0:0:
448,192,302226,1,0,0:0:0:0:
320,192,302333,1,0,0:0:0:0:
192,192,302440,1,0,0:0:0:0:
448,192,302547,1,8,0:0:0:0:
320,192,302547,1,2,0:0:0:0:
64,192,302547,1,0,0:0:0:0:
192,192,302654,1,0,0:0:0:0:
448,192,302761,1,0,0:0:0:0:
320,192,302869,1,0,0:0:0:0:
64,192,302976,1,0,0:0:0:0:
192,192,302976,1,2,0:0:0:0:
320,192,303083,1,0,0:0:0:0:
448,192,303190,1,0,0:0:0:0:
64,192,303297,1,0,0:0:0:0:
192,192,303404,1,8,0:0:0:0:
320,192,303404,1,2,0:0:0:0:
448,192,303404,1,0,0:0:0:0:
64,192,303511,1,0,0:0:0:0:
448,192,303619,1,0,0:0:0:0:
320,192,303726,1,0,0:0:0:0:
64,192,303833,1,2,0:0:0:0:
192,192,303833,1,0,0:0:0:0:
448,192,303940,1,0,0:0:0:0:
320,192,304047,1,0,0:0:0:0:
192,192,304154,1,0,0:0:0:0:
64,192,304261,1,0,0:0:0:0:
448,192,304261,1,8,0:0:0:0:
320,192,304261,1,2,0:0:0:0:
192,192,304369,1,0,0:0:0:0:
64,192,304476,1,0,0:0:0:0:
448,192,304583,1,0,0:0:0:0:
320,192,304690,1,2,0:0:0:0:
192,192,304690,1,0,0:0:0:0:
64,192,304797,1,0,0:0:0:0:
448,192,304904,1,0,0:0:0:0:
192,192,305011,1,0,0:0:0:0:
64,192,305119,1,0,0:0:0:0:
320,192,305119,1,2,0:0:0:0:
448,192,305119,1,8,0:0:0:0:
192,192,305226,1,0,0:0:0:0:
320,192,305333,1,0,0:0:0:0:
64,192,305440,1,0,0:0:0:0:
448,192,305547,1,0,0:0:0:0:
192,192,305547,1,2,0:0:0:0:
320,192,305654,1,0,0:0:0:0:
64,192,305761,1,0,0:0:0:0:
448,192,305869,1,0,0:0:0:0:
192,192,305976,1,8,0:0:0:0:
320,192,305976,1,2,0:0:0:0:
64,192,305976,1,0,0:0:0:0:
448,192,306083,1,0,0:0:0:0:
64,192,306190,1,0,0:0:0:0:
192,192,306297,1,0,0:0:0:0:
448,192,306404,1,0,0:0:0:0:
320,192,306404,1,2,0:0:0:0:
64,192,306511,1,0,0:0:0:0:
192,192,306619,1,0,0:0:0:0:
320,192,306726,1,0,0:0:0:0:
448,192,306833,1,0,0:0:0:0:
64,192,306833,1,8,0:0:0:0:
192,192,306833,1,2,0:0:0:0:
320,192,306940,1,0,0:0:0:0:
64,192,307047,1,0,0:0:0:0:
192,192,307154,1,0,0:0:0:0:
448,192,307261,1,2,0:0:0:0:
320,192,307315,1,2,0:0:0:0:
192,192,307369,1,2,0:0:0:0:
64,192,307422,1,2,0:0:0:0:
320,192,307476,1,2,0:0:0:0:
448,192,307529,1,2,0:0:0:0:
64,192,307583,1,2,0:0:0:0:
192,192,307636,1,2,0:0:0:0:
320,192,307690,1,2,0:0:0:0:
448,192,307744,1,2,0:0:0:0:
192,192,307797,1,2,0:0:0:0:
64,192,307851,1,2,0:0:0:0:
448,192,307904,1,2,0:0:0:0:
320,192,307958,1,2,0:0:0:0:
192,192,308011,1,2,0:0:0:0:
64,192,308065,1,2,0:0:0:0:
320,192,308119,1,2,0:0:0:0:
448,192,308172,1,2,0:0:0:0:
192,192,308226,1,2,0:0:0:0:
64,192,308279,1,2,0:0:0:0:
448,192,308333,1,2,0:0:0:0:
320,192,308386,1,2,0:0:0:0:
192,192,308440,1,2,0:0:0:0:
64,192,308494,1,2,0:0:0:0:
320,192,308547,1,2,0:0:0:0:
448,192,308601,1,2,0:0:0:0:
64,192,308654,1,2,0:0:0:0:
192,192,308708,1,2,0:0:0:0:
320,192,308761,1,2,0:0:0:0:
448,192,308815,1,2,0:0:0:0:
64,192,308869,1,2,0:0:0:0:
192,192,308922,1,2,0:0:0:0:
448,192,308976,128,0,309083:0:0:0:0:
320,192,309083,128,0,309190:0:0:0:0:
192,192,309190,128,0,309297:0:0:0:0:
64,192,309297,128,0,309404:0:0:0:0:
448,192,309404,128,0,309511:0:0:0:0:
192,192,309511,128,0,309619:0:0:0:0:
320,192,309619,128,0,309726:0:0:0:0:
64,192,309726,128,0,309833:0:0:0:0:
192,192,309833,128,0,309940:0:0:0:0:
320,192,309940,128,0,310047:0:0:0:0:
448,192,310047,128,0,310154:0:0:0:0:
64,192,310154,128,0,310261:0:0:0:0:
320,192,310261,128,0,310369:0:0:0:0:
192,192,310369,128,0,310476:0:0:0:0:
448,192,310476,128,0,310583:0:0:0:0:
320,192,310583,128,0,310690:0:0:0:0:
192,192,310690,1,2,0:0:0:0:
64,192,310690,1,4,0:0:0:0:
448,192,310690,1,0,0:0:0:0:
