osu file format v14

[General]
AudioFilename: audio.mp3
AudioLeadIn: 0
PreviewTime: 143474
Countdown: 0
SampleSet: Soft
StackLeniency: 0.4
Mode: 0
LetterboxInBreaks: 0
WidescreenStoryboard: 0

[Editor]
Bookmarks: 171760
DistanceSpacing: 1.1
BeatDivisor: 8
GridSize: 16
TimelineZoom: 3.799998

[Metadata]
Title:Three Magic (DiGiTAL WiNG TRANCE Remix)
TitleUnicode:Three Magic (DiGiTAL WiNG TRANCE Remix)
Artist:Halozy
ArtistUnicode:Halozy
Creator:SnowNiNo_
Version:My First Love
Source:東方星蓮船 ~ Undefined Fantastic Object.
Tags:Star Lotus Ship Byakuren Hijiri Seirensen 東方Project cao. sumijun もちこ katsu すみじゅん 海兎 Future Love 感情の摩天楼 ~ Cosmic Mind 3L Electronic Vocal touhou
BeatmapID:1017991
BeatmapSetID:476595

[Difficulty]
HPDrainRate:6
CircleSize:4
OverallDifficulty:8
ApproachRate:9.2
SliderMultiplier:2.1
SliderTickRate:1

[Events]
//Background and Video events
0,0,"BG.jpg",0,0
//Break Periods
2,3959,9759
//Storyboard Layer 0 (Background)
//Storyboard Layer 1 (Fail)
//Storyboard Layer 2 (Pass)
//Storyboard Layer 3 (Foreground)
//Storyboard Sound Samples

[TimingPoints]
2045,428.571428571429,4,2,0,40,1,0
2045,-133.333333333333,4,2,0,40,0,0
3760,-133.333333333333,4,2,1,60,0,0
24330,-133.333333333333,4,2,1,60,0,0
24545,-133.333333333333,4,2,0,60,0,0
27973,-133.333333333333,4,2,0,80,0,0
29473,-133.333333333333,4,3,0,50,0,0
29902,-133.333333333333,4,3,0,60,0,0
30330,-133.333333333333,4,3,0,80,0,0
30759,-133.333333333333,4,3,0,70,0,0
31187,-133.333333333333,4,2,1,50,0,0
44902,-100,4,2,2,60,0,0
58616,-100,4,2,0,60,0,0
60330,-200,4,2,20,80,0,0
60384,-200,4,2,0,50,0,0
74045,-133.333333333333,4,2,20,50,0,0
74152,-133.333333333333,4,2,2,60,0,0
87759,-66.6666666666667,4,2,2,90,0,1
111759,-66.6666666666667,4,2,1,40,0,1
112187,-66.6666666666667,4,2,1,50,0,1
112616,-66.6666666666667,4,2,1,60,0,1
113045,-66.6666666666667,4,2,1,80,0,1
113473,-66.6666666666667,4,2,1,80,0,0
114973,-66.6666666666667,4,2,1,5,0,0
115187,-100,4,2,2,70,0,0
122045,-100,4,2,3,80,0,0
122902,-100,4,2,2,70,0,0
128902,-83.3333333333333,4,2,2,80,0,0
142616,-83.3333333333333,4,2,0,80,0,0
144330,-66.6666666666667,4,2,2,90,0,1
171759,-100,4,2,1,80,0,0
173473,-200,4,2,20,80,0,0
173527,-200,4,2,0,50,0,0
194902,-200,4,2,1,40,0,0
195759,-200,4,2,1,50,0,0
196616,-200,4,2,1,60,0,0
197473,-100,4,2,1,60,0,0
200902,-83.3333333333333,4,2,3,80,0,0
214616,-90.9090909090909,4,2,2,80,0,0
228330,-66.6666666666667,4,2,2,90,0,1
255705,-66.6666666666667,4,2,2,80,0,0
255759,-66.6666666666667,4,2,2,90,0,1
282973,-66.6666666666667,4,2,2,5,0,1
283187,-100,4,2,1,50,0,0
308902,-100,4,2,20,80,0,0

[Colours]
Combo1 : 128,0,128
Combo2 : 255,0,255
Combo3 : 255,128,255
Combo4 : 128,0,255

[HitObjects]
186,108,2045,6,2,L|62:99,2,118.125004506111,2|2|2,2:0|2:0|2:0,2:0:0:0:
249,207,2902,2,2,L|373:198,2,118.125004506111
146,266,3759,5,6,0:0:0:0:
389,71,10616,6,0,L|395:160,1,78.7500030040742,2|0,0:0|0:0,0:0:0:0:
382,165,10937,1,0,0:0:0:0:
373,182,11045,2,0,L|375:226,1,39.3750015020371,8|0,0:0|0:0,0:0:0:0:
297,207,11259,2,0,L|299:251,1,39.3750015020371
254,311,11473,6,0,P|221:326|164:320,1,78.7500030040742,2|0,0:0|0:0,0:0:0:0:
160,318,11795,1,0,0:0:0:0:
150,301,11902,2,0,L|154:253,1,39.3750015020371,8|0,0:0|0:0,0:0:0:0:
83,225,12116,2,0,L|79:177,1,39.3750015020371
93,108,12330,6,0,P|132:89|182:94,1,78.7500030040742,2|0,0:0|0:0,0:0:0:0:
184,98,12652,1,0,0:0:0:0:
199,110,12759,2,0,L|257:116,1,39.3750015020371,8|0,0:0|0:0,0:0:0:0:
205,185,12973,2,0,L|244:189,1,39.3750015020371
322,186,13187,6,0,P|311:232|323:277,1,78.7500030040742,2|0,0:0|0:0,0:0:0:0:
330,276,13509,1,0,0:0:0:0:
346,287,13616,2,0,L|351:340,1,39.3750015020371,8|0,0:0|0:0,0:0:0:0:
271,321,13830,2,0,L|276:374,1,39.3750015020371
195,351,14045,6,0,P|157:328|111:327,1,78.7500030040742,2|0,0:0|0:0,0:0:0:0:
104,328,14366,1,0,0:0:0:0:
85,334,14473,2,0,L|30:338,1,39.3750015020371,8|0,0:0|0:0,0:0:0:0:
62,261,14687,2,0,L|7:265,1,39.3750015020371
22,184,14902,6,0,P|59:150|106:142,1,78.7500030040742,2|0,0:0|0:0,0:0:0:0:
105,144,15223,1,0,0:0:0:0:
123,149,15330,2,0,L|177:156,1,39.3750015020371,8|0,0:0|0:0,0:0:0:0:
194,226,15545,2,0,L|248:219,1,39.3750015020371
288,164,15759,6,0,P|327:145|369:154,1,78.7500030040742,2|0,0:0|0:0,0:0:0:0:
377,159,16080,1,0,0:0:0:0:
390,172,16187,2,0,L|395:225,1,39.3750015020371,8|0,0:0|0:0,0:0:0:0:
466,180,16402,2,0,L|471:233,1,39.3750015020371
425,284,16616,6,0,L|341:278,1,78.7500030040742,2|0,0:0|0:0,0:0:0:0:
312,207,16937,1,2,0:0:0:0:
312,207,17045,2,0,L|255:211,1,39.3750015020371,8|0,0:0|0:0,0:0:0:0:
225,272,17259,1,2,0:0:0:0:
185,269,17366,1,0,0:0:0:0:
146,266,17473,6,0,L|82:261,1,39.3750015020371,2|0,0:0|0:0,0:0:0:0:
86,338,17687,2,0,L|22:342,1,39.3750015020371
18,266,17902,1,8,0:0:0:0:
27,248,18009,1,0,0:0:0:0:
33,229,18116,1,0,0:0:0:0:
34,210,18223,1,0,0:0:0:0:
31,190,18330,6,0,L|34:142,1,39.3750015020371,2|0,0:0|0:0,0:0:0:0:
109,129,18545,2,0,L|111:89,1,39.3750015020371
175,44,18759,2,0,P|213:58|263:55,1,78.7500030040742,8|0,0:0|0:0,0:0:0:0:
270,55,19080,1,0,0:0:0:0:
289,51,19187,6,0,P|327:37|377:40,1,78.7500030040742,2|0,0:0|0:0,0:0:0:0:
384,42,19509,1,0,0:0:0:0:
399,54,19616,2,0,L|403:103,1,39.3750015020371,8|0,0:0|0:0,0:0:0:0:
472,129,19830,2,0,L|468:178,1,39.3750015020371
440,241,20045,5,2,0:0:0:0:
441,260,20152,1,0,0:0:0:0:
443,280,20259,1,0,0:0:0:0:
444,299,20366,1,0,0:0:0:0:
446,319,20473,2,0,L|450:368,1,39.3750015020371,8|0,0:0|0:0,0:0:0:0:
372,340,20687,2,0,L|376:389,1,39.3750015020371
297,363,20902,6,0,P|253:343|206:353,1,78.7500030040742,2|0,0:0|0:0,0:0:0:0:
204,350,21223,1,0,0:0:0:0:
185,357,21330,2,0,L|138:362,1,39.3750015020371,8|0,0:0|0:0,0:0:0:0:
99,300,21545,2,0,L|52:295,1,39.3750015020371
8,236,21759,5,2,0:0:0:0:
1,217,21866,1,0,0:0:0:0:
0,197,21973,1,0,0:0:0:0:
0,178,22080,1,0,0:0:0:0:
0,157,22187,2,0,L|6:110,1,39.3750015020371,8|0,0:0|0:0,0:0:0:0:
78,147,22402,2,0,L|84:100,1,39.3750015020371
142,56,22616,6,0,P|181:69|228:60,1,78.7500030040742,2|0,0:0|0:0,0:0:0:0:
236,57,22937,1,0,0:0:0:0:
255,55,23045,2,0,L|306:63,1,39.3750015020371,8|0,0:0|0:0,0:0:0:0:
334,128,23259,2,0,L|385:120,1,39.3750015020371
450,132,23473,5,2,0:0:0:0:
450,132,23687,2,2,L|453:106,3,19.6875007510186
404,177,23902,2,2,L|408:219,1,39.3750015020371
466,269,24116,2,2,L|461:311,1,39.3750015020371
396,352,24330,5,2,0:0:0:0:
396,352,24545,2,0,L|348:358,1,39.3750015020371,2|0,0:2|0:0,0:0:0:0:
287,307,24759,2,0,L|239:301,1,39.3750015020371,2|0,0:0|0:0,0:0:0:0:
202,238,24973,2,0,P|189:190|196:150,1,78.7500030040742,2|0,0:0|0:0,0:0:0:0:
202,140,25295,1,0,0:0:0:0:
216,121,25402,6,0,L|219:78,1,39.3750015020371,2|0,0:0|0:0,0:0:0:0:
292,109,25616,2,0,L|295:66,1,39.3750015020371,2|0,0:0|0:0,0:0:0:0:
369,94,25830,2,0,P|412:95|459:115,1,78.7500030040742,2|0,0:0|0:0,0:0:0:0:
461,118,26152,1,0,0:0:0:0:
464,137,26259,6,0,L|468:189,1,39.3750015020371,2|0,0:0|0:0,0:0:0:0:
392,201,26473,2,0,L|388:253,1,39.3750015020371,2|0,0:0|0:0,0:0:0:0:
463,264,26687,2,0,L|469:354,1,78.7500030040742,2|0,0:0|0:0,0:0:0:0:
452,354,27009,1,0,0:0:0:0:
432,358,27116,2,0,P|399:365|379:363,1,39.3750015020371,2|0,0:0|0:0,0:0:0:0:
344,303,27330,2,0,P|311:296|291:298,1,39.3750015020371,2|0,0:0|0:0,0:0:0:0:
235,333,27545,2,0,P|192:357|151:352,1,78.7500030040742,2|0,0:0|0:0,0:0:0:0:
144,357,27866,1,0,0:0:0:0:
124,357,27973,6,0,L|72:352,1,39.3750015020371,2|0,0:0|0:0,0:0:0:0:
6,248,28187,2,0,L|58:243,1,39.3750015020371,2|0,0:0|0:0,0:0:0:0:
158,207,28402,2,0,P|146:161|152:120,1,78.7500030040742,2|0,0:0|0:0,0:0:0:0:
163,93,28723,1,0,0:0:0:0:
191,66,28830,6,0,L|233:61,1,39.3750015020371,2|0,0:0|0:0,0:0:0:0:
323,134,29045,2,0,L|281:129,1,39.3750015020371,2|0,0:0|0:0,0:0:0:0:
189,200,29259,2,4,L|185:169,3,19.6875007510186,4|4|4|4,0:3|0:3|0:3|0:3,0:3:0:0:
192,219,29473,5,4,0:0:0:0:
195,242,29580,1,4,0:0:0:0:
202,268,29687,1,4,0:0:0:0:
216,296,29795,1,4,0:0:0:0:
239,322,29902,1,4,0:0:0:0:
271,344,30009,1,4,0:0:0:0:
312,357,30116,1,4,0:0:0:0:
359,356,30223,1,4,0:0:0:0:
406,338,30330,1,4,0:0:0:0:
449,297,30437,1,4,0:0:0:0:
472,238,30545,1,4,0:0:0:0:
466,171,30652,1,4,0:0:0:0:
426,112,30759,6,0,L|391:99,7,19.6875007510186
391,179,31187,6,0,L|306:184,1,78.7500030040742,2|0,0:0|0:0,0:0:0:0:
204,170,31616,2,0,P|213:126|202:84,1,78.7500030040742,2|0,0:0|0:0,0:0:0:0:
135,31,32045,1,2,0:0:0:0:
298,70,32259,2,0,L|376:77,1,78.7500030040742,0|2,0:0|0:0,0:0:0:0:
484,31,32687,6,0,L|494:206,1,157.500006008148
379,153,33330,2,0,L|384:244,1,78.7500030040742,2|0,0:0|0:0,0:0:0:0:
453,330,33759,1,2,0:0:0:0:
492,188,33973,1,0,0:0:0:0:
359,324,34187,1,2,0:0:0:0:
359,324,34616,6,0,P|320:308|272:314,1,78.7500030040742,2|0,0:0|0:0,0:0:0:0:
193,233,35045,2,0,P|232:234|267:218,1,78.7500030040742,2|0,0:0|0:0,0:0:0:0:
198,123,35473,1,2,0:0:0:0:
96,182,35687,2,0,P|83:230|94:277,1,78.7500030040742,0|2,0:0|0:0,0:0:0:0:
23,360,36116,6,0,B|133:351|133:351|164:311,1,157.500006008148
267,253,36759,2,0,L|256:162,1,78.7500030040742,2|0,0:0|0:0,0:0:0:0:
97,127,37187,1,2,0:0:0:0:
165,313,37402,1,0,0:0:0:0:
165,194,37616,1,2,0:0:0:0:
165,194,38045,6,0,L|172:109,1,78.7500030040742,2|0,0:0|0:0,0:0:0:0:
186,103,38366,1,0,0:0:0:0:
199,89,38473,2,0,L|202:43,1,39.3750015020371,8|0,0:0|0:0,0:0:0:0:
106,71,38687,2,0,L|109:25,1,39.3750015020371
10,27,38902,1,2,0:0:0:0:
38,153,39116,2,0,L|44:212,1,39.3750015020371
52,289,39330,1,8,0:0:0:0:
146,222,39545,6,0,B|232:159|232:159|290:176,1,157.500006008148
294,159,40080,1,0,0:0:0:0:
309,141,40187,2,0,L|307:90,1,39.3750015020371,8|0,0:0|0:0,0:0:0:0:
404,77,40402,2,0,L|402:128,1,39.3750015020371
437,206,40616,1,2,0:0:0:0:
308,102,40830,2,0,L|265:96,1,39.3750015020371
170,81,41045,1,8,0:0:0:0:
13,30,41473,6,0,L|16:86,1,39.3750015020371,2|0,0:0|0:0,0:0:0:0:
106,30,41687,2,0,L|109:86,1,39.3750015020371
153,205,41902,2,0,L|156:149,1,39.3750015020371,8|0,0:0|0:0,0:0:0:0:
200,30,42116,2,0,L|203:86,1,39.3750015020371
267,137,42330,1,2,0:0:0:0:
109,69,42545,1,0,0:0:0:0:
296,43,42759,2,0,L|324:37,3,19.6875007510186,8|0|0|0,0:0|0:0|0:0|0:0,0:0:0:0:
278,71,42973,6,0,P|257:128|302:219,1,157.500006008148
309,226,43509,1,0,0:0:0:0:
327,234,43616,2,0,P|364:222|420:230,1,78.7500030040742,8|0,0:0|0:0,0:0:0:0:
479,132,44045,2,0,P|439:134|402:122,1,78.7500030040742,2|0,0:0|0:0,0:0:0:0:
320,47,44366,1,2,0:0:0:0:
320,47,44473,2,0,L|325:12,5,26.2500010013581,0|0|0|2|0|0,0:0|0:0|0:0|0:0|0:0|0:0,0:0:0:0:
268,65,44902,6,0,P|228:89|162:89,1,105,2|8,0:0|0:0,0:0:0:0:
28,60,45223,1,0,0:0:0:0:
79,71,45330,2,0,L|82:137,1,52.5,2|0,0:0|0:0,0:0:0:0:
29,199,45545,2,0,L|26:265,1,52.5,8|0,0:0|0:0,0:0:0:0:
128,262,45759,1,2,0:0:0:0:
154,260,45866,1,0,0:0:0:0:
180,258,45973,1,8,0:0:0:0:
206,256,46080,1,0,0:0:0:0:
232,254,46187,6,0,L|291:250,1,52.5,2|0,0:0|0:0,0:0:0:0:
414,273,46402,2,0,L|381:223,1,52.5,8|0,0:0|0:0,0:0:0:0:
434,107,46616,6,0,P|385:125|322:117,1,105,2|8,0:0|0:0,0:0:0:0:
256,102,46937,1,0,0:0:0:0:
180,76,47045,2,0,P|131:58|68:66,1,105,2|8,0:0|0:0,0:0:0:0:
56,74,47366,1,0,0:0:0:0:
40,95,47473,1,2,0:0:0:0:
35,120,47580,1,0,0:0:0:0:
37,146,47687,1,8,0:0:0:0:
47,170,47795,1,0,0:0:0:0:
66,187,47902,6,0,P|90:203|113:207,1,52.5,2|0,0:0|0:0,0:0:0:0:
239,173,48116,2,0,P|215:157|192:153,1,52.5,8|0,0:0|0:0,0:0:0:0:
174,282,48330,6,0,P|225:306|284:292,1,105,2|8,0:0|0:0,0:0:0:0:
407,291,48652,1,0,0:0:0:0:
357,287,48759,2,0,L|360:224,1,52.5,2|0,0:0|0:0,0:0:0:0:
233,120,48973,2,0,L|239:178,1,52.5,8|0,0:0|0:0,0:0:0:0:
174,282,49187,6,0,P|229:291|282:263,1,105,2|8,0:0|0:0,0:0:0:0:
401,228,49509,1,0,0:0:0:0:
352,239,49616,2,0,L|338:177,1,52.5,2|0,0:0|0:0,0:0:0:0:
189,110,49830,2,0,L|209:164,1,52.5,8|0,0:0|0:0,0:0:0:0:
174,282,50045,6,0,P|230:277|274:235,1,105,2|8,0:0|0:0,0:0:0:0:
377,177,50367,1,0,0:0:0:0:
334,194,50474,2,0,L|305:137,1,52.5,2|0,0:0|0:0,0:0:0:0:
143,111,50688,2,0,L|177:158,1,52.5,8|0,0:0|0:0,0:0:0:0:
233,276,50902,1,2,0:0:0:0:
173,153,51116,6,0,P|208:132|279:131,1,105,8|2,0:0|0:0,0:0:0:0:
352,274,51437,2,0,P|337:234|347:166,1,105
373,62,51759,6,0,L|306:56,1,52.5,2|0,0:0|0:0,0:0:0:0:
204,77,51973,1,8,0:0:0:0:
204,77,52080,1,0,0:0:0:0:
204,77,52187,2,0,L|200:149,1,52.5,2|0,0:0|0:0,0:0:0:0:
194,235,52402,2,0,L|133:195,1,52.5,8|0,0:0|0:0,0:0:0:0:
63,147,52616,2,0,L|127:114,1,52.5,2|0,0:0|0:0,0:0:0:0:
150,206,52830,6,0,P|132:236|136:319,1,105,8|2,0:0|0:0,0:0:0:0:
209,374,53152,2,0,P|227:344|223:261,1,105
255,174,53473,6,0,P|287:155|374:164,1,105,2|8,0:0|0:0,0:0:0:0:
428,178,53795,1,0,0:0:0:0:
503,157,53902,2,0,P|512:92|504:48,1,105,2|8,0:0|0:0,0:0:0:0:
432,25,54223,1,0,0:0:0:0:
355,41,54330,2,0,P|321:50|303:47,1,52.5,2|0,0:0|0:0,0:0:0:0:
180,34,54545,6,0,L|171:157,1,105,8|2,0:0|0:0,0:0:0:0:
68,103,54866,2,0,L|77:226,1,105
247,215,55187,6,0,L|252:287,1,52.5,2|0,0:0|0:0,0:0:0:0:
260,372,55402,1,8,0:0:0:0:
260,372,55509,1,0,0:0:0:0:
260,372,55616,2,0,L|196:367,1,52.5,2|0,0:0|0:0,0:0:0:0:
150,279,55830,1,8,0:0:0:0:
150,279,55937,1,0,0:0:0:0:
150,279,56044,2,0,L|86:284,1,52.5,2|0,0:0|0:0,0:0:0:0:
13,219,56259,6,0,P|40:193|34:114,1,105,8|2,0:0|0:0,0:0:0:0:
16,27,56580,2,0,L|137:38,1,105
218,76,56902,6,0,L|223:45,23,26.25,0|0|0|0|0|0|0|0|0|0|0|0|0|0|0|0|0|0|0|0|0|0|0|0,3:0|3:0|3:0|3:0|3:0|3:0|3:0|3:0|3:0|3:0|3:0|3:0|3:0|3:0|3:0|3:0|3:0|3:0|3:0|3:0|3:0|3:0|3:0|3:0,3:0:0:0:
223,102,58187,5,0,0:0:0:0:
227,138,58294,1,0,0:0:0:0:
233,184,58401,1,0,0:0:0:0:
240,241,58508,1,0,0:0:0:0:
248,309,58616,1,2,0:0:0:0:
248,309,59045,5,2,0:0:0:0:
188,212,60330,6,0,B|252:223|300:185|300:185|297:272|297:272|248:297|182:286,1,315,4|0,0:0|0:0,0:0:0:0:
225,119,62045,6,0,B|256:94|266:62|266:62|242:144|317:228|412:199,1,315,2|0,0:0|0:0,0:0:0:0:
373,93,63759,6,0,B|429:74|493:112|505:201|450:287|312:234|410:144,1,315,2|0,0:0|0:0,0:0:0:0:
467,303,65473,6,0,B|392:327|317:278|317:278|242:327|168:303,1,315,2|0,0:0|0:0,0:0:0:0:
58,177,67187,6,0,B|73:103|170:77|170:77|196:174|140:224,1,315,2|0,0:0|0:0,0:0:0:0:
370,348,68902,6,0,B|347:268|438:234|446:132|352:98|309:144|302:219|380:201,1,315,2|0,0:0|0:0,0:0:0:0:
259,46,70616,6,0,B|228:65|185:46|185:46|191:83|167:113|167:113|116:78|41:101|23:156,1,315,2|0,0:0|0:0,0:0:0:0:
211,192,72330,6,0,P|256:267|301:192,1,210,2|0,0:0|0:0,0:0:0:0:
301,192,73616,1,2,0:0:0:0:
227,72,74045,6,0,L|132:78,1,78.7500030040742,4|8,0:0|0:0,0:0:0:0:
132,88,74366,1,0,0:0:0:0:
115,99,74473,2,0,L|55:102,1,39.3750015020371
25,185,74687,2,0,P|10:226|18:281,1,78.7500030040742,8|0,0:0|0:0,0:0:0:0:
17,279,75009,1,0,0:0:0:0:
33,289,75116,2,0,P|79:292|112:324,1,78.7500030040742,8|0,0:0|0:0,0:0:0:0:
119,323,75437,1,0,0:0:0:0:
137,329,75545,2,0,L|186:334,1,39.3750015020371,8|0,0:0|0:0,0:0:0:0:
264,304,75759,6,0,P|284:268|283:219,1,78.7500030040742,0|8,0:0|0:0,0:0:0:0:
279,212,76080,1,0,0:0:0:0:
271,193,76187,2,0,L|228:180,1,39.3750015020371
166,108,76402,2,0,P|207:83|250:86,1,78.7500030040742,8|0,0:0|0:0,0:0:0:0:
256,86,76723,1,0,0:0:0:0:
274,91,76830,2,0,L|328:96,1,39.3750015020371,8|0,0:0|0:0,0:0:0:0:
411,105,77045,2,0,L|379:149,1,39.3750015020371
330,216,77259,2,0,L|307:166,1,39.3750015020371,8|0,0:0|0:0,0:0:0:0:
274,91,77473,6,0,P|235:107|181:98,1,78.7500030040742,0|8,0:0|0:0,0:0:0:0:
179,101,77795,1,0,0:0:0:0:
159,99,77902,2,0,L|107:104,1,39.3750015020371
42,41,78116,2,0,P|22:82|25:126,1,78.7500030040742,8|0,0:0|0:0,0:0:0:0:
33,130,78437,1,0,0:0:0:0:
43,146,78545,2,0,L|48:196,1,39.3750015020371,8|0,0:0|0:0,0:0:0:0:
139,218,78759,2,0,L|134:268,1,39.3750015020371
43,292,78973,2,0,L|48:342,1,39.3750015020371,8|0,0:0|0:0,0:0:0:0:
141,359,79187,6,0,P|186:345|227:351,1,78.7500030040742,0|8,0:0|0:0,0:0:0:0:
314,366,79509,2,0,P|331:322|324:274,1,78.7500030040742
246,238,79830,1,8,0:0:0:0:
408,231,80045,6,0,L|450:228,1,39.3750015020371
252,156,80259,2,0,L|210:159,1,39.3750015020371,8|0,0:0|0:0,0:0:0:0:
379,100,80473,2,0,L|382:61,1,39.3750015020371
281,287,80687,2,0,L|278:326,1,39.3750015020371,8|0,0:0|0:0,0:0:0:0:
189,356,80902,5,2,0:0:0:0:
162,326,81009,1,2,0:0:0:0:
138,295,81116,1,2,0:0:0:0:
122,259,81223,1,2,0:0:0:0:
119,220,81330,1,2,0:0:0:0:
134,184,81437,1,2,0:0:0:0:
169,166,81544,1,2,0:0:0:0:
208,170,81651,1,2,0:0:0:0:
236,197,81759,5,2,0:0:0:0:
246,234,81866,1,2,0:0:0:0:
236,272,81973,1,2,0:0:0:0:
202,293,82080,1,2,0:0:0:0:
162,291,82187,1,2,0:0:0:0:
127,272,82294,1,2,0:0:0:0:
100,242,82401,1,2,0:0:0:0:
88,203,82509,1,2,0:0:0:0:
79,164,82616,6,2,L|63:121,1,39.3750015020371
137,60,82830,2,2,L|144:106,1,39.3750015020371
212,169,83045,2,2,L|219:122,1,39.3750015020371
313,105,83259,2,2,L|296:148,1,39.3750015020371
313,238,83473,5,2,0:0:0:0:
340,265,83580,1,2,0:0:0:0:
375,284,83687,1,2,0:0:0:0:
413,293,83794,1,2,0:0:0:0:
452,288,83901,1,2,0:0:0:0:
446,248,84009,1,2,0:0:0:0:
427,213,84116,1,2,0:0:0:0:
398,187,84223,1,2,0:0:0:0:
361,173,84330,6,0,L|331:162,7,19.6875007510186,0|0|0|0|0|0|0|0,3:0|3:0|3:0|3:0|3:0|3:0|3:0|3:0,3:0:0:0:
375,143,84759,2,0,L|348:124,7,19.6875007510186,0|0|0|0|0|0|0|0,3:0|3:0|3:0|3:0|3:0|3:0|3:0|3:0,3:0:0:0:
396,122,85187,2,0,L|375:97,7,19.6875007510186,0|0|0|0|0|0|0|0,3:0|3:0|3:0|3:0|3:0|3:0|3:0|3:0,3:0:0:0:
423,107,85616,2,0,L|409:78,7,19.6875007510186,0|0|0|0|0|0|0|0,3:0|3:0|3:0|3:0|3:0|3:0|3:0|3:0,3:0:0:0:
450,108,86045,5,2,0:0:0:0:
79,261,86366,1,2,0:0:0:0:
275,123,86687,1,2,0:0:0:0:
257,269,86902,1,2,0:0:0:0:
257,269,87759,6,0,B|293:243|293:243|415:273,1,157.500006008148,2|8,0:0|0:0,0:0:0:0:
450,330,88080,1,0,0:0:0:0:
393,192,88188,2,0,L|307:171,1,78.7500030040742,2|0,0:0|0:0,0:0:0:0:
237,105,88402,1,8,0:0:0:0:
237,105,88509,1,0,0:0:0:0:
293,243,88616,2,0,B|405:270|405:270|453:246,1,157.500006008148,2|8,0:0|0:0,0:0:0:0:
316,173,88938,1,0,0:0:0:0:
272,313,89045,2,0,L|434:353,1,157.500006008148,2|8,0:0|0:0,0:0:0:0:
185,349,89366,1,0,0:0:0:0:
199,257,89473,6,0,B|184:144|184:144|215:95,1,157.500006008148,2|8,0:0|0:0,0:0:0:0:
227,21,89795,1,0,0:0:0:0:
275,164,89902,2,0,L|286:250,1,78.7500030040742,2|0,0:0|0:0,0:0:0:0:
207,107,90116,1,8,0:0:0:0:
207,107,90223,1,0,0:0:0:0:
334,97,90330,2,0,B|441:82|441:82|475:32,1,157.500006008148,2|8,0:0|0:0,0:0:0:0:
326,18,90652,1,0,0:0:0:0:
282,153,90759,2,0,B|319:177|319:177|432:162,1,157.500006008148,2|8,0:0|0:0,0:0:0:0:
257,79,91080,1,0,0:0:0:0:
217,198,91188,6,0,B|221:262|221:262|208:286|208:286|214:366,1,157.500006008148,2|8,0:0|0:0,0:0:0:0:
137,317,91509,1,0,0:0:0:0:
291,380,91616,2,0,L|284:301,1,78.7500030040742,2|0,0:0|0:0,0:0:0:0:
319,220,91830,1,8,0:0:0:0:
319,220,91938,1,0,0:0:0:0:
212,351,92045,2,0,B|206:242|206:242|156:214,1,157.500006008148,2|8,0:0|0:0,0:0:0:0:
77,221,92366,1,0,0:0:0:0:
198,137,92473,2,0,B|257:142|257:142|295:127|295:127|357:135,1,157.500006008148,2|8,0:0|0:0,0:0:0:0:
305,211,92795,1,0,0:0:0:0:
397,57,92902,6,0,B|288:43|288:43|237:62,1,157.500006008148,2|8,0:0|0:0,0:0:0:0:
198,137,93223,1,0,0:0:0:0:
297,127,93330,2,0,L|404:141,1,78.7500030040742,2|0,0:0|0:0,0:0:0:0:
255,202,93545,1,8,0:0:0:0:
255,202,93652,1,0,0:0:0:0:
243,59,93759,2,0,B|183:50|183:50|145:67|145:67|79:55,1,157.500006008148,2|8,0:0|0:0,0:0:0:0:
51,51,94080,1,0,0:0:0:0:
198,137,94188,5,2,0:0:0:0:
235,149,94295,1,0,0:0:0:0:
68,185,94402,5,10,0:0:0:0:
30,196,94509,1,0,0:0:0:0:
111,101,94616,6,0,B|143:53|143:53|268:35,1,157.500006008148,2|8,0:0|0:0,0:0:0:0:
332,24,94937,1,0,0:0:0:0:
275,125,95045,2,0,L|188:138,1,78.7500030040742,2|0,0:0|0:0,0:0:0:0:
365,197,95259,1,8,0:0:0:0:
365,197,95366,1,0,0:0:0:0:
197,136,95473,2,0,B|193:203|193:203|206:225|206:225|202:300,1,157.500006008148,2|8,0:0|0:0,0:0:0:0:
275,181,95795,1,0,0:0:0:0:
127,245,95902,2,0,B|121:339|121:339|52:370,1,157.500006008148,2|8,0:0|0:0,0:0:0:0:
46,286,96223,1,0,0:0:0:0:
202,289,96330,6,0,B|206:206|206:206|142:151,1,157.500006008148,2|8,0:0|0:0,0:0:0:0:
127,245,96652,1,0,0:0:0:0:
290,289,96759,2,0,L|294:209,1,78.7500030040742,2|0,0:0|0:0,0:0:0:0:
254,96,96973,1,8,0:0:0:0:
254,96,97080,1,0,0:0:0:0:
149,157,97187,2,0,B|34:145|34:145|-1:94,1,157.500006008148,2|8,0:0|0:0,0:0:0:0:
81,65,97509,1,0,0:0:0:0:
71,226,97616,2,0,B|140:233|140:233|163:250|163:250|242:256,1,157.500006008148,2|8,0:0|0:0,0:0:0:0:
108,308,97937,1,0,0:0:0:0:
194,176,98045,6,0,B|309:185|309:185|348:146,1,157.500006008148,2|8,0:0|0:0,0:0:0:0:
422,132,98366,1,0,0:0:0:0:
277,92,98473,2,0,L|189:86,1,78.7500030040742,2|0,0:0|0:0,0:0:0:0:
365,56,98687,1,8,0:0:0:0:
365,56,98795,1,0,0:0:0:0:
338,155,98902,2,0,B|329:257|329:257|281:298,1,157.500006008148,2|8,0:0|0:0,0:0:0:0:
255,216,99223,1,0,0:0:0:0:
414,164,99330,2,0,L|400:323,1,157.500006008148,2|8,0:0|0:0,0:0:0:0:
483,251,99652,1,0,0:0:0:0:
338,155,99759,6,0,B|238:136|238:136|184:171,1,157.500006008148,2|8,0:0|0:0,0:0:0:0:
255,216,100080,1,0,0:0:0:0:
277,65,100187,2,0,L|367:82,1,78.7500030040742,2|0,0:0|0:0,0:0:0:0:
486,70,100402,1,8,0:0:0:0:
486,70,100509,1,0,0:0:0:0:
426,164,100616,2,0,B|408:224|408:224|417:249|417:249|392:331,1,157.500006008148,2|8,0:0|0:0,0:0:0:0:
385,351,100937,1,2,0:0:0:0:
485,219,101045,5,0,0:0:0:0:
497,181,101152,1,0,0:0:0:0:
339,251,101259,5,10,0:0:0:0:
327,289,101366,1,0,0:0:0:0:
377,122,101473,6,0,B|282:71|282:71|225:90,1,157.500006008148,2|8,0:0|0:0,0:0:0:0:
156,92,101795,1,0,0:0:0:0:
275,159,101902,2,0,L|354:201,1,78.7500030040742,2|0,0:0|0:0,0:0:0:0:
234,86,102116,1,8,0:0:0:0:
234,86,102223,1,0,0:0:0:0:
228,222,102330,2,0,B|218:328|218:328|163:363,1,157.500006008148,2|8,0:0|0:0,0:0:0:0:
149,283,102652,1,0,0:0:0:0:
295,304,102759,2,0,B|305:192|305:192|269:152,1,157.500006008148,2|8,0:0|0:0,0:0:0:0:
183,138,103080,1,0,0:0:0:0:
307,69,103187,6,0,B|412:91|412:91|471:72,1,157.500006008148,2|8,0:0|0:0,0:0:0:0:
410,8,103509,1,0,0:0:0:0:
411,163,103616,2,0,L|413:253,1,78.7500030040742,2|0,0:0|0:0,0:0:0:0:
459,75,103830,1,8,0:0:0:0:
459,75,103937,1,0,0:0:0:0:
312,164,104045,2,0,B|256:151|256:151|213:161|213:161|143:144,1,157.500006008148,2|8,0:0|0:0,0:0:0:0:
214,78,104366,1,0,0:0:0:0:
256,235,104473,2,0,B|210:245|210:245|90:215,1,157.500006008148,2|8,0:0|0:0,0:0:0:0:
159,148,104795,1,0,0:0:0:0:
117,307,104902,6,0,B|206:330|206:330|289:312,1,157.500006008148,2|8,0:0|0:0,0:0:0:0:
356,277,105223,1,0,0:0:0:0:
207,244,105330,2,0,L|120:222,1,78.7500030040742,2|0,0:0|0:0,0:0:0:0:
270,316,105545,1,8,0:0:0:0:
270,316,105652,1,0,0:0:0:0:
296,192,105759,2,0,B|293:85|293:85|337:40,1,157.500006008148,2|8,0:0|0:0,0:0:0:0:
368,118,106080,1,0,0:0:0:0:
219,115,106187,2,0,B|222:222|222:222|178:267,1,157.500006008148,2|8,0:0|0:0,0:0:0:0:
157,341,106509,1,0,0:0:0:0:
136,187,106616,6,0,B|133:80|133:80|177:35,1,157.500006008148,2|8,0:0|0:0,0:0:0:0:
250,13,106937,1,0,0:0:0:0:
219,115,107045,2,0,L|221:198,1,78.7500030040742,2|0,0:0|0:0,0:0:0:0:
168,43,107259,1,8,0:0:0:0:
168,43,107366,1,0,0:0:0:0:
306,114,107473,2,0,B|371:109|371:109|397:118|397:118|474:113,1,157.500006008148,2|8,0:0|0:0,0:0:0:0:
501,112,107795,1,0,0:0:0:0:
360,187,107902,5,2,0:0:0:0:
320,189,108009,1,0,0:0:0:0:
410,39,108116,5,10,0:0:0:0:
450,37,108223,1,0,0:0:0:0:
462,210,108330,6,0,B|458:321|458:321|413:362,1,157.500006008148,2|8,0:0|0:0,0:0:0:0:
342,362,108652,1,0,0:0:0:0:
379,282,108759,2,0,L|382:198,1,78.7500030040742,2|0,0:0|0:0,0:0:0:0:
463,117,108973,1,8,0:0:0:0:
463,117,109080,1,0,0:0:0:0:
381,203,109187,2,0,B|318:194|318:194|294:204|294:204|208:191,1,157.500006008148,2|8,0:0|0:0,0:0:0:0:
284,121,109509,1,0,0:0:0:0:
329,274,109616,2,0,B|304:287|304:287|156:264,1,157.500006008148,2|8,0:0|0:0,0:0:0:0:
141,186,109937,1,0,0:0:0:0:
209,350,110045,6,0,B|316:367|316:367|370:338,1,157.500006008148,2|8,0:0|0:0,0:0:0:0:
381,266,110366,1,0,0:0:0:0:
303,285,110473,2,0,L|212:271,1,78.7500030040742,2|0,0:0|0:0,0:0:0:0:
105,312,110687,1,8,0:0:0:0:
105,312,110795,1,0,0:0:0:0:
225,273,110902,2,0,B|211:163|211:163|162:143,1,157.500006008148,2|8,0:0|0:0,0:0:0:0:
139,219,111223,1,0,0:0:0:0:
293,197,111330,2,0,B|305:289|305:289|267:355,1,157.500006008148,2|8,0:0|0:0,0:0:0:0:
225,273,111652,1,0,0:0:0:0:
376,262,111759,6,0,L|369:214,7,39.3750015020371,0|0|0|0|0|0|0|0,3:0|3:0|3:0|3:0|3:0|3:0|3:0|3:0,3:0:0:0:
300,261,112187,2,0,L|280:216,7,39.3750015020371,0|0|0|0|0|0|0|0,3:0|3:0|3:0|3:0|3:0|3:0|3:0|3:0,3:0:0:0:
225,273,112616,2,0,L|194:234,7,39.3750015020371,0|0|0|0|0|0|0|0,3:0|3:0|3:0|3:0|3:0|3:0|3:0|3:0,3:0:0:0:
151,304,113045,2,0,L|112:275,7,39.3750015020371,0|0|0|0|0|0|0|0,3:0|3:0|3:0|3:0|3:0|3:0|3:0|3:0,3:0:0:0:
256,192,113473,12,0,114973,0:0:0:0:
374,79,115187,6,0,L|264:89,1,105,2|8,0:0|0:0,0:0:0:0:
249,105,115509,1,0,0:0:0:0:
227,120,115616,2,0,L|151:126,1,52.5,2|0,0:0|0:0,0:0:0:0:
42,86,115830,2,0,L|117:92,1,52.5,8|0,0:0|0:0,0:0:0:0:
164,36,116045,1,2,0:0:0:0:
106,173,116259,2,0,L|102:284,1,105,8|2,0:0|0:0,0:0:0:0:
106,303,116580,1,0,0:0:0:0:
119,324,116687,6,0,P|174:309|237:330,1,105,8|2,0:0|0:0,0:0:0:0:
244,329,117009,1,0,0:0:0:0:
268,339,117116,2,0,P|323:354|386:333,1,105,8|2,0:0|0:0,0:0:0:0:
495,300,117545,2,0,L|488:233,1,52.5,8|0,0:0|0:0,0:0:0:0:
391,211,117759,2,0,L|398:144,1,52.5,2|0,0:0|0:0,0:0:0:0:
495,123,117973,2,0,L|488:56,1,52.5,8|0,0:0|0:0,0:0:0:0:
391,34,118187,2,0,P|337:57|271:49,1,105,2|8,0:0|0:0,0:0:0:0:
130,27,118616,6,0,L|126:136,1,105,2|8,0:0|0:0,0:0:0:0:
111,153,118937,1,0,0:0:0:0:
95,174,119045,2,0,L|92:252,1,52.5,2|0,0:0|0:0,0:0:0:0:
190,188,119259,2,0,L|187:266,1,52.5,8|0,0:0|0:0,0:0:0:0:
125,324,119473,1,2,0:0:0:0:
291,260,119687,2,0,P|332:283|397:272,1,105,8|2,0:0|0:0,0:0:0:0:
350,123,120116,6,0,P|309:100|244:111,1,105,8|2,0:0|0:0,0:0:0:0:
230,119,120437,1,0,0:0:0:0:
207,131,120545,2,0,L|137:134,1,52.5,8|0,0:0|0:0,0:0:0:0:
37,191,120759,2,0,L|107:194,1,52.5,2|0,0:0|0:0,0:0:0:0:
203,257,120973,2,0,L|133:260,1,52.5,8|0,0:0|0:0,0:0:0:0:
29,309,121187,1,2,0:0:0:0:
80,115,121402,1,8,0:0:0:0:
150,259,121616,1,2,0:0:0:0:
150,259,122045,5,8,0:0:0:0:
150,259,122152,1,8,0:0:0:0:
181,107,122366,1,8,0:0:0:0:
181,107,122473,2,0,L|286:101,1,105,10|0,0:0|0:0,0:0:0:0:
379,52,122902,6,0,P|394:104|373:156,1,105,2|8,0:0|0:0,0:0:0:0:
362,172,123223,1,0,0:0:0:0:
351,196,123330,2,0,L|355:264,1,52.5,2|0,0:0|0:0,0:0:0:0:
390,347,123545,6,0,P|338:366|268:353,1,105,8|2,0:0|0:0,0:0:0:0:
264,354,123866,1,0,0:0:0:0:
237,354,123973,2,0,L|171:357,1,52.5,8|0,0:0|0:0,0:0:0:0:
54,291,124187,2,0,L|120:294,1,52.5,2|0,0:0|0:0,0:0:0:0:
237,233,124402,2,0,L|171:236,1,52.5,8|0,0:0|0:0,0:0:0:0:
53,184,124616,1,2,0:0:0:0:
14,362,124830,1,8,0:0:0:0:
145,141,125045,2,0,P|201:130|251:145,1,105,2|8,0:0|0:0,0:0:0:0:
206,288,125473,6,0,P|195:259|205:219,1,52.5,2|0,0:0|0:0,0:0:0:0:
316,109,125687,2,0,P|327:138|317:178,1,52.5,10|0,0:0|0:0,0:0:0:0:
256,48,125902,2,0,P|279:29|313:27,1,52.5,2|0,0:0|0:0,0:0:0:0:
385,223,126116,2,0,P|362:242|328:244,1,52.5,10|0,0:0|0:0,0:0:0:0:
414,93,126330,6,0,L|476:97,1,52.5,2|0,0:0|0:0,0:0:0:0:
218,181,126545,2,0,L|156:185,1,52.5,10|0,0:0|0:0,0:0:0:0:
334,178,126759,2,0,P|343:205|342:240,1,52.5,2|0,0:0|0:0,0:0:0:0:
90,198,126973,2,0,P|91:171|99:147,1,52.5,10|0,0:0|0:0,0:0:0:0:
195,58,127187,5,2,0:0:0:0:
244,76,127294,1,2,0:0:0:0:
296,77,127401,1,10,0:0:0:0:
346,62,127508,1,2,0:0:0:0:
389,32,127615,1,2,0:0:0:0:
367,79,127723,1,2,0:0:0:0:
363,132,127830,1,10,0:0:0:0:
378,182,127937,1,2,0:0:0:0:
410,223,128045,2,0,P|414:282|379:326,1,105,2|0,0:0|0:0,0:0:0:0:
282,254,128366,1,2,0:0:0:0:
282,254,128473,2,0,L|234:246,5,35,0|0|0|2|0|0,0:0|0:0|0:0|0:0|0:0|0:0,0:0:0:0:
330,242,128902,6,0,P|353:175|327:104,1,125.999996154785,2|8,0:0|0:0,0:0:0:0:
309,9,129223,1,0,0:0:0:0:
278,63,129330,2,0,L|206:55,1,62.9999980773926,2|0,0:0|0:0,0:0:0:0:
105,139,129545,2,0,L|168:133,1,62.9999980773926,8|0,0:0|0:0,0:0:0:0:
289,219,129759,2,0,B|299:298|299:298|269:339,1,125.999996154785,2|8,0:0|0:0,0:0:0:0:
140,367,130080,1,0,0:0:0:0:
173,313,130187,2,0,L|89:308,1,62.9999980773926,2|0,0:0|0:0,0:0:0:0:
1,234,130402,2,0,L|85:229,1,62.9999980773926,8|0,0:0|0:0,0:0:0:0:
158,221,130616,6,0,P|169:154|140:100,1,125.999996154785,2|8,0:0|0:0,0:0:0:0:
124,79,130937,1,0,0:0:0:0:
119,47,131045,2,0,P|150:31|199:34,1,62.9999980773926,2|0,0:0|0:0,0:0:0:0:
243,96,131259,2,0,P|274:112|323:109,1,62.9999980773926,8|0,0:0|0:0,0:0:0:0:
383,67,131473,2,0,P|396:112|354:193,1,125.999996154785,2|8,0:0|0:0,0:0:0:0:
353,211,131795,1,0,0:0:0:0:
349,242,131902,2,0,L|344:315,1,62.9999980773926,2|0,0:0|0:0,0:0:0:0:
487,357,132116,2,0,L|482:284,1,62.9999980773926,8|0,0:0|0:0,0:0:0:0:
345,305,132330,6,0,P|303:329|217:324,1,125.999996154785,2|8,0:0|0:0,0:0:0:0:
112,243,132652,1,0,0:0:0:0:
168,270,132759,2,0,L|172:194,1,62.9999980773926,2|0,0:0|0:0,0:0:0:0:
314,125,132973,2,0,L|318:201,1,62.9999980773926,8|0,0:0|0:0,0:0:0:0:
345,305,133187,6,0,P|298:317|216:290,1,125.999996154785,2|8,0:0|0:0,0:0:0:0:
135,184,133509,1,0,0:0:0:0:
183,225,133616,2,0,L|206:152,1,62.9999980773926,2|0,0:0|0:0,0:0:0:0:
361,123,133830,2,0,L|345:197,1,62.9999980773926,8|0,0:0|0:0,0:0:0:0:
345,305,134045,6,0,P|296:304|224:257,1,125.999996154785,2|8,0:0|0:0,0:0:0:0:
173,133,134367,1,0,0:0:0:0:
209,185,134474,2,0,L|250:121,1,62.9999980773926,2|0,0:0|0:0,0:0:0:0:
407,133,134688,2,0,L|372:200,1,62.9999980773926,8|0,0:0|0:0,0:0:0:0:
345,305,134902,1,2,0:0:0:0:
342,130,135116,6,0,P|309:100|227:87,1,125.999996154785,8|2,0:0|0:0,0:0:0:0:
143,57,135437,2,0,P|154:95|109:182,1,125.999996154785
64,248,135759,6,0,L|211:244,1,125.999996154785,2|8,0:0|0:0,0:0:0:0:
328,206,136080,1,0,0:0:0:0:
269,228,136187,2,0,L|275:307,1,62.9999980773926,2|0,0:0|0:0,0:0:0:0:
366,360,136402,2,0,L|372:281,1,62.9999980773926,8|0,0:0|0:0,0:0:0:0:
415,215,136616,2,0,P|431:175|407:80,1,125.999996154785,2|8,0:0|0:0,0:0:0:0:
339,27,136937,1,0,0:0:0:0:
325,89,137045,2,0,P|267:100|201:64,1,125.999996154785,2|8,0:0|0:0,0:0:0:0:
335,210,137473,6,0,L|197:203,1,125.999996154785,2|8,0:0|0:0,0:0:0:0:
181,219,137795,1,0,0:0:0:0:
152,233,137902,2,0,L|83:229,1,62.9999980773926,2|0,0:0|0:0,0:0:0:0:
76,323,138116,2,0,L|7:326,1,62.9999980773926,8|0,0:0|0:0,0:0:0:0:
184,338,138330,2,0,P|223:317|318:334,1,125.999996154785,2|8,0:0|0:0,0:0:0:0:
329,340,138652,1,0,0:0:0:0:
356,355,138759,2,0,P|395:376|490:359,1,125.999996154785,2|8,0:0|0:0,0:0:0:0:
346,174,139187,6,0,P|307:153|212:170,1,125.999996154785,2|8,0:0|0:0,0:0:0:0:
86,158,139509,1,0,0:0:0:0:
141,187,139616,2,0,L|138:260,1,62.9999980773926,2|0,0:0|0:0,0:0:0:0:
281,345,139830,2,0,L|278:272,1,62.9999980773926,8|0,0:0|0:0,0:0:0:0:
138,249,140045,2,0,P|85:258|12:210,1,125.999996154785,2|8,0:0|0:0,0:0:0:0:
9,195,140366,1,0,0:0:0:0:
7,163,140473,1,2,0:0:0:0:
15,132,140580,1,0,0:0:0:0:
34,107,140687,1,8,0:0:0:0:
62,93,140795,1,0,0:0:0:0:
93,93,140902,6,0,L|138:102,23,31.4999990386963,0|0|0|0|0|0|0|0|0|0|0|0|0|0|0|0|0|0|0|0|0|0|0|0,3:0|3:0|3:0|3:0|3:0|3:0|3:0|3:0|3:0|3:0|3:0|3:0|3:0|3:0|3:0|3:0|3:0|3:0|3:0|3:0|3:0|3:0|3:0|3:0,3:0:0:0:
127,130,142187,5,0,0:0:0:0:
131,166,142294,1,0,0:0:0:0:
137,212,142401,1,0,0:0:0:0:
144,269,142508,1,0,0:0:0:0:
152,337,142616,1,2,0:0:0:0:
152,337,143045,5,2,0:0:0:0:
189,314,144330,6,0,B|228:283|228:283|338:292,1,157.500006008148,2|8,0:0|0:0,0:0:0:0:
414,331,144652,1,0,0:0:0:0:
334,367,144759,2,0,L|252:360,1,78.7500030040742,2|0,0:0|0:0,0:0:0:0:
120,294,144973,1,8,0:0:0:0:
120,294,145080,1,0,0:0:0:0:
219,261,145187,2,0,B|224:196|224:196|239:175|239:175|243:98,1,157.500006008148,2|8,0:0|0:0,0:0:0:0:
158,146,145509,1,0,0:0:0:0:
304,229,145616,2,0,B|295:338|295:338|347:377,1,157.500006008148,2|8,0:0|0:0,0:0:0:0:
381,301,145937,1,0,0:0:0:0:
216,287,146045,6,0,L|224:191,1,78.7500030040742,2|0,0:0|0:0,0:0:0:0:
384,220,146259,2,0,L|376:124,1,78.7500030040742,8|0,0:0|0:0,0:0:0:0:
267,97,146473,2,0,B|157:75|157:75|102:97,1,157.500006008148,2|8,0:0|0:0,0:0:0:0:
166,154,146795,1,0,0:0:0:0:
199,6,146902,2,0,L|293:25,1,78.7500030040742,2|0,0:0|0:0,0:0:0:0:
408,127,147116,2,0,L|330:142,1,78.7500030040742,8|0,0:0|0:0,0:0:0:0:
271,194,147330,1,2,0:0:0:0:
338,65,147437,2,0,B|417:49|417:49|496:84,1,157.500006008148
408,127,147759,6,0,B|325:144|325:144|251:101,1,157.500006008148,2|8,0:0|0:0,0:0:0:0:
268,29,148080,1,0,0:0:0:0:
221,174,148187,2,0,L|302:221,1,78.7500030040742,2|0,0:0|0:0,0:0:0:0:
414,159,148402,1,8,0:0:0:0:
414,159,148509,1,0,0:0:0:0:
396,289,148616,2,0,B|334:292|334:292|314:309|314:309|235:316,1,157.500006008148,2|8,0:0|0:0,0:0:0:0:
365,366,148937,1,0,0:0:0:0:
280,235,149045,2,0,L|187:244,1,78.7500030040742,2|0,0:0|0:0,0:0:0:0:
170,359,149259,2,0,L|77:350,1,78.7500030040742,8|0,0:0|0:0,0:0:0:0:
90,238,149473,6,0,P|111:193|49:100,1,157.500006008148,2|8,0:0|0:0,0:0:0:0:
30,181,149795,2,0,P|88:183|146:108,1,157.500006008148
176,37,150116,1,8,0:0:0:0:
97,31,150223,1,0,0:0:0:0:
63,105,150330,2,0,P|81:161|168:190,1,157.500006008148,2|8,0:0|0:0,0:0:0:0:
145,110,150652,1,0,0:0:0:0:
132,265,150759,2,0,P|186:272|251:192,1,157.500006008148,2|8,0:0|0:0,0:0:0:0:
284,127,151080,1,0,0:0:0:0:
327,230,151187,6,0,B|319:333|319:333|375:379,1,157.500006008148,2|8,0:0|0:0,0:0:0:0:
403,294,151509,1,0,0:0:0:0:
244,280,151616,2,0,L|252:188,1,78.7500030040742,2|0,0:0|0:0,0:0:0:0:
317,140,151830,1,8,0:0:0:0:
317,140,151937,1,0,0:0:0:0:
161,184,152045,2,0,B|150:306|150:306|186:342,1,157.500006008148,2|8,0:0|0:0,0:0:0:0:
243,279,152366,1,0,0:0:0:0:
63,267,152473,2,0,L|77:110,1,157.500006008148,2|8,0:0|0:0,0:0:0:0:
53,26,152795,1,0,0:0:0:0:
162,126,152902,6,0,B|153:224|153:224|202:269,1,157.500006008148,2|8,0:0|0:0,0:0:0:0:
246,332,153223,1,0,0:0:0:0:
236,190,153330,2,0,B|243:103|243:103|231:78|231:78|236:24,1,157.500006008148,2|8,0:0|0:0,0:0:0:0:
313,65,153652,1,0,0:0:0:0:
162,126,153759,2,0,B|151:241|151:241|116:274,1,157.500006008148,2|8,0:0|0:0,0:0:0:0:
73,203,154080,1,0,0:0:0:0:
230,238,154187,2,0,B|296:234|296:234|325:250|325:250|398:246,1,157.500006008148,2|8,0:0|0:0,0:0:0:0:
278,315,154509,1,0,0:0:0:0:
344,166,154616,6,0,B|463:160|463:160|487:127,1,157.500006008148,2|8,0:0|0:0,0:0:0:0:
421,82,154937,1,0,0:0:0:0:
425,241,155045,2,0,B|317:246|317:246|267:204,1,157.500006008148,2|8,0:0|0:0,0:0:0:0:
344,166,155366,1,0,0:0:0:0:
345,320,155473,2,0,L|439:315,1,78.7500030040742,2|0,0:0|0:0,0:0:0:0:
208,253,155687,2,0,L|114:248,1,78.7500030040742,8|0,0:0|0:0,0:0:0:0:
253,338,155902,2,0,L|89:329,1,157.500006008148,2|8,0:0|0:0,0:0:0:0:
13,356,156223,1,0,0:0:0:0:
130,249,156330,6,0,B|140:143|140:143|186:107,1,157.500006008148,2|8,0:0|0:0,0:0:0:0:
214,186,156652,1,0,0:0:0:0:
61,166,156759,2,0,B|50:280|50:280|87:314,1,157.500006008148,2|8,0:0|0:0,0:0:0:0:
146,350,157080,1,2,0:0:0:0:
130,249,157187,6,0,L|138:161,1,78.7500030040742,2|0,0:0|0:0,0:0:0:0:
382,249,157402,2,2,L|374:161,1,78.7500030040742,8|2,0:0|0:0,0:0:0:0:
112,148,157616,2,0,L|101:64,1,78.7500030040742,2|0,0:0|0:0,0:0:0:0:
400,148,157830,2,0,L|411:64,1,78.7500030040742,10|0,0:0|0:0,0:0:0:0:
256,48,158045,6,0,L|256:213,1,157.500006008148,2|8,0:0|0:0,0:0:0:0:
340,314,158366,1,0,0:0:0:0:
203,296,158473,2,0,L|117:285,1,78.7500030040742,2|0,0:0|0:0,0:0:0:0:
256,206,158687,2,0,L|342:195,1,78.7500030040742,8|0,0:0|0:0,0:0:0:0:
461,178,158902,5,2,0:0:0:0:
461,178,159009,1,0,0:0:0:0:
387,111,159116,2,0,L|391:25,1,78.7500030040742,8|0,0:0|0:0,0:0:0:0:
334,196,159330,5,2,0:0:0:0:
334,196,159437,1,0,0:0:0:0:
260,129,159544,2,0,L|264:43,1,78.7500030040742,8|0,0:0|0:0,0:0:0:0:
178,98,159759,6,0,B|71:107|71:107|39:152,1,157.500006008148,2|8,0:0|0:0,0:0:0:0:
13,225,160080,1,0,0:0:0:0:
115,186,160187,2,0,L|197:179,1,78.7500030040742,2|0,0:0|0:0,0:0:0:0:
85,341,160402,2,0,L|3:334,1,78.7500030040742,8|0,0:0|0:0,0:0:0:0:
162,275,160616,5,2,0:0:0:0:
162,275,160723,1,0,0:0:0:0:
193,179,160830,2,0,L|212:85,1,78.7500030040742,8|0,0:0|0:0,0:0:0:0:
269,245,161045,5,2,0:0:0:0:
269,245,161152,1,0,0:0:0:0:
300,149,161259,2,0,L|319:55,1,78.7500030040742,8|0,0:0|0:0,0:0:0:0:
362,223,161473,6,0,B|466:215|466:215|510:258,1,157.500006008148,2|8,0:0|0:0,0:0:0:0:
437,296,161795,1,0,0:0:0:0:
430,141,161902,2,0,L|340:148,1,78.7500030040742,2|0,0:0|0:0,0:0:0:0:
235,276,162116,2,0,L|325:283,1,78.7500030040742,8|0,0:0|0:0,0:0:0:0:
234,157,162330,5,2,0:0:0:0:
234,157,162437,1,0,0:0:0:0:
165,228,162545,2,0,L|157:326,1,78.7500030040742,8|0,0:0|0:0,0:0:0:0:
109,145,162759,5,2,0:0:0:0:
109,145,162866,1,0,0:0:0:0:
40,216,162974,2,0,L|32:314,1,78.7500030040742,8|0,0:0|0:0,0:0:0:0:
158,306,163187,6,0,P|203:282|300:336,1,157.500006008148,2|8,0:0|0:0,0:0:0:0:
220,365,163509,2,0,P|208:321|288:237,1,157.500006008148
347,216,163830,1,8,0:0:0:0:
367,291,163937,1,0,0:0:0:0:
293,322,164045,6,0,P|248:323|204:288,1,78.7500030040742,2|0,0:0|0:0,0:0:0:0:
251,157,164259,2,0,P|296:156|340:191,1,78.7500030040742,8|0,0:0|0:0,0:0:0:0:
170,365,164473,2,0,P|146:326|154:270,1,78.7500030040742,2|0,0:0|0:0,0:0:0:0:
227,85,164687,2,0,P|250:123|242:179,1,78.7500030040742,8|0,0:0|0:0,0:0:0:0:
142,182,164902,6,0,B|35:166|35:166|12:112,1,157.500006008148,2|8,0:0|0:0,0:0:0:0:
7,38,165223,1,0,0:0:0:0:
91,92,165330,2,0,L|181:105,1,78.7500030040742,2|0,0:0|0:0,0:0:0:0:
270,237,165545,2,0,L|180:250,1,78.7500030040742,8|0,0:0|0:0,0:0:0:0:
115,296,165759,5,2,0:0:0:0:
115,296,165866,1,0,0:0:0:0:
192,248,165973,2,0,L|182:154,1,78.7500030040742,8|0,0:0|0:0,0:0:0:0:
251,309,166187,5,2,0:0:0:0:
251,309,166294,1,0,0:0:0:0:
328,261,166401,2,0,L|318:167,1,78.7500030040742,8|0,0:0|0:0,0:0:0:0:
260,79,166616,6,0,B|155:84|155:84|103:122,1,157.500006008148,2|8,0:0|0:0,0:0:0:0:
56,183,166937,1,0,0:0:0:0:
183,169,167045,2,0,L|280:164,1,78.7500030040742,2|0,0:0|0:0,0:0:0:0:
90,268,167259,2,0,L|-7:263,1,78.7500030040742,8|0,0:0|0:0,0:0:0:0:
112,114,167473,5,2,0:0:0:0:
112,114,167580,1,0,0:0:0:0:
183,169,167687,2,0,L|189:266,1,78.7500030040742,8|0,0:0|0:0,0:0:0:0:
245,100,167902,5,2,0:0:0:0:
245,100,168009,1,0,0:0:0:0:
316,155,168116,2,0,L|322:252,1,78.7500030040742,8|0,0:0|0:0,0:0:0:0:
358,346,168331,5,2,3:2:0:0:
310,348,168437,1,0,3:0:0:0:
263,341,168544,1,0,3:0:0:0:
221,322,168651,1,0,3:0:0:0:
185,290,168759,1,2,3:2:0:0:
162,249,168865,1,0,3:0:0:0:
162,202,168972,1,0,3:0:0:0:
192,168,169080,1,0,3:0:0:0:
238,162,169187,5,2,3:2:0:0:
277,186,169294,1,0,3:0:0:0:
289,231,169401,1,0,3:0:0:0:
280,277,169508,1,0,3:0:0:0:
241,304,169615,1,2,3:2:0:0:
193,302,169722,1,0,3:0:0:0:
146,292,169830,1,0,3:0:0:0:
103,271,169937,1,0,3:0:0:0:
61,247,170045,6,0,L|19:222,7,39.3750015020371,0|0|0|0|0|0|0|0,3:0|3:0|3:0|3:0|3:0|3:0|3:0|3:0,3:0:0:0:
89,180,170473,2,0,L|65:137,7,39.3750015020371,0|0|0|0|0|0|0|0,3:0|3:0|3:0|3:0|3:0|3:0|3:0|3:0,3:0:0:0:
150,137,170902,2,0,L|138:89,7,39.3750015020371,0|0|0|0|0|0|0|0,3:0|3:0|3:0|3:0|3:0|3:0|3:0|3:0,3:0:0:0:
217,108,171330,2,0,L|217:58,7,39.3750015020371,0|0|0|0|0|0|0|0,3:0|3:0|3:0|3:0|3:0|3:0|3:0|3:0,3:0:0:0:
291,102,171759,5,2,0:0:0:0:
71,235,172080,1,2,0:0:0:0:
217,68,172402,1,2,0:0:0:0:
256,256,172616,1,2,0:0:0:0:
256,256,173473,6,0,B|179:330|54:226|114:106|251:127|199:214,1,315,4|0,0:0|0:0,0:0:0:0:
424,343,175187,6,0,B|359:364|295:321|295:321|231:364|164:345,1,262.5,2|0,0:0|0:0,0:0:0:0:
97,328,176473,1,2,0:0:0:0:
21,350,176687,1,2,0:0:0:0:
99,248,176902,6,0,P|131:227|251:233,1,157.5,2|2,0:0|0:0,0:0:0:0:
319,259,177759,2,0,P|359:195|170:65,1,367.5,2|0,0:0|0:0,0:0:0:0:
120,117,179473,5,2,0:0:0:0:
392,117,179902,1,2,0:0:0:0:
256,64,180330,2,0,B|235:145|235:145|276:227|276:227|256:329,1,262.5,2|0,0:0|0:0,0:0:0:0:
188,346,181616,1,2,0:0:0:0:
188,346,182045,5,2,0:0:0:0:
259,312,182259,1,2,0:0:0:0:
337,305,182473,1,2,0:0:0:0:
412,327,182687,1,2,0:0:0:0:
482,363,182902,2,2,P|490:326|476:282,1,78.75
406,192,183545,6,0,B|322:192|256:272|256:272|189:192|89:192,1,367.5,2|0,0:0|0:0,0:0:0:0:
256,160,185259,2,0,L|256:336,1,157.5
256,317,186116,1,0,0:0:0:0:
135,250,186330,5,2,0:0:0:0:
377,250,186759,1,2,0:0:0:0:
207,288,187187,6,0,P|256:173|304:288,1,315,2|2,0:0|0:0,0:0:0:0:
330,115,188902,2,2,P|253:95|177:115,1,157.5
179,114,190187,5,2,0:0:0:0:
105,88,190402,1,2,0:0:0:0:
116,165,190616,1,2,0:0:0:0:
163,42,190830,1,2,0:0:0:0:
44,136,191045,1,2,0:0:0:0:
188,192,191259,1,2,0:0:0:0:
75,53,191473,1,2,0:0:0:0:
101,205,191687,1,2,0:0:0:0:
222,110,192116,6,0,L|348:103,1,105,2|2,0:0|0:0,0:0:0:0:
394,63,192759,1,2,0:0:0:0:
400,141,192973,1,2,0:0:0:0:
326,104,193187,1,2,0:0:0:0:
332,182,193402,1,2,0:0:0:0:
332,182,193830,6,0,L|266:185,1,52.5,2|0,0:0|3:0,0:0:0:0:
254,175,194152,1,0,3:0:0:0:
239,152,194259,1,0,3:0:0:0:
221,134,194366,1,0,3:0:0:0:
199,119,194473,1,0,3:0:0:0:
175,109,194580,1,0,3:0:0:0:
150,104,194687,1,0,3:0:0:0:
123,104,194794,1,0,3:0:0:0:
98,109,194902,5,0,3:0:0:0:
114,130,195009,1,0,3:0:0:0:
126,153,195116,1,0,3:0:0:0:
133,178,195223,1,0,3:0:0:0:
135,204,195330,1,0,3:0:0:0:
133,230,195437,1,0,3:0:0:0:
126,255,195544,1,0,3:0:0:0:
114,279,195652,1,0,3:0:0:0:
98,299,195759,5,0,3:0:0:0:
128,310,195866,1,0,3:0:0:0:
161,314,195973,1,0,3:0:0:0:
194,307,196080,1,0,3:0:0:0:
223,291,196187,1,0,3:0:0:0:
244,267,196294,1,0,3:0:0:0:
254,235,196401,1,0,3:0:0:0:
242,205,196509,1,0,3:0:0:0:
214,190,196616,5,0,3:0:0:0:
181,196,196723,1,0,3:0:0:0:
161,221,196830,1,0,3:0:0:0:
162,253,196937,1,0,3:0:0:0:
180,281,197044,1,0,3:0:0:0:
205,302,197151,1,0,3:0:0:0:
234,320,197259,1,0,3:0:0:0:
264,333,197366,1,0,3:0:0:0:
297,342,197473,6,0,L|336:344,31,26.25,0|0|0|0|0|0|0|0|0|0|0|0|0|0|0|0|0|0|0|0|0|0|0|0|0|0|0|0|0|0|0|0,3:0|3:0|3:0|3:0|3:0|3:0|3:0|3:0|3:0|3:0|3:0|3:0|3:0|3:0|3:0|3:0|3:0|3:0|3:0|3:0|3:0|3:0|3:0|3:0|3:0|3:0|3:0|3:0|3:0|3:0|3:0|3:0,3:0:0:0:
292,298,199187,6,0,L|307:294,30,13.125,0|0|0|0|0|0|0|0|0|0|0|0|0|0|0|0|0|0|0|0|0|0|0|0|0|0|0|0|0|0|0,3:0|3:0|3:0|3:0|3:0|3:0|3:0|3:0|3:0|3:0|3:0|3:0|3:0|3:0|3:0|3:0|3:0|3:0|3:0|3:0|3:0|3:0|3:0|3:0|3:0|3:0|3:0|3:0|3:0|3:0|3:0,3:0:0:0:
262,272,200045,5,2,3:2:0:0:
262,272,200152,2,2,L|270:242,4,26.25,2|2|2|2|2,3:2|3:2|3:2|3:2|3:2,3:2:0:0:
220,271,200473,5,2,3:2:0:0:
169,259,200580,1,2,3:2:0:0:
127,228,200687,1,2,3:2:0:0:
100,183,200794,1,2,3:2:0:0:
92,132,200902,6,0,P|116:112|166:101,1,62.9999980773926,10|0,0:0|0:0,0:0:0:0:
258,68,201116,1,0,0:0:0:0:
304,150,201223,1,0,0:0:0:0:
281,241,201330,2,0,P|216:255|154:222,1,125.999996154785,8|0,0:0|0:0,0:0:0:0:
10,167,201652,1,0,0:0:0:0:
72,237,201759,2,0,L|77:378,1,125.999996154785,8|0,0:0|0:0,0:0:0:0:
201,163,202080,1,0,0:0:0:0:
201,163,202187,2,0,P|257:128|317:139,1,125.999996154785,8|0,0:0|0:0,0:0:0:0:
155,62,202616,6,0,L|75:57,1,62.9999980773926,8|0,0:0|0:0,0:0:0:0:
41,221,202830,2,0,L|121:216,1,62.9999980773926
271,214,203045,2,0,L|262:358,1,125.999996154785,8|0,0:0|0:0,0:0:0:0:
361,229,203366,1,0,0:0:0:0:
329,140,203473,2,0,P|279:119|199:153,1,125.999996154785,8|0,0:0|0:0,0:0:0:0:
53,236,203795,1,0,0:0:0:0:
143,263,203902,2,0,L|140:185,1,62.9999980773926,8|0,0:0|0:0,0:0:0:0:
17,85,204116,2,0,L|14:163,1,62.9999980773926,8|0,0:0|0:0,0:0:0:0:
20,354,204330,6,0,P|69:310|149:312,1,125.999996154785,8|0,0:0|0:0,0:0:0:0:
294,358,204652,1,0,0:0:0:0:
200,367,204759,2,0,L|208:226,1,125.999996154785,8|0,0:0|0:0,0:0:0:0:
149,50,205080,1,0,0:0:0:0:
224,106,205187,2,0,P|256:116|298:110,1,62.9999980773926,8|0,0:0|0:0,0:0:0:0:
336,297,205402,1,0,0:0:0:0:
379,213,205509,1,0,0:0:0:0:
284,216,205616,2,0,P|231:199|154:217,1,125.999996154785,8|0,0:0|0:0,0:0:0:0:
312,42,206045,6,0,L|400:31,1,62.9999980773926,8|0,0:0|0:0,0:0:0:0:
495,210,206259,2,0,L|407:199,1,62.9999980773926
254,170,206473,2,0,P|267:210|246:310,1,125.999996154785,8|0,0:0|0:0,0:0:0:0:
165,200,206795,1,0,0:0:0:0:
183,107,206902,2,0,P|224:80|314:100,1,125.999996154785,8|0,0:0|0:0,0:0:0:0:
472,145,207223,1,0,0:0:0:0:
377,140,207330,2,0,L|375:60,1,62.9999980773926,8|0,0:0|0:0,0:0:0:0:
254,36,207545,5,8,0:0:0:0:
282,158,207652,1,8,0:0:0:0:
183,107,207759,6,0,L|109:103,1,62.9999980773926,8|0,0:0|0:0,0:0:0:0:
32,21,207973,1,0,0:0:0:0:
3,110,208080,1,0,0:0:0:0:
54,189,208187,2,0,P|119:179|183:219,1,125.999996154785,8|0,0:0|0:0,0:0:0:0:
356,274,208509,1,0,0:0:0:0:
263,292,208616,2,0,L|278:158,1,125.999996154785,8|0,0:0|0:0,0:0:0:0:
347,48,208937,1,0,0:0:0:0:
347,48,209045,2,0,P|386:71|476:61,1,125.999996154785,8|0,0:0|0:0,0:0:0:0:
193,45,209473,6,0,L|122:36,1,62.9999980773926,8|0,0:0|0:0,0:0:0:0:
38,193,209687,2,0,L|109:184,1,62.9999980773926
239,179,209902,2,0,L|230:325,1,125.999996154785,8|0,0:0|0:0,0:0:0:0:
328,212,210223,1,0,0:0:0:0:
314,118,210330,2,0,P|279:91|188:98,1,125.999996154785,8|0,0:0|0:0,0:0:0:0:
37,134,210652,1,0,0:0:0:0:
128,155,210759,2,0,L|124:90,1,62.9999980773926,8|0,0:0|0:0,0:0:0:0:
7,222,210973,2,0,L|3:287,1,62.9999980773926,8|0,0:0|0:0,0:0:0:0:
118,352,211187,6,0,P|176:319|251:328,1,125.999996154785,8|0,0:0|0:0,0:0:0:0:
403,309,211509,1,0,0:0:0:0:
322,357,211616,2,0,P|310:322|339:239,1,125.999996154785,8|0,0:0|0:0,0:0:0:0:
406,96,211937,1,0,0:0:0:0:
324,145,212045,2,0,L|242:150,1,62.9999980773926,8|0,0:0|0:0,0:0:0:0:
166,300,212259,1,0,0:0:0:0:
250,342,212366,1,0,0:0:0:0:
246,247,212473,2,0,P|263:218|259:114,1,125.999996154785,8|0,0:0|0:0,0:0:0:0:
97,237,212795,1,0,0:0:0:0:
166,300,212902,6,0,L|296:292,1,125.999996154785,8|0,0:0|0:0,0:0:0:0:
347,132,213223,1,0,0:0:0:0:
357,225,213330,2,0,P|321:224|285:198,1,62.9999980773926,8|0,0:0|0:0,0:0:0:0:
189,146,213545,1,8,0:0:0:0:
272,98,213652,1,8,0:0:0:0:
109,172,213759,2,0,P|105:134|118:99,1,62.9999980773926,8|0,0:0|0:0,0:0:0:0:
349,70,213973,2,0,P|353:108|340:143,1,62.9999980773926,8|0,0:0|0:0,0:0:0:0:
207,272,214187,5,8,0:0:0:0:
153,229,214295,1,8,0:0:0:0:
177,163,214402,1,8,0:0:0:0:
245,169,214509,1,8,0:0:0:0:
266,235,214616,6,0,P|311:261|383:252,1,115.50000352478,2|8,0:0|0:0,0:0:0:0:
498,212,214937,1,0,0:0:0:0:
444,188,215045,2,0,L|448:326,1,115.50000352478,2|8,0:0|0:0,0:0:0:0:
333,344,215366,1,0,0:0:0:0:
333,344,215473,2,0,P|266:319|213:329,1,115.50000352478,2|8,0:0|0:0,0:0:0:0:
73,354,215795,1,0,0:0:0:0:
129,342,215902,2,0,L|125:265,1,57.7500017623902,2|0,0:0|0:0,0:0:0:0:
35,140,216116,2,0,L|39:218,1,57.7500017623902,8|0,0:0|0:0,0:0:0:0:
148,174,216330,6,0,P|194:152|274:162,1,115.50000352478,2|8,0:0|0:0,0:0:0:0:
386,180,216652,1,0,0:0:0:0:
332,157,216759,2,0,L|331:237,1,57.7500017623902,2|0,0:0|0:0,0:0:0:0:
234,300,216973,1,8,0:0:0:0:
249,244,217080,1,0,0:0:0:0:
193,258,217187,2,0,P|123:260|77:232,1,115.50000352478,2|8,0:0|0:0,0:0:0:0:
53,96,217509,1,0,0:0:0:0:
36,151,217616,2,0,L|113:154,1,57.7500017623902,2|0,0:0|0:0,0:0:0:0:
234,62,217830,2,0,L|157:65,1,57.7500017623902,10|0,0:0|0:0,0:0:0:0:
209,179,218045,6,0,P|263:154|332:170,1,115.50000352478,2|8,0:0|0:0,0:0:0:0:
204,264,218366,1,0,0:0:0:0:
149,244,218473,2,0,P|121:192|138:130,1,115.50000352478,2|8,0:0|0:0,0:0:0:0:
177,24,218795,1,0,0:0:0:0:
138,66,218902,2,0,L|65:63,1,57.7500017623902,2|0,0:0|0:0,0:0:0:0:
209,179,219116,2,0,L|282:176,1,57.7500017623902,8|0,0:0|0:0,0:0:0:0:
376,45,219330,2,0,P|354:86|369:159,1,115.50000352478,2|8,0:0|0:0,0:0:0:0:
232,316,219759,6,0,L|228:250,1,57.7500017623902,2|0,0:0|0:0,0:0:0:0:
172,68,219973,2,0,L|168:134,1,57.7500017623902,8|0,0:0|0:0,0:0:0:0:
318,189,220187,2,0,L|460:179,1,115.50000352478,2|8,0:0|0:0,0:0:0:0:
253,129,220509,1,0,0:0:0:0:
235,184,220616,2,0,P|254:248|311:271,1,115.50000352478,2|8,0:0|0:0,0:0:0:0:
439,291,220937,1,2,0:0:0:0:
383,272,221045,2,0,L|380:344,1,57.7500017623902
463,154,221259,2,0,L|460:82,1,57.7500017623902,10|0,0:0|0:0,0:0:0:0:
339,52,221473,5,6,0:0:0:0:
316,69,221580,1,2,0:0:0:0:
290,83,221687,1,2,0:0:0:0:
263,93,221794,1,2,0:0:0:0:
235,98,221901,1,2,0:0:0:0:
206,98,222008,1,2,0:0:0:0:
177,94,222115,1,2,0:0:0:0:
150,85,222223,1,2,0:0:0:0:
102,117,222330,5,6,0:0:0:0:
112,143,222437,1,2,0:0:0:0:
116,172,222544,1,2,0:0:0:0:
113,200,222651,1,2,0:0:0:0:
106,228,222758,1,2,0:0:0:0:
99,256,222865,1,2,0:0:0:0:
99,285,222972,1,2,0:0:0:0:
108,313,223080,1,2,0:0:0:0:
156,280,223187,5,6,0:0:0:0:
180,266,223294,1,2,0:0:0:0:
208,261,223401,1,2,0:0:0:0:
237,263,223508,1,2,0:0:0:0:
263,275,223615,1,2,0:0:0:0:
283,295,223722,1,2,0:0:0:0:
288,323,223829,1,2,0:0:0:0:
274,348,223937,1,2,0:0:0:0:
220,325,224044,5,6,0:0:0:0:
192,320,224151,1,2,0:0:0:0:
172,300,224258,1,2,0:0:0:0:
170,272,224365,1,2,0:0:0:0:
183,246,224472,1,2,0:0:0:0:
204,226,224579,1,2,0:0:0:0:
230,215,224687,1,2,0:0:0:0:
258,214,224794,1,2,0:0:0:0:
312,193,224902,6,0,L|351:199,31,28.8750008811951,0|0|0|0|0|0|0|0|0|0|0|0|0|0|0|0|0|0|0|0|0|0|0|0|0|0|0|0|0|0|0|0,3:0|3:0|3:0|3:0|3:0|3:0|3:0|3:0|3:0|3:0|3:0|3:0|3:0|3:0|3:0|3:0|3:0|3:0|3:0|3:0|3:0|3:0|3:0|3:0|3:0|3:0|3:0|3:0|3:0|3:0|3:0|3:0,3:0:0:0:
335,113,226616,6,0,B|280:58|117:58|226:167|63:167|9:113,1,346.500010574341,2|0,0:0|0:0,0:0:0:0:
91,58,227473,1,2,0:0:0:0:
91,58,227580,1,2,0:0:0:0:
256,288,227795,1,2,0:0:0:0:
256,288,228116,1,2,0:0:0:0:
271,172,228330,6,0,B|303:134|303:134|425:124,1,157.500006008148,2|8,0:0|0:0,0:0:0:0:
391,202,228652,1,0,0:0:0:0:
383,51,228759,2,0,L|296:58,1,78.7500030040742,2|0,0:0|0:0,0:0:0:0:
312,265,228973,2,0,L|225:258,1,78.7500030040742,8|0,0:0|0:0,0:0:0:0:
197,130,229187,2,0,B|134:127|134:127|107:137|107:137|31:135,1,157.500006008148,2|8,0:0|0:0,0:0:0:0:
91,57,229509,1,0,0:0:0:0:
148,209,229616,2,0,B|257:214|257:214|311:262,1,157.500006008148,2|8,0:0|0:0,0:0:0:0:
299,331,229937,1,0,0:0:0:0:
224,294,230045,6,0,L|145:289,1,78.7500030040742,2|0,0:0|0:0,0:0:0:0:
159,128,230259,2,0,L|237:132,1,78.7500030040742,8|0,0:0|0:0,0:0:0:0:
370,34,230473,2,0,B|346:139|346:139|395:192,1,157.500006008148,2|8,0:0|0:0,0:0:0:0:
434,115,230795,1,0,0:0:0:0:
277,82,230902,2,0,L|256:182,1,78.7500030040742,2|0,0:0|0:0,0:0:0:0:
387,307,231116,2,0,L|366:207,1,78.7500030040742,8|0,0:0|0:0,0:0:0:0:
399,154,231330,1,2,0:0:0:0:
292,232,231437,2,0,B|318:353|318:353|364:382,1,157.500006008148
387,307,231759,6,0,B|361:186|361:186|315:157,1,157.500006008148,2|8,0:0|0:0,0:0:0:0:
292,232,232080,1,0,0:0:0:0:
444,204,232187,2,0,L|460:281,1,78.7500030040742,2|0,0:0|0:0,0:0:0:0:
350,349,232402,1,8,0:0:0:0:
350,349,232509,1,0,0:0:0:0:
332,168,232616,2,0,B|272:153|272:153|241:157|241:157|165:138,1,157.500006008148,2|8,0:0|0:0,0:0:0:0:
245,77,232937,1,0,0:0:0:0:
268,234,233045,2,0,L|349:254,1,78.7500030040742,2|0,0:0|0:0,0:0:0:0:
102,160,233259,2,0,L|183:140,1,78.7500030040742,8|0,0:0|0:0,0:0:0:0:
421,113,233473,6,0,P|391:156|282:149,1,157.500006008148,2|8,0:0|0:0,0:0:0:0:
342,89,233795,2,0,P|376:137|322:237,1,157.500006008148
268,234,234116,1,8,0:0:0:0:
214,176,234223,1,0,0:0:0:0:
293,158,234330,2,0,P|332:141|426:197,1,157.500006008148,2|8,0:0|0:0,0:0:0:0:
408,270,234652,1,0,0:0:0:0:
346,223,234759,2,0,P|343:170|429:108,1,157.500006008148,2|8,0:0|0:0,0:0:0:0:
424,193,235080,1,0,0:0:0:0:
356,51,235187,6,0,B|249:39|249:39|199:67,1,157.500006008148,2|8,0:0|0:0,0:0:0:0:
138,111,235509,1,0,0:0:0:0:
266,120,235616,2,0,L|351:129,1,78.7500030040742,2|0,0:0|0:0,0:0:0:0:
437,87,235830,1,8,0:0:0:0:
437,87,235937,1,0,0:0:0:0:
342,209,236045,2,0,B|220:195|220:195|194:160,1,157.500006008148,2|8,0:0|0:0,0:0:0:0:
266,120,236366,1,0,0:0:0:0:
249,277,236473,2,0,B|366:291|366:291|407:260,1,157.500006008148,2|8,0:0|0:0,0:0:0:0:
419,190,236795,1,0,0:0:0:0:
342,209,236902,6,0,B|225:195|225:195|184:226,1,157.500006008148,2|8,0:0|0:0,0:0:0:0:
249,277,237223,1,0,0:0:0:0:
266,120,237330,2,0,B|383:134|383:134|424:103,1,157.500006008148,2|8,0:0|0:0,0:0:0:0:
358,52,237652,1,0,0:0:0:0:
342,209,237759,2,0,B|337:273|337:273|353:302|353:302|349:370,1,157.500006008148,2|8,0:0|0:0,0:0:0:0:
274,322,238080,1,0,0:0:0:0:
417,255,238187,2,0,B|421:192|421:192|410:169|410:169|416:77,1,157.500006008148,2|8,0:0|0:0,0:0:0:0:
489,153,238509,1,0,0:0:0:0:
342,209,238616,6,0,B|228:200|228:200|186:144,1,157.500006008148,2|8,0:0|0:0,0:0:0:0:
270,126,238937,1,0,0:0:0:0:
250,277,239045,2,0,B|188:272|188:272|173:253|173:253|93:245,1,157.500006008148,2|8,0:0|0:0,0:0:0:0:
134,322,239366,1,0,0:0:0:0:
184,172,239473,2,0,L|106:165,1,78.7500030040742,2|0,0:0|0:0,0:0:0:0:
328,269,239687,2,0,L|228:279,1,78.7500030040742,8|0,0:0|0:0,0:0:0:0:
276,89,239902,2,0,L|459:107,1,157.500006008148,2|8,0:0|0:0,0:0:0:0:
389,19,240223,1,0,0:0:0:0:
367,180,240330,6,0,B|246:168|246:168|212:197,1,157.500006008148,2|8,0:0|0:0,0:0:0:0:
273,252,240652,1,0,0:0:0:0:
276,89,240759,2,0,B|223:86|223:86|192:107|192:107|105:101,1,157.500006008148,2|8,0:0|0:0,0:0:0:0:
170,26,241080,1,2,0:0:0:0:
148,188,241187,6,0,L|142:284,1,78.7500030040742,2|0,0:0|0:0,0:0:0:0:
364,188,241402,2,0,L|370:284,1,78.7500030040742,8|2,0:0|0:0,0:0:0:0:
99,274,241616,2,0,L|118:368,1,78.7500030040742,2|0,0:0|0:0,0:0:0:0:
413,274,241830,2,0,L|393:368,1,78.7500030040742,10|0,0:0|0:0,0:0:0:0:
256,272,242045,6,0,L|256:112,1,157.500006008148,2|8,0:0|0:0,0:0:0:0:
328,40,242366,1,0,0:0:0:0:
364,187,242473,2,0,L|453:196,1,78.7500030040742,2|0,0:0|0:0,0:0:0:0:
493,31,242687,2,0,L|404:40,1,78.7500030040742,8|0,0:0|0:0,0:0:0:0:
364,187,242902,5,2,0:0:0:0:
364,187,243009,1,0,0:0:0:0:
301,100,243116,2,0,L|306:9,1,78.7500030040742,8|0,0:0|0:0,0:0:0:0:
240,183,243330,5,2,0:0:0:0:
240,183,243437,1,0,0:0:0:0:
177,96,243544,2,0,L|182:5,1,78.7500030040742,8|0,0:0|0:0,0:0:0:0:
19,174,243759,6,0,B|125:188|125:188|156:236,1,157.500006008148,2|8,0:0|0:0,0:0:0:0:
78,261,244080,1,0,0:0:0:0:
101,106,244187,2,0,L|11:95,1,78.7500030040742,2|0,0:0|0:0,0:0:0:0:
10,347,244402,2,0,L|100:336,1,78.7500030040742,8|0,0:0|0:0,0:0:0:0:
130,208,244616,5,2,0:0:0:0:
130,208,244723,1,0,0:0:0:0:
176,294,244830,2,0,L|173:380,1,78.7500030040742,8|0,0:0|0:0,0:0:0:0:
227,208,245045,5,2,0:0:0:0:
227,208,245152,1,0,0:0:0:0:
273,294,245259,2,0,L|270:380,1,78.7500030040742,8|0,0:0|0:0,0:0:0:0:
354,238,245473,6,0,B|464:233|464:233|490:178,1,157.500006008148,2|8,0:0|0:0,0:0:0:0:
448,87,245795,1,0,0:0:0:0:
414,157,245902,2,0,L|328:161,1,78.7500030040742,2|0,0:0|0:0,0:0:0:0:
377,314,246116,2,0,L|455:310,1,78.7500030040742,8|0,0:0|0:0,0:0:0:0:
335,160,246330,5,2,0:0:0:0:
335,160,246437,1,0,0:0:0:0:
283,257,246545,2,0,L|279:351,1,78.7500030040742,8|0,0:0|0:0,0:0:0:0:
232,159,246759,5,2,0:0:0:0:
232,159,246866,1,0,0:0:0:0:
180,256,246974,2,0,L|176:350,1,78.7500030040742,8|0,0:0|0:0,0:0:0:0:
279,335,247187,6,0,P|317:296|422:325,1,157.500006008148,2|8,0:0|0:0,0:0:0:0:
353,372,247509,2,0,P|329:312|378:234,1,157.500006008148
447,210,247830,1,8,0:0:0:0:
482,279,247937,1,0,0:0:0:0:
412,311,248045,6,0,P|369:319|314:298,1,78.7500030040742,2|0,0:0|0:0,0:0:0:0:
409,144,248259,2,0,P|447:135|485:144,1,78.7500030040742,8|0,0:0|0:0,0:0:0:0:
262,348,248473,2,0,P|253:310|274:259,1,78.7500030040742,2|0,0:0|0:0,0:0:0:0:
408,68,248687,2,0,P|418:105|409:143,1,78.7500030040742,8|0,0:0|0:0,0:0:0:0:
298,164,248902,6,0,B|187:155|187:155|155:98,1,157.500006008148,2|8,0:0|0:0,0:0:0:0:
236,81,249223,1,0,0:0:0:0:
296,240,249330,2,0,L|218:234,1,78.7500030040742,2|0,0:0|0:0,0:0:0:0:
164,114,249545,2,0,L|76:121,1,78.7500030040742,8|0,0:0|0:0,0:0:0:0:
18,267,249759,5,2,0:0:0:0:
18,267,249866,1,0,0:0:0:0:
91,198,249973,2,0,L|83:101,1,78.7500030040742,8|0,0:0|0:0,0:0:0:0:
159,271,250187,5,2,0:0:0:0:
159,271,250294,1,0,0:0:0:0:
232,202,250401,2,0,L|224:105,1,78.7500030040742,8|0,0:0|0:0,0:0:0:0:
315,66,250616,6,0,B|355:102|355:102|465:97,1,157.500006008148,2|8,0:0|0:0,0:0:0:0:
489,166,250937,1,0,0:0:0:0:
462,22,251045,2,0,L|381:26,1,78.7500030040742,2|0,0:0|0:0,0:0:0:0:
316,178,251259,2,0,L|397:182,1,78.7500030040742,8|0,0:0|0:0,0:0:0:0:
248,254,251473,5,2,0:0:0:0:
248,254,251580,1,0,0:0:0:0:
222,156,251687,2,0,L|230:60,1,78.7500030040742,8|0,0:0|0:0,0:0:0:0:
148,224,251902,5,2,0:0:0:0:
148,224,252009,1,0,0:0:0:0:
122,126,252116,2,0,L|130:30,1,78.7500030040742,8|0,0:0|0:0,0:0:0:0:
228,77,252330,5,2,3:2:0:0:
260,99,252437,1,0,3:0:0:0:
296,114,252544,1,0,3:0:0:0:
335,120,252651,1,0,3:0:0:0:
374,117,252758,1,2,3:2:0:0:
412,105,252865,1,0,3:0:0:0:
445,85,252972,1,0,3:0:0:0:
474,58,253080,1,0,3:0:0:0:
495,25,253187,5,2,3:2:0:0:
456,22,253294,1,0,3:0:0:0:
418,30,253401,1,0,3:0:0:0:
383,49,253508,1,0,3:0:0:0:
356,76,253615,1,2,3:2:0:0:
337,111,253722,1,0,3:0:0:0:
329,149,253829,1,0,3:0:0:0:
332,188,253937,1,0,3:0:0:0:
346,225,254045,6,0,L|359:266,7,39.3750015020371,0|0|0|0|0|0|0|0,3:0|3:0|3:0|3:0|3:0|3:0|3:0|3:0,3:0:0:0:
279,172,254473,2,0,L|266:131,7,39.3750015020371,0|0|0|0|0|0|0|0,3:0|3:0|3:0|3:0|3:0|3:0|3:0|3:0,3:0:0:0:
260,255,254902,2,0,L|273:296,7,39.3750015020371,0|0|0|0|0|0|0|0,3:0|3:0|3:0|3:0|3:0|3:0|3:0|3:0,3:0:0:0:
193,202,255330,2,0,L|180:161,7,39.3750015020371,0|0|0|0|0|0|0|0,3:0|3:0|3:0|3:0|3:0|3:0|3:0|3:0,3:0:0:0:
159,283,255759,6,0,B|57:277,1,78.7500030040742,2|0,0:0|0:0,0:0:0:0:
51,125,255973,1,8,0:0:0:0:
90,39,256080,1,0,0:0:0:0:
181,15,256187,2,0,P|249:13|324:66,1,157.500006008148,2|8,0:0|0:0,0:0:0:0:
480,167,256509,1,0,0:0:0:0:
404,223,256616,2,0,L|412:54,1,157.500006008148,2|8,0:0|0:0,0:0:0:0:
288,192,256937,1,0,0:0:0:0:
288,192,257045,2,0,P|258:233|147:220,1,157.500006008148,2|8,0:0|0:0,0:0:0:0:
318,327,257473,6,0,L|401:334,1,78.7500030040742,2|0,0:0|0:0,0:0:0:0:
475,149,257687,2,0,L|392:156,1,78.7500030040742,8|0,0:0|0:0,0:0:0:0:
212,165,257902,2,0,L|224:8,1,157.500006008148,2|8,0:0|0:0,0:0:0:0:
120,135,258223,1,0,0:0:0:0:
141,226,258330,2,0,P|196:258|290:212,1,157.500006008148,2|8,0:0|0:0,0:0:0:0:
451,136,258652,1,0,0:0:0:0:
361,105,258759,2,0,L|369:273,1,157.500006008148,2|8,0:0|0:0,0:0:0:0:
184,329,259187,6,0,L|188:244,1,78.7500030040742,2|0,0:0|0:0,0:0:0:0:
182,33,259402,1,8,0:0:0:0:
121,105,259509,1,0,0:0:0:0:
214,120,259616,2,0,P|266:103|362:154,1,157.500006008148,2|8,0:0|0:0,0:0:0:0:
371,297,259937,1,0,0:0:0:0:
447,240,260045,2,0,L|278:244,1,157.500006008148,2|8,0:0|0:0,0:0:0:0:
177,124,260366,1,0,0:0:0:0:
117,197,260473,2,0,P|155:217|201:215,1,78.7500030040742,2|0,0:0|0:0,0:0:0:0:
330,95,260687,2,0,P|292:75|246:77,1,78.7500030040742,8|0,0:0|0:0,0:0:0:0:
297,181,260902,6,0,P|368:178|420:102,1,157.500006008148,2|8,0:0|0:0,0:0:0:0:
330,95,261223,2,0,P|334:148|426:204,1,157.500006008148
492,219,261545,1,8,0:0:0:0:
491,140,261652,1,0,0:0:0:0:
418,113,261759,6,0,P|371:124|331:160,1,78.7500030040742,2|0,0:0|0:0,0:0:0:0:
366,307,261973,2,0,P|413:296|453:260,1,78.7500030040742,8|0,0:0|0:0,0:0:0:0:
285,89,262187,2,0,P|266:137|276:176,1,78.7500030040742,2|0,0:0|0:0,0:0:0:0:
381,380,262402,2,0,P|383:341|365:306,1,78.7500030040742,8|0,0:0|0:0,0:0:0:0:
270,162,262616,6,0,P|205:143|118:191,1,157.500006008148,2|8,0:0|0:0,0:0:0:0:
7,268,262937,1,0,0:0:0:0:
84,322,263045,2,0,L|82:236,1,78.7500030040742,2|0,0:0|0:0,0:0:0:0:
61,38,263259,1,8,0:0:0:0:
24,125,263366,1,0,0:0:0:0:
117,113,263473,2,0,P|159:90|267:99,1,157.500006008148,2|8,0:0|0:0,0:0:0:0:
399,65,263795,1,0,0:0:0:0:
399,65,263902,2,0,L|403:227,1,157.500006008148,2|8,0:0|0:0,0:0:0:0:
296,347,264330,6,0,P|307:309|294:254,1,78.7500030040742,2|0,0:0|0:0,0:0:0:0:
171,149,264545,2,0,P|160:187|173:242,1,78.7500030040742,8|0,0:0|0:0,0:0:0:0:
252,102,264759,2,0,P|212:63|106:80,1,157.500006008148,2|8,0:0|0:0,0:0:0:0:
55,257,265080,1,0,0:0:0:0:
12,172,265187,2,0,L|121:186,1,78.7500030040742,2|0,0:0|0:0,0:0:0:0:
252,102,265402,6,0,L|240:201,1,78.7500030040742,8|0,0:0|0:0,0:0:0:0:
318,370,265616,2,0,L|255:322,1,78.7500030040742,2|0,0:0|0:0,0:0:0:0:
54,294,265830,2,0,L|126:263,1,78.7500030040742,8|0,0:0|0:0,0:0:0:0:
242,180,266045,6,0,P|284:218|395:222,1,157.500006008148,2|8,0:0|0:0,0:0:0:0:
443,33,266366,1,0,0:0:0:0:
488,115,266473,2,0,L|310:98,1,157.500006008148,2|8,0:0|0:0,0:0:0:0:
154,70,266795,1,0,0:0:0:0:
246,53,266902,2,0,P|244:97|213:143,1,78.7500030040742,2|0,0:0|0:0,0:0:0:0:
286,277,267116,2,0,P|288:233|319:187,1,78.7500030040742,8|0,0:0|0:0,0:0:0:0:
201,231,267330,2,0,P|152:245|46:185,1,157.500006008148,2|8,0:0|0:0,0:0:0:0:
284,353,267759,6,0,L|380:368,1,78.7500030040742,2|0,0:0|0:0,0:0:0:0:
494,201,267973,2,0,L|398:216,1,78.7500030040742,8|0,0:0|0:0,0:0:0:0:
262,195,268187,2,0,P|284:159|266:39,1,157.500006008148,2|8,0:0|0:0,0:0:0:0:
146,168,268509,1,0,0:0:0:0:
188,252,268616,2,0,P|220:280|339:246,1,157.500006008148,2|8,0:0|0:0,0:0:0:0:
482,173,268937,1,0,0:0:0:0:
398,126,269045,2,0,L|403:224,1,78.7500030040742,2|0,0:0|0:0,0:0:0:0:
353,355,269259,1,8,0:0:0:0:
325,263,269366,1,0,0:0:0:0:
261,332,269473,6,0,P|215:339|170:329,1,78.7500030040742,2|0,0:0|0:0,0:0:0:0:
291,180,269687,2,0,P|329:174|368:181,1,78.7500030040742,8|0,0:0|0:0,0:0:0:0:
219,244,269902,2,0,P|196:180|256:91,1,157.500006008148,2|8,0:0|0:0,0:0:0:0:
412,90,270223,1,0,0:0:0:0:
336,33,270330,2,0,L|344:202,1,157.500006008148,2|8,0:0|0:0,0:0:0:0:
438,350,270652,1,0,0:0:0:0:
489,270,270759,2,0,P|437:256|348:322,1,157.500006008148,2|8,0:0|0:0,0:0:0:0:
65,302,271187,6,0,L|72:214,1,78.7500030040742,2|0,0:0|0:0,0:0:0:0:
212,116,271402,1,8,0:0:0:0:
259,197,271509,1,0,0:0:0:0:
307,116,271616,2,0,P|359:104|450:164,1,157.500006008148,2|8,0:0|0:0,0:0:0:0:
334,256,271937,1,0,0:0:0:0:
259,197,272045,2,0,L|266:31,1,157.500006008148,2|8,0:0|0:0,0:0:0:0:
65,59,272366,1,0,0:0:0:0:
151,21,272473,2,0,P|155:83|90:150,1,157.500006008148,2|8,0:0|0:0,0:0:0:0:
252,120,272902,6,0,L|344:115,1,78.7500030040742,2|0,0:0|0:0,0:0:0:0:
117,239,273116,2,0,L|25:234,1,78.7500030040742,8|0,0:0|0:0,0:0:0:0:
230,361,273330,2,0,P|248:307|206:205,1,157.500006008148,2|8,0:0|0:0,0:0:0:0:
176,64,273652,1,0,0:0:0:0:
120,140,273759,2,0,L|303:128,1,157.500006008148,2|8,0:0|0:0,0:0:0:0:
438,219,274080,1,0,0:0:0:0:
357,267,274187,2,0,P|344:219|350:180,1,78.7500030040742,2|0,0:0|0:0,0:0:0:0:
158,230,274402,1,8,0:0:0:0:
96,301,274509,1,0,0:0:0:0:
188,318,274616,6,0,P|226:291|233:177,1,157.500006008148,2|8,0:0|0:0,0:0:0:0:
194,29,274937,1,0,0:0:0:0:
145,110,275045,2,0,L|307:97,1,157.500006008148,2|8,0:0|0:0,0:0:0:0:
492,65,275366,1,0,0:0:0:0:
405,27,275473,2,0,P|398:82|474:160,1,157.500006008148,2|8,0:0|0:0,0:0:0:0:
466,329,275795,1,0,0:0:0:0:
397,263,275902,2,0,P|357:255|312:269,1,78.7500030040742,2|0,0:0|0:0,0:0:0:0:
153,350,276116,1,10,0:0:0:0:
183,260,276223,1,0,0:0:0:0:
90,280,276330,6,0,P|73:246|90:187,1,78.7500030040742,2|0,0:0|0:0,0:0:0:0:
234,114,276545,2,0,P|251:148|234:207,1,78.7500030040742,8|0,0:0|0:0,0:0:0:0:
151,91,276759,2,0,P|174:50|281:44,1,157.500006008148,2|8,0:0|0:0,0:0:0:0:
443,104,277080,1,0,0:0:0:0:
367,47,277187,2,0,L|376:217,1,157.500006008148,2|8,0:0|0:0,0:0:0:0:
285,351,277509,1,0,0:0:0:0:
240,267,277616,2,0,P|181:244|89:276,1,157.500006008148,2|8,0:0|0:0,0:0:0:0:
384,282,278045,6,0,L|374:193,1,78.7500030040742,2|0,0:0|0:0,0:0:0:0:
253,95,278259,1,8,0:0:0:0:
210,179,278366,1,0,0:0:0:0:
159,99,278473,2,0,P|117:79|6:112,1,157.500006008148,2|8,0:0|0:0,0:0:0:0:
126,213,278795,1,0,0:0:0:0:
210,179,278902,2,0,L|205:13,1,157.500006008148,2|8,0:0|0:0,0:0:0:0:
316,175,279223,1,0,0:0:0:0:
266,255,279330,2,0,P|230:274|169:261,1,78.7500030040742,2|0,0:0|0:0,0:0:0:0:
80,99,279545,1,8,0:0:0:0:
47,187,279652,1,0,0:0:0:0:
140,172,279759,6,0,L|187:170,7,39.3750015020371,0|0|0|0|0|0|0|0,3:0|3:0|3:0|3:0|3:0|3:0|3:0|3:0,3:0:0:0:
219,236,280187,2,0,L|266:238,7,39.3750015020371,0|0|0|0|0|0|0|0,3:0|3:0|3:0|3:0|3:0|3:0|3:0|3:0,3:0:0:0:
305,174,280616,2,0,L|352:172,7,39.3750015020371,0|0|0|0|0|0|0|0,3:0|3:0|3:0|3:0|3:0|3:0|3:0|3:0,3:0:0:0:
384,238,281044,2,0,L|431:240,7,39.3750015020371,0|0|0|0|0|0|0|0,3:0|3:0|3:0|3:0|3:0|3:0|3:0|3:0,3:0:0:0:
256,192,281473,12,0,282973,0:0:0:0:
67,87,283187,6,0,P|97:112|169:119,1,105,2|0,0:0|0:0,0:0:0:0:
237,99,283509,1,0,0:0:0:0:
272,168,283616,2,0,L|269:233,1,52.5,10|0,0:0|0:0,0:0:0:0:
287,328,283830,1,0,0:0:0:0:
334,265,283937,1,0,0:0:0:0:
363,338,284045,2,0,P|419:350|475:328,1,105,2|0,0:0|0:0,0:0:0:0:
490,262,284366,1,0,0:0:0:0:
457,190,284473,2,0,P|401:178|345:200,1,105,10|0,0:0|0:0,0:0:0:0:
284,225,284795,1,0,0:0:0:0:
298,148,284902,6,0,L|307:40,1,105,2|0,0:0|0:0,0:0:0:0:
230,22,285223,1,0,0:0:0:0:
189,89,285330,2,0,P|134:108|79:97,1,105,10|0,0:0|0:0,0:0:0:0:
19,62,285652,1,0,0:0:0:0:
18,140,285759,2,0,L|13:203,1,52.5,2|0,0:0|0:0,0:0:0:0:
57,304,285973,1,0,0:0:0:0:
82,229,286080,1,0,0:0:0:0:
135,286,286187,2,0,P|197:306|243:294,1,105,10|0,0:0|0:0,0:0:0:0:
280,233,286509,1,0,0:0:0:0:
347,192,286616,6,0,P|409:172|455:184,1,105,2|0,0:0|0:0,0:0:0:0:
487,247,286937,1,0,0:0:0:0:
484,111,287045,2,0,P|459:61|398:30,1,105,10|0,0:0|0:0,0:0:0:0:
352,76,287366,1,0,0:0:0:0:
277,101,287473,2,0,L|187:106,1,52.5,2|0,0:0|0:0,0:0:0:0:
131,175,287687,1,0,0:0:0:0:
149,97,287795,1,0,0:0:0:0:
74,121,287902,2,0,P|52:180|80:237,1,105,10|0,0:0|0:0,0:0:0:0:
55,295,288223,1,0,0:0:0:0:
126,323,288330,6,0,P|180:304|227:314,1,105,2|0,0:0|0:0,0:0:0:0:
296,348,288652,1,0,0:0:0:0:
371,325,288759,2,0,L|366:263,1,52.5,10|0,0:0|0:0,0:0:0:0:
303,225,288973,2,0,L|308:163,1,52.5
352,108,289187,2,0,P|312:81|242:81,1,105,2|0,0:0|0:0,0:0:0:0:
196,128,289509,1,0,0:0:0:0:
193,206,289616,2,0,L|201:277,1,52.5,10|0,0:0|0:0,0:0:0:0:
254,356,289830,1,0,0:0:0:0:
274,280,289937,1,0,0:0:0:0:
330,335,290045,6,0,P|388:343|444:325,1,105,2|0,0:0|0:0,0:0:0:0:
485,273,290366,1,0,0:0:0:0:
452,201,290473,2,0,L|444:141,1,52.5,10|0,0:0|0:0,0:0:0:0:
370,125,290687,2,0,L|378:65,1,52.5
304,40,290902,2,0,P|249:21|189:33,1,105,2|0,0:0|0:0,0:0:0:0:
148,83,291223,1,0,0:0:0:0:
200,141,291330,2,0,P|255:160|315:148,1,105,10|0,0:0|0:0,0:0:0:0:
370,125,291652,1,0,0:0:0:0:
363,203,291759,6,0,L|356:317,1,105,2|0,0:0|0:0,0:0:0:0:
294,356,292080,1,0,0:0:0:0:
236,302,292187,2,0,L|166:293,1,52.5,10|0,0:0|0:0,0:0:0:0:
121,344,292402,2,0,L|51:353,1,52.5
30,282,292616,2,0,P|20:224|37:175,1,105,2|0,0:0|0:0,0:0:0:0:
87,124,292937,1,0,0:0:0:0:
159,155,293045,2,0,L|228:159,1,52.5,10|0,0:0|0:0,0:0:0:0:
308,74,293259,1,0,0:0:0:0:
287,149,293366,1,0,0:0:0:0:
364,134,293473,6,0,P|424:116|474:129,1,105,2|0,0:0|0:0,0:0:0:0:
497,196,293795,1,0,0:0:0:0:
449,259,293902,2,0,P|457:318|431:369,1,105,10|0,0:0|0:0,0:0:0:0:
361,368,294223,1,0,0:0:0:0:
312,306,294330,2,0,L|247:296,1,52.5,2|0,0:0|0:0,0:0:0:0:
197,346,294545,2,0,L|132:356,1,52.5
96,292,294759,2,0,P|73:239|86:174,1,105,10|0,0:0|0:0,0:0:0:0:
97,117,295080,1,0,0:0:0:0:
163,74,295187,6,0,L|276:79,1,105,2|0,0:0|0:0,0:0:0:0:
347,84,295509,1,0,0:0:0:0:
392,148,295616,2,0,P|402:179|395:216,1,52.5,10|0,0:0|0:0,0:0:0:0:
309,308,295830,1,0,0:0:0:0:
329,232,295937,1,0,0:0:0:0:
252,252,296045,2,0,L|181:246,1,52.5,2|0,0:0|0:0,0:0:0:0:
136,294,296259,1,0,0:0:0:0:
136,294,296366,2,0,P|121:241|152:186,1,105,2|0,0:0|0:0,0:0:0:0:
138,118,296687,2,0,P|110:106|85:107,1,52.5,2|0,0:0|0:0,0:0:0:0:
194,62,296902,6,0,L|310:61,1,105,6|0,0:0|0:0,0:0:0:0:
376,75,297223,1,0,0:0:0:0:
415,142,297330,2,0,P|404:200|417:256,1,105,10|0,0:0|0:0,0:0:0:0:
442,318,297652,1,0,0:0:0:0:
372,354,297759,2,0,L|305:358,1,52.5,2|0,0:0|0:0,0:0:0:0:
273,293,297973,2,0,L|206:289,1,52.5
151,327,298187,2,0,P|89:348|34:333,1,105,10|0,0:0|0:0,0:0:0:0:
21,267,298509,1,0,0:0:0:0:
77,212,298616,6,0,P|128:206|176:226,1,105,2|0,0:0|0:0,0:0:0:0:
220,289,298937,1,0,0:0:0:0:
295,312,299045,2,0,L|351:307,1,52.5,10|0,0:0|0:0,0:0:0:0:
482,286,299259,1,0,0:0:0:0:
409,255,299366,1,0,0:0:0:0:
470,205,299473,2,0,P|488:151|474:93,1,105,2|0,0:0|0:0,0:0:0:0:
444,33,299795,1,0,0:0:0:0:
369,56,299902,2,0,P|318:71|243:46,1,105,10|0,0:0|0:0,0:0:0:0:
193,35,300223,1,0,0:0:0:0:
207,112,300330,6,0,L|202:229,1,105,2|0,0:0|0:0,0:0:0:0:
162,285,300652,1,0,0:0:0:0:
88,256,300759,2,0,L|83:187,1,52.5,10|0,0:0|0:0,0:0:0:0:
123,135,300973,2,0,L|128:66,1,52.5
200,54,301187,2,0,P|253:40|318:62,1,105,2|0,0:0|0:0,0:0:0:0:
350,113,301509,1,0,0:0:0:0:
396,176,301616,2,0,P|383:221|403:290,1,105,10|0,0:0|0:0,0:0:0:0:
430,346,301937,1,0,0:0:0:0:
350,340,302045,6,0,P|293:323|233:338,1,105,2|0,0:0|0:0,0:0:0:0:
172,346,302366,1,0,0:0:0:0:
107,301,302473,2,0,L|113:240,1,52.5,10|0,0:0|0:0,0:0:0:0:
51,198,302687,2,0,L|45:137,1,52.5
89,79,302902,2,0,P|152:60|200:78,1,105,2|0,0:0|0:0,0:0:0:0:
254,111,303223,1,0,0:0:0:0:
273,187,303330,2,0,L|265:255,1,52.5,10|0,0:0|0:0,0:0:0:0:
313,369,303545,1,0,0:0:0:0:
253,317,303652,1,0,0:0:0:0:
327,290,303759,6,0,L|394:288,1,52.5,2|0,3:2|3:2,3:2:0:0:
273,187,303973,2,0,L|206:185,1,52.5,0|0,3:2|3:2,3:2:0:0:
354,155,304187,2,0,P|361:184|355:217,1,52.5,10|0,3:2|3:2,3:2:0:0:
149,217,304402,2,0,P|142:188|148:155,1,52.5,0|0,3:2|3:2,3:2:0:0:
257,268,304616,6,0,P|244:303|222:327,1,52.5,2|0,3:2|3:2,3:2:0:0:
255,116,304830,2,0,P|268:81|290:57,1,52.5,0|0,3:2|3:2,3:2:0:0:
329,227,305045,2,0,P|340:259|335:291,1,52.5,10|0,3:2|3:2,3:2:0:0:
183,157,305259,2,0,P|172:125|177:93,1,52.5,0|0,3:2|3:2,3:2:0:0:
237,233,305473,5,2,3:2:0:0:
213,245,305580,1,0,3:2:0:0:
188,250,305687,1,0,3:2:0:0:
162,248,305794,1,0,3:2:0:0:
137,239,305901,1,10,3:2:0:0:
116,224,306008,1,0,3:2:0:0:
101,203,306115,1,0,3:2:0:0:
91,178,306222,1,0,3:2:0:0:
91,150,306330,6,0,L|93:94,1,52.5,2|0,3:2|3:2,3:2:0:0:
174,31,306545,2,0,L|176:87,1,52.5,0|0,3:2|3:2,3:2:0:0:
257,151,306759,2,0,L|259:95,1,52.5,10|0,3:2|3:2,3:2:0:0:
340,32,306974,2,0,L|342:88,1,52.5,0|0,3:2|3:2,3:2:0:0:
362,199,307187,6,0,L|402:198,31,26.25,0|0|0|0|0|0|0|0|0|0|0|0|0|0|0|0|0|0|0|0|0|0|0|0|0|0|0|0|0|0|0|0,3:0|3:0|3:0|3:0|3:0|3:0|3:0|3:0|3:0|3:0|3:0|3:0|3:0|3:0|3:0|3:0|3:0|3:0|3:0|3:0|3:0|3:0|3:0|3:0|3:0|3:0|3:0|3:0|3:0|3:0|3:0|3:0,3:0:0:0:
256,192,308902,12,4,310616,0:0:0:0:
