osu file format v14

[General]
AudioFilename: audio.mp3
AudioLeadIn: 0
PreviewTime: 268606
Countdown: 1
SampleSet: Normal
StackLeniency: 0.7
Mode: 0
LetterboxInBreaks: 0
WidescreenStoryboard: 1

[Editor]
Bookmarks: 1915,5003,16032,30150,44268,72503,100738,128974,157209,157540,158422,159305,160187,161069,161952,162834,163716,164599,165481,166363,167246,168128,169010,169893,170775,171657,172540,173422,174305,175187,176069,176952,177834,179599,181805,183128,183680,185003,185444,213680,215665,217209,220738,224268,227797,231327,234856,238385,241915,256032,270150,271363,273238,298385,326621,354856,368974
DistanceSpacing: 1
BeatDivisor: 4
GridSize: 4
TimelineZoom: 1

[Metadata]
Title:Suna No Hoshi (Blue Twinkle Trance Remix / Version 2.0)
TitleUnicode:砂の星 (Blue Twinkle Trance Remix / Version 2.0)
Artist:Halozy
ArtistUnicode:Halozy
Creator:Zunv
Version:Sandstar
Source:
Tags:Lucky 7 Touhou
BeatmapID:1085788
BeatmapSetID:510696

[Difficulty]
HPDrainRate:7
CircleSize:4
OverallDifficulty:8
ApproachRate:9
SliderMultiplier:1
SliderTickRate:1

[Events]
//Background and Video events
0,0,"Konachan.com - 219712 butterfly fan ryokucha-mai saigyouji_yuyuko touhou.jpg",0,0
//Break Periods
2,7408,15432
2,185644,198962
//Storyboard Layer 0 (Background)
//Storyboard Layer 1 (Fail)
//Storyboard Layer 2 (Pass)
//Storyboard Layer 3 (Foreground)
//Storyboard Sound Samples

[TimingPoints]
1915.30307639644,441.176470588235,4,1,0,100,1,0
5003,-200,4,1,0,100,0,0
16032,-133.333333333333,4,1,0,100,0,0
16474,-80,4,1,0,100,0,0
16915,-133.333333333333,4,1,0,100,0,0
17356,-80,4,1,0,100,0,0
17797,-133.333333333333,4,1,0,100,0,0
18238,-80,4,1,0,100,0,0
18680,-133.333333333333,4,1,0,100,0,0
19121,-80,4,1,0,100,0,0
19562,-133.333333333333,4,1,0,100,0,0
20003,-80,4,1,0,100,0,0
20444,-133.333333333333,4,1,0,100,0,0
20885,-80,4,1,0,100,0,0
21327,-133.333333333333,4,1,0,100,0,0
21768,-80,4,1,0,100,0,0
32135,-76.9230769230769,4,1,0,100,0,0
33900,-74.0740740740741,4,1,0,100,0,0
35665,-71.4285714285714,4,1,0,100,0,0
44268,-62.5,4,1,0,100,0,0
49562,-133.333333333333,4,1,0,100,0,0
51768,-62.5,4,1,0,100,0,0
53753,-100,4,1,0,100,0,0
54856,-62.5,4,1,0,100,0,0
63459,-100,4,1,0,100,0,0
65444,-62.5,4,1,0,100,0,0
67871,-100,4,1,0,100,0,0
72503,-80,4,1,0,100,0,0
100738,-66.6666666666667,4,1,0,100,0,0
128974,-62.5,4,1,0,100,0,0
134047,-100,4,1,0,100,0,0
136032,-62.5,4,1,0,100,0,0
138459,-100,4,1,0,100,0,0
139562,-62.5,4,1,0,100,0,0
141988,-100,4,1,0,100,0,0
143091,-62.5,4,1,0,100,0,0
148165,-100,4,1,0,100,0,0
149709,-62.5,4,1,0,100,0,0
152577,-100,4,1,0,100,0,0
154562,-90.9090909090909,4,1,0,100,0,0
155444,-83.3333333333333,4,1,0,100,0,0
156327,-76.9230769230769,4,1,0,100,0,0
157209,-62.5,4,1,0,100,0,0
199562,-100,4,1,0,100,0,0
209709,-200,4,1,0,100,0,0
213680,-76.9230769230769,4,1,0,100,0,0
217209,-71.4285714285714,4,1,0,100,0,0
220738,-66.6666666666667,4,1,0,100,0,0
224268,-62.5,4,1,0,100,0,0
227797,-58.8235294117647,4,1,0,100,0,0
231327,-55.5555555555556,4,1,0,100,0,0
268606,-83.3333333333333,4,1,0,100,0,0
269709,-133.333333333333,4,1,0,100,0,0
270150,-50,4,1,0,100,0,1
296621,-100,4,1,0,100,0,0
298385,-100,4,1,0,100,0,1
324856,-100,4,1,0,100,0,0
326621,-100,4,1,0,100,0,1
351327,-100,4,1,0,100,0,0

[HitObjects]
96,260,1915,5,0,0:0:0:0:
393,286,2356,1,0,0:0:0:0:
286,179,2577,2,0,L|276:286,1,100
65,66,3459,1,0,0:0:0:0:
363,92,3900,1,0,0:0:0:0:
96,260,4341,1,0,0:0:0:0:
202,153,4562,2,0,L|206:208,1,50
271,166,5003,2,0,P|194:83|135:176,1,250
136,116,16032,6,0,L|136:168,1,37.5000014305115
198,215,16474,6,0,L|198:159,1,31.25
127,115,16915,6,0,L|131:162,1,37.5000014305115
204,216,17357,6,0,L|199:161,1,31.25
118,111,17797,6,0,L|127:163,1,37.5000014305115
213,216,18239,6,0,L|203:157,1,31.25
108,111,18680,6,0,L|122:163,1,37.5000014305115
223,216,19121,6,0,L|209:164,1,31.25
97,111,19562,6,0,L|114:157,1,37.5000014305115
234,216,20003,6,0,L|220:178,1,31.25
86,112,20444,6,0,L|107:156,1,37.5000014305115
245,215,20885,6,0,L|228:179,1,31.25
73,115,21327,6,0,L|97:156,1,37.5000014305115
256,210,21768,6,0,L|236:176,1,31.25
77,107,22209,6,0,L|108:168,1,62.5
128,204,22540,1,0,0:0:0:0:
161,237,22650,6,0,L|209:237,1,31.25
291,137,23091,2,0,P|312:104|360:92,1,62.5
379,93,23422,1,0,0:0:0:0:
420,116,23532,1,0,0:0:0:0:
440,160,23643,1,0,0:0:0:0:
340,259,23974,2,0,P|319:226|271:214,1,62.5
256,192,24305,1,0,0:0:0:0:
209,192,24415,2,0,L|149:192,1,31.25
41,192,24856,6,0,P|14:175|0:148,1,62.5
0,100,25187,1,0,0:0:0:0:
16,56,25297,1,0,0:0:0:0:
52,28,25407,1,0,0:0:0:0:
211,28,25738,2,0,P|237:44|252:71,1,62.5
263,116,26069,1,0,0:0:0:0:
263,163,26180,2,0,L|263:224,1,31.25
97,360,26621,5,0,0:0:0:0:
97,204,26841,2,0,L|121:180,1,31.25
213,181,27062,2,0,L|189:205,1,31.25
264,48,27503,1,0,0:0:0:0:
396,180,27724,2,0,L|418:202,1,31.25
324,201,27945,2,0,L|301:178,1,31.25
496,380,28385,5,0,0:0:0:0:
346,262,28606,2,0,L|313:251,1,31.25
272,169,28827,2,0,L|304:179,1,31.25
36,80,29268,1,0,0:0:0:0:
223,80,29488,2,0,L|247:56,1,31.25
339,57,29709,2,0,L|315:81,1,31.25
272,172,30150,6,0,L|333:194,1,62.5
375,207,30481,1,0,0:0:0:0:
295,90,30591,2,0,P|228:94|186:142,1,125
134,210,31253,2,0,L|78:230,1,31.25
245,220,31474,2,0,P|303:219|356:288,1,125
390,350,32135,6,0,L|404:401,1,32.4999985122681
272,304,32356,2,0,P|199:299|159:234,1,129.999994049073
135,165,33018,2,0,L|119:112,1,32.4999985122681
271,133,33238,2,0,P|311:183|395:183,1,129.999994049073
469,160,33900,6,0,L|500:149,1,33.750000128746
353,109,34121,2,0,P|310:56|238:56,1,135.000000514984
152,88,34782,2,0,L|120:100,1,33.750000128746
120,248,35003,2,0,P|193:227|216:156,1,135.000000514984
200,76,35665,6,0,L|196:32,1,34.9999989318848
220,196,35885,2,0,P|256:254|336:272,1,139.999995727539
428,284,36547,2,0,L|487:289,1,34.9999989318848
312,184,36768,2,0,P|318:116|269:70,1,139.999995727539
164,80,37430,5,0,0:0:0:0:
72,148,37650,2,0,L|24:216,1,69.9999978637696
106,279,38091,1,0,0:0:0:0:
211,279,38312,2,0,L|251:221,1,69.9999978637696
356,221,38753,1,0,0:0:0:0:
430,146,38974,6,0,L|389:88,1,69.9999978637696
284,88,39415,1,0,0:0:0:0:
179,88,39635,2,0,L|138:30,1,69.9999978637696
63,105,40077,1,0,0:0:0:0:
63,209,40297,2,0,L|103:266,1,69.9999978637696
177,191,40738,5,0,0:0:0:0:
251,116,40959,2,0,L|210:58,1,69.9999978637696
315,58,41400,1,0,0:0:0:0:
389,132,41621,2,0,L|348:189,1,69.9999978637696
423,263,42062,1,0,0:0:0:0:
348,337,42282,2,0,L|307:279,1,69.9999978637696
276,236,42613,5,0,0:0:0:0:
240,196,42724,1,0,0:0:0:0:
135,196,42944,2,0,L|94:253,1,69.9999978637696
169,327,43385,1,0,0:0:0:0:
221,327,43496,1,0,0:0:0:0:
273,327,43606,1,0,0:0:0:0:
347,252,43827,1,0,0:0:0:0:
272,177,44047,1,0,0:0:0:0:
357,91,44268,6,0,P|288:52|200:76,1,160
98,180,44930,1,0,0:0:0:0:
256,204,45150,2,0,P|300:200|344:168,1,80
443,69,45591,1,0,0:0:0:0:
444,228,45812,2,0,L|444:332,1,80
330,182,46253,2,0,L|330:98,1,80
364,260,46694,2,0,P|292:260|244:184,1,160
244,193,47356,6,0,L|184:132,1,80
74,249,47797,1,0,0:0:0:0:
304,24,48238,2,0,P|384:40|408:112,1,160
179,356,49121,2,0,P|145:316|148:263,1,80
216,291,49562,6,0,P|120:220|96:352,1,300.000011444092
60,40,51768,6,0,P|104:32|160:40,1,80
252,147,52209,1,0,0:0:0:0:
138,260,52430,1,0,0:0:0:0:
188,108,52650,2,0,P|220:80|288:84,2,80
301,221,53312,2,0,L|368:288,1,80
364,176,53753,6,0,P|316:144|232:180,1,150
235,174,54856,6,0,L|168:240,1,80
291,116,55297,2,0,L|360:188,1,80
233,287,55738,1,0,0:0:0:0:
200,128,55959,1,0,0:0:0:0:
86,241,56180,1,0,0:0:0:0:
53,82,56401,1,0,0:0:0:0:
53,82,56621,2,0,L|120:28,1,80
364,232,57282,2,0,P|328:296|180:240,1,240
187,263,58385,6,0,L|244:208,1,80
83,207,58827,2,0,L|26:262,1,80
138,149,59268,1,0,0:0:0:0:
138,149,59709,1,0,0:0:0:0:
298,149,59930,2,0,P|320:96|364:80,1,80
252,220,60371,2,0,P|222:194|212:156,1,80
372,156,60812,1,0,0:0:0:0:
145,382,61253,5,0,0:0:0:0:
258,268,61474,2,0,L|316:208,1,80
432,104,61915,2,0,P|452:40|364:4,1,160
144,212,62797,1,0,0:0:0:0:
144,212,63018,1,0,0:0:0:0:
73,282,63459,6,0,P|84:136|244:176,1,350
241,171,65444,6,0,L|234:250,1,80
347,137,65885,2,0,L|340:216,1,80
226,330,66327,1,0,0:0:0:0:
226,330,66768,2,0,L|118:339,2,80
385,316,67430,2,0,L|468:308,1,80
352,384,67871,6,0,P|308:324|348:248,1,150
332,258,68974,2,0,P|360:194|268:144,1,175
240,152,69856,2,0,P|161:130|164:49,1,175
204,24,70738,2,0,P|259:33|285:84,1,100
312,164,71400,2,0,P|296:248|232:280,1,150
244,278,72503,6,0,P|165:246|151:192,1,125
240,124,73165,1,0,0:0:0:0:
327,203,73385,2,0,P|300:257|243:277,1,125
368,277,74047,1,0,0:0:0:0:
493,277,74268,2,0,L|450:204,1,62.5
368,339,74709,2,0,L|368:275,1,62.5
242,276,75150,2,0,L|284:203,1,62.5
398,221,75591,1,0,0:0:0:0:
364,136,75812,1,0,0:0:0:0:
364,136,76032,6,0,P|304:96|248:120,1,125
273,221,76694,1,0,0:0:0:0:
176,300,76915,2,0,L|116:264,1,62.5
160,148,77356,1,0,0:0:0:0:
273,221,77577,1,0,0:0:0:0:
368,304,77797,2,0,P|352:240|312:212,1,93.75
273,221,78238,2,0,P|243:185|238:139,1,93.75
301,139,78680,2,0,P|285:75|245:47,1,93.75
203,57,79121,2,0,L|143:117,1,62.5
76,196,79562,6,0,P|52:240|52:296,1,93.75
52,304,80003,1,0,0:0:0:0:
174,282,80224,1,0,0:0:0:0:
264,196,80444,2,0,P|228:165|183:153,1,93.75
164,152,80885,1,0,0:0:0:0:
271,64,81106,1,0,0:0:0:0:
332,176,81327,6,0,P|356:220|356:276,1,93.75
314,307,81768,2,0,L|268:264,1,62.5
179,175,82209,2,0,P|146:207|138:253,1,93.75
140,272,82650,1,0,0:0:0:0:
268,264,82871,1,0,0:0:0:0:
320,137,83091,6,0,P|301:68|260:49,1,93.75
253,118,83532,1,0,0:0:0:0:
140,200,83753,1,0,0:0:0:0:
128,64,83974,2,0,L|214:26,1,93.75
282,26,84415,1,0,0:0:0:0:
378,122,84635,1,0,0:0:0:0:
240,140,84856,6,0,P|192:164|176:216,1,93.75
244,208,85297,1,0,0:0:0:0:
356,288,85518,1,0,0:0:0:0:
370,151,85738,1,0,0:0:0:0:
244,208,85959,1,0,0:0:0:0:
212,340,86180,2,0,P|164:332|128:272,1,93.75
199,269,86621,2,0,P|174:231|174:192,1,62.5
392,77,87062,6,0,L|312:70,1,62.5
212,144,87503,2,0,L|291:137,1,62.5
144,188,87944,2,0,P|132:124|160:84,1,93.75
214,29,88385,2,0,L|293:35,1,62.5
434,94,88826,2,0,L|354:100,1,62.5
206,182,89268,2,0,L|126:188,1,62.5
285,329,89709,1,0,0:0:0:0:
285,329,89930,1,0,0:0:0:0:
482,292,90150,6,0,L|470:225,1,62.5
376,52,90591,2,0,L|370:114,1,62.5
348,312,91032,1,0,0:0:0:0:
150,277,91253,1,0,0:0:0:0:
150,277,91474,2,0,L|144:215,1,62.5
304,76,91805,1,0,0:0:0:0:
304,56,91915,6,0,P|312:16|340:-8,2,62.5
143,214,92577,1,0,0:0:0:0:
336,256,92797,2,0,L|412:260,1,62.5
212,188,93238,2,0,P|188:156|148:140,1,62.5
288,56,93569,1,0,0:0:0:0:
304,56,93680,6,0,L|380:60,1,62.5
336,256,94121,2,0,L|330:318,1,62.5
109,294,94562,1,0,0:0:0:0:
109,294,94782,1,0,0:0:0:0:
128,68,95003,1,0,0:0:0:0:
270,210,95224,2,0,L|309:255,1,31.25
220,151,95444,6,0,P|197:184|197:230,1,62.5
394,205,95885,2,0,P|416:171|416:125,1,62.5
244,48,96327,1,0,0:0:0:0:
244,48,96547,1,0,0:0:0:0:
120,204,96768,2,0,P|127:234|146:258,1,62.5
344,276,97099,1,0,0:0:0:0:
346,258,97209,6,0,L|361:171,1,62.5
224,44,97650,2,0,P|184:28|140:44,1,62.5
140,228,98091,1,0,0:0:0:0:
308,116,98312,1,0,0:0:0:0:
112,116,98532,1,0,0:0:0:0:
280,224,98753,2,0,L|313:243,1,31.25
324,248,98974,1,0,0:0:0:0:
256,192,99084,12,0,100518,0:0:0:0:
116,52,100738,6,0,P|76:92|76:144,1,75.0000028610231
208,104,101069,1,0,0:0:0:0:
231,107,101180,2,0,P|260:129|275:163,1,75.0000028610231
152,320,101621,1,0,0:0:0:0:
71,108,101841,1,0,0:0:0:0:
95,80,101951,1,0,0:0:0:0:
130,68,102061,1,0,0:0:0:0:
352,100,102282,1,0,0:0:0:0:
216,280,102503,6,0,P|192:256|140:248,1,75.0000028610231
68,344,102834,1,0,0:0:0:0:
89,353,102944,2,0,P|125:344|151:319,1,75.0000028610231
264,124,103385,2,0,P|290:98|326:90,1,75.0000028610231
364,312,103827,1,0,0:0:0:0:
364,312,104047,1,0,0:0:0:0:
119,289,104268,5,0,0:0:0:0:
264,124,104488,2,0,L|292:160,2,37.5000014305115
44,76,104930,1,0,0:0:0:0:
119,289,105150,1,0,0:0:0:0:
264,124,105371,1,0,0:0:0:0:
289,97,105481,1,0,0:0:0:0:
325,91,105591,1,0,0:0:0:0:
504,228,105812,1,0,0:0:0:0:
316,352,106032,5,0,0:0:0:0:
128,228,106253,2,0,L|104:198,2,37.5000014305115
128,228,106694,1,0,0:0:0:0:
256,44,106915,2,0,P|224:26|167:38,1,75.0000028610231
128,228,107356,1,0,0:0:0:0:
344,296,107577,1,0,0:0:0:0:
170,153,107797,6,0,P|179:117|225:87,1,75.0000028610231,0|0,2:0|0:0,0:0:0:0:
368,220,108128,1,0,0:0:0:0:
383,234,108238,2,0,P|408:260|416:296,1,75.0000028610231,0|0,2:0|0:0,0:0:0:0:
485,80,108680,1,0,0:0:0:0:
235,27,108900,1,0,0:0:0:0:
198,21,109010,1,0,0:0:0:0:
163,35,109120,1,0,0:0:0:0:
300,214,109341,1,0,0:0:0:0:
97,114,109562,6,0,P|71:150|80:212,1,75.0000028610231
280,216,109893,1,0,0:0:0:0:
300,214,110003,2,0,P|341:196|365:139,1,75.0000028610231
509,5,110444,1,0,0:0:0:0:
487,229,110665,1,0,0:0:0:0:
317,81,110885,1,0,0:0:0:0:
416,296,111106,1,0,0:0:0:0:
416,296,111327,5,0,0:0:0:0:
163,334,111547,1,0,0:0:0:0:
140,304,111657,1,0,0:0:0:0:
134,268,111767,1,0,0:0:0:0:
177,46,111988,1,0,0:0:0:0:
396,95,112209,2,0,P|393:53|362:16,1,75.0000028610231
196,48,112540,1,0,0:0:0:0:
177,46,112650,2,0,P|135:49|98:80,1,75.0000028610231
36,280,113091,5,0,0:0:0:0:
194,119,113312,1,0,0:0:0:0:
225,99,113422,1,0,0:0:0:0:
262,98,113532,1,0,0:0:0:0:
462,203,113753,1,0,0:0:0:0:
273,326,113974,1,0,0:0:0:0:
273,326,114194,1,0,0:0:0:0:
194,119,114415,2,0,P|154:132|126:172,1,75.0000028610231
273,326,114856,5,0,0:0:0:0:
462,203,115077,1,0,0:0:0:0:
481,171,115187,1,0,0:0:0:0:
482,134,115297,1,0,0:0:0:0:
282,30,115518,2,0,P|241:40|196:22,1,75.0000028610231
50,191,115959,1,0,0:0:0:0:
51,228,116069,1,0,0:0:0:0:
70,259,116179,1,0,0:0:0:0:
238,109,116400,1,0,0:0:0:0:
418,243,116621,5,0,0:0:0:0:
236,372,116841,1,0,0:0:0:0:
200,382,116951,1,0,0:0:0:0:
164,373,117061,1,0,0:0:0:0:
308,200,117282,1,0,0:0:0:0:
120,72,117503,1,0,0:0:0:0:
120,72,117724,1,0,0:0:0:0:
114,321,117944,2,0,P|135:357|180:375,1,75.0000028610231
389,372,118385,5,0,0:0:0:0:
200,252,118606,1,0,0:0:0:0:
168,232,118716,1,0,0:0:0:0:
150,200,118826,1,0,0:0:0:0:
309,40,119047,1,0,0:0:0:0:
468,199,119268,2,0,P|468:235|451:268,1,75.0000028610231
232,200,119599,1,0,0:0:0:0:
224,180,119709,2,0,P|202:143|157:125,1,75.0000028610231
40,308,120150,5,0,0:0:0:0:
256,248,120371,1,0,0:0:0:0:
285,225,120481,1,0,0:0:0:0:
299,191,120591,1,0,0:0:0:0:
476,344,120812,1,0,0:0:0:0:
380,140,121032,1,0,0:0:0:0:
476,344,121253,1,0,0:0:0:0:
256,248,121474,2,0,P|224:228|206:196,1,75.0000028610231
365,36,121915,6,0,P|396:55|414:87,1,75.0000028610231
420,292,122246,1,0,0:0:0:0:
414,313,122356,2,0,P|392:349|347:367,1,75.0000028610231
109,340,122797,1,0,0:0:0:0:
128,116,123018,1,0,0:0:0:0:
152,87,123128,1,0,0:0:0:0:
186,74,123238,1,0,0:0:0:0:
407,112,123459,1,0,0:0:0:0:
188,160,123680,6,0,P|152:188|104:184,1,75.0000028610231
320,132,124010,1,0,0:0:0:0:
340,140,124121,2,0,P|369:174|417:180,1,75.0000028610231
220,44,124562,1,0,0:0:0:0:
72,212,124782,1,0,0:0:0:0:
280,120,125003,1,0,0:0:0:0:
64,56,125224,1,0,0:0:0:0:
172,252,125444,5,0,0:0:0:0:
220,44,125665,2,0,L|252:16,1,37.5000014305115
248,132,125885,2,0,P|200:136|156:112,1,75.0000028610231
300,316,126327,1,0,0:0:0:0:
328,100,126547,2,0,L|296:72,1,37.5000014305115
300,188,126767,2,0,P|348:192|392:168,1,75.0000028610231
200,36,127209,5,0,0:0:0:0:
163,43,127319,1,0,0:0:0:0:
132,64,127429,1,0,0:0:0:0:
113,96,127539,1,0,0:0:0:0:
111,133,127650,1,0,0:0:0:0:
116,170,127760,1,0,0:0:0:0:
122,207,127870,1,0,0:0:0:0:
118,244,127981,1,0,0:0:0:0:
102,278,128091,1,0,0:0:0:0:
77,305,128201,1,0,0:0:0:0:
46,327,128311,1,0,0:0:0:0:
268,280,128532,1,0,0:0:0:0:
268,280,128974,5,0,0:0:0:0:
416,200,129415,2,0,P|400:144|364:120,1,80
160,252,129856,2,0,P|134:221|129:182,1,80
348,48,130297,1,0,0:0:0:0:
348,48,130518,1,0,0:0:0:0:
180,252,130959,1,0,0:0:0:0:
172,171,131400,2,0,P|236:195|248:291,1,160
253,277,132062,1,0,0:0:0:0:
394,65,132282,1,0,0:0:0:0:
324,311,132503,6,0,P|289:349|235:349,1,80
105,144,132944,2,0,P|128:112|166:100,1,80
424,100,133385,1,0,0:0:0:0:
424,100,133827,1,0,0:0:0:0:
336,233,134047,2,0,P|192:228|294:138,1,350
286,136,136032,5,0,0:0:0:0:
286,136,136474,2,0,L|370:99,1,80
235,328,136915,2,0,P|203:287|143:281,1,80
359,103,137356,1,0,0:0:0:0:
131,221,137577,2,0,P|105:266|113:311,1,80
383,174,138018,2,0,P|380:134|358:102,1,80
460,225,138459,2,0,P|391:268|316:239,1,150
329,250,139562,6,0,P|314:201|263:178,1,80
35,184,140003,2,0,P|50:135|101:112,1,80
299,0,140444,1,0,0:0:0:0:
329,250,140665,1,0,0:0:0:0:
185,56,140885,1,0,0:0:0:0:
391,208,141106,2,0,P|403:263|375:307,1,80
164,171,141547,1,0,0:0:0:0:
164,171,141988,2,0,P|239:132|175:58,1,200
345,58,143091,6,0,L|392:130,1,80
164,171,143532,2,0,L|117:243,1,80
389,199,143974,1,0,0:0:0:0:
389,199,144415,2,0,P|350:187|324:151,1,80
69,157,144856,2,0,L|22:229,1,80
232,312,145297,1,0,0:0:0:0:
392,124,145518,2,0,P|308:88|252:156,1,160
188,372,146180,5,0,0:0:0:0:
326,157,146400,1,0,0:0:0:0:
326,157,146621,2,0,P|265:197|188:126,1,160
376,338,147503,1,0,0:0:0:0:
196,157,147724,2,0,L|243:229,1,80
448,316,148165,6,0,P|354:265|308:372,1,250
307,370,149709,5,0,0:0:0:0:
48,52,150150,2,0,L|69:133,1,80,0|0,2:0|2:0,2:0:0:0:
250,310,150591,2,0,L|229:232,1,80,0|0,2:0|2:0,2:0:0:0:
410,51,151032,2,0,L|430:128,1,80,0|0,2:0|2:0,2:0:0:0:
173,128,151474,1,0,0:0:0:0:
173,128,151694,2,0,P|128:160|112:208,1,80
373,181,152135,2,0,P|418:149|434:101,1,80
268,136,152577,6,0,P|216:48|128:72,1,200
220,204,153680,2,0,P|292:216|344:120,1,175
346,141,154562,6,0,P|387:76|474:142,1,192.500005874634
472,121,155444,6,0,P|448:240|401:274,1,179.999994506836
405,271,156327,6,0,P|328:228|386:169,1,194.999991073609
146,74,157209,5,0,0:0:0:0:
260,303,157430,2,0,L|286:344,1,40
317,214,157650,2,0,L|270:142,1,80
91,328,158091,2,0,L|138:256,1,80
384,169,158422,1,0,0:0:0:0:
407,162,158532,2,0,P|444:130|429:76,1,80
262,283,158974,5,0,0:0:0:0:
67,101,159194,2,0,L|93:142,1,40
88,263,159415,2,0,L|41:191,1,80
225,14,159856,1,0,0:0:0:0:
225,270,160077,2,0,L|199:311,1,40
156,213,160297,2,0,L|199:146,1,80
504,72,160738,6,0,P|471:36|419:32,1,80
350,118,161069,1,0,0:0:0:0:
336,136,161180,2,0,P|296:172|244:172,1,80
388,356,161621,1,0,0:0:0:0:
271,176,161841,2,0,L|245:135,1,40
202,233,162061,2,0,L|245:300,1,80
439,99,162503,5,0,0:0:0:0:
182,100,162724,2,0,L|204:56,1,40
311,0,162945,2,0,L|272:76,1,80
170,304,163385,2,0,P|201:254|244:241,1,80
347,245,163716,1,0,0:0:0:0:
368,232,163827,2,0,L|404:160,1,80
147,160,164268,5,0,0:0:0:0:
327,340,164488,2,0,L|349:296,1,40
456,240,164709,2,0,L|417:316,1,80
163,311,165150,2,0,P|120:304|88:260,1,80
188,192,165481,2,0,L|160:236,1,40
423,225,165812,1,0,0:0:0:0:
220,72,166032,5,0,0:0:0:0:
220,312,166253,1,0,0:0:0:0:
228,336,166363,2,0,L|256:380,1,40
12,276,166694,1,0,0:0:0:0:
220,72,166915,2,0,P|261:85|309:60,1,80
385,172,167246,2,0,L|363:205,1,40
144,72,167577,1,0,0:0:0:0:
136,328,167797,5,0,0:0:0:0:
363,205,168018,2,0,L|391:249,1,40
276,168,168238,2,0,P|312:124|360:112,1,80
74,115,168680,2,0,L|37:186,1,80
269,75,169010,1,0,0:0:0:0:
286,58,169121,2,0,P|323:27|372:30,1,80
237,253,169562,5,0,0:0:0:0:
160,24,169782,2,0,L|203:31,1,40
237,253,170003,2,0,P|253:294|302:307,1,80
268,52,170444,2,0,P|232:96|200:103,1,80
340,102,170775,2,0,L|368:58,1,40
104,68,171106,1,0,0:0:0:0:
234,288,171327,5,0,0:0:0:0:
421,114,171547,1,0,0:0:0:0:
435,77,171657,1,0,0:0:0:0:
430,37,171767,1,0,0:0:0:0:
185,115,171988,1,0,0:0:0:0:
380,280,172209,1,0,0:0:0:0:
145,175,172430,1,0,0:0:0:0:
119,145,172540,1,0,0:0:0:0:
114,105,172650,1,0,0:0:0:0:
39,351,172871,1,0,0:0:0:0:
286,212,173091,5,0,0:0:0:0:
45,78,173312,1,0,0:0:0:0:
69,47,173422,1,0,0:0:0:0:
106,33,173532,1,0,0:0:0:0:
351,107,173753,1,0,0:0:0:0:
107,187,173974,1,0,0:0:0:0:
352,257,174194,1,0,0:0:0:0:
391,261,174304,1,0,0:0:0:0:
428,248,174414,1,0,0:0:0:0:
276,40,174635,1,0,0:0:0:0:
43,148,174856,5,0,0:0:0:0:
271,265,175077,1,0,0:0:0:0:
275,225,175187,1,0,0:0:0:0:
299,195,175297,1,0,0:0:0:0:
49,322,175518,1,0,0:0:0:0:
92,46,175738,1,0,0:0:0:0:
335,128,175959,1,0,0:0:0:0:
363,155,176069,1,0,0:0:0:0:
373,193,176179,1,0,0:0:0:0:
132,104,176400,1,0,0:0:0:0:
339,253,176620,5,0,0:0:0:0:
181,50,176841,1,0,0:0:0:0:
145,33,176951,1,0,0:0:0:0:
105,36,177061,1,0,0:0:0:0:
124,317,177282,1,0,0:0:0:0:
230,86,177503,1,0,0:0:0:0:
340,316,177724,1,0,0:0:0:0:
365,349,177834,1,0,0:0:0:0:
401,363,177944,1,0,0:0:0:0:
401,106,178165,2,0,L|441:66,2,40
156,68,178606,5,0,0:0:0:0:
175,32,178716,1,0,0:0:0:0:
209,12,178826,1,0,0:0:0:0:
364,216,179047,1,0,0:0:0:0:
124,128,179268,1,0,0:0:0:0:
370,15,179488,1,0,0:0:0:0:
408,28,179598,1,0,0:0:0:0:
437,55,179708,1,0,0:0:0:0:
437,313,179930,1,0,0:0:0:0:
216,184,180150,5,0,0:0:0:0:
437,55,180371,1,0,0:0:0:0:
408,28,180481,1,0,0:0:0:0:
370,15,180591,1,0,0:0:0:0:
149,143,180812,1,0,0:0:0:0:
272,364,181032,1,0,0:0:0:0:
16,336,181253,1,0,0:0:0:0:
1,299,181363,1,0,0:0:0:0:
2,259,181473,1,0,0:0:0:0:
183,77,181694,6,0,L|223:37,2,40
352,268,182135,1,0,0:0:0:0:
436,24,182356,1,0,0:0:0:0:
224,164,182577,1,0,0:0:0:0:
479,164,182797,1,0,0:0:0:0:
264,24,183018,1,0,0:0:0:0:
225,15,183128,1,0,0:0:0:0:
185,20,183238,1,0,0:0:0:0:
28,224,183459,1,0,0:0:0:0:
256,340,183680,5,0,0:0:0:0:
289,360,183790,1,0,0:0:0:0:
329,361,183900,1,0,0:0:0:0:
364,342,184010,1,0,0:0:0:0:
385,308,184121,1,0,0:0:0:0:
386,269,184231,1,0,0:0:0:0:
368,234,184341,1,0,0:0:0:0:
349,198,184451,1,0,0:0:0:0:
351,159,184561,1,0,0:0:0:0:
372,125,184671,1,0,0:0:0:0:
407,106,184782,1,0,0:0:0:0:
446,107,184892,1,0,0:0:0:0:
480,128,185002,1,0,0:0:0:0:
310,283,185224,1,0,0:0:0:0:
76,52,185444,1,0,0:0:0:0:
72,136,199562,5,0,0:0:0:0:
72,136,200003,1,0,0:0:0:0:
144,280,200224,1,0,0:0:0:0:
144,280,200665,2,0,L|256:304,1,100
472,76,201547,1,0,0:0:0:0:
156,28,201988,1,0,0:0:0:0:
300,100,202209,1,0,0:0:0:0:
156,172,202430,1,0,0:0:0:0:
300,244,202650,1,0,0:0:0:0:
256,192,202760,12,0,206180,0:0:0:0:
280,72,206621,5,0,0:0:0:0:
280,72,207062,1,0,0:0:0:0:
368,208,207282,2,0,P|344:248|280:260,1,100
16,104,208165,1,0,0:0:0:0:
356,136,208606,2,0,P|413:151|440:200,1,100
296,264,209268,1,0,0:0:0:0:
356,136,209488,1,0,0:0:0:0:
204,186,209709,2,0,P|157:195|238:144,1,400
408,192,213680,6,0,L|400:256,1,64.9999970245363
184,280,214121,1,0,0:0:0:0:
184,280,214341,2,0,L|176:344,1,64.9999970245363
323,197,214782,2,0,L|331:133,1,64.9999970245363
121,132,215224,2,0,L|129:68,1,64.9999970245363
331,132,215665,2,0,L|395:140,1,64.9999970245363
248,287,216106,1,0,0:0:0:0:
268,80,216327,1,0,0:0:0:0:
80,168,216547,1,0,0:0:0:0:
280,220,216768,2,0,P|312:248|320:296,1,64.9999970245363
116,272,217099,1,0,0:0:0:0:
95,268,217209,6,0,L|23:261,1,69.9999978637696
183,103,217650,1,0,0:0:0:0:
183,103,217871,2,0,L|113:96,1,69.9999978637696
319,268,218312,2,0,L|388:274,1,69.9999978637696
320,60,218753,2,0,L|389:66,1,69.9999978637696
231,224,219194,2,0,L|237:152,1,69.9999978637696
461,154,219635,1,0,0:0:0:0:
232,224,219856,1,0,0:0:0:0:
192,0,220077,1,0,0:0:0:0:
19,147,220297,2,0,P|8:192|28:236,1,69.9999978637696
236,176,220628,1,0,0:0:0:0:
237,154,220738,6,0,L|243:74,1,75.0000028610231
216,320,221180,1,0,0:0:0:0:
216,320,221400,2,0,L|222:240,1,75.0000028610231
392,75,221841,2,0,L|385:154,1,75.0000028610231
145,149,222282,2,0,L|138:228,1,75.0000028610231
385,149,222724,2,0,L|464:155,1,75.0000028610231
289,325,223165,1,0,0:0:0:0:
309,85,223385,1,0,0:0:0:0:
91,187,223606,1,0,0:0:0:0:
328,152,223827,2,0,P|364:128|376:76,1,75.0000028610231
184,316,224157,1,0,0:0:0:0:
209,318,224268,6,0,L|300:326,1,80
32,324,224709,1,0,0:0:0:0:
32,324,224930,2,0,L|123:332,1,80
328,152,225371,2,0,L|236:143,1,80
468,276,225812,2,0,L|388:269,1,80
255,65,226253,2,0,L|246:156,1,80
384,364,226694,1,0,0:0:0:0:
134,296,226915,1,0,0:0:0:0:
317,113,227135,1,0,0:0:0:0:
192,336,227356,2,0,P|161:361|100:355,1,80
324,152,227687,1,0,0:0:0:0:
322,179,227797,6,0,L|314:270,1,85.0000016212464
135,32,228238,1,0,0:0:0:0:
135,32,228459,2,0,L|125:127,1,85.0000016212464
415,110,228900,2,0,L|422:26,1,85.0000016212464
218,235,229341,2,0,L|224:147,1,85.0000016212464
415,371,229782,2,0,L|331:362,1,85.0000016212464
422,31,230224,1,0,0:0:0:0:
151,54,230444,1,0,0:0:0:0:
307,278,230665,1,0,2:0:0:0:
480,72,230885,2,0,P|434:101|377:80,1,85.0000016212464
212,320,231216,1,0,0:0:0:0:
187,316,231327,6,0,L|83:306,1,89.9999972534181
314,91,231768,1,0,0:0:0:0:
314,91,231988,2,0,L|210:81,1,89.9999972534181
399,336,232430,2,0,L|488:343,1,89.9999972534181
208,220,232871,2,0,L|297:227,1,89.9999972534181
80,11,233312,2,0,L|70:114,1,89.9999972534181
288,317,233753,1,0,0:0:0:0:
164,36,233974,1,0,0:0:0:0:
469,69,234194,1,0,2:0:0:0:
469,69,234415,2,0,P|452:128|412:140,1,89.9999972534181
148,228,234746,1,0,0:0:0:0:
132,208,234856,6,0,L|140:108,1,89.9999972534181
356,335,235297,1,0,0:0:0:0:
356,335,235518,2,0,L|364:235,1,89.9999972534181
57,245,235959,2,0,L|49:334,1,89.9999972534181
265,117,236400,2,0,L|257:206,1,89.9999972534181
12,24,236841,2,0,L|101:31,1,89.9999972534181
318,248,237282,1,0,0:0:0:0:
16,195,237503,1,0,0:0:0:0:
318,142,237724,1,0,0:0:0:0:
49,334,237944,2,0,P|18:285|29:239,1,89.9999972534181
296,152,238275,1,0,0:0:0:0:
318,142,238385,6,0,L|407:149,1,89.9999972534181
88,276,238827,1,0,0:0:0:0:
88,276,239047,2,0,L|177:283,1,89.9999972534181
400,60,239488,2,0,L|310:52,1,89.9999972534181
464,328,239930,2,0,L|374:320,1,89.9999972534181
151,97,240371,2,0,L|143:186,1,89.9999972534181
143,186,240812,1,0,0:0:0:0:
456,212,241032,1,0,0:0:0:0:
143,238,241253,1,0,0:0:0:0:
443,143,241474,2,0,P|397:172|387:223,1,89.9999972534181
93,321,241915,5,0,0:0:0:0:
215,30,242135,1,0,0:0:0:0:
337,321,242356,1,0,0:0:0:0:
337,321,242577,1,0,0:0:0:0:
65,163,242797,1,0,0:0:0:0:
380,163,243018,1,0,0:0:0:0:
381,165,243238,2,0,P|428:201|432:259,1,89.9999972534181
168,49,243680,5,0,0:0:0:0:
70,347,243900,1,0,0:0:0:0:
70,347,244121,1,0,0:0:0:0:
365,236,244341,1,0,0:0:0:0:
58,161,244562,1,0,0:0:0:0:
365,86,244782,1,0,0:0:0:0:
83,228,245003,2,0,P|121:195|128:150,1,89.9999972534181
372,316,245334,1,0,0:0:0:0:
394,328,245444,5,0,0:0:0:0:
315,22,245665,1,0,0:0:0:0:
153,291,245885,1,0,0:0:0:0:
446,174,246106,1,0,0:0:0:0:
446,174,246327,1,0,0:0:0:0:
136,126,246547,1,0,0:0:0:0:
394,328,246768,2,0,P|447:308|468:271,1,89.9999972534181
266,35,247209,5,0,0:0:0:0:
42,258,247430,1,0,0:0:0:0:
351,202,247650,1,0,0:0:0:0:
60,78,247871,1,0,0:0:0:0:
220,347,248091,1,0,0:0:0:0:
266,35,248312,1,0,0:0:0:0:
266,35,248532,2,0,P|331:45|365:87,1,89.9999972534181
224,320,248863,1,0,0:0:0:0:
220,347,248974,5,0,0:0:0:0:
460,145,249194,1,0,0:0:0:0:
147,124,249415,1,0,0:0:0:0:
383,334,249635,1,0,0:0:0:0:
285,34,249856,1,0,0:0:0:0:
220,347,250077,1,0,0:0:0:0:
220,347,250297,2,0,P|172:328|144:284,1,89.9999972534181
440,180,250738,5,0,0:0:0:0:
124,212,250959,1,0,0:0:0:0:
432,168,251180,1,0,0:0:0:0:
116,116,251400,1,0,0:0:0:0:
372,328,251621,1,0,0:0:0:0:
108,104,251842,1,0,0:0:0:0:
423,14,252062,2,0,P|460:44|476:104,1,89.9999972534181
392,352,252393,1,0,0:0:0:0:
380,360,252503,5,0,0:0:0:0:
356,44,252724,1,0,0:0:0:0:
356,44,252944,1,0,0:0:0:0:
188,336,253165,1,0,0:0:0:0:
188,336,253385,1,0,0:0:0:0:
212,20,253606,1,0,0:0:0:0:
212,20,253827,2,0,P|168:48|156:84,1,89.9999972534181
292,312,254268,5,0,0:0:0:0:
292,312,254489,1,0,0:0:0:0:
113,50,254709,1,0,0:0:0:0:
113,50,254930,1,0,0:0:0:0:
32,352,255151,5,0,0:0:0:0:
348,328,255372,1,0,0:0:0:0:
112,256,255592,5,0,0:0:0:0:
428,232,255813,1,0,0:0:0:0:
134,312,256032,6,0,L|90:356,1,44.999998626709
260,343,256253,2,0,L|291:311,1,44.999998626709
90,220,256474,2,0,L|46:264,1,44.999998626709
216,251,256695,2,0,L|247:219,1,44.999998626709
136,108,256915,2,0,L|92:152,1,44.999998626709
262,139,257135,2,0,L|293:107,5,44.999998626709
404,218,257797,6,0,L|452:266,1,44.999998626709
280,267,258018,2,0,L|297:332,1,44.999998626709
136,296,258238,2,0,L|118:361,1,44.999998626709
136,171,258459,2,0,L|88:123,1,44.999998626709
260,122,258680,2,0,L|242:56,1,44.999998626709
404,93,258900,2,0,L|421:27,5,44.999998626709
356,196,259562,6,0,L|366:255,1,44.999998626709
336,84,259782,2,0,L|325:24,1,44.999998626709
116,184,260003,2,0,L|68:192,1,44.999998626709
228,164,260223,2,0,L|272:155,1,44.999998626709
184,232,260444,2,0,L|194:291,1,44.999998626709
164,120,260664,2,0,L|153:60,5,44.999998626709
304,132,261327,6,0,L|360:108,1,44.999998626709
198,57,261547,2,0,L|156:74,1,44.999998626709
290,221,261768,2,0,L|346:197,1,44.999998626709
184,146,261988,2,0,L|142:163,1,44.999998626709
276,312,262209,2,0,L|317:294,1,44.999998626709
171,238,262430,2,0,L|129:255,5,44.999998626709
88,268,263091,5,0,0:0:0:0:
44,262,263201,1,0,0:0:0:0:
11,232,263311,1,0,0:0:0:0:
3,189,263421,1,0,0:0:0:0:
22,149,263532,1,0,0:0:0:0:
61,128,263642,1,0,0:0:0:0:
104,129,263753,1,0,0:0:0:0:
139,155,263863,1,0,0:0:0:0:
164,196,263974,1,0,0:0:0:0:
198,223,264084,1,0,0:0:0:0:
242,222,264194,1,0,0:0:0:0:
274,192,264304,1,0,0:0:0:0:
280,149,264415,2,0,L|264:104,5,44.999998626709
248,64,265077,5,0,0:0:0:0:
214,34,265187,1,0,0:0:0:0:
171,27,265297,1,0,0:0:0:0:
130,44,265407,1,0,0:0:0:0:
105,81,265518,1,0,0:0:0:0:
104,125,265628,1,0,0:0:0:0:
118,168,265738,1,0,0:0:0:0:
146,203,265848,1,0,0:0:0:0:
185,224,265958,1,0,0:0:0:0:
230,229,266069,1,0,0:0:0:0:
273,217,266179,1,0,0:0:0:0:
308,190,266289,1,0,0:0:0:0:
328,152,266400,2,0,L|340:104,5,44.999998626709
316,68,267062,5,0,0:0:0:0:
272,62,267172,1,0,0:0:0:0:
240,91,267282,1,0,0:0:0:0:
242,134,267392,1,0,0:0:0:0:
256,176,267503,1,0,0:0:0:0:
257,219,267613,1,0,0:0:0:0:
225,248,267723,1,0,0:0:0:0:
182,242,267833,1,0,0:0:0:0:
140,228,267944,1,0,0:0:0:0:
96,222,268054,1,0,0:0:0:0:
64,251,268164,1,0,0:0:0:0:
66,294,268274,1,0,0:0:0:0:
92,332,268385,1,0,0:0:0:0:
302,332,268606,6,0,L|358:276,1,59.9999981689454
344,289,269047,1,0,0:0:0:0:
195,140,269268,1,0,0:0:0:0:
404,140,269488,1,0,0:0:0:0:
404,140,269709,6,0,L|372:108,1,37.5000014305115
84,304,270150,6,0,P|136:326|198:290,1,100
299,164,270481,1,0,0:0:0:0:
298,130,270591,2,0,P|305:74|344:37,1,100
83,291,271032,1,0,0:0:0:0:
346,201,271253,1,0,0:0:0:0:
375,162,271363,1,0,0:0:0:0:
377,113,271473,1,0,0:0:0:0:
377,113,271694,1,0,0:0:0:0:
44,228,271915,6,0,P|100:220|148:260,1,100
280,340,272246,1,0,0:0:0:0:
304,348,272356,2,0,P|360:356|408:316,1,100
164,72,272797,1,0,0:0:0:0:
268,152,273018,1,0,0:0:0:0:
288,196,273128,1,0,0:0:0:0:
332,220,273238,2,0,P|386:236|439:204,1,100
100,68,273680,5,0,0:0:0:0:
100,68,273900,1,0,0:0:0:0:
121,23,274010,1,0,0:0:0:0:
166,3,274120,1,0,0:0:0:0:
484,152,274341,1,0,0:0:0:0:
164,296,274562,2,0,P|117:281|89:240,1,100
88,192,274893,1,0,0:0:0:0:
136,188,275003,2,0,P|181:207|228:194,1,100
369,328,275444,5,0,0:0:0:0:
185,107,275665,1,0,0:0:0:0:
149,72,275775,1,0,0:0:0:0:
100,68,275885,1,0,0:0:0:0:
112,142,276106,1,0,0:0:0:0:
462,142,276327,1,0,0:0:0:0:
228,193,276547,1,0,0:0:0:0:
181,209,276657,1,0,0:0:0:0:
156,251,276767,1,0,0:0:0:0:
350,37,276988,1,0,0:0:0:0:
497,355,277209,5,0,0:0:0:0:
216,145,277430,1,0,0:0:0:0:
216,145,277540,1,0,0:0:0:0:
216,145,277650,2,0,P|167:171|165:233,1,100
157,211,278091,1,0,0:0:0:0:
469,52,278312,1,0,0:0:0:0:
505,86,278422,1,0,0:0:0:0:
512,134,278532,1,0,0:0:0:0:
200,293,278753,1,0,0:0:0:0:
5,191,278974,6,0,P|17:143|56:114,1,100
100,100,279304,1,0,0:0:0:0:
147,114,279414,1,0,0:0:0:0:
496,72,279635,1,0,0:0:0:0:
147,114,279856,1,0,0:0:0:0:
236,304,280077,1,0,0:0:0:0:
276,331,280187,1,0,0:0:0:0:
325,327,280297,1,0,0:0:0:0:
4,188,280518,1,0,0:0:0:0:
4,188,280738,1,0,0:0:0:0:
200,160,280959,5,0,0:0:0:0:
244,140,281069,1,0,0:0:0:0:
266,96,281179,1,0,0:0:0:0:
68,123,281400,1,0,0:0:0:0:
312,36,281621,2,0,P|342:88|311:153,1,100,0|0,2:0|2:0,2:0:0:0:
316,171,281952,1,0,0:0:0:0:
290,213,282062,1,0,0:0:0:0:
166,369,282282,1,0,0:0:0:0:
82,264,282503,5,0,0:0:0:0:
312,36,282724,1,0,0:0:0:0:
361,35,282834,1,0,0:0:0:0:
401,64,282944,1,0,0:0:0:0:
444,310,283165,1,0,0:0:0:0:
487,65,283385,1,0,0:0:0:0:
252,151,283606,1,0,0:0:0:0:
209,175,283716,1,0,0:0:0:0:
188,220,283827,1,0,0:0:0:0:
434,177,284047,1,0,0:0:0:0:
199,91,284268,6,0,P|144:115|131:186,1,100,0|0,2:0|2:0,2:0:0:0:
121,199,284599,1,0,0:0:0:0:
114,248,284709,1,0,0:0:0:0:
179,5,284930,1,0,0:0:0:0:
353,307,285150,1,0,0:0:0:0:
353,307,285371,1,0,0:0:0:0:
399,290,285481,1,0,0:0:0:0:
423,248,285591,1,0,0:0:0:0:
175,204,285812,1,0,0:0:0:0:
456,184,286032,6,0,P|492:228|489:274,1,100
482,318,286363,1,0,0:0:0:0:
450,357,286474,1,0,0:0:0:0:
105,296,286694,1,0,0:0:0:0:
351,252,286915,1,0,0:0:0:0:
190,61,287135,1,0,0:0:0:0:
144,42,287245,1,0,0:0:0:0:
98,58,287355,1,0,0:0:0:0:
276,236,287577,1,0,0:0:0:0:
452,59,287797,5,0,0:0:0:0:
128,194,288018,1,0,0:0:0:0:
92,228,288128,1,0,0:0:0:0:
87,277,288238,1,0,0:0:0:0:
334,320,288459,1,0,0:0:0:0:
249,85,288680,2,0,P|210:47|159:36,1,100
117,44,289010,1,0,0:0:0:0:
81,79,289121,1,0,0:0:0:0:
124,324,289341,1,0,0:0:0:0:
310,164,289562,5,0,0:0:0:0:
493,316,289782,1,0,0:0:0:0:
483,363,289892,1,0,0:0:0:0:
439,384,290002,1,0,0:0:0:0:
190,340,290224,1,0,0:0:0:0:
442,87,290444,2,0,P|409:40|356:39,1,100
320,41,290775,1,0,0:0:0:0:
272,56,290885,1,0,0:0:0:0:
115,125,291106,1,0,0:0:0:0:
419,300,291327,5,0,0:0:0:0:
169,300,291547,1,0,0:0:0:0:
121,288,291657,1,0,0:0:0:0:
87,252,291767,1,0,0:0:0:0:
345,14,291988,1,0,0:0:0:0:
