osu file format v14

[General]
AudioFilename: snow.ogg
AudioLeadIn: 0
PreviewTime: 19711
Countdown: 0
SampleSet: Soft
StackLeniency: 0.7
Mode: 3
LetterboxInBreaks: 0
SpecialStyle: 0
WidescreenStoryboard: 1

[Editor]
Bookmarks: 38922,41676
DistanceSpacing: 0.5
BeatDivisor: 4
GridSize: 8
TimelineZoom: 2.100005

[Metadata]
Title:Snow Changes to a Beat Again
TitleUnicode:Snow Changes to a Beat Again
Artist:Halozy
ArtistUnicode:Halozy
Creator:by-ad
Version:Rang's Hard
Source:
Tags:C83 Comiket 83 Comic Market 83 コミケ83 コミックマーケット83 Doujin Indie HLZY-0015 Snow Melody sumijun 住友順 Sumitomo Jun edm house electronic instrumental Etsu FAMoss Rangga rnov_
BeatmapID:3829715
BeatmapSetID:1862458

[Difficulty]
HPDrainRate:8
CircleSize:4
OverallDifficulty:8
ApproachRate:5
SliderMultiplier:1.4
SliderTickRate:1

[Events]
//Background and Video events
0,0,"BG Snow.jpg",0,0
//Break Periods
//Storyboard Layer 0 (Background)
//Storyboard Layer 1 (Fail)
//Storyboard Layer 2 (Pass)
//Storyboard Layer 3 (Foreground)
//Storyboard Layer 4 (Overlay)
//Storyboard Sound Samples

[TimingPoints]
1391,458.015267175573,4,2,1,70,1,0
1391,-100,4,2,1,70,0,1
1505,-100,4,2,1,70,0,0
34368,-100,4,2,1,70,0,1
48566,-100,4,2,1,70,0,0
49024,-100,4,2,1,70,0,1
49139,-100,4,2,1,70,0,0

[HitObjects]
64,192,1391,1,4,0:0:0:0:
192,192,1391,1,0,0:0:0:70:LR_Chm Echo long.wav
448,192,1391,1,0,0:0:0:0:
320,192,1849,1,0,0:0:0:0:
192,192,2307,1,0,0:0:0:0:
64,192,2765,1,0,0:0:0:0:
448,192,3223,1,0,0:0:0:0:
192,192,3681,1,0,0:0:0:0:
320,192,4139,128,0,5055:0:0:0:0:
64,192,5055,1,12,0:0:0:0:
448,192,5055,1,2,0:0:0:0:
192,192,5284,1,0,0:0:0:0:
64,192,5513,1,8,0:0:0:0:
448,192,5513,1,0,0:0:0:0:
192,192,5742,1,0,0:0:0:0:
64,192,5971,1,8,0:0:0:0:
448,192,5971,1,0,0:0:0:0:
192,192,6200,1,0,0:0:0:0:
64,192,6314,1,8,0:0:0:0:
320,192,6314,1,0,0:0:0:0:
192,192,6429,1,0,0:0:0:0:
64,192,6658,1,8,0:0:0:0:
448,192,6658,1,0,0:0:0:0:
192,192,6887,1,8,0:0:0:0:
448,192,6887,1,0,0:0:0:0:
320,192,7116,1,0,0:0:0:0:
192,192,7345,1,8,0:0:0:0:
448,192,7345,1,0,0:0:0:0:
320,192,7574,1,0,0:0:0:0:
192,192,7803,1,8,0:0:0:0:
448,192,7803,1,0,0:0:0:0:
320,192,8032,1,0,0:0:0:0:
192,192,8146,1,8,0:0:0:0:
448,192,8146,1,0,0:0:0:0:
320,192,8261,1,0,0:0:0:0:
192,192,8490,1,8,0:0:0:0:
448,192,8490,1,0,0:0:0:0:
64,192,8719,1,8,0:0:0:0:
320,192,8719,1,0,0:0:0:0:
192,192,8948,1,0,0:0:0:0:
64,192,9177,1,8,0:0:0:0:
320,192,9177,1,0,0:0:0:0:
192,192,9406,1,0,0:0:0:0:
64,192,9635,1,8,0:0:0:0:
320,192,9635,1,0,0:0:0:0:
192,192,9864,1,0,0:0:0:0:
320,192,9978,1,8,0:0:0:0:
448,192,9978,1,0,0:0:0:0:
192,192,10093,1,0,0:0:0:0:
64,192,10322,1,8,0:0:0:0:
320,192,10322,1,0,0:0:0:0:
64,192,10551,1,8,0:0:0:0:
448,192,10551,1,0,0:0:0:0:
320,192,10780,1,0,0:0:0:0:
64,192,11009,1,8,0:0:0:0:
448,192,11009,1,0,0:0:0:0:
320,192,11238,1,0,0:0:0:0:
64,192,11467,1,8,0:0:0:0:
448,192,11467,1,0,0:0:0:0:
320,192,11696,1,0,0:0:0:0:
64,192,11810,1,8,0:0:0:0:
192,192,11810,1,0,0:0:0:0:
320,192,11925,1,0,0:0:0:0:
192,192,12154,1,8,0:0:0:0:
448,192,12154,1,0,0:0:0:0:
64,192,12383,1,8,0:0:0:0:
320,192,12383,1,4,0:0:0:0:
192,192,12497,1,0,0:0:0:0:
320,192,12612,1,0,0:0:0:0:
448,192,12726,1,0,0:0:0:0:
64,192,12841,1,8,0:0:0:0:
320,192,12841,1,0,0:0:0:0:
192,192,12955,1,0,0:0:0:0:
448,192,13070,1,0,0:0:0:0:
192,192,13184,1,0,0:0:0:0:
64,192,13299,1,8,0:0:0:0:
320,192,13299,1,0,0:0:0:0:
448,192,13413,1,0,0:0:0:0:
192,192,13528,1,0,0:0:0:0:
64,192,13642,1,8,0:0:0:0:
320,192,13642,1,0,0:0:0:0:
192,192,13757,1,0,0:0:0:0:
448,192,13871,1,0,0:0:0:0:
64,192,13986,128,8,14215:0:0:0:0:
320,192,13986,1,0,0:0:0:0:
192,192,14215,1,8,0:0:0:0:
448,192,14215,1,0,0:0:0:0:
320,192,14329,1,0,0:0:0:0:
448,192,14444,1,0,0:0:0:0:
64,192,14558,1,0,0:0:0:0:
192,192,14673,1,8,0:0:0:0:
448,192,14673,1,0,0:0:0:0:
320,192,14787,1,0,0:0:0:0:
64,192,14902,1,0,0:0:0:0:
320,192,15016,1,0,0:0:0:0:
192,192,15131,1,8,0:0:0:0:
448,192,15131,1,0,0:0:0:0:
64,192,15245,1,0,0:0:0:0:
320,192,15360,1,0,0:0:0:0:
192,192,15474,1,8,0:0:0:0:
448,192,15474,1,0,0:0:0:0:
320,192,15589,1,0,0:0:0:0:
64,192,15703,1,0,0:0:0:0:
192,192,15818,1,8,0:0:0:0:
448,192,15818,128,0,16047:0:0:0:0:
64,192,16047,1,8,0:0:0:0:
192,192,16047,1,0,0:0:0:0:
320,192,16161,1,0,0:0:0:0:
448,192,16276,1,0,0:0:0:0:
64,192,16391,1,0,0:0:0:0:
320,192,16505,1,8,0:0:0:0:
448,192,16505,1,0,0:0:0:0:
192,192,16620,1,0,0:0:0:0:
64,192,16734,1,0,0:0:0:0:
448,192,16849,1,0,0:0:0:0:
64,192,16963,1,8,0:0:0:0:
192,192,16963,1,0,0:0:0:0:
320,192,17078,1,0,0:0:0:0:
448,192,17192,1,0,0:0:0:0:
192,192,17307,1,8,0:0:0:0:
320,192,17307,1,0,0:0:0:0:
64,192,17421,1,0,0:0:0:0:
448,192,17536,1,0,0:0:0:0:
192,192,17650,128,8,17879:0:0:0:0:
320,192,17650,1,0,0:0:0:0:
64,192,17879,1,8,0:0:0:0:
448,192,17879,1,0,0:0:0:0:
320,192,17994,1,0,0:0:0:0:
192,192,18108,1,0,0:0:0:0:
64,192,18223,1,0,0:0:0:0:
320,192,18337,1,8,0:0:0:0:
448,192,18337,1,0,0:0:0:0:
192,192,18452,1,0,0:0:0:0:
320,192,18566,1,0,0:0:0:0:
448,192,18681,1,0,0:0:0:0:
64,192,18795,1,8,0:0:0:0:
192,192,18795,1,0,0:0:0:0:
320,192,18910,1,0,0:0:0:0:
192,192,19024,1,0,0:0:0:0:
64,192,19139,1,8,0:0:0:0:
448,192,19139,1,0,0:0:0:0:
192,192,19253,1,8,0:0:0:0:
320,192,19253,128,0,19711:0:0:0:0:
64,192,19711,128,12,19940:0:0:0:0:
448,192,19711,1,2,0:0:0:0:
192,192,19940,1,0,0:0:0:0:
64,192,20169,128,8,20398:0:0:0:0:
448,192,20169,1,2,0:0:0:0:
320,192,20398,1,0,0:0:0:0:
192,192,20627,128,8,20856:0:0:0:0:
320,192,20627,1,2,0:0:0:0:
64,192,20856,1,0,0:0:0:0:
448,192,20971,1,8,0:0:0:0:
192,192,21085,128,2,21314:0:0:0:0:
320,192,21085,1,0,0:0:0:0:
64,192,21314,1,8,0:0:0:0:
448,192,21314,1,0,0:0:0:0:
320,192,21543,128,8,21772:0:0:0:0:
448,192,21543,1,2,0:0:0:0:
192,192,21772,1,0,0:0:0:0:
320,192,22001,128,8,22230:0:0:0:0:
448,192,22001,1,2,0:0:0:0:
64,192,22230,1,0,0:0:0:0:
320,192,22459,1,8,0:0:0:0:
448,192,22459,128,2,22688:0:0:0:0:
192,192,22688,1,0,0:0:0:0:
320,192,22803,1,8,0:0:0:0:
64,192,22917,1,2,0:0:0:0:
448,192,22917,128,0,23146:0:0:0:0:
192,192,23146,1,8,0:0:0:0:
320,192,23146,1,0,0:0:0:0:
64,192,23375,128,8,23604:0:0:0:0:
320,192,23375,1,2,0:0:0:0:
192,192,23604,1,0,0:0:0:0:
192,192,23833,128,8,24062:0:0:0:0:
448,192,23833,1,2,0:0:0:0:
320,192,24062,1,0,0:0:0:0:
320,192,24291,128,8,24520:0:0:0:0:
448,192,24291,1,2,0:0:0:0:
192,192,24520,1,0,0:0:0:0:
64,192,24635,1,8,0:0:0:0:
320,192,24749,1,2,0:0:0:0:
448,192,24749,128,0,24978:0:0:0:0:
192,192,24978,1,8,0:0:0:0:
64,192,25207,1,8,0:0:0:0:
320,192,25207,128,2,25436:0:0:0:0:
448,192,25436,1,0,0:0:0:0:
64,192,25665,1,8,0:0:0:0:
192,192,25665,128,2,25894:0:0:0:0:
320,192,25894,1,0,0:0:0:0:
64,192,26123,128,8,26352:0:0:0:0:
448,192,26123,1,2,0:0:0:0:
320,192,26352,1,0,0:0:0:0:
448,192,26467,1,8,0:0:0:0:
64,192,26581,1,2,0:0:0:0:
192,192,26581,128,0,26810:0:0:0:0:
320,192,26810,1,8,0:0:0:0:
448,192,26810,1,0,0:0:0:0:
64,192,27039,1,8,0:0:0:0:
192,192,27039,1,4,0:0:0:0:
448,192,27039,1,2,0:0:0:0:
64,192,27383,1,2,0:0:0:0:
192,192,27383,1,0,0:0:0:0:
320,192,27497,1,8,0:0:0:0:
448,192,27497,1,0,0:0:0:0:
192,192,27726,1,2,0:0:0:0:
320,192,27726,1,0,0:0:0:0:
64,192,27955,1,8,0:0:0:0:
448,192,27955,1,2,0:0:0:0:
320,192,28299,1,8,0:0:0:0:
448,192,28299,1,2,0:0:0:0:
64,192,28413,1,0,0:0:0:0:
192,192,28413,1,0,0:0:0:0:
192,192,28642,1,8,0:0:0:0:
320,192,28642,1,2,0:0:0:0:
64,192,28871,1,8,0:0:0:0:
448,192,28871,1,2,0:0:0:0:
64,192,29215,1,2,0:0:0:0:
192,192,29215,1,0,0:0:0:0:
320,192,29329,1,8,0:0:0:0:
448,192,29329,1,0,0:0:0:0:
192,192,29558,1,2,0:0:0:0:
320,192,29558,1,0,0:0:0:0:
64,192,29787,1,8,0:0:0:0:
448,192,29787,1,2,0:0:0:0:
64,192,30131,1,8,0:0:0:0:
320,192,30131,1,2,0:0:0:0:
192,192,30245,1,0,0:0:0:0:
448,192,30245,1,0,0:0:0:0:
64,192,30474,1,8,0:0:0:0:
320,192,30474,1,2,0:0:0:0:
192,192,30703,1,8,0:0:0:0:
320,192,30703,1,2,0:0:0:0:
192,192,31047,1,2,0:0:0:0:
448,192,31047,1,0,0:0:0:0:
64,192,31161,1,8,0:0:0:0:
320,192,31161,1,0,0:0:0:0:
192,192,31391,1,2,0:0:0:0:
448,192,31391,1,0,0:0:0:0:
192,192,31620,1,8,0:0:0:0:
320,192,31620,1,2,0:0:0:0:
64,192,31963,1,8,0:0:0:0:
448,192,31963,1,2,0:0:0:0:
192,192,32078,1,0,0:0:0:0:
320,192,32078,1,0,0:0:0:0:
320,192,32307,1,8,0:0:0:0:
448,192,32307,1,2,0:0:0:0:
64,192,32536,1,8,0:0:0:0:
192,192,32536,1,2,0:0:0:0:
192,192,32879,1,2,0:0:0:0:
320,192,32879,1,0,0:0:0:0:
64,192,32994,1,8,0:0:0:0:
448,192,32994,1,0,0:0:0:0:
64,192,33223,1,2,0:0:0:0:
192,192,33223,1,0,0:0:0:0:
320,192,33452,1,8,0:0:0:0:
448,192,33452,1,2,0:0:0:0:
192,192,33681,128,0,33795:0:0:0:0:
320,192,33795,128,8,33910:0:0:0:0:
192,192,33910,128,8,34024:0:0:0:0:
448,192,33910,1,0,0:0:0:0:
64,192,34024,128,0,34139:0:0:0:0:
320,192,34139,128,0,34253:0:0:0:0:
448,192,34253,128,0,34368:0:0:0:0:
64,192,34368,1,2,0:0:0:0:
192,192,34368,1,4,0:0:0:0:
320,192,34368,1,8,0:0:0:0:
64,192,34597,128,0,34711:0:0:0:0:
448,192,34711,128,0,34826:0:0:0:0:
192,192,34826,128,2,35055:0:0:0:0:
320,192,34826,1,8,0:0:0:0:
448,192,35055,128,0,35284:0:0:0:0:
64,192,35284,1,2,0:0:0:0:
320,192,35284,1,8,0:0:0:0:
192,192,35513,1,0,0:0:0:0:
64,192,35627,1,8,0:0:0:0:
320,192,35742,1,2,0:0:0:0:
448,192,35742,1,0,0:0:0:0:
192,192,35971,1,8,0:0:0:0:
320,192,35971,1,0,0:0:0:0:
64,192,36200,1,2,0:0:0:0:
448,192,36200,1,8,0:0:0:0:
64,192,36429,128,0,36543:0:0:0:0:
192,192,36543,128,0,36658:0:0:0:0:
320,192,36658,1,2,0:0:0:0:
448,192,36658,128,8,36887:0:0:0:0:
192,192,36887,128,0,37116:0:0:0:0:
64,192,37116,1,2,0:0:0:0:
320,192,37116,1,8,0:0:0:0:
448,192,37345,1,0,0:0:0:0:
320,192,37459,1,8,0:0:0:0:
64,192,37574,1,2,0:0:0:0:
192,192,37574,1,0,0:0:0:0:
64,192,37803,1,8,0:0:0:0:
320,192,37803,1,0,0:0:0:0:
192,192,38032,1,2,0:0:0:0:
448,192,38032,1,8,0:0:0:0:
448,192,38261,128,0,38375:0:0:0:0:
64,192,38375,128,0,38490:0:0:0:0:
192,192,38490,1,2,0:0:0:0:
320,192,38490,128,8,38719:0:0:0:0:
64,192,38719,128,0,38948:0:0:0:0:
192,192,38948,1,2,0:0:0:0:
448,192,38948,128,8,39177:0:0:0:0:
320,192,39177,1,0,0:0:0:0:
192,192,39291,1,8,0:0:0:0:
64,192,39406,1,2,0:0:0:0:
448,192,39406,128,0,39635:0:0:0:0:
192,192,39635,1,8,0:0:0:0:
320,192,39635,1,0,0:0:0:0:
64,192,39864,1,2,0:0:0:0:
320,192,39864,128,8,40093:0:0:0:0:
192,192,40093,128,0,40207:0:0:0:0:
64,192,40207,128,0,40322:0:0:0:0:
320,192,40322,1,2,0:0:0:0:
448,192,40322,128,8,40436:0:0:0:0:
192,192,40436,128,0,40551:0:0:0:0:
320,192,40551,128,0,40780:0:0:0:0:
64,192,40780,1,2,0:0:0:0:
192,192,40780,128,8,41009:0:0:0:0:
320,192,41009,1,0,0:0:0:0:
448,192,41123,1,8,0:0:0:0:
64,192,41238,128,2,41467:0:0:0:0:
320,192,41238,1,0,0:0:0:0:
192,192,41467,1,8,0:0:0:0:
448,192,41467,1,0,0:0:0:0:
64,192,41696,1,6,0:0:0:0:
320,192,41696,1,8,0:0:0:0:
64,192,41925,1,0,0:0:0:0:
192,192,42039,1,2,0:0:0:0:
320,192,42039,1,0,0:0:0:0:
64,192,42154,1,8,0:0:0:0:
448,192,42154,1,4,0:0:0:0:
192,192,42383,1,2,0:0:0:0:
448,192,42383,1,0,0:0:0:0:
192,192,42612,1,10,0:0:0:0:
320,192,42612,1,4,0:0:0:0:
448,192,42841,1,0,0:0:0:0:
64,192,42955,1,2,0:0:0:0:
320,192,42955,1,0,0:0:0:0:
192,192,43070,1,8,0:0:0:0:
448,192,43070,1,4,0:0:0:0:
192,192,43299,1,2,0:0:0:0:
320,192,43299,1,0,0:0:0:0:
64,192,43528,1,10,0:0:0:0:
448,192,43528,1,4,0:0:0:0:
64,192,43757,1,0,0:0:0:0:
192,192,43757,1,0,0:0:0:0:
320,192,43871,1,2,0:0:0:0:
64,192,43986,1,8,0:0:0:0:
448,192,43986,1,4,0:0:0:0:
192,192,44215,1,2,0:0:0:0:
448,192,44215,1,0,0:0:0:0:
320,192,44329,1,0,0:0:0:0:
64,192,44444,1,10,0:0:0:0:
448,192,44444,1,4,0:0:0:0:
320,192,44673,1,0,0:0:0:0:
448,192,44673,1,0,0:0:0:0:
192,192,44787,1,2,0:0:0:0:
64,192,44902,1,8,0:0:0:0:
320,192,44902,1,4,0:0:0:0:
64,192,45131,1,2,0:0:0:0:
448,192,45131,1,0,0:0:0:0:
320,192,45245,1,0,0:0:0:0:
192,192,45360,1,10,0:0:0:0:
448,192,45360,1,4,0:0:0:0:
64,192,45474,1,0,0:0:0:0:
320,192,45589,1,0,0:0:0:0:
448,192,45703,1,2,0:0:0:0:
64,192,45818,1,8,0:0:0:0:
192,192,45818,1,4,0:0:0:0:
320,192,45932,1,0,0:0:0:0:
192,192,46047,1,2,0:0:0:0:
64,192,46161,1,0,0:0:0:0:
192,192,46276,1,10,0:0:0:0:
448,192,46276,1,4,0:0:0:0:
320,192,46391,1,0,0:0:0:0:
448,192,46505,1,0,0:0:0:0:
192,192,46620,1,2,0:0:0:0:
64,192,46734,1,8,0:0:0:0:
320,192,46734,1,4,0:0:0:0:
448,192,46849,1,0,0:0:0:0:
64,192,46963,1,2,0:0:0:0:
192,192,47078,1,0,0:0:0:0:
320,192,47192,1,10,0:0:0:0:
448,192,47192,1,4,0:0:0:0:
64,192,47307,1,0,0:0:0:0:
192,192,47421,1,0,0:0:0:0:
320,192,47536,1,2,0:0:0:0:
64,192,47650,1,8,0:0:0:0:
448,192,47650,1,4,0:0:0:0:
192,192,47765,1,0,0:0:0:0:
320,192,47879,1,2,0:0:0:0:
448,192,47994,1,0,0:0:0:0:
64,192,48108,1,10,0:0:0:0:
192,192,48108,1,4,0:0:0:0:
320,192,48223,1,0,0:0:0:0:
448,192,48337,1,0,0:0:0:0:
192,192,48452,1,0,0:0:0:0:
320,192,48566,1,0,0:0:0:0:
448,192,48566,128,0,48681:0:0:0:0:
64,192,48681,128,0,48795:0:0:0:0:
192,192,48795,128,0,48910:0:0:0:0:
320,192,48910,128,0,49024:0:0:0:0:
64,192,49024,1,0,0:0:0:70:LR_Chm Echo long.wav
192,192,49024,1,0,0:0:0:0:
448,192,49024,1,0,0:0:0:0:
320,192,49482,1,0,0:0:0:0:
448,192,49940,1,0,0:0:0:0:
192,192,50398,1,0,0:0:0:0:
64,192,50856,1,0,0:0:0:0:
448,192,51314,1,0,0:0:0:0:
320,192,51772,128,0,52688:0:0:0:0:
