osu file format v14

[General]
AudioFilename: Snow Changes to a Beat Again.mp3
AudioLeadIn: 0
PreviewTime: 19689
Countdown: 0
SampleSet: Normal
StackLeniency: 0.7
Mode: 2
LetterboxInBreaks: 0
WidescreenStoryboard: 0

[Editor]
DistanceSpacing: 0.9
BeatDivisor: 4
GridSize: 4
TimelineZoom: 1.9

[Metadata]
Title:Snow Changes to a Beat Again
TitleUnicode:Snow Changes to a Beat Again
Artist:Halozy
ArtistUnicode:Halozy
Creator:BoberOfDarkness
Version:Sleet
Source:
Tags:c83 melody sumijun JBHyperion すみじゅん Jusenkyo
BeatmapID:845468
BeatmapSetID:387335

[Difficulty]
HPDrainRate:4
CircleSize:3
OverallDifficulty:7
ApproachRate:7
SliderMultiplier:1.4
SliderTickRate:2

[Events]
//Background and Video events
0,0,"bg.jpg",0,0
//Break Periods
//Storyboard Layer 0 (Background)
//Storyboard Layer 1 (Fail)
//Storyboard Layer 2 (Pass)
//Storyboard Layer 3 (Foreground)
//Storyboard Sound Samples

[TimingPoints]
1369,458.015267175573,4,2,2,30,1,0
1827,-100,4,2,2,50,0,0
2285,-100,4,2,2,30,0,0
4575,-100,4,2,2,5,0,0
5033,-100,4,1,2,75,0,0
12361,-100,4,2,2,70,0,0
12819,-100,4,3,2,35,0,0
19231,-50,4,2,2,50,0,0
19689,-66.6666666666667,4,1,2,75,0,0
34346,-50,4,1,2,75,0,1
48544,-66.6666666666667,4,2,2,70,0,0
51750,-66.6666666666667,4,1,2,75,0,0

[Colours]
Combo1 : 117,164,242
Combo2 : 218,218,228
Combo3 : 183,214,249
Combo4 : 166,174,193

[HitObjects]
372,256,1369,5,4,0:0:0:0:
256,192,1827,1,4,0:0:0:0:
180,84,2284,1,4,0:0:0:0:
256,192,2743,12,4,4575,0:0:0:0:
100,344,5033,6,0,L|88:264,1,70,0|8,0:0|0:0,0:0:0:0:
216,264,5491,2,0,L|244:172,1,70,0|8,0:0|0:0,0:0:0:0:
100,192,5949,2,0,P|43:151|20:96,2,105,0|0|2,0:0|0:0|0:0,0:0:0:0:
216,280,6865,5,0,0:0:0:0:
320,296,7094,1,8,0:0:0:0:
416,232,7323,1,0,0:0:0:0:
468,112,7552,1,8,0:0:0:0:
332,192,7781,2,0,B|304:216|284:220|220:220,2,105,0|8|2,0:0|0:0|0:0,0:0:0:0:
480,160,8697,6,0,L|468:80,1,70,0|8,0:0|0:0,0:0:0:0:
328,164,9155,2,0,L|356:72,1,70,0|8,0:0|0:0,0:0:0:0:
208,104,9613,2,0,L|128:20,2,105,0|8|2,0:0|0:0|0:0,0:0:0:0:
324,80,10529,5,0,0:0:0:0:
244,120,10758,1,0,0:0:0:0:
352,172,10987,1,0,0:0:0:0:
272,220,11216,1,0,0:0:0:0:
392,256,11445,2,0,L|456:356,2,105,0|8|2,0:0|0:0|0:0,0:0:0:0:
196,244,12361,6,0,P|136:212|120:116,1,140,4|8,0:0|0:0,0:0:0:0:
248,120,13048,2,0,P|276:88|304:40,1,70
376,16,13506,1,0,0:0:0:0:
368,68,13620,1,0,0:0:0:0:
348,112,13735,2,0,P|328:141|305:166,1,70,2|4,0:0|0:0,0:0:0:0:
168,56,14193,6,0,L|256:52,3,70,2|8|2|8,0:0|0:0|0:0|0:0,0:0:0:0:
352,52,15109,1,2,0:0:0:0:
400,108,15338,1,0,0:0:0:0:
392,152,15452,1,0,0:0:0:0:
356,188,15567,1,8,0:0:0:0:
216,72,15796,1,4,0:0:0:0:
316,100,16025,6,0,L|336:156,2,35,2|0|0,0:0|0:0|0:0,0:0:0:0:
204,80,16483,1,0,0:0:0:0:
316,52,16712,1,8,0:0:0:0:
204,100,16941,6,0,L|184:156,2,35,2|0|4,0:0|0:0|0:0,0:0:0:0:
332,56,17399,1,0,0:0:0:0:
256,192,17857,12,4,19231,0:0:0:0:
216,88,19689,6,0,P|164:116|180:284,1,210.000008010865,0|8,0:0|0:0,0:0:0:0:
256,292,20376,1,0,0:0:0:0:
392,184,20605,2,0,P|440:136|440:24,2,157.500006008148,8|2|8,0:0|0:0|0:0,0:0:0:0:
248,136,21521,5,0,0:0:0:0:
68,256,21979,2,0,P|40:216|40:144,1,105.000004005432,2|0,0:0|0:0,0:0:0:0:
184,44,22437,2,0,B|212:56|236:80|236:80|276:136|240:188,2,157.500006008148,8|0|2,0:0|0:0|0:0,0:0:0:0:
88,152,23353,5,0,0:0:0:0:
324,192,23811,2,0,L|196:240,1,105.000004005432,0|8,0:0|0:0,0:0:0:0:
344,192,24269,2,0,P|436:68|436:36,2,157.500006008148,0|2|0,0:0|0:0|0:0,0:0:0:0:
212,192,25185,6,0,L|300:132,1,105.000004005432,0|8,0:0|0:0,0:0:0:0:
168,140,25643,2,0,L|88:64,1,105.000004005432,0|2,0:0|0:0,0:0:0:0:
192,48,26101,2,0,B|272:56|311:111|311:111|264:132,2,157.500006008148,8|2|8,0:0|0:0|0:0,0:0:0:0:
384,84,27017,6,0,P|472:116|484:208,2,157.500006008148,4|0|0,0:0|0:0|0:0,0:0:0:0:
240,136,27933,2,0,B|168:140|156:236|156:236|108:236,2,157.500006008148,8|2|8,0:0|0:0|0:0,0:0:0:0:
384,92,28849,2,0,B|456:96|468:192|468:192|516:192,2,157.500006008148,2|8|2,0:0|0:0|0:0,0:0:0:0:
276,168,29765,2,0,P|232:152|180:56,2,157.500006008148,8|2|8,0:0|0:0|0:0,0:0:0:0:
140,200,30681,6,0,P|32:276|24:312,2,157.500006008148,8|2|8,0:0|0:0|0:0,0:0:0:0:
268,320,31598,2,0,P|356:268|364:188,2,157.500006008148,8|2|0,0:0|0:0|0:0,0:0:0:0:
148,232,32514,6,0,P|156:160|224:88,2,157.500006008148,8|2|8,0:0|0:0|0:0,0:0:0:0:
328,52,33430,2,0,P|390:109|403:143,1,105.000004005432
400,180,33773,1,0,0:0:0:0:
380,224,33888,1,0,0:0:0:0:
344,252,34002,1,0,0:0:0:0:
300,268,34117,1,0,0:0:0:0:
88,28,34346,6,0,P|36:76|76:204,1,210,8|0,0:0|0:0,0:0:0:0:
144,148,34804,2,0,P|212:172|312:348,1,280
244,100,35491,2,0,L|228:12,1,70
308,24,35720,2,0,P|352:112|348:184,1,140,0|0,0:0|0:0,0:0:0:0:
144,212,36178,6,0,P|56:156|40:100,1,140,0|0,0:0|0:0,0:0:0:0:
44,100,36521,1,0,0:0:0:0:
52,76,36636,1,0,0:0:0:0:
220,80,36865,5,0,0:0:0:0:
252,100,36980,1,0,0:0:0:0:
268,130,37094,2,0,P|231:188|167:215,1,140,0|0,0:0|0:0,0:0:0:0:
284,292,37552,1,8,0:0:0:0:
167,214,37781,1,8,0:0:0:0:
320,292,38010,6,0,P|408:236|424:180,1,140,0|0,0:0|0:0,0:0:0:0:
440,184,38353,1,0,0:0:0:0:
432,160,38468,1,0,0:0:0:0:
288,140,38697,1,2,0:0:0:0:
152,144,38926,2,0,P|120:184|136:276,1,140
204,296,39269,1,0,0:0:0:0:
280,256,39384,2,0,P|298:167|262:108,1,140
116,144,39842,6,0,P|76:244|88:300,1,140,8|0,0:0|0:0,0:0:0:0:
220,328,40300,2,0,P|300:264|296:196,1,140,0|8,0:0|0:0,0:0:0:0:
172,240,40758,1,8,0:0:0:0:
284,344,40987,1,0,0:0:0:0:
312,328,41101,1,2,0:0:0:0:
332,292,41216,2,0,P|316:164|284:136,1,140
60,88,41674,5,8,0:0:0:0:
236,192,42131,2,0,L|124:84,1,140,8|0,0:0|0:0,0:0:0:0:
300,48,42590,1,2,0:0:0:0:
400,28,43048,2,0,L|364:172,1,140,2|0,0:0|0:0,0:0:0:0:
136,88,43506,6,0,P|68:160|128:320,1,280,8|2,0:0|0:0,0:0:0:0:
220,272,44193,1,0,0:0:0:0:
416,56,44422,2,0,L|364:349,1,280
248,352,45109,1,0,0:0:0:0:
64,172,45338,6,0,L|24:260,2,70,0|2|0,0:0|0:0|0:0,0:0:0:0:
204,172,45796,2,0,L|244:260,2,70,0|2|0,0:0|0:0|0:0,0:0:0:0:
148,140,46254,1,8,0:0:0:0:
244,112,46483,1,0,0:0:0:0:
372,88,46712,1,8,0:0:0:0:
296,52,46941,1,0,0:0:0:0:
112,88,47170,6,0,L|76:156,2,70,0|2|0,0:0|0:0|0:0,0:0:0:0:
252,216,47628,1,0,0:0:0:0:
232,156,47743,1,2,0:0:0:0:
192,108,47857,1,0,0:0:0:0:
332,88,48086,6,0,L|368:156,2,70,0|2|0,0:0|0:0|0:0,0:0:0:0:
224,64,48544,2,0,P|180:96|160:172,1,105.000004005432
340,288,49002,5,4,0:0:0:0:
224,224,49460,1,4,0:0:0:0:
148,116,49917,1,4,0:0:0:0:
256,192,50376,12,0,52665,0:0:0:0:
