osu file format v14

[General]
AudioFilename: Snow Changes to a Beat Again.mp3
AudioLeadIn: 0
PreviewTime: 19689
Countdown: 0
SampleSet: Normal
StackLeniency: 0.7
Mode: 2
LetterboxInBreaks: 0
WidescreenStoryboard: 0

[Editor]
DistanceSpacing: 2
BeatDivisor: 4
GridSize: 4
TimelineZoom: 3.199999

[Metadata]
Title:Snow Changes to a Beat Again
TitleUnicode:Snow Changes to a Beat Again
Artist:Halozy
ArtistUnicode:Halozy
Creator:BoberOfDarkness
Version:Blizzard
Source:
Tags:c83 melody sumijun JBHyperion すみじゅん Jusenkyo
BeatmapID:1181952
BeatmapSetID:387335

[Difficulty]
HPDrainRate:6
CircleSize:4.3
OverallDifficulty:9.2
ApproachRate:9.2
SliderMultiplier:1.8
SliderTickRate:2

[Events]
//Background and Video events
0,0,"bg.jpg",0,0
//Break Periods
//Storyboard Layer 0 (Background)
//Storyboard Layer 1 (Fail)
//Storyboard Layer 2 (Pass)
//Storyboard Layer 3 (Foreground)
//Storyboard Sound Samples

[TimingPoints]
1369,458.015267175573,4,2,2,70,1,0
1598,-100,4,2,2,20,0,0
1827,-100,4,2,2,50,0,0
2056,-100,4,2,2,15,0,0
2285,-100,4,2,2,30,0,0
2514,-100,4,2,2,10,0,0
2743,-100,4,2,2,30,0,0
3888,-100,4,2,2,40,0,0
4346,-100,4,2,2,50,0,0
4804,-100,4,2,2,5,0,0
5033,-100,4,1,2,75,0,0
12361,-100,4,2,2,70,0,0
12704,-100,4,2,2,30,0,0
12819,-100,4,1,2,35,0,0
16025,-100,4,3,1,50,0,0
16483,-100,4,3,1,55,0,0
16941,-100,4,3,1,60,0,0
17399,-100,4,3,1,65,0,0
17857,-100,4,3,1,50,0,0
19231,-50,4,3,1,50,0,0
19689,-100,4,1,2,75,0,0
33888,-100,4,3,1,75,0,0
34002,-100,4,1,2,75,0,0
34346,-100,4,1,2,75,0,1
45338,-100,4,3,1,60,0,1
45796,-100,4,3,1,65,0,1
46254,-100,4,3,1,70,0,1
46712,-100,4,3,1,60,0,1
47170,-100,4,3,1,75,0,1
48544,-100,4,2,2,50,0,0
49002,-100,4,2,2,70,0,0
49231,-100,4,2,2,20,0,0
49460,-133.333333333333,4,2,2,50,0,0
49689,-133.333333333333,4,2,2,15,0,0
49918,-200,4,2,2,30,0,0
50147,-200,4,2,2,10,0,0
50376,-100,4,2,2,30,0,0
51750,-100,4,1,2,40,0,0
52208,-100,4,1,2,50,0,0
52666,-100,4,1,2,80,0,0

[Colours]
Combo1 : 117,164,242
Combo2 : 218,218,228
Combo3 : 183,214,249
Combo4 : 166,174,193

[HitObjects]
392,272,1369,6,0,L|336:192,1,90,4|0,0:0|0:0,0:0:0:0:
152,176,1827,2,0,L|192:72,1,90,4|0,0:0|0:0,0:0:0:0:
336,80,2285,2,0,L|240:44,1,90,4|0,0:0|0:0,0:0:0:0:
256,192,2743,12,0,4804,0:0:0:0:
308,296,5033,5,8,0:0:0:0:
168,180,5262,1,0,0:0:0:0:
332,180,5491,1,2,0:0:0:0:
448,64,5720,1,0,0:0:0:0:
104,176,5949,1,8,0:0:0:0:
68,76,6178,1,0,0:0:0:0:
284,136,6292,2,0,L|300:76,1,45,8|0,0:0|2:2,0:0:0:0:
144,144,6636,1,8,0:0:0:0:
436,72,6865,6,0,P|464:128|476:184,1,90,8|0,0:0|0:0,0:0:0:0:
84,72,7323,2,0,P|56:128|44:184,1,90,2|0,0:0|0:0,0:0:0:0:
464,154,7781,6,0,P|450:111|428:72,1,90,8|0,0:0|0:0,0:0:0:0:
256,192,8124,1,8,0:0:0:0:
168,180,8239,2,0,P|136:144|133:97,1,90,0|8,0:0|0:0,0:0:0:0:
420,72,8697,6,0,P|433:119|420:188,1,90,8|0,0:0|0:0,0:0:0:0:
40,72,9155,2,0,P|28:119|40:188,1,90,2|0,0:0|0:0,0:0:0:0:
336,88,9613,2,0,P|300:128|248:156,1,90,8|0,0:0|0:0,0:0:0:0:
444,244,9956,1,0,0:0:0:0:
496,296,10071,2,0,P|416:348|408:348,1,90,0|8,0:0|0:0,0:0:0:0:
84,264,10529,6,0,P|36:224|20:180,1,90,8|0,0:0|0:0,0:0:0:0:
320,264,10987,2,0,P|376:232|384:200,1,90,8|0,0:0|0:0,0:0:0:0:
80,160,11445,2,0,L|24:72,1,90,8|0,0:0|0:0,0:0:0:0:
264,56,11788,2,0,L|340:56,1,45,8|0,0:0|0:0,0:0:0:0:
128,56,12132,2,0,L|76:56,1,45,8|0,0:0|0:0,0:0:0:0:
296,268,12361,6,0,P|320:204|276:120,1,135,4|0,0:0|0:0,0:0:0:0:
112,88,12819,1,0,0:0:0:0:
144,168,12933,1,0,0:0:0:0:
216,224,13048,1,0,0:0:0:0:
296,268,13162,1,0,0:0:0:0:
116,296,13277,5,8,0:0:0:0:
52,248,13391,1,0,0:0:0:0:
24,180,13506,1,0,0:0:0:0:
240,268,13620,1,8,0:0:0:0:
300,212,13734,1,0,0:0:0:0:
316,132,13849,1,0,0:0:0:0:
108,124,13964,1,8,0:0:0:0:
81,160,14078,1,0,0:0:0:0:
312,128,14193,5,0,0:0:0:0:
356,196,14307,1,0,0:0:0:0:
328,272,14422,1,0,0:0:0:0:
268,324,14536,1,0,0:0:0:0:
96,192,14651,1,0,0:0:0:0:
144,124,14765,1,0,0:0:0:0:
244,76,14880,1,0,0:0:0:0:
296,16,14994,1,0,0:0:0:0:
124,192,15109,6,0,L|60:192,2,45,8|0|0,0:0|0:0|0:0,0:0:0:0:
428,196,15452,2,0,L|492:196,2,45,8|0|0,0:0|0:0|0:0,0:0:0:0:
252,224,15796,1,8,0:0:0:0:
216,176,15910,1,0,0:0:0:0:
40,144,16025,6,0,L|16:184,1,45,8|0,0:0|0:0,0:0:0:0:
200,220,16254,2,0,L|264:252,1,45,8|0,0:0|0:0,0:0:0:0:
440,252,16483,2,0,L|488:280,1,45,8|0,0:0|0:0,0:0:0:0:
232,232,16712,2,0,L|196:292,1,45,8|0,0:0|0:0,0:0:0:0:
432,192,16941,6,0,L|496:192,2,45,8|0|8,0:0|0:0|0:0,0:0:0:0:
148,192,17285,1,0,0:0:0:0:
56,244,17399,2,0,L|28:300,1,45,8|0,0:0|0:0,0:0:0:0:
208,244,17628,2,0,L|280:252,1,45,8|0,0:0|0:0,0:0:0:0:
432,24,17857,5,0,0:0:0:0:
456,28,17914,1,0,0:0:0:0:
480,40,17972,1,0,0:0:0:0:
492,60,18029,1,0,0:0:0:0:
496,88,18086,1,0,0:0:0:0:
488,116,18143,1,0,0:0:0:0:
472,132,18201,1,0,0:0:0:0:
448,136,18258,1,0,0:0:0:0:
236,180,18315,5,0,0:0:0:0:
220,156,18372,1,0,0:0:0:0:
220,132,18430,1,0,0:0:0:0:
240,104,18487,1,0,0:0:0:0:
264,100,18544,1,0,0:0:0:0:
280,76,18601,1,0,0:0:0:0:
280,52,18659,1,0,0:0:0:0:
260,24,18716,1,0,0:0:0:0:
72,40,18773,5,0,0:0:0:0:
56,52,18830,1,0,0:0:0:0:
36,68,18888,1,0,0:0:0:0:
20,84,18945,1,0,0:0:0:0:
16,104,19002,1,0,0:0:0:0:
16,120,19059,1,0,0:0:0:0:
24,136,19117,1,0,0:0:0:0:
40,152,19174,1,0,0:0:0:0:
192,112,19231,6,0,P|308:148|364:280,1,270,4|0,0:0|0:0,0:0:0:0:
160,192,19689,6,0,L|92:192,2,45,12|0|0,0:0|0:0|0:0,0:0:0:0:
448,192,20147,2,0,P|424:136|380:104,1,90,2|0,0:0|0:0,0:0:0:0:
80,256,20605,2,0,P|88:180|120:148,1,90,8|0,0:0|0:0,0:0:0:0:
184,112,20949,1,0,0:0:0:0:
344,128,21063,2,0,L|329:216,1,90,8|0,0:0|0:0,0:0:0:0:
44,204,21521,6,0,L|60:92,1,90,8|0,0:0|0:0,0:0:0:0:
448,140,21979,2,0,L|440:36,1,90,8|0,0:0|0:0,0:0:0:0:
120,264,22437,2,0,P|68:204|80:160,1,90,8|0,0:0|0:0,0:0:0:0:
124,120,22781,1,0,0:0:0:0:
268,88,22895,2,0,L|368:120,1,90,8|0,0:0|0:0,0:0:0:0:
68,192,23353,6,0,P|84:104|88:88,1,90,8|0,0:0|0:0,0:0:0:0:
464,195,23811,2,0,P|448:107|444:91,1,90,2|0,0:0|0:0,0:0:0:0:
120,168,24269,2,0,L|68:272,1,90,8|0,0:0|0:0,0:0:0:0:
168,252,24613,1,0,0:0:0:0:
376,268,24727,2,0,P|404:248|420:180,1,90,2|0,0:0|0:0,0:0:0:0:
132,240,25185,6,0,P|112:172|144:124,1,90,8|0,0:0|0:0,0:0:0:0:
192,112,25529,1,0,0:0:0:0:
380,240,25643,2,0,P|400:172|368:124,1,90,8|0,0:0|0:0,0:0:0:0:
36,184,26101,2,0,P|72:148|112:128,1,90,2|2,0:0|0:0,0:0:0:0:
192,116,26445,1,0,0:0:0:0:
440,156,26559,2,0,P|456:140|452:52,1,90,8|0,0:0|0:0,0:0:0:0:
56,224,27017,6,0,P|36:168|28:96,1,90,12|0,0:0|0:0,0:0:0:0:
120,112,27361,1,0,0:0:0:0:
328,184,27475,2,0,L|316:248,1,45,10|0,0:0|0:0,0:0:0:0:
188,220,27704,2,0,L|168:292,1,45
400,320,27933,2,0,L|424:216,1,90,8|0,0:0|0:0,0:0:0:0:
348,176,28277,1,0,0:0:0:0:
128,204,28391,2,0,P|80:144|96:108,1,90,8|0,0:0|0:0,0:0:0:0:
384,276,28849,6,0,P|364:224|308:224,1,90,8|0,0:0|0:0,0:0:0:0:
256,212,29193,1,0,0:0:0:0:
68,204,29307,2,0,P|88:144|124:132,1,90,8|0,0:0|0:0,0:0:0:0:
420,224,29765,6,0,P|440:168|448:96,1,90,8|0,0:0|0:0,0:0:0:0:
356,112,30109,1,0,0:0:0:0:
148,184,30223,2,0,L|160:248,1,45,10|0,0:0|0:0,0:0:0:0:
288,220,30452,2,0,L|308:292,1,45
104,168,30681,6,0,L|80:52,1,90
276,84,31025,2,0,L|312:36,1,45
88,96,31369,2,0,L|52:48,1,45
312,172,31598,2,0,L|336:56,1,90
132,56,31941,1,0,0:0:0:0:
32,108,32056,2,0,L|16:172,1,45,8|0,0:0|0:0,0:0:0:0:
228,248,32285,2,0,L|272:237,1,45
448,196,32514,6,0,L|464:84,1,90,8|0,0:0|0:0,0:0:0:0:
224,72,32857,1,0,0:0:0:0:
136,104,32972,1,8,0:0:0:0:
116,184,33086,1,0,0:0:0:0:
408,196,33201,2,0,L|456:144,1,45,0|0,0:0|0:0,0:0:0:0:
256,136,33430,5,8,0:0:0:0:
72,180,33659,2,0,L|36:128,1,45,8|0,0:0|0:0,0:0:0:0:
224,88,33888,2,0,L|272:68,1,45,8|0,0:0|0:0,0:0:0:0:
448,116,34117,2,0,L|456:168,1,45,8|0,0:0|0:0,0:0:0:0:
64,264,34346,6,0,P|36:188|48:152,1,90,12|0,0:0|0:0,0:0:0:0:
92,112,34689,1,0,0:0:0:0:
284,192,34804,2,0,L|184:192,1,90,2|0,0:0|0:0,0:0:0:0:
480,192,35262,5,8,0:0:0:0:
468,136,35376,1,0,0:0:0:0:
444,96,35491,1,0,0:0:0:0:
396,64,35605,1,0,0:0:0:0:
96,128,35720,2,0,L|36:128,1,45,8|0,0:0|0:0,0:0:0:0:
224,124,35949,2,0,L|272:124,1,45,8|0,0:0|0:0,0:0:0:0:
440,232,36178,6,8,P|428:172|372:144,1,90
312,156,36521,1,0,0:0:0:0:
76,96,36636,2,0,P|33:128|24:184,1,90,2|0,0:0|0:0,0:0:0:0:
48,224,36979,1,0,0:0:0:0:
272,108,37094,5,8,0:0:0:0:
312,152,37208,1,0,0:0:0:0:
236,176,37323,1,0,0:0:0:0:
216,248,37437,1,0,0:0:0:0:
472,56,37552,5,2,0:0:0:0:
500,96,37666,1,0,0:0:0:0:
492,144,37781,1,8,0:0:0:0:
456,180,37895,1,0,0:0:0:0:
168,92,38010,6,0,P|92:152|92:172,1,90,8|0,0:0|0:0,0:0:0:0:
128,212,38353,1,0,0:0:0:0:
388,144,38468,2,0,P|448:104|448:72,1,90,2|0,0:0|0:0,0:0:0:0:
436,52,38811,1,0,0:0:0:0:
124,144,38926,5,2,0:0:0:0:
82,131,39040,1,0,0:0:0:0:
62,92,39155,1,0,0:0:0:0:
76,52,39269,1,0,0:0:0:0:
256,192,39384,2,0,L|244:128,1,45,8|0,0:0|0:0,0:0:0:0:
116,156,39613,2,0,L|96:84,1,45
452,272,39842,6,0,P|464:224|440:176,1,90,8|0,0:0|0:0,0:0:0:0:
348,140,40185,1,0,0:0:0:0:
88,284,40300,2,0,P|48:256|32:188,1,90,2|0,0:0|0:0,0:0:0:0:
88,284,40643,1,0,0:0:0:0:
481,219,40758,5,2,0:0:0:0:
461,259,40872,1,0,0:0:0:0:
424,283,40987,1,0,0:0:0:0:
344,232,41101,1,0,0:0:0:0:
172,212,41216,5,8,0:0:0:0:
196,128,41330,1,0,0:0:0:0:
260,64,41445,1,0,0:0:0:0:
344,36,41559,1,0,0:0:0:0:
96,84,41674,6,0,L|68:256,1,135,12|0,0:0|0:0,0:0:0:0:
424,140,42132,2,0,L|480:140,2,45,8|0|0,0:0|0:0|0:0,0:0:0:0:
74,217,42590,6,0,L|96:84,1,135,8|0,0:0|0:0,0:0:0:0:
444,204,43048,2,0,L|511:185,2,45,8|0|0,0:0|0:0|0:0,0:0:0:0:
100,32,43506,6,0,L|80:88,1,45,8|0,0:0|0:0,0:0:0:0:
204,100,43735,2,0,L|240:140,1,45
40,216,43964,2,0,L|80:272,1,45
184,296,44193,2,0,L|255:307,1,45,0|0,0:0|0:0,0:0:0:0:
448,216,44422,6,0,L|435:150,1,45,0|0,0:0|0:0,0:0:0:0:
336,136,44651,2,0,L|284:117,1,45
478,102,44880,2,0,L|463:49,1,45
284,172,45109,2,0,L|241:186,1,45
32,143,45338,6,0,L|19:68,1,45,8|0,0:0|0:0,0:0:0:0:
228,190,45567,2,0,L|280:191,1,45,8|0,0:0|0:0,0:0:0:0:
480,143,45796,2,0,L|493:68,1,45,8|0,0:0|0:0,0:0:0:0:
272,190,46025,2,0,L|228:190,1,45,8|0,0:0|0:0,0:0:0:0:
479,142,46254,6,0,L|492:71,1,45,8|0,0:0|0:0,0:0:0:0:
272,192,46483,2,0,L|236:248,1,45,8|0,0:0|0:0,0:0:0:0:
52,188,46712,2,0,L|-8:128,1,45,8|0,0:0|0:0,0:0:0:0:
412,164,46941,2,0,L|448:108,1,45,8|0,0:0|0:0,0:0:0:0:
124,300,47170,5,10,0:0:0:0:
84,288,47227,1,0,0:0:0:0:
52,264,47285,1,2,0:0:0:0:
32,232,47342,1,0,0:0:0:0:
28,192,47399,1,2,0:0:0:0:
48,156,47456,1,0,0:0:0:0:
80,132,47514,1,2,0:0:0:0:
116,116,47571,1,0,0:0:0:0:
400,116,47628,5,10,0:0:0:0:
432,140,47685,1,0,0:0:0:0:
456,172,47742,1,2,0:0:0:0:
472,208,47799,1,0,0:0:0:0:
468,248,47856,1,2,0:0:0:0:
444,280,47914,1,0,0:0:0:0:
412,304,47971,1,2,0:0:0:0:
372,316,48028,1,0,0:0:0:0:
115,272,48086,5,10,0:0:0:0:
76,266,48143,1,0,0:0:0:0:
45,241,48201,1,0,0:0:0:0:
31,203,48257,1,0,0:0:0:0:
37,164,48314,1,2,0:0:0:0:
61,133,48372,1,0,0:0:0:0:
93,112,48429,1,2,0:0:0:0:
130,94,48486,1,0,0:0:0:0:
356,128,48544,6,0,P|404:92|404:88,1,45
168,132,48773,2,0,P|148:80|148:56,1,45
440,108,49003,6,0,L|380:12,1,90
172,124,49461,2,0,L|184:48,1,67.5000025749208
344,80,49918,2,0,L|324:36,1,45
256,192,50376,12,0,52665,0:0:0:0:
