osu file format v14

[General]
AudioFilename: Snow Changes to a Beat Again.mp3
AudioLeadIn: 0
PreviewTime: 19689
Countdown: 0
SampleSet: Soft
StackLeniency: 0.7
Mode: 2
LetterboxInBreaks: 0
WidescreenStoryboard: 0

[Editor]
DistanceSpacing: 1.1
BeatDivisor: 4
GridSize: 4
TimelineZoom: 2.599999

[Metadata]
Title:Snow Changes to a Beat Again
TitleUnicode:Snow Changes to a Beat Again
Artist:Halozy
ArtistUnicode:Halozy
Creator:BoberOfDarkness
Version:Snowfall
Source:
Tags:c83 melody sumijun JBHyperion すみじゅん Jusenkyo
BeatmapID:853966
BeatmapSetID:387335

[Difficulty]
HPDrainRate:5
CircleSize:3.5
OverallDifficulty:8
ApproachRate:8
SliderMultiplier:1.5
SliderTickRate:2

[Events]
//Background and Video events
0,0,"bg.jpg",0,0
//Break Periods
//Storyboard Layer 0 (Background)
//Storyboard Layer 1 (Fail)
//Storyboard Layer 2 (Pass)
//Storyboard Layer 3 (Foreground)
//Storyboard Sound Samples

[TimingPoints]
1369,458.015267175573,4,2,2,70,1,0
1598,-100,4,2,2,20,0,0
1827,-100,4,2,2,50,0,0
2056,-100,4,2,2,15,0,0
2285,-100,4,2,2,30,0,0
2514,-100,4,2,2,10,0,0
2743,-100,4,2,2,30,0,0
3888,-100,4,2,2,40,0,0
4346,-100,4,2,2,50,0,0
4804,-100,4,2,2,5,0,0
5033,-100,4,1,2,75,0,0
12361,-100,4,2,2,70,0,0
12819,-100,4,1,2,35,0,0
16025,-100,4,3,1,50,0,0
16483,-100,4,3,1,55,0,0
16941,-100,4,3,1,60,0,0
17399,-100,4,3,1,65,0,0
17857,-100,4,3,1,50,0,0
19689,-66.6666666666667,4,1,2,75,0,0
33888,-66.6666666666667,4,3,1,75,0,0
34002,-66.6666666666667,4,1,2,75,0,0
34346,-50,4,1,2,75,0,1
45338,-50,4,3,1,60,0,1
45796,-50,4,3,1,65,0,1
46254,-50,4,3,1,70,0,1
46712,-50,4,3,1,60,0,1
47170,-50,4,3,1,75,0,1
48544,-66.6666666666667,4,2,2,50,0,0
49002,-66.6666666666667,4,2,2,70,0,0
49231,-66.6666666666667,4,2,2,20,0,0
49460,-66.6666666666667,4,2,2,50,0,0
49689,-66.6666666666667,4,2,2,15,0,0
49918,-66.6666666666667,4,2,2,30,0,0
50147,-66.6666666666667,4,2,2,10,0,0
50376,-66.6666666666667,4,2,2,30,0,0
51750,-66.6666666666667,4,1,2,40,0,0
52208,-66.6666666666667,4,1,2,50,0,0
52666,-66.6666666666667,4,1,2,80,0,0

[Colours]
Combo1 : 117,164,242
Combo2 : 218,218,228
Combo3 : 183,214,249
Combo4 : 166,174,193

[HitObjects]
348,252,1369,5,0,0:0:0:0:
100,252,1827,1,0,0:0:0:0:
316,140,2286,1,0,0:0:0:0:
256,192,2743,12,0,4804,0:0:0:0:
88,272,5033,6,0,L|60:188,1,75,8|0,0:0|0:0,0:0:0:0:
164,180,5491,2,0,L|212:84,1,75,2|0,0:0|0:0,0:0:0:0:
348,76,5949,2,0,L|364:180,1,75,8|0,0:0|0:0,0:0:0:0:
424,176,6292,1,8,0:0:0:0:
480,196,6407,2,0,L|460:96,1,75,0|8,0:0|0:0,0:0:0:0:
240,192,6865,6,0,L|144:168,1,75,8|0,0:0|0:0,0:0:0:0:
52,164,7323,2,0,L|152:196,1,75,2|0,0:0|0:0,0:0:0:0:
324,208,7781,2,0,P|380:196|404:132,2,112.5,8|8|8,0:0|0:0|0:0,0:0:0:0:
157,195,8697,6,0,P|131:175|98:134,1,75,8|0,0:0|0:0,0:0:0:0:
114,28,9155,2,0,L|174:-25,1,75,2|0,0:0|0:0,0:0:0:0:
308,76,9613,2,0,L|324:180,1,75,8|0,0:0|0:0,0:0:0:0:
384,176,9956,1,8,0:0:0:0:
440,196,10071,2,0,L|420:96,1,75,0|8,0:0|0:0,0:0:0:0:
196,68,10529,6,0,P|116:108|116:188,1,150,8|2,0:0|0:0,0:0:0:0:
184,260,11216,1,0,0:0:0:0:
412,236,11445,2,0,B|476:216|476:116,2,112.5,8|8|8,0:0|0:0|0:0,0:0:0:0:
104,192,12361,6,0,P|60:128|52:48,1,150,4|8,0:0|0:0,0:0:0:0:
164,40,13048,1,0,0:0:0:0:
256,100,13277,6,0,L|276:40,2,37.5,8|0|0,0:0|0:0|0:0,0:0:0:0:
188,96,13620,1,0,0:0:0:0:
120,80,13735,2,0,L|84:32,2,37.5,8|0|0,0:0|0:0|0:0,0:0:0:0:
340,200,14193,6,0,P|384:144|376:112,2,75,8|0|8,0:0|0:0|0:0,0:0:0:0:
244,116,14880,1,0,0:0:0:0:
424,192,15109,5,8,0:0:0:0:
408,236,15224,1,0,0:0:0:0:
372,264,15338,1,0,0:0:0:0:
280,128,15452,1,0,0:0:0:0:
188,76,15567,1,0,0:0:0:0:
156,104,15681,1,0,0:0:0:0:
140,140,15796,1,8,0:0:0:0:
336,184,16025,6,0,L|372:224,2,37.5,8|0|0,0:0|0:0|0:0,0:0:0:0:
152,184,16483,2,0,L|116:224,2,37.5,8|0|0,0:0|0:0|0:0,0:0:0:0:
392,92,16941,6,0,L|412:32,3,37.5,8|0|8|0,0:0|0:0|0:0|0:0,0:0:0:0:
340,8,17399,1,8,0:0:0:0:
264,24,17514,1,0,0:0:0:0:
232,92,17628,1,8,0:0:0:0:
260,160,17743,1,0,0:0:0:0:
346,174,17857,5,0,0:0:0:0:
381,151,17971,1,0,0:0:0:0:
400,117,18086,1,0,0:0:0:0:
401,75,18200,1,0,0:0:0:0:
378,40,18315,5,0,0:0:0:0:
340,22,18429,1,0,0:0:0:0:
302,33,18544,1,0,0:0:0:0:
277,65,18658,1,0,0:0:0:0:
277,106,18773,5,0,0:0:0:0:
306,135,18887,1,0,0:0:0:0:
347,132,19002,1,0,0:0:0:0:
383,113,19116,1,0,0:0:0:0:
408,80,19231,2,0,L|420:4,1,75,4|0,0:0|0:0,0:0:0:0:
116,272,19689,6,0,L|84:204,2,56.2500021457673,12|0|0,0:0|0:0|0:0,0:0:0:0:
356,192,20147,2,0,P|388:144|384:88,1,112.500004291535,2|0,0:0|0:0,0:0:0:0:
248,184,20605,2,0,L|152:100,1,112.500004291535,8|0,0:0|0:0,0:0:0:0:
128,152,20949,1,0,0:0:0:0:
108,116,21063,2,0,L|128:2,1,112.500004291535,8|0,0:0|0:0,0:0:0:0:
444,152,21521,6,0,P|464:228|440:248,1,112.500004291535,8|0,0:0|0:0,0:0:0:0:
240,152,21979,2,0,P|208:208|232:264,1,112.500004291535,2|0,0:0|0:0,0:0:0:0:
340,156,22437,2,0,L|240:260,1,112.500004291535,8|0,0:0|0:0,0:0:0:0:
172,240,22781,1,0,0:0:0:0:
88,232,22895,2,0,L|124:92,1,112.500004291535,8|0,0:0|0:0,0:0:0:0:
420,120,23353,6,0,P|440:92|400:24,1,112.500004291535,8|0,0:0|0:0,0:0:0:0:
228,84,23811,2,0,P|200:48|224:-16,1,112.500004291535
312,284,24269,2,0,P|292:204|244:192,1,112.500004291535
192,232,24613,1,0,0:0:0:0:
100,244,24727,2,0,P|47:194|51:122,1,112.500004291535,8|0,0:0|0:0,0:0:0:0:
336,192,25185,6,0,P|251:132|239:143,1,112.500004291535,8|0,0:0|0:0,0:0:0:0:
412,152,25643,2,0,P|432:88|416:36,1,112.500004291535,8|0,0:0|0:0,0:0:0:0:
128,216,26101,2,0,P|108:152|124:100,1,112.500004291535,2|2,0:0|0:0,0:0:0:0:
204,84,26445,1,0,0:0:0:0:
288,64,26559,2,0,P|332:112|328:168,1,112.500004291535,8|0,0:0|0:0,0:0:0:0:
35,104,27017,6,0,P|40:49|79:12,1,112.500004291535,12|0,0:0|0:0,0:0:0:0:
164,160,27361,1,0,0:0:0:0:
276,152,27475,2,0,P|270:235|224:267,1,112.500004291535,10|0,0:0|0:0,0:0:0:0:
64,196,27933,2,0,P|64:300|88:312,1,112.500004291535,8|0,0:0|0:0,0:0:0:0:
136,336,28277,1,0,0:0:0:0:
228,328,28391,1,8,0:0:0:0:
136,336,28620,1,0,0:0:0:0:
464,192,28849,6,0,P|424:296|400:308,1,112.500004291535,8|0,0:0|0:0,0:0:0:0:
344,332,29193,1,0,0:0:0:0:
264,304,29307,2,0,P|200:260|176:212,1,112.500004291535,2|0,0:0|0:0,0:0:0:0:
182,120,29765,2,0,P|192:68|264:48,1,112.500004291535,8|0,0:0|0:0,0:0:0:0:
316,48,30109,1,0,0:0:0:0:
384,88,30224,2,0,P|420:152|396:208,1,112.500004291535,0|8,0:0|0:0,0:0:0:0:
56,108,30681,6,0,P|52:164|108:244,1,112.500004291535,8|0,0:0|0:0,0:0:0:0:
152,240,31025,1,0,0:0:0:0:
256,120,31139,2,0,P|260:176|216:252,1,112.500004291535,2|0,0:0|0:0,0:0:0:0:
136,296,31598,2,0,P|124:244|172:180,1,112.500004291535,8|0,0:0|0:0,0:0:0:0:
252,180,31941,1,0,0:0:0:0:
352,172,32055,2,0,P|384:108|360:28,1,112.500004291535,8|0,0:0|0:0,0:0:0:0:
88,156,32514,6,0,P|40:88|44:64,1,112.500004291535,8|0,0:0|0:0,0:0:0:0:
120,28,32857,1,0,0:0:0:0:
204,12,32972,1,0,0:0:0:0:
336,64,33201,1,0,0:0:0:0:
436,232,33430,1,8,0:0:0:0:
268,48,33659,5,8,0:0:0:0:
201,94,33773,1,0,0:0:0:0:
149,162,33888,1,8,0:0:0:0:
138,244,34002,1,0,0:0:0:0:
142,321,34117,1,8,0:0:0:0:
464,280,34346,6,0,P|488:196|404:72,1,225,12|0,0:0|0:0,0:0:0:0:
292,60,34804,2,0,B|224:92|212:76|212:76|224:92|164:148,2,150,2|0|8,0:0|0:0|0:0,0:0:0:0:
376,48,35491,2,0,L|424:124,2,75,0|0|8,0:0|0:0|0:0,0:0:0:0:
160,52,35949,1,0,0:0:0:0:
296,64,36178,5,8,0:0:0:0:
136,104,36407,1,0,0:0:0:0:
216,84,36521,1,0,0:0:0:0:
296,64,36636,1,2,0:0:0:0:
184,28,36865,1,0,0:0:0:0:
400,148,37094,2,0,P|440:256|404:320,1,150,8|0,0:0|0:0,0:0:0:0:
360,308,37437,1,0,0:0:0:0:
431,283,37552,2,0,P|438:210|400:148,1,150,2|8,0:0|0:0,0:0:0:0:
88,252,38010,6,0,P|101:166|147:119,1,150,8|0,0:0|0:0,0:0:0:0:
232,176,38353,1,0,0:0:0:0:
320,228,38468,2,0,P|384:184|412:116,2,150,8|0|8,0:0|0:0|0:0,0:0:0:0:
188,192,39155,1,0,0:0:0:0:
124,152,39269,1,0,0:0:0:0:
88,72,39384,1,8,0:0:0:0:
96,0,39613,1,0,0:0:0:0:
444,16,39842,5,8,0:0:0:0:
492,104,40071,2,0,L|500:200,1,75
484,268,40300,2,0,P|460:304|436:324,1,75,2|0,0:0|0:0,0:0:0:0:
352,312,40529,1,0,0:0:0:0:
36,280,40758,6,0,P|4:168|36:120,1,150,8|0,0:0|0:0,0:0:0:0:
60,104,41101,1,0,0:0:0:0:
124,80,41216,1,8,0:0:0:0:
40,56,41445,1,0,0:0:0:0:
352,24,41674,6,0,P|420:44|488:104,1,150,12|0,0:0|0:0,0:0:0:0:
296,308,42132,2,0,P|184:292|148:260,1,150,8|0,0:0|0:0,0:0:0:0:
456,168,42590,6,0,L|496:8,1,150,8|0,0:0|0:0,0:0:0:0:
416,16,42933,1,0,0:0:0:0:
344,32,43048,2,0,L|328:184,1,150,8|0,0:0|0:0,0:0:0:0:
28,184,43506,6,0,P|56:80|112:28,1,150,8|0,0:0|0:0,0:0:0:0:
300,196,43964,2,0,P|340:133|345:59,1,150,0|0,0:0|0:0,0:0:0:0:
212,64,44422,2,0,L|190:128,2,75
440,8,44880,2,0,L|461:72,2,75
120,224,45338,6,0,L|4:192,1,75,8|0,0:0|0:0,0:0:0:0:
20,120,45567,2,0,L|60:56,1,75,8|0,0:0|0:0,0:0:0:0:
132,32,45796,2,0,L|224:16,1,75,8|0,0:0|0:0,0:0:0:0:
284,8,46025,1,8,0:0:0:0:
140,204,46254,6,0,L|118:275,2,75,8|0|8,0:0|0:0|0:0,0:0:0:0:
388,184,46712,2,0,L|410:255,2,75,8|0|0,0:0|0:0|0:0,0:0:0:0:
76,208,47170,5,0,0:0:0:0:
64,140,47285,1,0,0:0:0:0:
88,76,47399,1,0,0:0:0:0:
144,36,47514,1,0,0:0:0:0:
248,96,47628,2,0,P|243:59|227:25,3,75
124,148,48086,1,0,0:0:0:0:
112,216,48200,1,0,0:0:0:0:
136,280,48315,1,0,0:0:0:0:
192,320,48429,1,0,0:0:0:0:
256,336,48544,2,0,L|396:344,1,112.500004291535
72,192,49002,5,0,0:0:0:0:
320,192,49460,1,0,0:0:0:0:
104,80,49919,1,0,0:0:0:0:
256,192,50376,12,0,52665,0:0:0:0:
