osu file format v14

[General]
AudioFilename: ShiningSTREAM.mp3
AudioLeadIn: 0
PreviewTime: 77790
Countdown: 0
SampleSet: Soft
StackLeniency: 0.7
Mode: 0
LetterboxInBreaks: 0
WidescreenStoryboard: 0

[Editor]
Bookmarks: 12966
DistanceSpacing: 0.2
BeatDivisor: 4
GridSize: 4
TimelineZoom: 2.100006

[Metadata]
Title:Shining / STREAM
TitleUnicode:Shining/STREAM
Artist:Halozy
ArtistUnicode:Halozy
Creator:Yohanes
Version:Lunatic
Source:東方神霊廟 ~ Ten Desires.
Tags:ZUN うさ Usa Touhou Saigyouji Yuyuko Sakura Night of the Dead Spirit Tonic triangle best vol.2 Comiket81 Reitaisai11 kaito eastnewsound sumijun すみじゅん shinreibyou 東方Project stage 1 theme 海兎 Eurobeat Streliteela yaldo_27
BeatmapID:907299
BeatmapSetID:419244

[Difficulty]
HPDrainRate:6
CircleSize:4.2
OverallDifficulty:7.5
ApproachRate:9
SliderMultiplier:1.8
SliderTickRate:1

[Events]
//Background and Video events
0,0,"BG.jpg",0,0
//Break Periods
2,26990,38577
2,102861,114448
2,192467,194384
2,198661,200577
2,204855,206771
//Storyboard Layer 0 (Background)
//Storyboard Layer 1 (Fail)
//Storyboard Layer 2 (Pass)
//Storyboard Layer 3 (Foreground)
//Storyboard Sound Samples

[TimingPoints]
468,387.096774193548,4,2,1,65,1,0
18274,-100,4,2,1,45,0,0
18661,-100,4,2,1,55,0,0
19048,-100,4,2,1,65,0,0
22145,-100,4,2,1,35,0,0
22532,-100,4,2,1,45,0,0
22919,-100,4,2,1,55,0,0
23306,-66.6666666666667,4,2,1,65,0,0
23403,-100,4,2,1,15,0,0
23500,-100,4,2,1,65,0,0
77887,-100,4,2,1,75,0,1
102661,-100,4,2,1,65,0,0
115048,-142.857142857143,4,2,1,45,0,0
126855,-117.647058823529,4,2,1,55,0,0
127435,-100,4,2,1,65,0,0
153758,-100,4,2,1,75,0,1
178532,-100,4,2,1,65,0,0
194984,-117.647058823529,4,2,1,45,0,0
212597,-117.647058823529,4,2,1,55,0,0
214145,-100,4,2,1,65,0,0
214726,-100,4,2,1,35,0,0
214919,-100,4,2,1,65,0,0
217242,-100,4,2,1,75,0,1
242016,-100,4,2,1,65,0,0

[Colours]
Combo1 : 255,94,55
Combo2 : 173,255,95
Combo3 : 17,254,176
Combo4 : 255,88,100

[HitObjects]
328,252,12855,5,6,0:0:0:0:
235,328,13048,2,0,B|175:328|175:328|125:308|125:308|59:308,1,180,2|2,0:0|0:0,0:0:0:0:
192,24,13822,2,0,B|252:24|252:24|303:45|303:45|368:44,1,180,2|2,0:0|0:0,0:0:0:0:
383,56,14306,1,2,0:0:0:0:
383,56,14403,6,0,L|399:152,1,90,2|0,0:0|0:0,0:0:0:0:
328,252,14790,2,0,L|312:156,1,90,2|0,0:0|0:0,0:0:0:0:
463,195,15177,2,0,L|478:284,1,90,2|2,0:0|0:0,0:0:0:0:
478,284,15467,1,2,0:0:0:0:
478,284,15564,1,2,0:0:0:0:
412,356,15758,1,2,0:0:0:0:
412,356,15855,1,2,0:0:0:0:
412,356,15951,1,2,0:0:0:0:
328,252,16145,6,0,B|228:200|148:268|148:268,2,180,2|2|2,0:0|0:0|0:0,0:0:0:0:
463,195,17113,1,0,0:0:0:0:
364,169,17306,2,0,P|332:93|352:-3,1,180,2|0,0:0|0:0,0:0:0:0:
499,81,17887,6,0,L|409:81,1,90,2|0,0:0|0:0,0:0:0:0:
228,145,18274,1,10,0:0:0:0:
195,150,18371,1,10,0:0:0:0:
165,135,18467,1,10,0:0:0:0:
150,105,18564,1,10,0:0:0:0:
153,72,18661,1,8,0:0:0:0:
175,47,18758,1,8,0:0:0:0:
207,39,18855,1,8,0:0:0:0:
238,50,18951,1,8,0:0:0:0:
258,78,19048,6,0,B|276:176,1,90,6|0,0:0|0:0,0:0:0:0:
135,269,19435,1,8,0:0:0:0:
220,239,19629,1,0,0:0:0:0:
39,181,19822,1,2,0:0:0:0:
45,269,20016,1,0,0:0:0:0:
203,328,20209,5,8,0:0:0:0:
135,269,20403,1,0,0:0:0:0:
274,166,20597,1,2,0:0:0:0:
293,337,20790,1,2,0:0:0:0:
293,337,20887,1,2,0:0:0:0:
293,337,20984,1,8,0:0:0:0:
180,184,21177,5,2,0:0:0:0:
353,76,21371,1,2,0:0:0:0:
360,279,21564,1,2,0:0:0:0:
180,184,21758,2,0,P|224:171|276:173,1,90,8|2,0:0|0:0,0:0:0:0:
468,297,22145,5,8,0:0:0:0:
441,317,22242,1,8,0:0:0:0:
408,321,22338,1,8,0:0:0:0:
378,307,22435,1,8,0:0:0:0:
360,279,22532,1,8,0:0:0:0:
359,246,22629,1,8,0:0:0:0:
376,217,22726,1,8,0:0:0:0:
396,190,22822,1,8,0:0:0:0:
410,159,22919,5,8,0:0:0:0:
416,126,23016,1,8,0:0:0:0:
414,93,23113,1,8,0:0:0:0:
404,61,23209,1,8,0:0:0:0:
386,32,23306,2,0,L|301:67,1,67.5000025749208,8|0,0:0|0:0,0:0:0:0:
196,107,23500,1,4,0:0:0:0:
196,107,23887,6,0,B|156:196|236:196|196:287,1,180,6|2,0:0|0:0,0:0:0:0:
76,365,24467,2,0,P|57:283|128:236,1,180,6|2,0:0|0:0,0:0:0:0:
119,204,24951,1,2,0:0:0:0:
112,171,25048,1,2,0:0:0:0:
105,138,25145,1,2,0:0:0:0:
98,105,25242,5,2,0:0:0:0:
295,61,25532,5,2,0:0:0:0:
339,258,25822,5,2,0:0:0:0:
142,302,26113,5,2,0:0:0:0:
98,105,26403,5,2,0:0:0:0:
416,140,26790,1,4,0:0:0:0:
325,272,39177,5,6,0:0:0:0:
194,80,39564,1,8,0:0:0:0:
284,80,39758,1,2,0:0:0:0:
116,38,39951,2,0,P|105:86|117:124,1,90,0|2,0:0|0:0,0:0:0:0:
239,157,40338,1,8,0:0:0:0:
145,272,40532,1,2,0:0:0:0:
239,157,40726,6,0,P|288:148|329:157,1,90,0|2,0:0|0:0,0:0:0:0:
415,272,41113,2,0,L|307:272,1,90,8|2,0:0|0:0,0:0:0:0:
145,272,41500,1,0,0:0:0:0:
235,272,41693,1,2,0:0:0:0:
55,272,41887,1,8,0:0:0:0:
211,184,42080,1,2,0:0:0:0:
55,272,42274,6,0,P|22:196|42:96,1,180,2|8,0:0|0:0,0:0:0:0:
136,140,42855,2,0,P|232:148|320:112,1,180,2|2,0:0|0:0,0:0:0:0:
390,56,43435,1,8,0:0:0:0:
482,192,43629,6,0,L|462:88,1,90,2|0,0:0|0:0,0:0:0:0:
362,248,44016,2,0,L|396:147,2,90,2|8|2,0:0|0:0|0:0,0:0:0:0:
412,337,44597,1,8,0:0:0:0:
412,337,44693,1,8,0:0:0:0:
412,337,44790,1,2,0:0:0:0:
310,336,44984,1,8,0:0:0:0:
362,248,45177,1,2,0:0:0:0:
492,324,45371,6,0,P|520:260|504:136,1,180,6|8,0:0|0:0,0:0:0:0:
278,76,45951,2,0,P|247:159|259:248,1,180,2|2,0:0|0:0,0:0:0:0:
310,336,46532,2,0,L|220:336,1,90,8|2,0:0|0:0,0:0:0:0:
40,336,46919,5,0,0:0:0:0:
130,336,47113,1,2,0:0:0:0:
48,188,47306,1,8,0:0:0:0:
130,336,47500,1,2,0:0:0:0:
48,188,47693,2,0,P|96:177|148:193,1,90,0|2,0:0|0:0,0:0:0:0:
310,336,48080,1,8,0:0:0:0:
355,258,48274,1,2,0:0:0:0:
220,336,48467,6,0,B|104:360|32:292|32:292,1,180,2|8,0:0|0:0,0:0:0:0:
36,96,49048,2,0,B|152:72|224:140|224:140,1,180,2|2,0:0|0:0,0:0:0:0:
289,248,49629,2,0,L|310:336,1,90,8|0,0:0|0:0,0:0:0:0:
460,292,50016,6,0,P|476:244|468:200,1,90,2|0,0:0|0:0,0:0:0:0:
344,80,50403,2,0,L|330:184,1,90,8|2,0:0|0:0,0:0:0:0:
309,335,50790,1,0,0:0:0:0:
388,237,50984,1,2,0:0:0:0:
433,354,51177,1,8,0:0:0:0:
433,354,51274,1,8,0:0:0:0:
433,354,51371,1,8,0:0:0:0:
272,224,51564,6,0,B|212:224|212:224|165:200|165:200|96:200,1,180,6|8,0:0|0:0,0:0:0:0:
35,283,52145,2,0,B|-26:187|46:113|46:113,1,180,2|2,0:0|0:0,0:0:0:0:
212,56,52726,1,8,0:0:0:0:
136,108,52919,1,2,0:0:0:0:
129,17,53113,5,0,0:0:0:0:
212,56,53306,1,2,0:0:0:0:
143,199,53500,1,8,0:0:0:0:
136,108,53693,1,2,0:0:0:0:
295,95,53887,5,0,0:0:0:0:
220,148,54080,1,2,0:0:0:0:
288,4,54274,1,8,0:0:0:0:
302,186,54467,1,2,0:0:0:0:
136,108,54661,6,0,P|128:159|152:210,1,90,2|0,0:0|0:0,0:0:0:0:
295,95,55048,1,8,0:0:0:0:
394,226,55242,2,0,P|323:276|232:253,1,180,2|2,0:0|0:0,0:0:0:0:
302,186,55822,1,8,0:0:0:0:
460,272,56016,6,0,P|476:184|428:91,1,180,2|2,0:0|0:0,0:0:0:0:
324,42,56597,2,0,L|234:42,1,90,8|0,0:0|0:0,0:0:0:0:
108,78,56984,1,8,0:0:0:0:
108,78,57080,1,8,0:0:0:0:
108,78,57177,1,8,0:0:0:0:
219,147,57371,1,8,0:0:0:0:
108,78,57564,1,2,0:0:0:0:
280,208,57758,6,0,P|300:121|269:38,1,180,6|8,0:0|0:0,0:0:0:0:
93,250,58338,2,0,P|172:291|260:283,1,180,2|2,0:0|0:0,0:0:0:0:
440,272,58919,1,8,0:0:0:0:
348,244,59113,1,2,0:0:0:0:
369,337,59306,5,0,0:0:0:0:
419,179,59500,1,2,0:0:0:0:
369,337,59693,1,8,0:0:0:0:
440,272,59887,1,2,0:0:0:0:
327,151,60080,5,0,0:0:0:0:
440,272,60274,1,2,0:0:0:0:
397,85,60467,1,8,0:0:0:0:
257,216,60661,1,2,0:0:0:0:
397,85,60855,6,0,P|408:168|344:248,1,180,6|8,0:0|0:0,0:0:0:0:
257,216,61435,2,0,P|179:174|91:182,1,180,2|2,0:0|0:0,0:0:0:0:
147,340,62016,2,0,P|158:297|148:254,1,90,8|0,0:0|0:0,0:0:0:0:
32,108,62403,5,6,0:0:0:0:
288,360,62790,1,6,0:0:0:0:
379,13,63177,1,6,0:0:0:0:
32,108,63564,1,8,0:0:0:0:
64,98,63661,1,8,0:0:0:0:
97,96,63758,1,8,0:0:0:0:
131,99,63855,1,8,0:0:0:0:
163,110,63951,6,0,P|196:125|264:116,1,90,6|2,0:0|0:0,0:0:0:0:
218,39,64338,1,8,0:0:0:0:
192,212,64532,1,2,0:0:0:0:
355,149,64726,2,0,B|385:84|344:20,1,135,8|8,0:0|0:0,0:0:0:0:
296,232,65306,6,0,P|388:252|480:216,1,180,10|2,0:0|0:0,0:0:0:0:
508,96,65887,1,8,0:0:0:0:
322,85,66080,1,2,0:0:0:0:
405,148,66274,2,0,B|440:88|404:20,1,135,8|8,0:0|0:0,0:0:0:0:
361,219,66855,6,0,P|276:242|192:212,1,180,10|2,0:0|0:0,0:0:0:0:
60,120,67435,1,8,0:0:0:0:
212,57,67629,1,2,0:0:0:0:
192,211,67822,2,0,P|148:217|105:205,1,90,2|0,0:0|0:0,0:0:0:0:
268,128,68209,2,0,P|312:122|355:134,1,90,8|0,0:0|0:0,0:0:0:0:
465,234,68597,6,0,L|440:148,1,90,4|0,0:0|0:0,0:0:0:0:
364,301,68984,2,0,L|384:213,1,90,12|0,0:0|0:0,0:0:0:0:
240,304,69371,2,0,L|301:238,1,90,4|0,0:0|0:0,0:0:0:0:
439,147,69758,1,8,0:0:0:0:
411,127,69855,1,8,0:0:0:0:
380,115,69951,1,8,0:0:0:0:
346,110,70048,1,8,0:0:0:0:
313,113,70145,6,0,P|261:122|204:104,1,90,6|0,0:0|0:0,0:0:0:0:
270,35,70532,1,8,0:0:0:0:
301,237,70726,1,2,0:0:0:0:
110,162,70919,2,0,B|77:229|119:295,1,135,8|8,0:0|0:0,0:0:0:0:
397,265,71500,6,0,B|444:180|391:91,1,180,8|2,0:0|0:0,0:0:0:0:
270,35,72080,1,8,0:0:0:0:
344,184,72274,1,2,0:0:0:0:
270,35,72467,2,0,B|188:18|138:55,1,135,8|8,0:0|0:0,0:0:0:0:
333,250,73048,6,0,P|388:181|392:93,1,180,10|2,0:0|0:0,0:0:0:0:
160,204,73629,2,0,L|250:204,1,90,8|2,0:0|0:0,0:0:0:0:
333,250,74016,1,2,0:0:0:0:
207,93,74209,2,0,L|180:58,2,45,2|8|10,0:0|0:0|0:0,0:0:0:0:
250,204,74597,5,8,0:0:0:0:
250,204,74693,1,8,0:0:0:0:
250,204,74790,2,0,L|242:300,1,90,6|0,0:0|0:0,0:0:0:0:
399,182,75177,2,0,L|391:92,1,90,14|0,0:0|0:0,0:0:0:0:
180,57,75564,2,0,B|110:148|184:240|184:240,1,180,6|10,0:0|0:0,0:0:0:0:
242,293,76145,1,2,0:0:0:0:
328,252,76338,6,0,B|416:246|450:301|450:301,2,135,2|2|2,0:0|0:0|0:0,0:0:0:0:
235,66,77209,2,0,P|232:133|265:192,1,135,2|2,0:0|0:0,0:0:0:0:
48,192,77887,5,6,0:0:0:0:
265,192,78080,1,2,0:0:0:0:
89,108,78274,1,8,0:0:0:0:
185,300,78467,1,0,0:0:0:0:
89,108,78661,1,0,0:0:0:0:
48,192,78855,6,0,P|91:200|135:190,1,90,2|8,0:0|0:0,0:0:0:0:
305,107,79242,2,0,P|261:98|217:108,1,90,2|0,0:0|0:0,0:0:0:0:
265,192,79629,1,2,0:0:0:0:
305,17,79822,1,8,0:0:0:0:
385,180,80016,2,0,P|409:132|405:80,1,90,2|0,0:0|0:0,0:0:0:0:
305,107,80403,5,2,0:0:0:0:
448,236,80597,1,8,0:0:0:0:
265,191,80790,2,0,P|249:284|291:357,1,180,6|2,0:0|0:0,0:0:0:0:
305,107,81371,6,0,P|252:99|206:118,1,90,8|0,0:0|0:0,0:0:0:0:
71,190,81758,2,0,P|124:198|170:179,1,90,2|0,0:0|0:0,0:0:0:0:
102,20,82145,2,0,P|97:65|113:107,1,90,8|0,0:0|0:0,0:0:0:0:
202,260,82532,5,2,0:0:0:0:
255,101,82726,2,0,L|265:191,1,90,2|8,0:0|0:0,0:0:0:0:
386,128,83113,2,0,P|401:217|346:304,1,180,2|6,0:0|0:0,0:0:0:0:
216,341,83693,1,8,0:0:0:0:
183,347,83790,1,8,0:0:0:0:
149,347,83887,1,8,0:0:0:0:
116,340,83984,1,8,0:0:0:0:
85,326,84080,6,0,P|71:284|74:240,1,90,6|2,0:0|0:0,0:0:0:0:
265,191,84467,1,8,0:0:0:0:
162,180,84661,1,2,0:0:0:0:
352,131,84855,1,0,0:0:0:0:
162,180,85048,6,0,P|141:140|144:95,1,90,2|8,0:0|0:0,0:0:0:0:
77,241,85435,2,0,B|146:321|250:277|250:277,1,180,2|2,0:0|0:0,0:0:0:0:
144,96,86016,1,8,0:0:0:0:
19,292,86209,2,0,P|-1:242|11:188,1,90,2|0,0:0|0:0,0:0:0:0:
195,198,86597,5,2,0:0:0:0:
48,128,86790,1,8,0:0:0:0:
242,280,86984,2,0,P|273:196|259:109,1,180,4|0,0:0|0:0,0:0:0:0:
106,196,87564,6,0,P|152:203|202:196,1,90,8|0,0:0|0:0,0:0:0:0:
348,110,87951,2,0,P|302:103|252:110,1,90,2|0,0:0|0:0,0:0:0:0:
242,280,88338,2,0,P|288:287|338:280,1,90,8|0,0:0|0:0,0:0:0:0:
421,89,88726,6,0,B|396:34|339:25|246:38,1,180,6|8,0:0|0:0,0:0:0:0:
108,312,89306,2,0,P|185:355|274:358,1,180,2|6,0:0|0:0,0:0:0:0:
398,189,89887,1,8,0:0:0:0:
367,173,89984,1,8,0:0:0:0:
335,166,90080,1,8,0:0:0:0:
301,167,90177,1,8,0:0:0:0:
269,176,90274,1,6,0:0:0:0:
168,264,90467,5,2,0:0:0:0:
330,281,90661,1,8,0:0:0:0:
193,105,90855,1,2,0:0:0:0:
108,312,91048,1,0,0:0:0:0:
330,281,91242,2,0,P|279:269|223:285,1,90,2|8,0:0|0:0,0:0:0:0:
389,358,91629,6,0,P|421:275|399:190,1,180,2|2,0:0|0:0,0:0:0:0:
288,96,92209,1,8,0:0:0:0:
420,96,92403,2,0,L|524:96,1,90,2|0,0:0|0:0,0:0:0:0:
288,96,92790,5,2,0:0:0:0:
420,96,92984,1,10,0:0:0:0:
228,16,93177,2,0,P|208:107|242:189,1,180,6|0,0:0|0:0,0:0:0:0:
309,278,93758,6,0,P|323:320|317:365,1,90,8|0,0:0|0:0,0:0:0:0:
138,328,94145,2,0,L|228:328,1,90,2|0,0:0|0:0,0:0:0:0:
419,185,94532,2,0,L|329:185,1,90,8|0,0:0|0:0,0:0:0:0:
151,133,94919,5,2,0:0:0:0:
239,185,95113,2,0,P|253:140|236:76,1,90,2|8,0:0|0:0,0:0:0:0:
61,183,95500,2,0,L|108:368,1,180,2|6,0:0|0:0,0:0:0:0:
336,284,96080,1,8,0:0:0:0:
303,275,96177,1,8,0:0:0:0:
270,267,96274,1,8,0:0:0:0:
237,258,96371,1,8,0:0:0:0:
205,250,96467,1,6,0:0:0:0:
329,185,96661,5,2,0:0:0:0:
211,349,96855,1,8,0:0:0:0:
336,284,97048,1,2,0:0:0:0:
173,242,97242,1,0,0:0:0:0:
410,238,97435,2,0,P|421:280|412:324,1,90,2|8,0:0|0:0,0:0:0:0:
512,163,97822,6,0,P|464:94|376:56,1,180,2|2,0:0|0:0,0:0:0:0:
212,28,98403,1,8,0:0:0:0:
279,182,98597,2,0,P|295:130|284:82,1,90,2|0,0:0|0:0,0:0:0:0:
191,126,98984,5,2,0:0:0:0:
378,56,99177,1,8,0:0:0:0:
191,126,99371,2,0,B|140:96|140:96|8:96,1,180,6|2,0:0|0:0,0:0:0:0:
120,288,99951,6,0,P|160:244|168:204,1,90,8|0,0:0|0:0,0:0:0:0:
4,172,100338,2,0,L|104:172,1,90,2|0,0:0|0:0,0:0:0:0:
284,332,100726,2,0,L|184:332,1,90,8|0,0:0|0:0,0:0:0:0:
280,180,101113,6,0,B|344:180|344:180|392:160|392:160|460:160,1,180,6|8,0:0|0:0,0:0:0:0:
440,252,101693,1,2,0:0:0:0:
289,96,101887,1,10,0:0:0:0:
255,96,101984,1,8,0:0:0:0:
221,96,102080,1,8,0:0:0:0:
187,96,102177,1,8,0:0:0:0:
154,96,102274,5,8,0:0:0:0:
120,96,102371,1,8,0:0:0:0:
86,96,102467,1,8,0:0:0:0:
52,96,102564,1,8,0:0:0:0:
19,96,102661,1,4,0:0:0:0:
60,117,115048,6,0,P|106:75|181:53,1,125.999996154785,4|0,0:0|0:0,0:0:0:0:
216,125,115629,2,0,P|164:133|288:157,1,629.999980773926
436,248,117758,1,2,0:0:0:0:
388,132,117951,1,0,0:0:0:0:
304,176,118145,6,0,P|225:171|168:144,1,125.999996154785,2|0,0:0|0:0,0:0:0:0:
167,28,118726,2,0,L|183:164,1,125.999996154785
191,244,119306,1,0,0:0:0:0:
265,299,119500,2,0,P|360:292|425:223,1,188.999994232178
313,47,120467,6,0,L|268:16,2,31.4999990386963,2|0|2,0:0|0:0|0:0,0:0:0:0:
385,95,120855,1,0,0:0:0:0:
308,134,121048,1,0,0:0:0:0:
213,63,121242,6,0,P|137:57|72:88,1,125.999996154785,2|0,0:0|0:0,0:0:0:0:
19,232,121822,2,0,B|64:229|100:266|100:266|44:181|112:52|292:97|293:221|253:294|171:300|171:300|228:314|250:354,1,629.999980773926
169,216,123951,1,2,0:0:0:0:
280,104,124145,1,0,0:0:0:0:
169,216,124338,6,0,P|77:206|41:169,1,125.999996154785,2|0,0:0|0:0,0:0:0:0:
165,75,124919,2,0,P|257:85|293:122,1,125.999996154785,2|0,0:0|0:0,0:0:0:0:
297,229,125500,2,0,L|277:83,1,125.999996154785
53,186,126274,2,0,L|70:310,1,125.999996154785,0|8,0:0|0:0,0:0:0:0:
194,292,126855,5,2,0:0:0:0:
177,168,127048,1,2,0:0:0:0:
53,186,127242,2,0,L|15:190,2,38.2500007295609,8|8|4,0:0|0:0|0:0,0:0:0:0:
271,70,127822,5,8,0:0:0:0:
409,211,128016,2,0,P|421:171|405:107,1,90,2|0,0:0|0:0,0:0:0:0:
320,172,128403,2,0,P|312:216|325:259,1,90,2|8,0:0|0:0,0:0:0:0:
424,352,128790,6,0,L|334:352,1,90,2|0,0:0|0:0,0:0:0:0:
235,259,129177,2,0,L|325:259,1,90,2|8,0:0|0:0,0:0:0:0:
453,259,129564,1,2,0:0:0:0:
461,100,129758,5,0,0:0:0:0:
453,259,129951,1,2,0:0:0:0:
347,140,130145,1,8,0:0:0:0:
453,259,130338,1,2,0:0:0:0:
461,100,130532,6,0,L|467:-4,1,90,0|2,0:0|0:0,0:0:0:0:
457,180,130919,1,8,0:0:0:0:
312,87,131113,2,0,B|204:44|116:116|116:116,1,180,2|2,0:0|0:0,0:0:0:0:
32,168,131693,1,8,0:0:0:0:
138,101,131887,6,0,P|147:191|97:272,1,180,2|2,0:0|0:0,0:0:0:0:
144,366,132467,2,0,L|230:314,1,90,8|0,0:0|0:0,0:0:0:0:
312,264,132855,1,8,0:0:0:0:
312,264,132951,1,8,0:0:0:0:
312,264,133048,1,2,0:0:0:0:
406,314,133242,1,8,0:0:0:0:
315,370,133435,1,2,0:0:0:0:
396,220,133629,6,0,P|409:140|369:40,1,180,6|8,0:0|0:0,0:0:0:0:
168,112,134209,2,0,B|224:152|224:152|344:152,1,180,2|2,0:0|0:0,0:0:0:0:
232,36,134790,1,8,0:0:0:0:
168,112,134984,1,2,0:0:0:0:
134,18,135177,5,0,0:0:0:0:
232,36,135371,1,2,0:0:0:0:
104,188,135564,1,8,0:0:0:0:
168,112,135758,1,2,0:0:0:0:
202,206,135951,5,0,0:0:0:0:
104,188,136145,1,2,0:0:0:0:
266,130,136338,1,8,0:0:0:0:
324,292,136532,1,2,0:0:0:0:
266,130,136726,6,0,B|170:100|88:164,1,180,4|8,0:0|0:0,0:0:0:0:
142,364,137306,2,0,B|225:299|202:206,1,180,2|2,0:0|0:0,0:0:0:0:
20,260,137887,2,0,L|112:276,1,90,8|0,0:0|0:0,0:0:0:0:
340,315,138274,5,6,0:0:0:0:
227,10,138661,1,6,0:0:0:0:
20,260,139048,1,6,0:0:0:0:
340,315,139435,1,8,0:0:0:0:
353,284,139532,1,8,0:0:0:0:
359,251,139629,1,8,0:0:0:0:
357,217,139726,1,8,0:0:0:0:
347,185,139822,6,0,P|336:128|348:84,1,90,4|2,0:0|0:0,0:0:0:0:
432,136,140209,1,8,0:0:0:0:
264,141,140403,1,2,0:0:0:0:
353,284,140597,2,0,B|436:304|496:256,1,135,8|8,0:0|0:0,0:0:0:0:
280,231,141177,6,0,P|168:224|104:183,1,180,8|2,0:0|0:0,0:0:0:0:
100,16,141758,2,0,L|108:108,1,90,8|2,0:0|0:0,0:0:0:0:
112,273,142145,2,0,B|204:264|200:160,1,135,8|8,0:0|0:0,0:0:0:0:
8,67,142726,6,0,P|0:163|52:243,1,180,10|2,0:0|0:0,0:0:0:0:
126,307,143306,1,8,0:0:0:0:
230,267,143500,1,2,0:0:0:0:
126,307,143693,2,0,L|17:348,1,90,0|2,0:0|0:0,0:0:0:0:
149,197,144080,2,0,P|190:183|250:183,1,90,8|0,0:0|0:0,0:0:0:0:
346,323,144467,6,0,P|326:287|318:231,1,90,6|0,0:0|0:0,0:0:0:0:
468,95,144855,2,0,P|444:133|409:161,1,90,12|0,0:0|0:0,0:0:0:0:
210,103,145242,2,0,P|254:104|296:120,1,90,6|0,0:0|0:0,0:0:0:0:
149,197,145629,1,8,0:0:0:0:
139,164,145726,1,8,0:0:0:0:
129,132,145822,1,8,0:0:0:0:
119,100,145919,1,8,0:0:0:0:
109,67,146016,6,0,P|144:30|192:16,1,90,6|2,0:0|0:0,0:0:0:0:
256,163,146403,1,8,0:0:0:0:
344,24,146597,1,2,0:0:0:0:
421,170,146790,2,0,B|468:112|436:40,1,135,8|8,0:0|0:0,0:0:0:0:
188,96,147371,6,0,P|180:172|232:260,1,180,8|2,0:0|0:0,0:0:0:0:
342,174,147951,2,0,P|290:158|242:170,1,90,8|2,0:0|0:0,0:0:0:0:
376,280,148338,2,0,B|444:304|508:280,1,135,8|8,0:0|0:0,0:0:0:0:
342,174,148919,6,0,L|142:174,1,180,10|2,0:0|0:0,0:0:0:0:
86,246,149500,2,0,P|62:209|58:165,1,90,8|2,0:0|0:0,0:0:0:0:
118,80,149887,1,2,0:0:0:0:
206,268,150080,2,0,L|198:314,2,45,2|8|10,0:0|0:0|0:0,0:0:0:0:
244,50,150467,5,8,0:0:0:0:
244,50,150564,1,8,0:0:0:0:
244,50,150661,2,0,L|274:144,1,90,6|0,0:0|0:0,0:0:0:0:
452,102,151048,2,0,L|324:98,1,90,6|0,0:0|0:0,0:0:0:0:
258,308,151435,2,0,P|331:260|342:174,1,180,4|8,0:0|0:0,0:0:0:0:
292,62,152016,1,2,0:0:0:0:
204,128,152209,6,0,L|52:128,2,135,2|2|2,0:0|0:0|0:0,0:0:0:0:
24,57,153080,2,0,B|-40:116|8:196|8:196,1,135,2|2,0:0|0:0,0:0:0:0:
120,336,153758,5,6,0:0:0:0:
308,244,153951,1,2,0:0:0:0:
73,244,154145,1,8,0:0:0:0:
261,336,154338,1,2,0:0:0:0:
73,244,154532,1,0,0:0:0:0:
190,244,154726,6,0,P|200:192|178:136,1,90,2|8,0:0|0:0,0:0:0:0:
24,56,155113,2,0,L|130:56,1,90,2|0,0:0|0:0,0:0:0:0:
276,56,155500,1,2,0:0:0:0:
190,156,155693,1,8,0:0:0:0:
348,8,155887,2,0,P|362:57|344:111,1,90,2|0,0:0|0:0,0:0:0:0:
190,244,156274,5,2,0:0:0:0:
276,56,156467,1,8,0:0:0:0:
342,195,156661,2,0,P|431:200|512:163,1,180,6|2,0:0|0:0,0:0:0:0:
432,16,157242,6,0,L|432:120,1,90,8|0,0:0|0:0,0:0:0:0:
512,340,157629,2,0,L|512:236,1,90,2|0,0:0|0:0,0:0:0:0:
271,147,158016,2,0,P|257:196|275:250,1,90,8|0,0:0|0:0,0:0:0:0:
339,328,158403,5,2,0:0:0:0:
204,328,158597,2,0,L|104:328,1,90,2|8,0:0|0:0,0:0:0:0:
0,163,158984,2,0,P|-12:251|31:328,1,180,2|6,0:0|0:0,0:0:0:0:
204,328,159564,1,8,0:0:0:0:
237,328,159661,1,8,0:0:0:0:
271,328,159758,1,8,0:0:0:0:
305,328,159855,1,8,0:0:0:0:
339,328,159951,1,6,0:0:0:0:
512,252,160145,5,2,0:0:0:0:
360,141,160338,1,8,0:0:0:0:
339,328,160532,1,2,0:0:0:0:
512,252,160726,1,0,0:0:0:0:
360,141,160919,2,0,L|408:244,1,90,2|8,0:0|0:0,0:0:0:0:
237,328,161306,6,0,P|199:257|212:148,1,180,2|2,0:0|0:0,0:0:0:0:
296,232,161887,1,8,0:0:0:0:
126,101,162080,2,0,P|109:142|113:187,1,90,2|0,0:0|0:0,0:0:0:0:
296,232,162467,5,0,0:0:0:0:
113,187,162661,1,8,0:0:0:0:
372,278,162855,2,0,B|412:189|332:189|369:104,1,180,6|2,0:0|0:0,0:0:0:0:
457,68,163435,6,0,P|419:25|372:10,1,90,8|0,0:0|0:0,0:0:0:0:
200,104,163822,2,0,L|290:104,1,90,2|0,0:0|0:0,0:0:0:0:
462,278,164209,2,0,L|372:278,1,90,8|0,0:0|0:0,0:0:0:0:
108,344,164597,6,0,P|64:268|68:176,1,180,6|8,0:0|0:0,0:0:0:0:
404,40,165177,2,0,P|448:116|444:208,1,180,2|6,0:0|0:0,0:0:0:0:
243,239,165758,1,8,0:0:0:0:
261,211,165855,1,8,0:0:0:0:
287,189,165951,1,8,0:0:0:0:
318,177,166048,1,8,0:0:0:0:
352,176,166145,1,6,0:0:0:0:
339,281,166338,5,2,0:0:0:0:
148,198,166532,1,8,0:0:0:0:
315,74,166726,1,2,0:0:0:0:
339,281,166919,1,0,0:0:0:0:
185,102,167113,2,0,P|142:95|98:108,1,90,2|8,0:0|0:0,0:0:0:0:
206,270,167500,6,0,B|248:186|185:102,1,180,2|2,0:0|0:0,0:0:0:0:
92,204,168080,1,8,0:0:0:0:
13,64,168274,2,0,P|3:107|14:150,1,90,2|0,0:0|0:0,0:0:0:0:
206,270,168661,5,0,0:0:0:0:
12,240,168855,1,8,0:0:0:0:
98,107,169048,2,0,P|124:212|96:280,1,180,6|2,0:0|0:0,0:0:0:0:
16,368,169629,6,0,L|120:368,1,90,8|0,0:0|0:0,0:0:0:0:
296,280,170016,2,0,L|206:280,1,90,2|0,0:0|0:0,0:0:0:0:
348,124,170403,2,0,P|363:178|348:224,1,90,8|0,0:0|0:0,0:0:0:0:
259,175,170790,5,2,0:0:0:0:
386,296,170984,2,0,P|444:296|476:280,1,90,2|8,0:0|0:0,0:0:0:0:
348,124,171371,2,0,L|160:112,1,180,2|6,0:0|0:0,0:0:0:0:
14,150,171951,1,8,0:0:0:0:
2,181,172048,1,8,0:0:0:0:
0,215,172145,1,8,0:0:0:0:
6,247,172242,1,8,0:0:0:0:
22,277,172338,1,6,0:0:0:0:
180,200,172532,5,2,0:0:0:0:
106,368,172726,1,8,0:0:0:0:
104,152,172919,1,2,0:0:0:0:
256,248,173113,1,0,0:0:0:0:
28,112,173306,2,0,P|18:158|40:210,1,90,2|8,0:0|0:0,0:0:0:0:
192,308,173693,6,0,P|110:271|22:277,1,180,2|2,0:0|0:0,0:0:0:0:
106,368,174274,1,8,0:0:0:0:
187,221,174467,2,0,P|200:264|192:308,1,90,2|0,0:0|0:0,0:0:0:0:
24,356,174855,5,2,0:0:0:0:
120,168,175048,1,8,0:0:0:0:
256,248,175242,2,0,P|296:168|276:72,1,180,6|2,0:0|0:0,0:0:0:0:
101,81,175822,6,0,L|191:81,1,90,8|0,0:0|0:0,0:0:0:0:
440,20,176209,2,0,L|350:20,1,90,2|0,0:0|0:0,0:0:0:0:
148,166,176597,2,0,P|199:175|246:159,1,90,8|0,0:0|0:0,0:0:0:0:
400,96,176984,6,0,P|440:176|428:269,1,180,6|10,0:0|0:0,0:0:0:0:
372,356,177564,1,2,0:0:0:0:
235,165,177758,1,8,0:0:0:0:
202,154,177855,1,8,0:0:0:0:
169,151,177951,1,8,0:0:0:0:
136,156,178048,1,8,0:0:0:0:
104,168,178145,1,8,0:0:0:0:
71,166,178242,1,8,0:0:0:0:
41,150,178338,1,8,0:0:0:0:
21,123,178435,1,8,0:0:0:0:
14,90,178532,6,0,P|76:48|188:48,1,180,6|8,0:0|0:0,0:0:0:0:
282,95,179113,2,0,P|378:107|462:71,1,180,2|2,0:0|0:0,0:0:0:0:
288,12,179693,5,8,0:0:0:0:
206,123,179887,2,0,P|211:187|238:219,1,90,2|0,0:0|0:0,0:0:0:0:
388,268,180274,2,0,L|298:268,1,90,2|8,0:0|0:0,0:0:0:0:
209,300,180661,1,2,0:0:0:0:
312,172,180855,2,0,B|372:148|372:148|435:174|495:134,1,180,2|8,0:0|0:0,0:0:0:0:
435,0,181435,6,0,P|421:40|425:84,1,90,2|0,0:0|0:0,0:0:0:0:
463,341,181822,1,2,0:0:0:0:
388,268,182016,1,8,0:0:0:0:
488,239,182209,1,2,0:0:0:0:
363,267,182403,2,0,L|263:255,1,90,2|2,0:0|0:0,0:0:0:0:
223,255,182693,1,0,0:0:0:0:
223,255,182790,2,0,P|204:215|203:171,1,90,8|2,0:0|0:0,0:0:0:0:
228,8,183177,6,0,P|247:48|248:92,1,90,4|2,0:0|0:0,0:0:0:0:
86,117,183564,2,0,P|126:97|170:96,1,90,12|2,0:0|0:0,0:0:0:0:
365,146,183951,2,0,P|324:165|280:166,1,90,4|2,0:0|0:0,0:0:0:0:
111,307,184338,1,8,0:0:0:0:
92,279,184435,1,8,0:0:0:0:
78,248,184532,1,8,0:0:0:0:
71,215,184629,1,8,0:0:0:0:
71,181,184726,1,6,0:0:0:0:
207,47,184919,5,2,0:0:0:0:
155,223,185113,1,8,0:0:0:0:
28,89,185306,1,2,0:0:0:0:
214,146,185500,2,0,P|281:149|343:123,2,135,2|2|2,0:0|0:0|0:0,0:0:0:0:
407,47,186274,5,8,0:0:0:0:
407,47,186371,1,2,0:0:0:0:
407,47,186467,2,0,L|420:100,1,45,2|0,0:0|0:0,0:0:0:0:
512,116,186661,1,8,0:0:0:0:
512,116,186758,1,2,0:0:0:0:
512,116,186855,2,0,L|488:154,1,45,2|2,0:0|0:0,0:0:0:0:
400,192,187048,6,0,L|364:168,6,22.5,10|0|0|0|2|0|0,0:0|0:0|0:0|0:0|0:0|0:0|0:0,0:0:0:0:
476,284,187435,2,0,L|431:284,1,45,12|2,0:0|0:0,0:0:0:0:
368,360,187629,2,0,B|341:323,1,45,2|2,0:0|0:0,0:0:0:0:
268,236,187822,5,14,0:0:0:0:
232,224,187919,1,2,0:0:0:0:
196,224,188016,1,2,0:0:0:0:
158,228,188113,1,2,0:0:0:0:
122,239,188209,2,0,L|68:256,1,45,8|2,0:0|0:0,0:0:0:0:
32,148,188403,2,0,L|86:131,1,45,10|2,0:0|0:0,0:0:0:0:
205,92,188597,1,6,0:0:0:0:
268,236,188790,5,2,0:0:0:0:
205,92,188984,1,8,0:0:0:0:
360,152,189177,1,2,0:0:0:0:
130,50,189371,6,0,P|120:103|142:150,1,90,6|0,0:0|0:0,0:0:0:0:
360,152,189758,2,0,L|264:152,1,90,14|0,0:0|0:0,0:0:0:0:
104,332,190145,2,0,P|186:307|195:223,1,180,6|8,0:0|0:0,0:0:0:0:
131,135,190726,1,2,0:0:0:0:
232,72,190919,6,0,L|376:72,2,135,2|2|2,0:0|0:0|0:0,0:0:0:0:
412,8,191790,2,0,B|480:68|440:148|440:148,1,135,2|2,0:0|0:0,0:0:0:0:
314,165,194984,5,2,0:0:0:0:
375,235,195177,1,2,0:0:0:0:
336,320,195371,1,2,0:0:0:0:
96,104,195951,2,0,P|64:176|84:256,1,153.000002918243,2|2,0:0|0:0,0:0:0:0:
336,320,196726,1,2,0:0:0:0:
406,148,197113,5,2,0:0:0:0:
336,320,197306,1,2,0:0:0:0:
247,106,197693,2,0,B|174:94|174:94|95:104,1,153.000002918243,2|0,0:0|0:0,0:0:0:0:
24,192,198274,1,2,0:0:0:0:
284,108,201177,5,2,0:0:0:0:
228,184,201371,1,2,0:0:0:0:
190,97,201564,1,2,0:0:0:0:
472,308,202145,2,0,B|532:240|492:152|492:152,2,153.000002918243,2|2|2,0:0|0:0|0:0,0:0:0:0:
236,344,203306,6,0,L|404:344,1,153.000002918243,2|0,0:0|0:0,0:0:0:0:
389,236,203887,2,0,L|221:236,1,153.000002918243,2|0,0:0|0:0,0:0:0:0:
236,129,204467,1,2,0:0:0:0:
396,344,207371,6,0,P|408:312|404:260,2,76.5000014591217,2|2|2,0:0|0:0|0:0,0:0:0:0:
56,160,208338,2,0,P|116:136|224:140,1,153.000002918243,2|2,0:0|0:0,0:0:0:0:
336,216,209113,1,2,0:0:0:0:
364,80,209500,5,2,0:0:0:0:
336,216,209693,1,2,0:0:0:0:
56,160,210080,2,0,P|116:136|224:140,1,153.000002918243,2|0,0:0|0:0,0:0:0:0:
336,216,210661,1,2,0:0:0:0:
256,192,211048,12,6,212597,0:0:0:0:
256,192,212693,12,6,214145,0:0:0:0:
292,256,214532,6,0,P|303:210|292:164,1,90,2|0,0:0|0:0,0:0:0:0:
216,95,214919,2,0,B|152:95|152:95|112:76|112:76|40:76,2,180,6|2|4,0:0|0:0|0:0,0:0:0:0:
216,95,216274,5,2,0:0:0:0:
309,198,216467,1,8,0:0:0:0:
309,198,216564,1,2,0:0:0:0:
309,198,216661,1,2,0:0:0:0:
309,198,216758,1,2,0:0:0:0:
309,198,216855,5,8,0:0:0:0:
318,170,216951,1,2,0:0:0:0:
327,141,217048,1,8,0:0:0:0:
336,112,217145,1,8,0:0:0:0:
345,84,217242,5,6,0:0:0:0:
391,288,217435,1,2,0:0:0:0:
191,225,217629,1,8,0:0:0:0:
345,84,217822,1,2,0:0:0:0:
391,288,218016,1,0,0:0:0:0:
253,57,218209,2,0,P|250:102|269:143,1,90,2|8,0:0|0:0,0:0:0:0:
454,327,218597,6,0,P|484:243|463:157,1,180,2|2,0:0|0:0,0:0:0:0:
345,84,219177,1,8,0:0:0:0:
268,142,219371,2,0,P|250:103|256:46,1,90,2|0,0:0|0:0,0:0:0:0:
345,84,219758,5,2,0:0:0:0:
164,124,219951,1,8,0:0:0:0:
420,48,220145,2,0,B|456:131|376:131|416:220,1,180,6|2,0:0|0:0,0:0:0:0:
511,261,220726,6,0,P|522:216|504:168,1,90,8|0,0:0|0:0,0:0:0:0:
255,84,221113,2,0,L|345:84,1,90,2|0,0:0|0:0,0:0:0:0:
431,319,221500,2,0,L|341:319,1,90,8|0,0:0|0:0,0:0:0:0:
148,255,221887,5,2,0:0:0:0:
224,348,222080,2,0,P|248:304|244:248,1,90,2|8,0:0|0:0,0:0:0:0:
80,102,222467,2,0,P|87:190|147:254,1,180,2|6,0:0|0:0,0:0:0:0:
341,319,223048,1,8,0:0:0:0:
353,287,223145,1,8,0:0:0:0:
354,254,223242,1,8,0:0:0:0:
346,221,223338,1,8,0:0:0:0:
327,193,223435,1,6,0:0:0:0:
248,264,223629,5,2,0:0:0:0:
444,178,223822,1,8,0:0:0:0:
248,264,224016,1,2,0:0:0:0:
456,308,224209,1,0,0:0:0:0:
237,177,224403,2,0,P|232:222|248:264,1,90,2|8,0:0|0:0,0:0:0:0:
422,111,224790,6,0,B|360:52|252:80,1,180,2|2,0:0|0:0,0:0:0:0:
160,24,225371,1,8,0:0:0:0:
80,172,225564,2,0,P|56:125|66:68,1,90,2|0,0:0|0:0,0:0:0:0:
237,177,225951,5,2,0:0:0:0:
160,24,226145,1,8,0:0:0:0:
168,248,226338,2,0,B|276:284|364:180|364:180,1,180,6|2,0:0|0:0,0:0:0:0:
440,50,226919,6,0,L|440:140,1,90,8|0,0:0|0:0,0:0:0:0:
348,296,227306,2,0,P|281:302|240:285,1,90,2|0,0:0|0:0,0:0:0:0:
193,100,227693,2,0,P|231:155|237:199,1,90,8|0,0:0|0:0,0:0:0:0:
87,348,228080,6,0,B|19:268|67:160,1,180,6|8,0:0|0:0,0:0:0:0:
425,36,228661,2,0,B|493:116|445:224,1,180,2|6,0:0|0:0,0:0:0:0:
236,176,229242,1,8,0:0:0:0:
262,155,229338,1,8,0:0:0:0:
293,141,229435,1,8,0:0:0:0:
325,134,229532,1,8,0:0:0:0:
359,135,229629,1,6,0:0:0:0:
316,232,229822,5,2,0:0:0:0:
132,128,230016,1,8,0:0:0:0:
316,232,230209,1,2,0:0:0:0:
217,72,230403,1,0,0:0:0:0:
120,288,230597,2,0,P|100:240|112:192,1,90,2|8,0:0|0:0,0:0:0:0:
220,292,230984,6,0,B|327:316|404:236,1,180,2|2,0:0|0:0,0:0:0:0:
474,60,231564,1,8,0:0:0:0:
425,152,231758,2,0,P|469:164|538:143,1,90,2|0,0:0|0:0,0:0:0:0:
365,63,232145,5,2,0:0:0:0:
388,251,232338,1,8,0:0:0:0:
264,84,232532,2,0,B|161:35|82:87|82:87,1,180,6|2,0:0|0:0,0:0:0:0:
120,224,233113,6,0,P|160:184|164:140,1,90,8|0,0:0|0:0,0:0:0:0:
16,264,233500,2,0,L|32:364,1,90,2|0,0:0|0:0,0:0:0:0:
219,348,233887,2,0,L|235:248,1,90,8|0,0:0|0:0,0:0:0:0:
264,84,234274,5,0,0:0:0:0:
338,220,234467,2,0,P|383:217|423:197,1,90,2|8,0:0|0:0,0:0:0:0:
455,4,234855,2,0,P|382:51|367:138,1,180,2|6,0:0|0:0,0:0:0:0:
488,272,235435,1,8,0:0:0:0:
463,294,235532,1,8,0:0:0:0:
432,308,235629,1,8,0:0:0:0:
398,311,235726,1,8,0:0:0:0:
366,303,235822,1,6,0:0:0:0:
289,206,236016,5,2,0:0:0:0:
408,232,236209,1,8,0:0:0:0:
205,295,236403,1,2,0:0:0:0:
252,88,236597,1,0,0:0:0:0:
408,232,236790,6,0,P|352:224|310:244,1,90,2|8,0:0|0:0,0:0:0:0:
122,355,237177,2,0,B|218:403|314:327|314:327,1,180,2|2,0:0|0:0,0:0:0:0:
328,140,237758,1,8,0:0:0:0:
231,216,237951,2,0,P|184:220|143:210,1,90,2|0,0:0|0:0,0:0:0:0:
244,88,238338,5,0,0:0:0:0:
321,235,238532,1,10,0:0:0:0:
224,64,238726,2,0,P|148:44|28:64,1,180,6|2,0:0|0:0,0:0:0:0:
20,151,239306,6,0,P|17:195|35:237,1,90,8|0,0:0|0:0,0:0:0:0:
208,248,239693,2,0,P|162:222|107:222,1,90,6|0,0:0|0:0,0:0:0:0:
30,362,240080,2,0,P|75:336|102:287,1,90,8|0,0:0|0:0,0:0:0:0:
264,160,240467,6,0,B|320:256|252:340,1,180,6|8,0:0|0:0,0:0:0:0:
125,218,241048,1,2,0:0:0:0:
264,160,241242,1,8,0:0:0:0:
297,154,241338,1,8,0:0:0:0:
331,154,241435,1,8,0:0:0:0:
364,158,241532,1,8,0:0:0:0:
396,167,241629,5,8,0:0:0:0:
427,181,241726,1,8,0:0:0:0:
456,199,241822,1,8,0:0:0:0:
481,221,241919,1,8,0:0:0:0:
504,246,242016,1,6,0:0:0:0:
