osu file format v14

[General]
AudioFilename: ShiningSTREAM.mp3
AudioLeadIn: 0
PreviewTime: 77790
Countdown: 0
SampleSet: Soft
StackLeniency: 0.7
Mode: 0
LetterboxInBreaks: 0
WidescreenStoryboard: 0

[Editor]
Bookmarks: 12966
DistanceSpacing: 1.3
BeatDivisor: 4
GridSize: 4
TimelineZoom: 0.7000059

[Metadata]
Title:Shining / STREAM
TitleUnicode:Shining/STREAM
Artist:Halozy
ArtistUnicode:Halozy
Creator:Yohanes
Version:Hard
Source:東方神霊廟 ~ Ten Desires.
Tags:ZUN うさ Usa Touhou Saigyouji Yuyuko Sakura Night of the Dead Spirit Tonic triangle best vol.2 Comiket81 Reitaisai11 kaito eastnewsound sumijun すみじゅん shinreibyou 東方Project stage 1 theme 海兎 Eurobeat Streliteela yaldo_27
BeatmapID:1132225
BeatmapSetID:419244

[Difficulty]
HPDrainRate:5
CircleSize:3.8
OverallDifficulty:6
ApproachRate:7
SliderMultiplier:1.4
SliderTickRate:1

[Events]
//Background and Video events
0,0,"BG.jpg",0,0
//Break Periods
2,26990,38277
2,102861,114148
2,192467,194084
2,198661,200277
2,204855,206471
//Storyboard Layer 0 (Background)
//Storyboard Layer 1 (Fail)
//Storyboard Layer 2 (Pass)
//Storyboard Layer 3 (Foreground)
//Storyboard Sound Samples

[TimingPoints]
468,387.096774193548,4,2,1,65,1,0
18274,-100,4,2,1,45,0,0
18661,-100,4,2,1,55,0,0
19048,-100,4,2,1,65,0,0
77887,-100,4,2,1,75,0,1
102661,-100,4,2,1,65,0,0
115048,-125,4,2,1,45,0,0
126855,-117.647058823529,4,2,1,55,0,0
127435,-100,4,2,1,65,0,0
153758,-100,4,2,1,75,0,1
178532,-100,4,2,1,65,0,0
194984,-117.647058823529,4,2,1,45,0,0
212597,-117.647058823529,4,2,1,55,0,0
214145,-100,4,2,1,65,0,0
217242,-100,4,2,1,75,0,1
242016,-100,4,2,1,65,0,0

[Colours]
Combo1 : 255,94,55
Combo2 : 173,255,95
Combo3 : 17,254,176
Combo4 : 255,88,100

[HitObjects]
172,243,12855,5,6,0:0:0:0:
240,288,13048,2,0,P|311:294|382:257,1,140,2|2,0:0|0:0,0:0:0:0:
280,128,13822,2,0,B|232:128|232:128|192:116|192:116|141:116,1,140,2|2,0:0|0:0,0:0:0:0:
67,156,14403,6,0,P|57:121|70:79,1,70,2|0,0:0|0:0,0:0:0:0:
141,116,14790,2,0,P|151:151|138:193,1,70,2|0,0:0|0:0,0:0:0:0:
90,247,15177,1,2,0:0:0:0:
33,310,15371,2,0,P|29:329|32:344,2,35,2|2|2,0:0|0:0|0:0,0:0:0:0:
90,247,15758,1,2,0:0:0:0:
156,297,15951,6,0,P|207:310|304:296,1,140,2|0,0:0|0:0,0:0:0:0:
360,352,16532,2,0,P|396:314|433:223,1,140,2|2,0:0|0:0,0:0:0:0:
396,157,17113,1,0,0:0:0:0:
396,157,17306,6,0,L|242:85,1,140,2|0,0:0|0:0,0:0:0:0:
192,62,17887,1,2,0:0:0:0:
108,67,18080,1,0,0:0:0:0:
35,109,18274,2,0,P|30:149|41:189,1,70,10|10,0:0|0:0,0:0:0:0:
111,215,18661,2,0,P|116:175|105:135,1,70,8|8,0:0|0:0,0:0:0:0:
35,109,19048,5,6,0:0:0:0:
192,62,19435,1,8,0:0:0:0:
285,196,19822,1,2,0:0:0:0:
186,325,20209,1,8,0:0:0:0:
32,270,20597,5,2,0:0:0:0:
147,155,20984,1,8,0:0:0:0:
216,202,21177,2,0,P|260:204|289:193,2,70,2|2|2,0:0|0:0|0:0,0:0:0:0:
248,124,21758,2,0,P|281:114|316:117,1,70,8|2,0:0|0:0,0:0:0:0:
387,161,22145,6,0,P|446:117|463:46,1,140,2|8,0:0|0:0,0:0:0:0:
391,15,22726,2,0,L|244:15,1,140,2|0,0:0|0:0,0:0:0:0:
167,15,23306,1,10,0:0:0:0:
83,91,23500,1,4,0:0:0:0:
83,91,23887,6,0,P|72:156|108:234,1,140,6|2,0:0|0:0,0:0:0:0:
170,179,24467,2,0,P|238:170|302:197,1,140,6|2,0:0|0:0,0:0:0:0:
362,256,25048,1,2,0:0:0:0:
430,207,25242,6,0,P|446:162|425:86,2,105,2|2|2,0:0|0:0|0:0,0:0:0:0:
327,280,26113,2,0,L|203:264,1,105,2|2,0:0|0:0,0:0:0:0:
123,131,26790,1,4,0:0:0:0:
276,45,39177,6,0,P|297:110|269:188,1,140,6|8,0:0|0:0,0:0:0:0:
220,238,39758,1,2,0:0:0:0:
157,182,39951,2,0,P|120:171|70:178,1,70,0|2,0:0|0:0,0:0:0:0:
33,235,40338,2,0,P|22:272|29:322,1,70,8|2,0:0|0:0,0:0:0:0:
86,359,40726,6,0,P|123:370|173:363,1,70,0|2,0:0|0:0,0:0:0:0:
210,306,41113,2,0,P|221:269|214:219,1,70,8|2,0:0|0:0,0:0:0:0:
157,182,41500,2,0,P|156:147|166:113,1,70,0|2,0:0|0:0,0:0:0:0:
219,48,41887,1,8,0:0:0:0:
301,34,42080,1,2,0:0:0:0:
371,80,42274,6,0,P|453:91|525:72,1,140,2|8,0:0|0:0,0:0:0:0:
463,176,42855,2,0,P|394:163|325:175,1,140,2|2,0:0|0:0,0:0:0:0:
253,217,43435,1,8,0:0:0:0:
175,184,43629,2,0,P|147:127|166:33,1,140,2|2,0:0|0:0,0:0:0:0:
221,2,44209,1,8,0:0:0:0:
370,79,44597,6,0,L|379:149,1,70,8|2,0:0|0:0,0:0:0:0:
462,138,44984,2,0,P|461:173|443:203,1,70,8|2,0:0|0:0,0:0:0:0:
379,149,45371,2,0,P|303:142|235:164,1,140,6|8,0:0|0:0,0:0:0:0:
169,199,45951,2,0,P|93:206|25:184,1,140,2|2,0:0|0:0,0:0:0:0:
16,105,46532,6,0,L|3:31,1,70,8|2,0:0|0:0,0:0:0:0:
88,39,46919,2,0,L|101:113,1,70,0|2,0:0|0:0,0:0:0:0:
184,109,47306,2,0,L|172:41,1,70,8|2,0:0|0:0,0:0:0:0:
256,43,47693,2,0,L|269:117,1,70,0|2,0:0|0:0,0:0:0:0:
352,113,48080,2,0,L|340:45,1,70,8|2,0:0|0:0,0:0:0:0:
430,74,48467,6,0,P|439:129|382:197,1,140,2|8,0:0|0:0,0:0:0:0:
307,204,49048,2,0,P|262:255|268:323,1,140,2|2,0:0|0:0,0:0:0:0:
341,281,49629,1,8,0:0:0:0:
193,363,50015,5,2,0:0:0:0:
69,247,50403,1,8,0:0:0:0:
141,93,50790,2,0,P|186:84|221:90,1,70,0|2,0:0|0:0,0:0:0:0:
269,145,51177,2,0,L|280:185,2,35,8|8|8,0:0|0:0|0:0,0:0:0:0:
376,144,51564,6,0,P|378:215|327:269,1,140,6|8,0:0|0:0,0:0:0:0:
252,249,52145,2,0,P|182:239|114:251,1,140,2|2,0:0|0:0,0:0:0:0:
31,234,52726,2,0,P|37:290|66:320,1,70,8|2,0:0|0:0,0:0:0:0:
115,344,53113,6,0,L|197:352,1,70,0|2,0:0|0:0,0:0:0:0:
268,350,53500,2,0,L|337:343,1,70,8|2,0:0|0:0,0:0:0:0:
409,300,53887,2,0,P|423:268|421:233,1,70,0|2,0:0|0:0,0:0:0:0:
393,154,54274,1,8,0:0:0:0:
442,85,54467,1,2,0:0:0:0:
393,154,54661,6,0,P|312:160|242:131,1,140,2|8,0:0|0:0,0:0:0:0:
214,212,55242,2,0,P|168:144|158:69,1,140,2|2,0:0|0:0,0:0:0:0:
209,22,55822,1,8,0:0:0:0:
284,59,56016,2,0,P|365:65|435:36,1,140,2|2,0:0|0:0,0:0:0:0:
494,83,56597,1,8,0:0:0:0:
422,229,56984,6,0,L|355:252,1,70,8|8,0:0|0:0,0:0:0:0:
309,181,57371,2,0,L|263:234,1,70,8|2,0:0|0:0,0:0:0:0:
186,196,57758,2,0,P|172:268|194:329,1,140,6|8,0:0|0:0,0:0:0:0:
110,328,58338,2,0,P|94:261|119:164,1,140,2|2,0:0|0:0,0:0:0:0:
152,120,58919,2,0,P|192:112|232:124,1,70,8|2,0:0|0:0,0:0:0:0:
250,40,59306,6,0,P|283:62|303:99,1,70,0|2,0:0|0:0,0:0:0:0:
375,52,59693,2,0,P|383:92|371:132,1,70,8|2,0:0|0:0,0:0:0:0:
455,149,60080,2,0,P|432:182|395:202,1,70,0|2,0:0|0:0,0:0:0:0:
324,186,60467,1,8,0:0:0:0:
287,263,60661,1,2,0:0:0:0:
348,321,60855,6,0,P|411:332|502:301,1,140,6|8,0:0|0:0,0:0:0:0:
422,254,61435,2,0,P|359:243|268:274,1,140,2|2,0:0|0:0,0:0:0:0:
217,310,62016,1,8,0:0:0:0:
93,195,62403,5,6,0:0:0:0:
164,42,62790,1,6,0:0:0:0:
331,62,63177,1,6,0:0:0:0:
364,227,63564,2,0,L|352:267,2,35,8|8|8,0:0|0:0|0:0,0:0:0:0:
420,150,63951,6,0,L|512:142,1,70,6|2,0:0|0:0,0:0:0:0:
448,70,64338,1,8,0:0:0:0:
364,79,64532,1,2,0:0:0:0:
291,139,64726,2,0,P|230:129|186:81,2,105,8|8|10,0:0|0:0|0:0,0:0:0:0:
291,139,65693,5,2,0:0:0:0:
326,215,65887,1,8,0:0:0:0:
284,287,66080,1,2,0:0:0:0:
198,250,66274,2,0,P|135:256|81:301,2,105,8|8|10,0:0|0:0|0:0,0:0:0:0:
198,250,67242,5,2,0:0:0:0:
220,170,67435,1,8,0:0:0:0:
279,230,67629,1,0,0:0:0:0:
351,272,67822,2,0,P|393:278|432:260,1,70,2|0,0:0|0:0,0:0:0:0:
492,223,68209,2,0,P|461:190|423:180,1,70,8|0,0:0|0:0,0:0:0:0:
329,192,68597,6,0,L|376:121,1,70,4|0,0:0|0:0,0:0:0:0:
247,171,68984,2,0,L|252:101,1,70,12|0,0:0|0:0,0:0:0:0:
166,193,69371,2,0,L|129:116,1,70,4|0,0:0|0:0,0:0:0:0:
159,48,69758,2,0,P|182:41|207:45,2,35,8|8|8,0:0|0:0|0:0,0:0:0:0:
63,86,70145,6,0,P|53:147|73:179,1,70,6|0,0:0|0:0,0:0:0:0:
136,129,70532,1,8,0:0:0:0:
203,180,70726,1,2,0:0:0:0:
138,248,70919,2,0,P|130:312|165:371,2,105,8|8|8,0:0|0:0|0:0,0:0:0:0:
138,248,71887,5,2,0:0:0:0:
211,290,72080,1,8,0:0:0:0:
288,261,72274,1,2,0:0:0:0:
373,301,72467,2,0,P|432:306|488:280,2,105,8|8|10,0:0|0:0|0:0,0:0:0:0:
373,301,73435,5,2,0:0:0:0:
400,222,73629,1,8,0:0:0:0:
346,159,73822,1,2,0:0:0:0:
265,175,74016,1,2,0:0:0:0:
204,118,74209,2,0,L|205:77,2,35,2|8|10,0:0|0:0|0:0,0:0:0:0:
130,159,74597,5,8,0:0:0:0:
130,159,74693,1,8,0:0:0:0:
130,159,74790,2,0,P|99:228|121:311,1,140,6|14,0:0|0:0,0:0:0:0:
305,363,75564,2,0,P|228:380|153:352,1,140,6|10,0:0|0:0,0:0:0:0:
255,150,76338,6,0,P|278:195|270:246,2,105,2|2|2,0:0|0:0|0:0,0:0:0:0:
112,260,77209,2,0,P|150:223|200:212,1,105,2|2,0:0|0:0,0:0:0:0:
314,341,77887,5,6,0:0:0:0:
314,341,78080,1,2,0:0:0:0:
382,281,78274,1,8,0:0:0:0:
382,281,78467,1,0,0:0:0:0:
347,197,78661,1,0,0:0:0:0:
271,247,78855,2,0,P|230:250|179:231,1,70,2|8,0:0|0:0,0:0:0:0:
122,199,79242,6,0,P|103:255|137:347,1,140,2|2,0:0|0:0,0:0:0:0:
204,373,79822,1,8,0:0:0:0:
273,313,80016,2,0,P|281:289|271:247,1,70,2|0,0:0|0:0,0:0:0:0:
211,177,80403,1,2,0:0:0:0:
266,104,80597,1,8,0:0:0:0:
340,155,80790,6,0,P|399:166|479:141,1,140,6|2,0:0|0:0,0:0:0:0:
468,52,81371,2,0,L|383:52,1,70,8|0,0:0|0:0,0:0:0:0:
311,80,81758,2,0,P|273:79|234:56,1,70,2|0,0:0|0:0,0:0:0:0:
169,13,82145,2,0,P|154:44|154:79,1,70,8|0,0:0|0:0,0:0:0:0:
202,146,82532,5,2,0:0:0:0:
202,146,82726,2,0,P|172:160|114:150,1,70,2|8,0:0|0:0,0:0:0:0:
63,102,83113,2,0,P|42:167|62:233,1,140,2|6,0:0|0:0,0:0:0:0:
71,323,83693,2,0,P|111:312|144:275,1,70,8|8,0:0|0:0,0:0:0:0:
175,217,84080,5,6,0:0:0:0:
175,217,84274,1,2,0:0:0:0:
246,273,84467,2,0,P|283:272|323:248,1,70,8|2,0:0|0:0,0:0:0:0:
260,182,84855,1,0,0:0:0:0:
352,173,85048,2,0,P|380:193|398:224,1,70,2|8,0:0|0:0,0:0:0:0:
454,295,85435,6,0,P|489:230|474:153,1,140,2|2,0:0|0:0,0:0:0:0:
441,84,86016,1,8,0:0:0:0:
350,86,86209,2,0,L|270:86,1,70,2|0,0:0|0:0,0:0:0:0:
189,84,86597,1,2,0:0:0:0:
119,25,86790,1,8,0:0:0:0:
46,81,86984,6,0,P|18:154|54:220,1,140,4|0,0:0|0:0,0:0:0:0:
112,148,87564,2,0,P|132:177|136:212,1,70,8|0,0:0|0:0,0:0:0:0:
91,290,87951,2,0,L|185:290,1,70,2|0,0:0|0:0,0:0:0:0:
246,257,88338,2,0,P|272:304|269:343,1,70,8|0,0:0|0:0,0:0:0:0:
355,359,88726,6,0,P|382:300|362:216,1,140,6|8,0:0|0:0,0:0:0:0:
292,180,89306,2,0,P|355:190|431:149,1,140,2|6,0:0|0:0,0:0:0:0:
512,147,89887,2,0,P|498:110|463:78,1,70,8|8,0:0|0:0,0:0:0:0:
392,56,90274,6,0,P|359:62|307:54,1,70,6|2,0:0|0:0,0:0:0:0:
235,32,90661,2,0,P|200:28|165:34,1,70,8|2,0:0|0:0,0:0:0:0:
83,72,91048,1,0,0:0:0:0:
153,129,91242,2,0,P|162:168|148:211,1,70,2|8,0:0|0:0,0:0:0:0:
83,252,91629,6,0,B|159:222|248:258,1,140,2|2,0:0|0:0,0:0:0:0:
304,283,92209,1,8,0:0:0:0:
366,216,92403,2,0,P|400:200|445:200,1,70,2|0,0:0|0:0,0:0:0:0:
511,243,92790,1,2,0:0:0:0:
492,333,92984,1,10,0:0:0:0:
401,343,93177,6,0,P|374:310|367:212,1,140,6|0,0:0|0:0,0:0:0:0:
433,154,93758,2,0,L|512:137,1,70,8|0,0:0|0:0,0:0:0:0:
448,65,94145,2,0,L|369:82,1,70,2|0,0:0|0:0,0:0:0:0:
290,99,94532,2,0,P|252:100|221:88,1,70,8|0,0:0|0:0,0:0:0:0:
150,33,94919,5,2,0:0:0:0:
72,81,95113,2,0,L|-12:81,1,70,2|8,0:0|0:0,0:0:0:0:
38,164,95500,2,0,L|199:164,1,140,2|6,0:0|0:0,0:0:0:0:
256,209,96080,2,0,P|265:254|246:296,1,70,8|8,0:0|0:0,0:0:0:0:
195,342,96467,5,6,0:0:0:0:
195,342,96661,1,2,0:0:0:0:
284,363,96855,1,8,0:0:0:0:
284,363,97049,1,2,0:0:0:0:
373,342,97242,1,0,0:0:0:0:
421,265,97435,2,0,L|403:185,1,70,2|8,0:0|0:0,0:0:0:0:
480,144,97822,6,0,L|510:280,1,140,2|2,0:0|0:0,0:0:0:0:
421,265,98403,1,8,0:0:0:0:
338,303,98597,2,0,P|291:300|254:280,1,70,2|0,0:0|0:0,0:0:0:0:
229,209,98984,2,0,L|241:114,1,70,2|8,0:0|0:0,0:0:0:0:
215,51,99371,6,0,P|163:84|160:184,1,140,6|2,0:0|0:0,0:0:0:0:
237,139,99951,2,0,P|271:131|319:141,1,70,8|0,0:0|0:0,0:0:0:0:
389,99,100338,2,0,P|397:133|387:181,1,70,2|0,0:0|0:0,0:0:0:0:
429,251,100726,2,0,P|395:259|347:249,1,70,8|0,0:0|0:0,0:0:0:0:
275,222,101113,6,0,P|199:210|134:226,1,140,6|8,0:0|0:0,0:0:0:0:
67,281,101693,1,2,0:0:0:0:
53,193,101887,2,0,L|47:158,2,35,10|8|8,0:0|0:0|0:0,0:0:0:0:
138,224,102274,2,0,L|145:269,2,35,8|8|8,0:0|0:0|0:0,0:0:0:0:
125,128,102661,1,4,0:0:0:0:
452,176,115048,6,0,P|464:232|452:288,1,112,4|0,0:0|0:0,0:0:0:0:
400,336,115629,2,0,B|177:383|129:239|257:127|385:239|337:383|113:335,1,560
44,313,117758,1,2,0:0:0:0:
44,241,117951,1,0,0:0:0:0:
116,241,118145,6,0,L|228:241,1,112,2|0,0:0|0:0,0:0:0:0:
228,169,118726,2,0,L|42:169,1,168,0|0,0:0|0:0,0:0:0:0:
60,97,119500,2,0,L|246:97,1,168,0|0,0:0|0:0,0:0:0:0:
372,96,120467,2,0,L|372:168,1,56,2|0,0:0|0:0,0:0:0:0:
372,226,120855,2,0,L|372:298,1,56,0|0,0:0|0:0,0:0:0:0:
368,356,121242,6,0,P|305:339|249:349,1,112,2|0,0:0|0:0,0:0:0:0:
189,364,121822,2,0,P|53:303|206:26,1,560
278,33,123951,1,2,0:0:0:0:
336,77,124145,1,0,0:0:0:0:
299,140,124338,6,0,P|285:195|314:267,1,112,2|0,0:0|0:0,0:0:0:0:
362,283,124919,2,0,B|336:324|294:327|194:321,1,168
106,216,125887,2,0,B|37:195|-16:241,2,112,0|0|8,0:0|0:0|0:0,0:0:0:0:
164,267,126855,1,2,0:0:0:0:
199,199,127048,1,2,0:0:0:0:
168,128,127242,2,0,L|148:82,2,29.7500005674362,8|8|4,0:0|0:0|0:0,0:0:0:0:
375,144,127822,5,8,0:0:0:0:
445,98,128016,1,2,0:0:0:0:
510,151,128209,2,0,P|517:191|490:241,1,70,0|2,0:0|0:0,0:0:0:0:
439,266,128597,2,0,L|370:251,1,70,8|2,0:0|0:0,0:0:0:0:
308,198,128984,6,0,P|291:229|290:264,1,70,0|2,0:0|0:0,0:0:0:0:
263,341,129371,2,0,P|233:322|215:292,1,70,8|2,0:0|0:0,0:0:0:0:
208,208,129758,2,0,P|174:217|148:241,1,70,0|2,0:0|0:0,0:0:0:0:
138,325,130145,1,8,0:0:0:0:
54,314,130339,1,2,0:0:0:0:
65,230,130532,6,0,P|105:174|177:138,1,140,0|8,0:0|0:0,0:0:0:0:
250,140,131113,2,0,P|311:106|351:50,1,140,2|2,0:0|0:0,0:0:0:0:
280,8,131693,1,8,0:0:0:0:
212,56,131887,2,0,P|133:61|64:28,1,140,2|2,0:0|0:0,0:0:0:0:
8,84,132468,1,8,0:0:0:0:
89,230,132855,6,0,L|156:253,1,70,8|2,0:0|0:0,0:0:0:0:
202,182,133242,2,0,L|248:235,1,70,8|2,0:0|0:0,0:0:0:0:
325,197,133629,2,0,P|339:269|317:330,1,140,6|8,0:0|0:0,0:0:0:0:
401,329,134209,2,0,P|417:262|392:165,1,140,2|2,0:0|0:0,0:0:0:0:
359,121,134790,2,0,P|319:113|279:125,1,70,8|2,0:0|0:0,0:0:0:0:
261,41,135177,6,0,P|228:63|208:100,1,70,0|2,0:0|0:0,0:0:0:0:
136,53,135564,2,0,P|128:93|140:133,1,70,8|2,0:0|0:0,0:0:0:0:
56,150,135951,2,0,P|79:183|116:203,1,70,0|2,0:0|0:0,0:0:0:0:
187,187,136338,1,8,0:0:0:0:
224,264,136532,1,2,0:0:0:0:
163,322,136726,6,0,P|100:333|9:302,1,140,4|8,0:0|0:0,0:0:0:0:
89,255,137306,2,0,P|152:244|243:275,1,140,2|2,0:0|0:0,0:0:0:0:
294,311,137887,1,8,0:0:0:0:
418,196,138274,5,6,0:0:0:0:
347,43,138661,1,6,0:0:0:0:
180,63,139048,1,6,0:0:0:0:
147,228,139435,2,0,L|159:268,2,35,8|8|8,0:0|0:0|0:0,0:0:0:0:
239,241,139822,6,0,P|242:275|228:306,1,70,4|2,0:0|0:0,0:0:0:0:
153,344,140209,1,8,0:0:0:0:
75,313,140403,1,2,0:0:0:0:
68,214,140597,2,0,P|119:225|157:261,2,105,8|8|8,0:0|0:0|0:0,0:0:0:0:
59,47,141564,5,2,0:0:0:0:
143,52,141758,1,8,0:0:0:0:
184,125,141951,1,2,0:0:0:0:
275,81,142145,2,0,P|338:87|392:132,2,105,8|8|10,0:0|0:0|0:0,0:0:0:0:
318,243,143113,5,2,0:0:0:0:
296,163,143306,1,8,0:0:0:0:
237,223,143500,1,2,0:0:0:0:
163,263,143693,2,0,P|121:269|82:251,1,70,0|2,0:0|0:0,0:0:0:0:
22,214,144080,2,0,P|53:181|91:171,1,70,8|0,0:0|0:0,0:0:0:0:
185,183,144468,6,0,P|181:140|153:100,1,70,6|0,0:0|0:0,0:0:0:0:
267,162,144855,2,0,P|278:131|273:88,1,70,12|0,0:0|0:0,0:0:0:0:
348,184,145242,2,0,P|377:148|385:107,1,70,6|0,0:0|0:0,0:0:0:0:
355,39,145629,2,0,P|332:32|307:36,2,35,8|8|8,0:0|0:0|0:0,0:0:0:0:
451,77,146016,6,0,P|461:138|441:170,1,70,6|2,0:0|0:0,0:0:0:0:
416,216,146403,1,8,0:0:0:0:
459,289,146597,1,2,0:0:0:0:
394,366,146790,2,0,P|352:377|282:360,2,105,8|8|8,0:0|0:0|0:0,0:0:0:0:
419,199,147758,5,2,0:0:0:0:
353,250,147951,1,8,0:0:0:0:
281,207,148145,1,2,0:0:0:0:
204,270,148338,2,0,P|153:276|104:259,2,105,8|8|10,0:0|0:0|0:0,0:0:0:0:
45,319,149306,5,2,0:0:0:0:
18,240,149500,1,8,0:0:0:0:
72,177,149693,1,2,0:0:0:0:
153,193,149887,1,2,0:0:0:0:
220,142,150080,2,0,L|220:102,2,35,2|8|10,0:0|0:0|0:0,0:0:0:0:
294,202,150468,5,8,0:0:0:0:
294,202,150564,1,8,0:0:0:0:
294,202,150661,2,0,P|310:272|276:339,1,140,6|6,0:0|0:0,0:0:0:0:
104,258,151435,2,0,P|84:187|112:111,1,140,4|8,0:0|0:0,0:0:0:0:
294,202,152209,6,0,P|354:210|414:178,2,105,2|2|2,0:0|0:0|0:0,0:0:0:0:
426,125,153080,2,0,P|463:163|470:213,1,105,2|2,0:0|0:0,0:0:0:0:
198,341,153758,5,6,0:0:0:0:
198,341,153951,1,2,0:0:0:0:
170,254,154145,1,8,0:0:0:0:
170,254,154338,1,2,0:0:0:0:
142,167,154532,1,0,0:0:0:0:
231,186,154726,2,0,P|275:190|323:170,1,70,2|8,0:0|0:0,0:0:0:0:
373,130,155113,6,0,P|407:201|390:269,1,140,2|2,0:0|0:0,0:0:0:0:
311,293,155693,1,8,0:0:0:0:
384,349,155887,2,0,P|427:349|457:323,1,70,2|0,0:0|0:0,0:0:0:0:
499,258,156274,1,2,0:0:0:0:
499,166,156468,1,8,0:0:0:0:
449,90,156661,6,0,P|390:73|307:83,1,140,6|2,0:0|0:0,0:0:0:0:
274,163,157242,2,0,P|315:173|362:160,1,70,8|0,0:0|0:0,0:0:0:0:
312,81,157629,2,0,P|271:71|224:84,1,70,2|0,0:0|0:0,0:0:0:0:
169,128,158016,2,0,P|154:97|154:62,1,70,8|0,0:0|0:0,0:0:0:0:
244,75,158403,5,2,0:0:0:0:
274,163,158597,2,0,L|262:242,1,70,2|8,0:0|0:0,0:0:0:0:
203,300,158984,2,0,P|267:322|330:295,1,140,2|6,0:0|0:0,0:0:0:0:
421,291,159564,2,0,P|413:258|393:230,1,70,8|8,0:0|0:0,0:0:0:0:
322,172,159951,5,6,0:0:0:0:
322,172,160145,1,2,0:0:0:0:
256,234,160338,2,0,L|173:220,1,70,8|2,0:0|0:0,0:0:0:0:
96,205,160726,1,0,0:0:0:0:
157,138,160919,2,0,P|162:104|153:69,1,70,2|8,0:0|0:0,0:0:0:0:
226,15,161306,6,0,P|254:79|246:157,1,140,2|2,0:0|0:0,0:0:0:0:
157,138,161887,1,8,0:0:0:0:
186,223,162080,2,0,L|166:320,1,70,2|0,0:0|0:0,0:0:0:0:
86,324,162468,1,0,0:0:0:0:
157,381,162661,1,8,0:0:0:0:
242,348,162855,6,0,P|316:330|389:339,1,140,6|2,0:0|0:0,0:0:0:0:
464,366,163435,2,0,P|484:337|488:302,1,70,8|0,0:0|0:0,0:0:0:0:
467,214,163822,2,0,L|437:118,1,70,2|0,0:0|0:0,0:0:0:0:
380,83,164209,2,0,P|354:130|357:169,1,70,8|0,0:0|0:0,0:0:0:0:
299,219,164597,6,0,P|269:158|284:73,1,140,6|8,0:0|0:0,0:0:0:0:
225,163,165177,2,0,P|162:173|86:132,1,140,2|6,0:0|0:0,0:0:0:0:
4,128,165758,2,0,P|18:91|53:59,1,70,8|8,0:0|0:0,0:0:0:0:
124,37,166145,6,0,P|157:43|209:35,1,70,6|2,0:0|0:0,0:0:0:0:
281,13,166532,2,0,P|316:9|351:15,1,70,8|2,0:0|0:0,0:0:0:0:
433,53,166919,1,0,0:0:0:0:
363,110,167113,2,0,P|354:149|368:192,1,70,2|8,0:0|0:0,0:0:0:0:
433,233,167500,6,0,B|357:203|268:239,1,140,2|2,0:0|0:0,0:0:0:0:
212,264,168080,1,8,0:0:0:0:
150,197,168274,2,0,P|116:181|71:181,1,70,2|0,0:0|0:0,0:0:0:0:
5,224,168661,1,0,0:0:0:0:
24,314,168855,1,8,0:0:0:0:
115,324,169048,6,0,P|142:291|149:193,1,140,6|2,0:0|0:0,0:0:0:0:
83,135,169629,2,0,L|4:118,1,70,8|0,0:0|0:0,0:0:0:0:
68,46,170016,2,0,L|147:63,1,70,2|0,0:0|0:0,0:0:0:0:
226,80,170403,2,0,P|264:81|295:69,1,70,8|0,0:0|0:0,0:0:0:0:
371,22,170790,5,2,0:0:0:0:
448,69,170984,2,0,L|465:169,1,70,2|8,0:0|0:0,0:0:0:0:
371,116,171371,2,0,P|383:187|449:229,1,140,2|6,0:0|0:0,0:0:0:0:
511,273,171951,2,0,P|471:308|432:316,1,70,8|8,0:0|0:0,0:0:0:0:
365,321,172338,5,6,0:0:0:0:
365,321,172532,1,2,0:0:0:0:
276,300,172726,1,8,0:0:0:0:
276,300,172920,1,2,0:0:0:0:
187,321,173113,1,0,0:0:0:0:
112,269,173306,2,0,L|130:189,1,70,2|8,0:0|0:0,0:0:0:0:
53,148,173693,6,0,L|23:284,1,140,2|2,0:0|0:0,0:0:0:0:
112,269,174274,1,8,0:0:0:0:
195,307,174468,2,0,P|242:304|279:284,1,70,2|0,0:0|0:0,0:0:0:0:
303,212,174855,2,0,L|295:143,1,70,2|8,0:0|0:0,0:0:0:0:
318,55,175242,6,0,P|369:84|376:185,1,140,6|2,0:0|0:0,0:0:0:0:
295,143,175822,2,0,P|261:135|213:145,1,70,8|0,0:0|0:0,0:0:0:0:
144,103,176209,2,0,P|136:137|146:185,1,70,2|0,0:0|0:0,0:0:0:0:
104,255,176597,2,0,P|138:263|186:253,1,70,8|0,0:0|0:0,0:0:0:0:
258,226,176984,6,0,P|334:214|399:230,1,140,6|10,0:0|0:0,0:0:0:0:
466,285,177564,1,2,0:0:0:0:
480,197,177758,2,0,L|486:162,2,35,8|8|8,0:0|0:0|0:0,0:0:0:0:
395,228,178145,2,0,L|388:273,2,35,8|8|8,0:0|0:0|0:0,0:0:0:0:
338,165,178532,6,0,P|312:107|331:28,2,140,6|8|0,0:0|0:0|0:0,0:0:0:0:
395,228,179500,2,0,L|380:314,1,70,2|8,0:0|0:0,0:0:0:0:
322,355,179887,6,0,P|281:336|171:350,1,140,2|2,0:0|0:0,0:0:0:0:
109,370,180467,2,0,P|95:323|105:288,1,70,8|2,0:0|0:0,0:0:0:0:
144,232,180855,2,0,B|203:201|232:240|309:203,1,140,2|8,0:0|0:0,0:0:0:0:
361,236,181435,6,0,P|362:189|336:153,1,70,2|0,0:0|0:0,0:0:0:0:
300,102,181822,2,0,P|287:69|291:35,2,70,2|8|2,0:0|0:0|0:0,0:0:0:0:
371,57,182403,2,0,P|425:51|480:78,2,105,2|2|2,0:0|0:0|0:0,0:0:0:0:
300,102,183177,6,0,P|231:111|148:69,2,140,4|12|4,0:0|0:0|0:0,0:0:0:0:
435,201,184338,1,8,0:0:0:0:
435,201,184435,1,8,0:0:0:0:
435,201,184532,1,8,0:0:0:0:
472,277,184726,6,0,P|452:305|421:320,1,70,6|2,0:0|0:0,0:0:0:0:
340,301,185113,2,0,P|289:298|251:317,1,70,8|2,0:0|0:0,0:0:0:0:
197,342,185500,2,0,P|129:346|82:327,2,105,2|2|2,0:0|0:0|0:0,0:0:0:0:
271,303,186274,6,0,B|272:248,2,35,8|10|2,0:0|0:0|0:0,0:0:0:0:
198,260,186661,2,0,B|198:225,2,35,8|10|2,0:0|0:0|0:0,0:0:0:0:
125,217,187048,2,0,P|105:146|134:75,1,140,10|12,0:0|0:0,0:0:0:0:
190,30,187629,1,2,0:0:0:0:
258,77,187822,6,0,P|326:86|407:60,2,140,14|8|6,0:0|0:0|0:0,0:0:0:0:
190,30,188790,2,0,P|148:26|105:37,2,70,2|8|2,0:0|0:0|0:0,0:0:0:0:
258,77,189371,5,6,0:0:0:0:
284,244,189758,1,6,0:0:0:0:
124,296,190145,2,0,L|109:146,1,140,6|0,0:0|0:0,0:0:0:0:
284,244,190919,6,0,P|344:244|396:215,2,105,2|2|2,0:0|0:0|0:0,0:0:0:0:
397,136,191790,2,0,P|450:162|473:219,1,105,2|2,0:0|0:0,0:0:0:0:
180,176,194984,6,0,P|140:164|100:168,2,59.5000011348725,2|2|2,0:0|0:0|0:0,0:0:0:0:
346,310,195951,2,0,B|426:311|452:228,2,119.000002269745,2|2|2,0:0|0:0|0:0,0:0:0:0:
202,305,197113,2,0,L|142:268,1,59.5000011348725,2|2,0:0|0:0,0:0:0:0:
278,209,197693,2,0,L|234:25,1,178.500003404617,2|2,0:0|0:0,0:0:0:0:
371,202,201177,6,0,P|380:239|374:271,2,59.5000011348725,2|2|2,0:0|0:0|0:0,0:0:0:0:
208,60,202145,2,0,P|133:55|83:72,2,119.000002269745,2|2|2,0:0|0:0|0:0,0:0:0:0:
262,192,203306,2,0,B|209:175|210:209|144:192,1,119.000002269745,2|0,0:0|0:0,0:0:0:0:
74,179,203887,2,0,P|60:234|85:311,1,119.000002269745,2|0,0:0|0:0,0:0:0:0:
122,347,204467,1,2,0:0:0:0:
383,132,207371,6,0,L|417:76,2,59.5000011348725,2|2|2,0:0|0:0|0:0,0:0:0:0:
260,307,208338,2,0,P|186:310|130:273,2,119.000002269745,2|2|2,0:0|0:0|0:0,0:0:0:0:
260,163,209500,2,0,L|274:227,1,59.5000011348725,2|2,0:0|0:0,0:0:0:0:
384,132,210080,2,0,L|356:324,1,178.500003404617,2|2,0:0|0:0,0:0:0:0:
256,192,211048,12,6,212597,0:0:0:0:
256,192,212693,12,6,214145,0:0:0:0:
256,192,214242,12,4,215693,0:0:0:0:
229,259,216467,6,0,L|153:225,1,70,8|2,0:0|0:0,0:0:0:0:
227,173,216855,2,0,L|197:95,1,70,8|8,0:0|0:0,0:0:0:0:
292,114,217242,5,6,0:0:0:0:
292,114,217435,1,2,0:0:0:0:
357,50,217629,1,8,0:0:0:0:
357,50,217822,1,2,0:0:0:0:
445,70,218016,1,0,0:0:0:0:
495,145,218209,2,0,P|498:189|476:229,1,70,2|8,0:0|0:0,0:0:0:0:
397,219,218597,6,0,P|457:236|491:310,1,140,2|2,0:0|0:0,0:0:0:0:
401,312,219177,1,8,0:0:0:0:
309,312,219371,2,0,L|217:312,1,70,2|0,0:0|0:0,0:0:0:0:
169,253,219758,1,2,0:0:0:0:
109,322,219951,1,8,0:0:0:0:
34,269,220145,6,0,P|6:203|33:122,1,140,6|2,0:0|0:0,0:0:0:0:
79,69,220726,2,0,P|121:63|163:67,1,70,8|0,0:0|0:0,0:0:0:0:
232,100,221113,2,0,P|266:101|301:95,1,70,2|0,0:0|0:0,0:0:0:0:
362,27,221500,2,0,L|390:105,1,70,8|0,0:0|0:0,0:0:0:0:
417,178,221887,5,2,0:0:0:0:
382,261,222080,2,0,P|433:267|465:250,1,70,2|8,0:0|0:0,0:0:0:0:
417,178,222467,2,0,L|270:177,1,140,2|6,0:0|0:0,0:0:0:0:
256,265,223048,2,0,P|222:251|196:208,1,70,8|8,0:0|0:0,0:0:0:0:
171,139,223435,5,6,0:0:0:0:
171,139,223629,1,2,0:0:0:0:
106,203,223822,2,0,P|70:209|14:183,1,70,8|2,0:0|0:0,0:0:0:0:
5,115,224209,1,0,0:0:0:0:
91,86,224403,2,0,L|136:12,1,70,2|8,0:0|0:0,0:0:0:0:
217,22,224790,6,0,P|279:50|379:29,1,140,2|2,0:0|0:0,0:0:0:0:
429,0,225371,1,8,0:0:0:0:
492,64,225564,2,0,L|479:142,1,70,2|0,0:0|0:0,0:0:0:0:
460,222,225951,1,2,0:0:0:0:
393,161,226145,1,8,0:0:0:0:
373,250,226338,6,0,P|297:261|220:229,1,140,6|2,0:0|0:0,0:0:0:0:
157,199,226919,2,0,P|146:239|168:290,1,70,8|0,0:0|0:0,0:0:0:0:
99,340,227306,2,0,P|70:310|63:255,1,70,2|0,0:0|0:0,0:0:0:0:
60,192,227693,2,0,L|102:103,1,70,8|0,0:0|0:0,0:0:0:0:
96,37,228080,6,0,P|157:63|180:135,1,140,6|8,0:0|0:0,0:0:0:0:
202,217,228661,2,0,P|257:180|267:105,1,140,2|2,0:0|0:0,0:0:0:0:
240,24,229242,2,0,P|282:19|324:58,1,70,8|8,2:0|2:0,2:0:0:0:
356,107,229629,6,0,P|390:113|435:95,1,70,6|2,0:0|0:0,0:0:0:0:
492,43,230016,2,0,L|516:130,1,70,8|2,0:0|0:0,0:0:0:0:
511,201,230403,1,0,0:0:0:0:
438,256,230597,2,0,L|354:249,1,70,2|8,0:0|0:0,0:0:0:0:
312,177,230984,6,0,P|327:243|290:314,1,140,2|2,0:0|0:0,0:0:0:0:
235,371,231564,1,8,0:0:0:0:
165,312,231758,2,0,P|112:311|89:320,1,70,2|0,0:0|0:0,0:0:0:0:
22,369,232145,1,2,0:0:0:0:
14,279,232338,1,8,0:0:0:0:
88,227,232532,6,0,P|109:175|69:84,1,140,6|2,0:0|0:0,0:0:0:0:
18,35,233113,2,0,P|51:14|98:15,1,70,8|0,0:0|0:0,0:0:0:0:
163,50,233500,2,0,P|197:54|230:43,1,70,2|0,0:0|0:0,0:0:0:0:
315,9,233887,2,0,L|403:23,1,70,8|0,0:0|0:0,0:0:0:0:
473,37,234274,5,0,0:0:0:0:
489,126,234467,2,0,L|503:220,1,70,2|8,0:0|0:0,0:0:0:0:
414,159,234855,2,0,P|331:146|250:177,1,140,2|6,0:0|0:0,0:0:0:0:
209,219,235435,2,0,L|129:200,1,70,8|8,0:0|0:0,0:0:0:0:
52,178,235822,5,6,0:0:0:0:
52,178,236016,1,2,0:0:0:0:
85,262,236209,1,8,0:0:0:0:
85,262,236403,1,2,0:0:0:0:
54,348,236597,1,0,0:0:0:0:
143,332,236790,2,0,P|182:327|220:340,1,70,2|8,0:0|0:0,0:0:0:0:
296,368,237177,6,0,P|359:366|438:303,1,140,2|2,0:0|0:0,0:0:0:0:
453,239,237758,1,8,0:0:0:0:
430,151,237951,2,0,L|400:64,1,70,2|0,0:0|0:0,0:0:0:0:
339,24,238338,1,0,0:0:0:0:
281,94,238532,1,10,0:0:0:0:
214,31,238726,6,0,P|141:22|59:49,1,140,6|2,0:0|0:0,0:0:0:0:
36,120,239306,2,0,L|53:202,1,70,8|0,0:0|0:0,0:0:0:0:
141,195,239693,2,0,L|124:113,1,70,6|0,0:0|0:0,0:0:0:0:
217,135,240080,2,0,L|232:204,1,70,8|0,0:0|0:0,0:0:0:0:
212,292,240467,6,0,P|261:291|319:217,1,140,6|8,0:0|0:0,0:0:0:0:
310,135,241048,1,2,0:0:0:0:
302,44,241242,2,0,L|295:-20,2,35,8|8|8,0:0|0:0|0:0,0:0:0:0:
382,85,241629,2,0,L|389:149,2,35,8|8|8,0:0|0:0|0:0,0:0:0:0:
428,0,242016,1,6,0:0:0:0:
