osu file format v14

[General]
AudioFilename: flandre scarlet.mp3
AudioLeadIn: 0
PreviewTime: 305650
Countdown: 0
SampleSet: Soft
StackLeniency: 0.7
Mode: 0
LetterboxInBreaks: 0
EpilepsyWarning: 1
WidescreenStoryboard: 1

[Editor]
Bookmarks: 43738,70846
DistanceSpacing: 0.7
BeatDivisor: 4
GridSize: 4
TimelineZoom: 3.899999

[Metadata]
Title:Secret Sister Complex
TitleUnicode:シークレットシスターコンプレックス
Artist:Halozy
ArtistUnicode:Halozy
Creator:moonlightleaf
Version:Flandre
Source:東方紅魔郷 ~ the Embodiment of Scarlet Devil.
Tags:U.N. Owen was her? touhou U.N.オーエンは彼女なのか? Starry Presto C77
BeatmapID:1444708
BeatmapSetID:683123

[Difficulty]
HPDrainRate:6
CircleSize:4
OverallDifficulty:8
ApproachRate:9
SliderMultiplier:1.8
SliderTickRate:1

[Events]
//Background and Video events
0,0,"flandre.jpg",0,0
//Break Periods
2,254086,265835
//Storyboard Layer 0 (Background)
//Storyboard Layer 1 (Fail)
//Storyboard Layer 2 (Pass)
//Storyboard Layer 3 (Foreground)
Sprite,Foreground,Centre,"white.png",320,240 C,0,0,,0,0,0 F,0,0,1337,1,0
Sprite,Foreground,Centre,"white.png",320,240 C,0,13886,,0,0,0 F,0,13886,15454,0
Sprite,Foreground,Centre,"white.png",320,240 C,0,135454,,0,0,0 F,0,135454,136042,0,1 F,0,136042,136238,1,0.9958709 R,0,136042,137807,0 F,0,136238,137807,0.9958709,0
Sprite,Foreground,Centre,"white.png",320,240 F,0,103297,109572,0,1 C,0,109572,,0,0,0 F,0,109572,111140,1 V,0,109572,111140,1,1
Sprite,Foreground,Centre,"white.png",320,240 F,0,226435,227219,0,1 C,0,226435,228787,0,0,0 F,0,227219,228787,1,0
Sprite,Foreground,Centre,"white.png",320,240 S,0,312219,,1.033032 C,0,312219,,0,0,0 V,0,312219,,0.1,1.1 M,0,312219,312709,-138,240
Sprite,Foreground,Centre,"white.png",320,240 C,0,329964,,0,0,0 F,0,329964,330552,0,1 F,0,330552,332317,1,0 S,0,332317,,1
Sprite,Foreground,Centre,"white.png",320,240 S,0,309372,,1.033032 C,0,309372,,0,0,0 V,0,309372,,0.1,1.1 M,0,309372,309768,722,236
Sprite,Foreground,Centre,"white.png",320,240 S,0,3395,,1.033032 C,0,3395,,0,0,0 V,0,3395,,0.1,1.1 M,0,3395,3791,722,236
Sprite,Foreground,Centre,"white.png",320,240 S,0,127317,,1.033032 C,0,127317,,0,0,0 V,0,127317,,0.1,1.1 M,0,127317,127713,722,236
Sprite,Foreground,Centre,"white.png",320,240 S,0,203395,,1.033032 C,0,203395,,0,0,0 V,0,203395,,0.1,1.1 M,0,203395,203791,722,236
Sprite,Foreground,Centre,"white.png",320,240 S,0,218984,,1.033032 C,0,218984,,0,0,0 V,0,218984,,0.1,1.1 M,0,218984,219380,722,236
Sprite,Foreground,Centre,"fl.png",320,240 S,0,0,15454,1.625 M,0,1337,1729,279,158,291,239 M,0,1729,2121,291,239,372,227 M,0,2121,2513,372,227,384,308 M,0,2513,2709,384,308,360,146 M,0,2709,3101,360,146,198,170 M,0,3101,3297,198,170,130,280 M,0,3297,3493,130,280,68,166 M,0,3493,3689,68,166,232,269 M,0,3689,3787,232,269,257,261 M,0,3787,3885,257,261,283,254 M,0,3885,4082,283,254,245,379 M,0,4082,4180,245,379,218,371 M,0,4180,4278,218,371,192,364 M,0,4278,4474,192,364,317,328 M,0,4474,4670,317,328,414,199 M,0,4670,4866,414,199,256,160 M,0,4866,5062,256,160,322,235 M,0,5062,5258,322,235,429,103 M,0,5258,5454,429,103,400,291 M,0,5454,5552,400,291 M,0,5552,5650,400,291 M,0,5650,5846,400,291,562,230 M,0,5846,6042,562,230,428,199 M,0,6042,6238,428,199,523,352 M,0,6238,6435,523,352,347,152 M,0,6435,6631,347,152,490,271 M,0,6631,6827,490,271,334,350 M,0,6827,6925,334,350,307,344 M,0,6925,7023,307,344,282,334 M,0,7023,7219,282,334,295,136 M,0,7219,7317,295,136,321,142 M,0,7317,7415,321,142,346,151 M,0,7415,7611,346,151,433,373 M,0,7611,8003,433,373,442,278 M,0,8003,8395,442,278,363,314 M,0,8395,8591,363,314,513,329 M,0,8591,8787,513,329,450,197 M,0,8787,8984,450,197,433,373 M,0,8984,9376,433,373,428,396 M,0,9376,9572,428,396,376,229 M,0,9572,9768,376,229,526,244 M,0,9768,9964,526,244,349,392 M,0,9964,10062,349,392,322,391 M,0,10062,10160,322,391,295,390 M,0,10160,10356,295,390,236,230 M,0,10356,10454,236,230,262,228 M,0,10454,10552,262,228,289,227 M,0,10552,10748,289,227,508,222 M,0,10748,10944,508,222,428,278 M,0,10944,11140,428,278,298,148 M,0,11140,11337,298,148,378,92 M,0,11337,11533,378,92,343,296 M,0,11533,11729,343,296,201,148 M,0,11729,11827,201,148 M,0,11827,11925,201,148 M,0,11925,12121,201,148,170,322 M,0,12121,12317,170,322,115,225 M,0,12317,12513,115,225,341,207 M,0,12513,12709,341,207,222,230 M,0,12709,12905,222,230,373,91 M,0,12905,13101,373,91,426,300 M,0,13101,13886,426,300 F,0,13886,15454,1,0
Sprite,Foreground,Centre,"fl.png",320,240 S,0,111140,,1.625 M,0,111140,111238,239,138,242,182 M,0,111238,111336,242,182,246,227 M,0,111336,111533,246,227,259,381 M,0,111533,111729,259,381,375,307 M,0,111729,111925,375,307,193,302 M,0,111925,112023,193,302,148,293 M,0,112023,112121,148,293,104,284 M,0,112121,112317,104,284,137,155 M,0,112317,112513,137,155,160,394 M,0,112513,112709,160,394,295,300 M,0,112709,112905,295,300,303,118 M,0,112905,113101,303,118,214,226 M,0,113101,113297,214,226,394,381 M,0,113297,113493,394,381,445,233 M,0,113493,113689,445,233,358,285 M,0,113689,113886,358,285,439,133 M,0,113886,114082,439,133,537,278 M,0,114082,114278,537,278,298,210 M,0,114278,114474,298,210,243,412 M,0,114474,114670,243,412,309,327 M,0,114670,114866,309,327,187,169 M,0,114866,115062,187,169,198,286 M,0,115062,115258,198,286,287,93 M,0,115258,115356,287,93 M,0,115356,115454,287,93 M,0,115454,115650,287,93,76,113 M,0,115650,115846,76,113,251,223 M,0,115846,116042,251,223,175,373 M,0,116042,116238,175,373,82,235 M,0,116238,116435,82,235,266,319 M,0,116435,116631,266,319,174,162 M,0,116631,116729,174,162,171,189 M,0,116729,116827,171,189,166,216 M,0,116827,116925,166,216,158,260 M,0,116925,117023,158,260,266,319 M,0,117023,117121,266,319,271,292 M,0,117121,117219,271,292,274,265 M,0,117219,117317,274,265,280,220 M,0,117317,117415,280,220,302,102 M,0,117415,117513,302,102,344,113 M,0,117513,117611,344,113,388,105 M,0,117611,117807,388,105,501,76 M,0,117807,118003,501,76,523,266 M,0,118003,118199,523,266,433,191 M,0,118199,118297,433,191,476,180 M,0,118297,118395,476,180,520,170 M,0,118395,118493,520,170,547,166 M,0,118493,118591,547,166 M,0,118591,118787,547,166,495,350 M,0,118787,118984,495,350,336,229 M,0,118984,119180,336,229,417,291 M,0,119180,119376,417,291,433,191 M,0,119376,119572,433,191,284,155 M,0,119572,119670,284,155,276,110 M,0,119670,119768,276,110,269,66 M,0,119768,119964,269,66,433,191 M,0,119964,120160,433,191,333,319 M,0,120160,120356,333,319,189,294 M,0,120356,120552,189,294,378,394 M,0,120552,120748,378,394,433,191 M,0,120748,120944,433,191,278,248 M,0,120944,121140,278,248,471,264 M,0,121140,121336,471,264,281,391 M,0,121336,121533,281,391,374,249 M,0,121533,121631,374,249 M,0,121631,121729,374,249 M,0,121729,121925,374,249,216,320 M,0,121925,122121,216,320,376,339 M,0,122121,122317,376,339,289,169 M,0,122317,122513,289,169,375,377 M,0,122513,122709,375,377,491,182 M,0,122709,122905,491,182,374,249 M,0,122905,123003,374,249 M,0,123003,123101,374,249,369,204 M,0,123101,123199,369,204,289,169 M,0,123199,123297,289,169,283,213 M,0,123297,123395,283,213,273,293 M,0,123395,123493,273,293,228,290 M,0,123493,123591,228,290,199,255 M,0,123591,123689,199,255,174,217 M,0,123689,123787,174,217,167,261 M,0,123787,123885,167,261,161,306 M,0,123885,124082,161,306,285,383 M,0,124082,124180,285,383,279,338 M,0,124180,124278,279,338,273,293 M,0,124278,124474,273,293,336,148 M,0,124474,124572,336,148,380,141 M,0,124572,124670,380,141,425,135 M,0,124670,124768,425,135,452,133 M,0,124768,124866,452,133 M,0,124866,125062,452,133,539,247 M,0,125062,125258,539,247,559,70 M,0,125258,125454,559,70,445,223 M,0,125454,125650,445,223,538,167 M,0,125650,125846,538,167,448,401 M,0,125846,125944,448,401,446,356 M,0,125944,126042,446,356,444,311 M,0,126042,126238,444,311,372,95 M,0,126238,126435,372,95,263,259 M,0,126435,126631,263,259,364,207 M,0,126631,126827,364,207,141,89 M,0,126827,127024,141,89,179,224 M,0,127024,127220,179,224,276,121 M,0,127220,127415,276,121,71,185 M,0,127415,127611,71,185,161,332 M,0,127611,127807,161,332,201,149 M,0,127807,127905,201,149 M,0,127905,128003,201,149 M,0,128003,128199,201,149,78,285 M,0,128199,128395,78,285,299,297 M,0,128395,128591,299,297,273,400 M,0,128591,128787,273,400,201,325 M,0,128787,128984,201,325,315,184 M,0,128984,129180,315,184,511,278 M,0,129180,129278,511,278,476,287 M,0,129278,129376,476,287,441,297 M,0,129376,129474,441,297,396,306 M,0,129474,129572,396,306,438,196 M,0,129572,129670,438,196,473,187 M,0,129670,129768,473,187,508,177 M,0,129768,129866,508,177,551,166 M,0,129866,129964,551,166,432,381 M,0,129964,130062,432,381,388,387 M,0,130062,130160,388,387,348,368 M,0,130160,130356,348,368,315,184 M,0,130356,130454,315,184,321,228 M,0,130454,130552,321,228,328,273 M,0,130552,130748,328,273,235,156 M,0,130748,130846,235,156,258,118 M,0,130846,130944,258,118,298,99 M,0,130944,131042,298,99,335,96 M,0,131042,131140,335,96 M,0,131140,131337,335,96,242,260 M,0,131337,131533,242,260,143,102 M,0,131533,131729,143,102,335,96 M,0,131729,131925,335,96,235,156 M,0,131925,132121,235,156,248,349 M,0,132121,132219,248,349,244,304 M,0,132219,132317,244,304,241,259 M,0,132317,132513,241,259,457,264 M,0,132513,132709,457,264,351,408 M,0,132709,132905,351,408,242,260 M,0,132905,133101,242,260,457,264 M,0,133101,133297,457,264,346,304 M,0,133297,133493,346,304,310,113 M,0,133493,133689,310,113,421,153 M,0,133689,133886,421,153,244,230 M,0,133886,133984,244,230 M,0,133984,134082,244,230 M,0,134082,134180,244,230,199,221 M,0,134180,134278,199,221,155,213 M,0,134278,134474,155,213,385,229 M,0,134474,134670,385,229,233,396 M,0,134670,134866,233,396,94,304 M,0,134866,135062,94,304,244,230 M,0,135062,135258,244,230,117,424 M,0,135258,135454,117,424,304,288 M,0,135454,135552,304,288,335,288 M,0,135552,135650,335,288,366,295 M,0,135650,135748,366,295,394,308 M,0,135748,135846,394,308,420,325 M,0,135846,135944,420,325,442,348 M,0,135944,136042,442,348,460,374
Sprite,Foreground,Centre,"fl.png",320,240 S,0,202121,,1.625 M,0,202121,202219,445,125,448,169 M,0,202219,202317,448,169,452,214 M,0,202317,202514,452,214,461,382 M,0,202514,202710,461,382,563,209 M,0,202710,202906,563,209,350,387 M,0,202906,203004,350,387,305,378 M,0,203004,203102,305,378,261,369 M,0,203102,203298,261,369,154,181 M,0,203298,203494,154,181,80,365 M,0,203494,203690,80,365,191,89 M,0,203690,203886,191,89,117,273 M,0,203886,204082,117,273,313,246 M,0,204082,204278,313,246,208,201 M,0,204278,204474,208,201,191,89 M,0,204474,204670,191,89,225,313 M,0,204670,204867,225,313,439,146 M,0,204867,205063,439,146,538,323 M,0,205063,205259,538,323,336,320 M,0,205259,205455,336,320,437,264 M,0,205455,205651,437,264,281,414 M,0,205651,205846,281,414,334,205 M,0,205846,206043,334,205,439,379 M,0,206043,206239,439,379,234,282 M,0,206239,206336,234,282 M,0,206336,206435,234,282 M,0,206435,206631,234,282,439,146 M,0,206631,206827,439,146,394,289 M,0,206827,207023,394,289,281,125 M,0,207023,207219,281,125,437,222 M,0,207219,207416,437,222,311,341 M,0,207416,207612,311,341,122,205 M,0,207612,207710,122,205,157,203 M,0,207710,207808,157,203,192,203 M,0,207808,207906,192,203,237,203 M,0,207906,208003,237,203,346,343 M,0,208003,208101,346,343,311,341 M,0,208101,208199,311,341,276,341 M,0,208199,208297,276,341,231,341 M,0,208297,208396,231,341,125,291 M,0,208396,208494,125,291,112,248 M,0,208494,208592,112,248,120,204 M,0,208592,208788,120,204,259,99 M,0,208788,208984,259,99,293,265 M,0,208984,209180,293,265,414,145 M,0,209180,209278,414,145,457,134 M,0,209278,209376,457,134,501,124 M,0,209376,209474,501,124,528,120 M,0,209474,209572,528,120 M,0,209572,209768,528,120,346,96 M,0,209768,209965,346,96,383,270 M,0,209965,210161,383,270,220,197 M,0,210161,210356,220,197,417,182 M,0,210356,210552,417,182,309,364 M,0,210552,210650,309,364,301,319 M,0,210650,210748,301,319,294,275 M,0,210748,210944,294,275,322,187 M,0,210944,211141,322,187,199,343 M,0,211141,211337,199,343,126,158 M,0,211337,211533,126,158,306,300 M,0,211533,211729,306,300,216,229 M,0,211729,211925,216,229,76,263 M,0,211925,212121,76,263,117,125 M,0,212121,212317,117,125,183,385 M,0,212317,212514,183,385,216,229 M,0,212514,212612,216,229,215,202 M,0,212612,212710,215,202,214,175 M,0,212710,212906,214,175,218,312 M,0,212906,213102,218,312,420,271 M,0,213102,213298,420,271,303,234 M,0,213298,213494,303,234,335,391 M,0,213494,213689,335,391,218,312 M,0,213689,213886,218,312,462,359 M,0,213886,213984,462,359,496,331 M,0,213984,214082,496,331,514,291 M,0,214082,214180,514,291,513,246 M,0,214180,214278,513,246,492,207 M,0,214278,214376,492,207,454,182 M,0,214376,214474,454,182,314,118 M,0,214474,214572,314,118 M,0,214572,214670,314,118 M,0,214670,214768,314,118,307,162 M,0,214768,214866,307,162,301,207 M,0,214866,215063,301,207,117,75 M,0,215063,215161,117,75,122,119 M,0,215161,215259,122,119,128,164 M,0,215259,215455,128,164,98,329 M,0,215455,215553,98,329,142,322 M,0,215553,215651,142,322,187,316 M,0,215651,215749,187,316,218,312 M,0,215749,215847,218,312 M,0,215847,216043,218,312,382,293 M,0,216043,216239,382,293,227,117 M,0,216239,216435,227,117,298,345 M,0,216435,216631,298,345,431,158 M,0,216631,216827,431,158,234,228 M,0,216827,216925,234,228,190,215 M,0,216925,217023,190,215,147,202 M,0,217023,217219,147,202,327,139 M,0,217219,217415,327,139,298,345 M,0,217415,217611,298,345,479,260 M,0,217611,217808,479,260,223,120 M,0,217808,218003,223,120,309,262 M,0,218003,218199,309,262,396,201 M,0,218199,218396,396,201,400,305 M,0,218396,218592,400,305,137,331 M,0,218592,218788,137,331,110,132 M,0,218788,218886,110,132 M,0,218886,218984,110,132 M,0,218984,219180,110,132,79,270 M,0,219180,219376,79,270,202,218 M,0,219376,219572,202,218,273,400 M,0,219572,219768,273,400,237,310 M,0,219768,219965,237,310,115,415 M,0,219965,220161,115,415,341,318 M,0,220161,220259,341,318,376,309 M,0,220259,220357,376,309,411,299 M,0,220357,220455,411,299,455,289 M,0,220455,220553,455,289,342,169 M,0,220553,220651,342,169,307,160 M,0,220651,220749,307,160,272,150 M,0,220749,220847,272,150,228,139 M,0,220847,220944,228,139,160,296 M,0,220944,221042,160,296,163,340 M,0,221042,221140,163,340,190,374 M,0,221140,221337,190,374,298,243 M,0,221337,221435,298,243,267,276 M,0,221435,221533,267,276,237,309 M,0,221533,221729,237,309,377,257 M,0,221729,221827,377,257,373,212 M,0,221827,221925,373,212,345,177 M,0,221925,222023,345,177,315,158 M,0,222023,222121,315,158 M,0,222121,222318,315,158,237,310 M,0,222318,222514,237,310,142,143 M,0,222514,222710,142,143,298,243 M,0,222710,222905,298,243,135,327 M,0,222905,223101,135,327,246,106 M,0,223101,223199,246,106,281,78 M,0,223199,223297,281,78,325,72 M,0,223297,223493,325,72,538,201 M,0,223493,223690,538,201,424,346 M,0,223690,223886,424,346,323,205 M,0,223886,224082,323,205,513,125 M,0,224082,224278,513,125,430,241 M,0,224278,224474,430,241,329,100 M,0,224474,224670,329,100,317,310 M,0,224670,224867,317,310,141,195 M,0,224867,225063,141,195,381,155 M,0,225063,225161,381,155,411,149 M,0,225161,225259,411,149,441,142 M,0,225259,225455,441,142,413,356 M,0,225455,225651,413,356,287,220 M,0,225651,225847,287,220,233,396 M,0,225847,226043,233,396,162,120 M,0,226043,226239,162,120,196,254 M,0,226239,226435,196,254,312,146 F,0,226435,227219,1
Sprite,Foreground,Centre,"fl.png",320,240 S,0,305650,,1.625 M,0,305650,305748,515,334,475,312 M,0,305748,305846,475,312,435,291 M,0,305846,306043,435,291,239,182 M,0,306043,306239,239,182,331,386 M,0,306239,306435,331,386,463,206 M,0,306435,306533,463,206,502,184 M,0,306533,306631,502,184,542,162 M,0,306631,306827,542,162,348,258 M,0,306827,307023,348,258,282,90 M,0,307023,307219,282,90,170,230 M,0,307219,307415,170,230,440,309 M,0,307415,307611,440,309,303,118 M,0,307611,307807,303,118,245,311 M,0,307807,308003,245,311,377,182 M,0,308003,308199,377,182,171,107 M,0,308199,308396,171,107,440,309 M,0,308396,308592,440,309,118,344 M,0,308592,308788,118,344,298,210 M,0,308788,308984,298,210,243,412 M,0,308984,309180,243,412,122,150 M,0,309180,309376,122,150,305,310 M,0,309376,309572,305,310,64,256 M,0,309572,309768,64,256,226,218 M,0,309768,309866,226,218,220,262 M,0,309866,309964,220,262,211,306 M,0,309964,310160,211,306,282,93 M,0,310160,310356,282,93,432,260 M,0,310356,310552,432,260,307,217 M,0,310552,310748,307,217,331,397 M,0,310748,310945,331,397,398,135 M,0,310945,311141,398,135,266,319 M,0,311141,311239,266,319,221,315 M,0,311239,311337,221,315,181,335 M,0,311337,311435,181,335,173,379 M,0,311435,311533,173,379,331,397 M,0,311533,311631,331,397,376,401 M,0,311631,311729,376,401,416,381 M,0,311729,311827,416,381,423,336 M,0,311827,311925,423,336,465,120 M,0,311925,312023,465,120,477,163 M,0,312023,312121,477,163,490,206 M,0,312121,312317,490,206,551,397 M,0,312317,312513,551,397,575,184 M,0,312513,312709,575,184,354,321 M,0,312709,312807,354,321,310,310 M,0,312807,312905,310,310,266,300 M,0,312905,313003,266,300,223,288 M,0,313003,313101,223,288 M,0,313101,313297,223,288,524,298 M,0,313297,313494,524,298,336,229 M,0,313494,313690,336,229,416,381 M,0,313690,313886,416,381,486,173 M,0,313886,314082,486,173,253,182 M,0,314082,314180,253,182,208,179 M,0,314180,314278,208,179,163,176 M,0,314278,314474,163,176,142,360 M,0,314474,314670,142,360,253,182 M,0,314670,314866,253,182,325,325 M,0,314866,315062,325,325,95,261 M,0,315062,315258,95,261,242,410 M,0,315258,315454,242,410,336,229 M,0,315454,315650,336,229,219,290 M,0,315650,315846,219,290,414,404 M,0,315846,316042,414,404,435,173 M,0,316042,316140,435,173,448,202 M,0,316140,316238,448,202,460,231 M,0,316238,316435,460,231,185,359 M,0,316435,316631,185,359,474,337 M,0,316631,316827,474,337,287,154 M,0,316827,317023,287,154,327,393 M,0,317023,317219,327,393,527,270 M,0,317219,317415,527,270,287,84 M,0,317415,317513,287,84,287,119 M,0,317513,317611,287,119,287,154 M,0,317611,317709,287,154,287,199 M,0,317709,317807,287,199,374,282 M,0,317807,317905,374,282,374,237 M,0,317905,318003,374,237,492,95 M,0,318003,318101,492,95,507,95 M,0,318101,318199,507,95,521,101 M,0,318199,318297,521,101,523,145 M,0,318297,318395,523,145,526,190 M,0,318395,318591,526,190,379,372 M,0,318591,318689,379,372,376,327 M,0,318689,318787,376,327,374,282 M,0,318787,318984,374,282,142,288 M,0,318984,319082,142,288,186,281 M,0,319082,319180,186,281,231,275 M,0,319180,319278,231,275,258,273 M,0,319278,319376,258,273 M,0,319376,319572,258,273,477,258 M,0,319572,319768,477,258,338,86 M,0,319768,319964,338,86,303,336 M,0,319964,320160,303,336,538,167 M,0,320160,320356,538,167,287,199 M,0,320356,320454,287,199,244,185 M,0,320454,320552,244,185,199,186 M,0,320552,320748,199,186,143,356 M,0,320748,320944,143,356,318,311 M,0,320944,321140,318,311,114,247 M,0,321140,321337,114,247,361,160 M,0,321337,321534,361,160,243,390 M,0,321534,321730,243,390,276,121 M,0,321730,321925,276,121,341,412 M,0,321925,322121,341,412,186,284 M,0,322121,322317,186,284,451,193 M,0,322317,322415,451,193 M,0,322415,322513,451,193 M,0,322513,322709,451,193,562,400 M,0,322709,322905,562,400,374,316 M,0,322905,323101,374,316,564,189 M,0,323101,323297,564,189,506,307 M,0,323297,323494,506,307,400,78 M,0,323494,323690,400,78,196,171 M,0,323690,323788,196,171,231,180 M,0,323788,323886,231,180,266,190 M,0,323886,323984,266,190,310,199 M,0,323984,324082,310,199,228,336 M,0,324082,324180,228,336,193,345 M,0,324180,324278,193,345,158,355 M,0,324278,324376,158,355,114,365 M,0,324376,324474,114,365,145,115 M,0,324474,324572,145,115,184,95 M,0,324572,324670,184,95,228,102 M,0,324670,324866,228,102,303,317 M,0,324866,324964,303,317,311,361 M,0,324964,325062,311,361,320,405 M,0,325062,325258,320,405,197,174 M,0,325258,325356,197,174,205,218 M,0,325356,325454,205,218,214,262 M,0,325454,325552,214,262,228,336 M,0,325552,325650,228,336 M,0,325650,325847,228,336,335,96 M,0,325847,326043,335,96,501,219 M,0,326043,326239,501,219,384,204 M,0,326239,326435,384,204,309,296 M,0,326435,326631,309,296,451,104 M,0,326631,326729,451,104,495,100 M,0,326729,326827,495,100,540,97 M,0,326827,327023,540,97,271,191 M,0,327023,327219,271,191,568,316 M,0,327219,327415,568,316,309,296 M,0,327415,327611,309,296,501,219 M,0,327611,327807,501,219,393,400 M,0,327807,328003,393,400,317,105 M,0,328003,328199,317,105,437,305 M,0,328199,328396,437,305,133,198 M,0,328396,328592,133,198,451,104 M,0,328592,328690,451,104,444,134 M,0,328690,328788,444,134,435,164 M,0,328788,328984,435,164,360,422 M,0,328984,329180,360,422,152,284 M,0,329180,329376,152,284,235,400 M,0,329376,329572,235,400,317,105 M,0,329572,329768,317,105,176,137 M,0,329768,329964,176,137,289,326 F,0,329964,,1 M,0,329964,330062,289,326,319,339 M,0,330062,330160,319,339,348,341 M,0,330160,330258,348,341,376,322 M,0,330258,330356,376,322,408,311 M,0,330356,330454,408,311,441,311 M,0,330454,330552,441,311,474,319 M,0,330552,330748,474,319
Sprite,Foreground,Centre,"white.png",320,240 F,0,194278,200552,0,1 M,0,200552,,320,240 C,0,200552,,0,0,0 F,0,200552,202121,1
Sprite,Foreground,Centre,"white.png",320,240 F,0,299376,304082,0.1734694,1 C,0,304082,,0,0,0 F,0,304082,305650,1
Sprite,Foreground,Centre,"white.png",320,240 M,0,253886,,320,240 C,0,253886,,0,0,0 F,0,253886,257023,0,1 F,0,257023,266435,1,0
Sprite,Foreground,Centre,"warning.png",320,240 M,0,299376,,151.5355,381.2129 F,0,299376,299768,0,1 F,0,299768,300161,1,0.6 F,0,300161,300553,0.6,1 F,0,300553,300945,1,0.6 F,0,300945,301337,0.6,1 F,0,301337,301729,1,0.6 F,0,301729,302121,0.6,1 F,0,302121,302514,1,0.6 F,0,302514,302906,0.6,1 F,0,302906,303298,1,0.6 F,0,303298,303690,0.6,1 F,0,303690,304082,1,0.6 F,0,304082,304474,0.6,0
Sprite,Foreground,Centre,"warning.png",320,240 M,0,103297,,151.5355,381.2129 F,0,103297,103689,0,1 F,0,103689,104082,1,0.6 F,0,104082,104474,0.6,1 F,0,104474,104866,1,0.6 F,0,104866,105258,0.6,1 F,0,105258,105650,1,0.6 F,0,105650,106042,0.6,1 F,0,106042,106435,1,0.6 F,0,106435,106827,0.6,1 F,0,106827,107219,1,0.6 F,0,107219,107611,0.6,1 F,0,107611,108003,1,0.6 F,0,108003,108395,0.6,1 F,0,108395,108787,1,0.6 F,0,108787,109180,0.6,1 F,0,109180,109572,1,0.6 F,0,109572,109964,0.6,0
Sprite,Foreground,Centre,"warning.png",320,240 M,0,194278,,151.5355,381.2129 F,0,194278,194670,0,1 F,0,194670,195063,1,0.6 F,0,195063,195455,0.6,1 F,0,195455,195847,1,0.6 F,0,195847,196239,0.6,1 F,0,196239,196631,1,0.6 F,0,196631,197023,0.6,1 F,0,197023,197416,1,0.6 F,0,197416,197808,0.6,1 F,0,197808,198200,1,0.6 F,0,198200,198592,0.6,1 F,0,198592,198984,1,0.6 F,0,198984,199376,0.6,1 F,0,199376,199768,1,0.6 F,0,199768,200161,0.6,1 F,0,200161,200553,1,0.6 F,0,200553,200945,0.6,0
Sprite,Foreground,Centre,"breaktime.jpg",320,240 M,0,278199,,320,240 F,0,278199,280552,0,1 F,0,280552,289964,1 F,0,289964,293101,1,0
Sprite,Foreground,Centre,"shake.jpg",320,240 F,0,15455,15552,1,0 S,0,15455,15552,1,1.02
Sprite,Foreground,Centre,"shake.jpg",320,240 F,0,16238,16335,1,0 S,0,16238,16335,1,1.02
Sprite,Foreground,Centre,"shake.jpg",320,240 F,0,16533,16630,1,0 S,0,16533,16630,1,1.02
Sprite,Foreground,Centre,"shake.jpg",320,240 F,0,16827,16924,1,0 S,0,16827,16924,1,1.02
Sprite,Foreground,Centre,"shake.jpg",320,240 F,0,17023,17120,1,0 S,0,17023,17120,1,1.02
Sprite,Foreground,Centre,"shake.jpg",320,240 F,0,17807,17904,1,0 S,0,17807,17904,1,1.02
Sprite,Foreground,Centre,"shake.jpg",320,240 F,0,18101,18198,1,0 S,0,18101,18198,1,1.02
Sprite,Foreground,Centre,"shake.jpg",320,240 F,0,18395,18492,1,0 S,0,18395,18492,1,1.02
Sprite,Foreground,Centre,"shake.jpg",320,240 F,0,15846,15943,1,0 S,0,15846,15943,1,1.02
Sprite,Foreground,Centre,"shake.jpg",320,240 F,0,16042,16139,1,0 S,0,16042,16139,1,1.02
Sprite,Foreground,Centre,"shake.jpg",320,240 F,0,17415,17512,1,0 S,0,17415,17512,1,1.02
Sprite,Foreground,Centre,"shake.jpg",320,240 F,0,17611,17708,1,0 S,0,17611,17708,1,1.02
Sprite,Foreground,Centre,"shake.jpg",320,240 M,0,18591,,320.8258,240 F,0,18591,19376,1,0 S,0,18591,19376,1,1.173419
Sprite,Foreground,Centre,"shake.jpg",320,240 M,0,31140,,320,240 F,0,31140,31925,1,0 S,0,31140,31925,1,1.173419
Sprite,Foreground,Centre,"shake.jpg",320,240 M,0,46827,,320,240 F,0,46827,47612,1,0 S,0,46827,47612,1,1.173419
Sprite,Foreground,Centre,"shake.jpg",320,240 M,0,59376,,320,240 F,0,59376,60161,1,0 S,0,59376,60161,1,1.173419
Sprite,Foreground,Centre,"shake.jpg",320,240 M,0,97023,,320,240 F,0,97023,97808,1,0 S,0,97023,97808,1,1.173419
Sprite,Foreground,Centre,"shake.jpg",320,240 M,0,137807,,320,240 F,0,137807,138592,1,0 S,0,137807,138592,1,1.173419
Sprite,Foreground,Centre,"shake.jpg",320,240 M,0,150356,,320,240 F,0,150356,151141,1,0 S,0,150356,151141,1,1.173419
Sprite,Foreground,Centre,"shake.jpg",320,240 M,0,188003,,320,240 F,0,188003,188788,1,0 S,0,188003,188788,1,1.173419
Sprite,Foreground,Centre,"shake.jpg",320,240 M,0,228787,,320,240 F,0,228787,229572,1,0 S,0,228787,229572,1,1.173419
Sprite,Foreground,Centre,"shake.jpg",320,240 M,0,241336,,320,240 F,0,241336,242121,1,0 S,0,241336,242121,1,1.173419
Sprite,Foreground,Centre,"shake.jpg",320,240 M,0,253886,,320,240 F,0,253886,254671,1,0 S,0,253886,254671,1,1.173419
Sprite,Foreground,Centre,"breaktime.jpg",320,240 M,0,280454,,320,240 F,0,280454,281239,1,0 S,0,280454,281239,1,1.173419
Sprite,Foreground,Centre,"shake.jpg",320,240 M,0,293101,,320,240 F,0,293101,293886,1,0 S,0,293101,293886,1,1.173419
Sprite,Foreground,Centre,"shake.jpg",320,240 M,0,332317,,320,240 F,0,332317,333102,1,0 S,0,332317,333102,1,1.173419
Sprite,Foreground,Centre,"shake.jpg",320,240 M,0,344866,,320,240 F,0,344866,345651,1,0 S,0,344866,345651,1,1.173419
Sprite,Foreground,Centre,"shake.jpg",320,240 M,0,357415,,320,240 F,0,357415,358200,1,0 S,0,357415,358200,1,1.173419
Sprite,Foreground,Centre,"white.png",320,240 S,0,358591,,1 C,0,358591,,0,0,0 F,0,358591,359768,0,0.7501593 F,0,359768,362905,0.7501593,0.00239209
Sprite,Foreground,Centre,"fin.png",320,240 M,0,358493,,320,240 F,0,358493,358787,0,0.9987253 S,0,358493,361336,1,0.9174193 F,0,358787,360160,0.9987253,0.9897959 F,0,360160,361336,0.9897959,0
Sprite,Foreground,Centre,"bin.png",320,240 M,0,18591,,454,121 F,0,18591,18689,0,1 S,0,18591,18689,0.2237418,0.3516893 F,0,18689,18886,1 S,0,18689,19376,0.3516893,0.4547714 F,0,18886,19376,1,0
Sprite,Foreground,Centre,"bin.png",320,240 M,0,21729,,408,152 F,0,21729,21827,0,1 S,0,21729,21827,0.2237418,0.3516893 F,0,21827,22024,1 S,0,21827,22514,0.3516893,0.4547714 F,0,22024,22514,1,0
Sprite,Foreground,Centre,"bin.png",320,240 M,0,24866,,201,210 F,0,24866,24964,0,1 S,0,24866,24964,0.2237418,0.3516893 F,0,24964,25161,1 S,0,24964,25651,0.3516893,0.4547714 F,0,25161,25651,1,0
Sprite,Foreground,Centre,"bin.png",320,240 M,0,28003,,276,235 F,0,28003,28101,0,1 S,0,28003,28101,0.2237418,0.3516893 F,0,28101,28298,1 S,0,28101,28788,0.3516893,0.4547714 F,0,28298,28788,1,0
Sprite,Foreground,Centre,"bin.png",320,240 M,0,280552,,319,150 F,0,280552,280650,0,1 S,0,280552,280650,0.2237418,0.3516893 F,0,280650,280847,1 S,0,280650,281337,0.3516893,0.4547714 F,0,280847,281337,1,0
Sprite,Foreground,Centre,"bin.png",320,240 M,0,283689,,255,294 F,0,283689,283787,0,1 S,0,283689,283787,0.2237418,0.3516893 F,0,283787,283984,1 S,0,283787,284474,0.3516893,0.4547714 F,0,283984,284474,1,0
Sprite,Foreground,Centre,"bin.png",320,240 M,0,286827,,351,246 F,0,286827,286925,0,1 S,0,286827,286925,0.2237418,0.3516893 F,0,286925,287122,1 S,0,286925,287612,0.3516893,0.4547714 F,0,287122,287612,1,0
Sprite,Foreground,Centre,"bin.png",320,240 M,0,289964,,399,246 F,0,289964,290062,0,1 S,0,289964,290062,0.2237418,0.3516893 F,0,290062,290259,1 S,0,290062,290749,0.3516893,0.4547714 F,0,290259,290749,1,0
Sprite,Foreground,Centre,"white.png",320,240 M,0,103297,,320,240 F,0,103297,103689,0.6,0
Sprite,Foreground,Centre,"white.png",320,240 M,0,194278,,320,240 F,0,194278,194670,0.6,0
Sprite,Foreground,Centre,"white.png",320,240 M,0,299376,,320,240 F,0,299376,299768,0.6,0
Sprite,Foreground,Centre,"white.png",320,240 C,0,43689,,0,0,0 F,0,43689,45258,0,1 F,0,45258,46827,1,0
Sprite,Foreground,Centre,"orange.png",320,240 M,0,71925,,704,-22 F,0,71925,72317,0,0.45 S,0,71925,72317,2.123871,2 R,0,71925,97023,0,-3 F,0,96042,97023,0.45,0 F,0,97023,,0
Sprite,Foreground,Centre,"blue.png",320,240 M,0,162905,,704,-22 S,0,162905,,2 F,0,162905,187022,0.45 R,0,162905,188003,0,-3 F,0,187022,188003,0.45,0 F,0,188003,,0
Sprite,Foreground,Centre,"orange.png",320,240 M,0,344866,,704,-22 F,0,344866,345258,0,0.45 S,0,344866,345258,2.123871,2 R,0,344866,357414,0,-1 F,0,355846,357414,0.45,0
Sprite,Foreground,Centre,"blue.png",320,240 M,0,344866,,704,-22 F,0,344866,345258,0,0.45 S,0,344866,345258,1.65 R,0,344866,357414,6,7 F,0,355846,357414,0.45,0
Sprite,Foreground,Centre,"white.png",320,240 C,0,57807,,0,0,0 F,0,57807,59376,0,0.5 M,0,57807,71925,320,240
Sprite,Foreground,Centre,"white.png",320,240 C,0,148787,,0,0,0 F,0,148787,150356,0,0.5 M,0,148787,162905,320,240
Sprite,Foreground,Centre,"white.png",320,240 C,0,239768,,0,0,0 F,0,239768,241337,0,0.5 M,0,239768,253886,320,240
Sprite,Foreground,Centre,"star+.png",320,240 S,0,150356,,0.5 C,0,150356,,255,255,254 M,0,150356,150522,247,223,253,312 R,0,150356,150522,0,-3 F,0,150522,150914,1,0 R,0,150522,150914,-3,-3.8
Sprite,Foreground,Centre,"star+.png",320,240 S,0,150748,,0.5 C,0,150748,,255,255,254 M,0,150748,150914,346,404,365,316 R,0,150748,150914,0,-3 F,0,150914,151306,1,0 R,0,150914,151306,-3,-3.8
Sprite,Foreground,Centre,"star+.png",320,240 S,0,151925,,0.5 C,0,151925,,255,255,254 M,0,151925,152091,427,260,417,303 R,0,151925,152091,0,-3 F,0,152091,152483,1,0 R,0,152091,152483,-3,-3.8
Sprite,Foreground,Centre,"star+.png",320,240 S,0,152121,,0.5 C,0,152121,,255,255,254 M,0,152121,152287,378,144,387,100 R,0,152121,152287,0,-3 F,0,152287,152679,1,0 R,0,152287,152679,-3,-3.8
Sprite,Foreground,Centre,"star+.png",320,240 S,0,152317,,0.5 C,0,152317,,255,255,254 M,0,152317,152483,526,180,482,167 R,0,152317,152483,0,-3 F,0,152483,152875,1,0 R,0,152483,152875,-3,-3.8
Sprite,Foreground,Centre,"star+.png",320,240 S,0,152513,,0.5 C,0,152513,,255,255,254 M,0,152513,152679,303,222,345,237 R,0,152513,152679,0,-3 F,0,152679,153071,1,0 R,0,152679,153071,-3,-3.8
Sprite,Foreground,Centre,"star+.png",320,240 S,0,152709,,0.5 C,0,152709,,255,255,254 M,0,152709,152875,473,392,430,376 R,0,152709,152875,0,-3 F,0,152875,153267,1,0 R,0,152875,153267,-3,-3.8
Sprite,Foreground,Centre,"star+.png",320,240 S,0,153101,,0.5 C,0,153101,,255,255,254 M,0,153101,153267,283,310,292,399 R,0,153101,153267,0,-3 F,0,153267,153659,1,0 R,0,153267,153659,-3,-3.8
Sprite,Foreground,Centre,"star+.png",320,240 S,0,156631,,0.5 C,0,156631,,255,255,254 M,0,156631,156797,168,374,158,329 R,0,156631,156797,0,-3 F,0,156797,157189,1,0 R,0,156797,157189,-3,-3.8
Sprite,Foreground,Centre,"star+.png",320,240 S,0,156827,,0.5 C,0,156827,,255,255,254 M,0,156827,156993,128,199,137,242 R,0,156827,156993,0,-3 F,0,156993,157385,1,0 R,0,156993,157385,-3,-3.8
Sprite,Foreground,Centre,"star+.png",320,240 S,0,157022,,0.5 C,0,157022,,255,255,254 M,0,157022,157188,237,274,217,186 R,0,157022,157188,0,-3 F,0,157188,157580,1,0 R,0,157188,157580,-3,-3.8
Sprite,Foreground,Centre,"star+.png",320,240 S,0,158199,,0.5 C,0,158199,,255,255,254 M,0,158199,158365,479,178,467,221 R,0,158199,158365,0,-3 F,0,158365,158757,1,0 R,0,158365,158757,-3,-3.8
Sprite,Foreground,Centre,"star+.png",320,240 S,0,158395,,0.5 C,0,158395,,255,255,254 M,0,158395,158561,422,396,431,352 R,0,158395,158561,0,-3 F,0,158561,158953,1,0 R,0,158561,158953,-3,-3.8
Sprite,Foreground,Centre,"star+.png",320,240 S,0,158591,,0.5 C,0,158591,,255,255,254 M,0,158591,158757,359,250,400,266 R,0,158591,158757,0,-3 F,0,158757,159149,1,0 R,0,158757,159149,-3,-3.8
Sprite,Foreground,Centre,"star+.png",320,240 S,0,158787,,0.5 C,0,158787,,255,255,254 M,0,158787,158953,539,322,497,305 R,0,158787,158953,0,-3 F,0,158953,159345,1,0 R,0,158953,159345,-3,-3.8
Sprite,Foreground,Centre,"star+.png",320,240 S,0,159180,,0.5 C,0,159180,,255,255,254 M,0,159180,159346,307,150,302,194 R,0,159180,159346,0,-3 F,0,159346,159738,1,0 R,0,159346,159738,-3,-3.8
Sprite,Foreground,Centre,"star+.png",320,240 S,0,159375,,0.5 C,0,159375,,255,255,254 M,0,159375,159541,256,295,184,245 R,0,159375,159541,0,-3 F,0,159541,159933,1,0 R,0,159541,159933,-3,-3.8
Sprite,Foreground,Centre,"star+.png",320,240 S,0,161728,,0.5 C,0,161728,,255,255,254 M,0,161728,161894,384,355,371,398 R,0,161728,161894,0,-3 F,0,161894,162286,1,0 R,0,161894,162286,-3,-3.8
Sprite,Foreground,Centre,"star+.png",320,240 S,0,241337,,0.5 C,0,241337,,255,255,254 M,0,241337,241503,252,207,163,222 R,0,241337,241503,0,-3 F,0,241503,241895,1,0 R,0,241503,241895,-3,-3.8
Sprite,Foreground,Centre,"star+.png",320,240 S,0,241729,,0.5 C,0,241729,,255,255,254 M,0,241729,241895,388,395,300,372 R,0,241729,241895,0,-3 F,0,241895,242287,1,0 R,0,241895,242287,-3,-3.8
Sprite,Foreground,Centre,"star+.png",320,240 S,0,242905,,0.5 C,0,242905,,255,255,254 M,0,242905,243071,344,165,327,207 R,0,242905,243071,0,-3 F,0,243071,243463,1,0 R,0,243071,243463,-3,-3.8
Sprite,Foreground,Centre,"star+.png",320,240 S,0,243101,,0.5 C,0,243101,,255,255,254 M,0,243101,243267,297,414,313,372 R,0,243101,243267,0,-3 F,0,243267,243659,1,0 R,0,243267,243659,-3,-3.8
Sprite,Foreground,Centre,"star+.png",320,240 S,0,243297,,0.5 C,0,243297,,255,255,254 M,0,243297,243463,192,232,234,247 R,0,243297,243463,0,-3 F,0,243463,243855,1,0 R,0,243463,243855,-3,-3.8
Sprite,Foreground,Centre,"star+.png",320,240 S,0,243493,,0.5 C,0,243493,,255,255,254 M,0,243493,243659,406,347,363,331 R,0,243493,243659,0,-3 F,0,243659,244051,1,0 R,0,243659,244051,-3,-3.8
Sprite,Foreground,Centre,"star+.png",320,240 S,0,244082,,0.5 C,0,244082,,255,255,254 M,0,244082,244248,185,236,173,326 R,0,244082,244248,0,-3 F,0,244248,244640,1,0 R,0,244248,244640,-3,-3.8
Sprite,Foreground,Centre,"star+.png",320,240 S,0,247611,,0.5 C,0,247611,,255,255,254 M,0,247611,247777,366,221,367,310 R,0,247611,247777,0,-3 F,0,247777,248169,1,0 R,0,247777,248169,-3,-3.8
Sprite,Foreground,Centre,"star+.png",320,240 S,0,248003,,0.5 C,0,248003,,255,255,254 M,0,248003,248169,480,256,478,166 R,0,248003,248169,0,-3 F,0,248169,248561,1,0 R,0,248169,248561,-3,-3.8
Sprite,Foreground,Centre,"star+.png",320,240 S,0,249180,,0.5 C,0,249180,,255,255,254 M,0,249180,249346,413,269,368,277 R,0,249180,249346,0,-3 F,0,249346,249738,1,0 R,0,249346,249738,-3,-3.8
Sprite,Foreground,Centre,"star+.png",320,240 S,0,249376,,0.5 C,0,249376,,255,255,254 M,0,249376,249542,193,307,236,297 R,0,249376,249542,0,-3 F,0,249542,249934,1,0 R,0,249542,249934,-3,-3.8
Sprite,Foreground,Centre,"star+.png",320,240 S,0,249572,,0.5 C,0,249572,,255,255,254 M,0,249572,249738,421,190,376,198 R,0,249572,249738,0,-3 F,0,249738,250130,1,0 R,0,249738,250130,-3,-3.8
Sprite,Foreground,Centre,"star+.png",320,240 S,0,249768,,0.5 C,0,249768,,255,255,254 M,0,249768,249934,170,230,213,220 R,0,249768,249934,0,-3 F,0,249934,250326,1,0 R,0,249934,250326,-3,-3.8
Sprite,Foreground,Centre,"star+.png",320,240 S,0,249964,,0.5 C,0,249964,,255,255,254 M,0,249964,250130,259,75,271,118 R,0,249964,250130,0,-3 F,0,250130,250522,1,0 R,0,250130,250522,-3,-3.8
Sprite,Foreground,Centre,"star+.png",320,240 S,0,250356,,0.5 C,0,250356,,255,255,254 M,0,250356,250522,324,274,331,363 R,0,250356,250522,0,-3 F,0,250522,250914,1,0 R,0,250522,250914,-3,-3.8
Sprite,Foreground,Centre,"star+.png",320,240 S,0,252121,,0.5 C,0,252121,,255,255,254 M,0,252121,252287,409,97,382,133 R,0,252121,252287,0,-3 F,0,252287,252679,1,0 R,0,252287,252679,-3,-3.8
Sprite,Foreground,Centre,"star+.png",320,240 S,0,252709,,0.5 C,0,252709,,255,255,254 M,0,252709,252875,222,367,214,411 R,0,252709,252875,0,-3 F,0,252875,253267,1,0 R,0,252875,253267,-3,-3.8
Sprite,Foreground,Centre,"star+.png",320,240 M,0,151140,,394,176 S,0,151140,,0.5 R,0,151140,,0,-3 C,0,151140,,255,255,254 F,0,151140,151532,1,0 R,0,151140,151532,-3,-3.8
Sprite,Foreground,Centre,"star+.png",320,240 M,0,151336,,512,257 S,0,151336,,0.5 R,0,151336,,0,-3 C,0,151336,,255,255,254 F,0,151336,151728,1,0 R,0,151336,151728,-3,-3.8
Sprite,Foreground,Centre,"star+.png",320,240 M,0,151434,,512,257 S,0,151434,,0.5 R,0,151434,,0,-3 C,0,151434,,255,255,254 F,0,151434,151826,1,0 R,0,151434,151826,-3,-3.8
Sprite,Foreground,Centre,"star+.png",320,240 M,0,151532,,512,257 S,0,151532,,0.5 R,0,151532,,0,-3 C,0,151532,,255,255,254 F,0,151532,151924,1,0 R,0,151532,151924,-3,-3.8
Sprite,Foreground,Centre,"star+.png",320,240 M,0,151728,,553,111 S,0,151728,,0.5 R,0,151728,,0,-3 C,0,151728,,255,255,254 F,0,151728,152120,1,0 R,0,151728,152120,-3,-3.8
Sprite,Foreground,Centre,"star+.png",320,240 M,0,152905,,283,310 S,0,152905,,0.5 R,0,152905,,0,-3 C,0,152905,,255,255,254 F,0,152905,153297,1,0 R,0,152905,153297,-3,-3.8
Sprite,Foreground,Centre,"star+.png",320,240 M,0,153003,,283,310 S,0,153003,,0.5 R,0,153003,,0,-3 C,0,153003,,255,255,254 F,0,153003,153395,1,0 R,0,153003,153395,-3,-3.8
Sprite,Foreground,Centre,"star+.png",320,240 M,0,153493,,434,251 S,0,153493,,0.5 R,0,153493,,0,-3 C,0,153493,,255,255,254 F,0,153493,153885,1,0 R,0,153493,153885,-3,-3.8
Sprite,Foreground,Centre,"star+.png",320,240 M,0,153689,,563,362 S,0,153689,,0.5 R,0,153689,,0,-3 C,0,153689,,255,255,254 F,0,153689,154081,1,0 R,0,153689,154081,-3,-3.8
Sprite,Foreground,Centre,"star+.png",320,240 M,0,153885,,402,419 S,0,153885,,0.5 R,0,153885,,0,-3 C,0,153885,,255,255,254 F,0,153885,154277,1,0 R,0,153885,154277,-3,-3.8
Sprite,Foreground,Centre,"star+.png",320,240 M,0,154081,,466,343 S,0,154081,,0.5 R,0,154081,,0,-3 C,0,154081,,255,255,254 F,0,154081,154473,1,0 R,0,154081,154473,-3,-3.8
Sprite,Foreground,Centre,"star+.png",320,240 M,0,154277,,493,165 S,0,154277,,0.5 R,0,154277,,0,-3 C,0,154277,,255,255,254 F,0,154277,154669,1,0 R,0,154277,154669,-3,-3.8
Sprite,Foreground,Centre,"star+.png",320,240 M,0,154473,,326,232 S,0,154473,,0.5 R,0,154473,,0,-3 C,0,154473,,255,255,254 F,0,154473,154865,1,0 R,0,154473,154865,-3,-3.8
Sprite,Foreground,Centre,"star+.png",320,240 M,0,154571,,326,232 S,0,154571,,0.5 R,0,154571,,0,-3 C,0,154571,,255,255,254 F,0,154571,154963,1,0 R,0,154571,154963,-3,-3.8
Sprite,Foreground,Centre,"star+.png",320,240 M,0,154669,,326,232 S,0,154669,,0.5 R,0,154669,,0,-3 C,0,154669,,255,255,254 F,0,154669,155061,1,0 R,0,154669,155061,-3,-3.8
Sprite,Foreground,Centre,"star+.png",320,240 M,0,154865,,502,260 S,0,154865,,0.5 R,0,154865,,0,-3 C,0,154865,,255,255,254 F,0,154865,155257,1,0 R,0,154865,155257,-3,-3.8
Sprite,Foreground,Centre,"star+.png",320,240 M,0,155062,,326,232 S,0,155062,,0.5 R,0,155062,,0,-3 C,0,155062,,255,255,254 F,0,155062,155454,1,0 R,0,155062,155454,-3,-3.8
Sprite,Foreground,Centre,"star+.png",320,240 M,0,155258,,395,100 S,0,155258,,0.5 R,0,155258,,0,-3 C,0,155258,,255,255,254 F,0,155258,155650,1,0 R,0,155258,155650,-3,-3.8
Sprite,Foreground,Centre,"star+.png",320,240 M,0,155454,,384,313 S,0,155454,,0.5 R,0,155454,,0,-3 C,0,155454,,255,255,254 F,0,155454,155846,1,0 R,0,155454,155846,-3,-3.8
Sprite,Foreground,Centre,"star+.png",320,240 M,0,155650,,453,181 S,0,155650,,0.5 R,0,155650,,0,-3 C,0,155650,,255,255,254 F,0,155650,156042,1,0 R,0,155650,156042,-3,-3.8
Sprite,Foreground,Centre,"star+.png",320,240 M,0,155846,,303,310 S,0,155846,,0.5 R,0,155846,,0,-3 C,0,155846,,255,255,254 F,0,155846,156238,1,0 R,0,155846,156238,-3,-3.8
Sprite,Foreground,Centre,"star+.png",320,240 M,0,156042,,265,115 S,0,156042,,0.5 R,0,156042,,0,-3 C,0,156042,,255,255,254 F,0,156042,156434,1,0 R,0,156042,156434,-3,-3.8
Sprite,Foreground,Centre,"star+.png",320,240 M,0,156238,,320,396 S,0,156238,,0.5 R,0,156238,,0,-3 C,0,156238,,255,255,254 F,0,156238,156630,1,0 R,0,156238,156630,-3,-3.8
Sprite,Foreground,Centre,"star+.png",320,240 M,0,157415,,259,346 S,0,157415,,0.5 R,0,157415,,0,-3 C,0,157415,,255,255,254 F,0,157415,157807,1,0 R,0,157415,157807,-3,-3.8
Sprite,Foreground,Centre,"star+.png",320,240 M,0,157611,,305,225 S,0,157611,,0.5 R,0,157611,,0,-3 C,0,157611,,255,255,254 F,0,157611,158003,1,0 R,0,157611,158003,-3,-3.8
Sprite,Foreground,Centre,"star+.png",320,240 M,0,157709,,305,225 S,0,157709,,0.5 R,0,157709,,0,-3 C,0,157709,,255,255,254 F,0,157709,158101,1,0 R,0,157709,158101,-3,-3.8
Sprite,Foreground,Centre,"star+.png",320,240 M,0,157807,,305,225 S,0,157807,,0.5 R,0,157807,,0,-3 C,0,157807,,255,255,254 F,0,157807,158199,1,0 R,0,157807,158199,-3,-3.8
Sprite,Foreground,Centre,"star+.png",320,240 M,0,158003,,432,352 S,0,158003,,0.5 R,0,158003,,0,-3 C,0,158003,,255,255,254 F,0,158003,158395,1,0 R,0,158003,158395,-3,-3.8
Sprite,Foreground,Centre,"star+.png",320,240 M,0,158983,,307,150 S,0,158983,,0.5 R,0,158983,,0,-3 C,0,158983,,255,255,254 F,0,158983,159375,1,0 R,0,158983,159375,-3,-3.8
Sprite,Foreground,Centre,"star+.png",320,240 M,0,159767,,82,97 S,0,159767,,0.5 R,0,159767,,0,-3 C,0,159767,,255,255,254 F,0,159767,160159,1,0 R,0,159767,160159,-3,-3.8
Sprite,Foreground,Centre,"star+.png",320,240 M,0,159964,,202,115 S,0,159964,,0.5 R,0,159964,,0,-3 C,0,159964,,255,255,254 F,0,159964,160356,1,0 R,0,159964,160356,-3,-3.8
Sprite,Foreground,Centre,"star+.png",320,240 M,0,160160,,65,229 S,0,160160,,0.5 R,0,160160,,0,-3 C,0,160160,,255,255,254 F,0,160160,160552,1,0 R,0,160160,160552,-3,-3.8
Sprite,Foreground,Centre,"star+.png",320,240 M,0,160357,,185,247 S,0,160357,,0.5 R,0,160357,,0,-3 C,0,160357,,255,255,254 F,0,160357,160749,1,0 R,0,160357,160749,-3,-3.8
Sprite,Foreground,Centre,"star+.png",320,240 M,0,160552,,133,171 S,0,160552,,0.5 R,0,160552,,0,-3 C,0,160552,,255,255,254 F,0,160552,160944,1,0 R,0,160552,160944,-3,-3.8
Sprite,Foreground,Centre,"star+.png",320,240 M,0,160748,,164,347 S,0,160748,,0.5 R,0,160748,,0,-3 C,0,160748,,255,255,254 F,0,160748,161140,1,0 R,0,160748,161140,-3,-3.8
Sprite,Foreground,Centre,"star+.png",320,240 M,0,160846,,164,347 S,0,160846,,0.5 R,0,160846,,0,-3 C,0,160846,,255,255,254 F,0,160846,161238,1,0 R,0,160846,161238,-3,-3.8
Sprite,Foreground,Centre,"star+.png",320,240 M,0,160944,,164,347 S,0,160944,,0.5 R,0,160944,,0,-3 C,0,160944,,255,255,254 F,0,160944,161336,1,0 R,0,160944,161336,-3,-3.8
Sprite,Foreground,Centre,"star+.png",320,240 M,0,161140,,320,299 S,0,161140,,0.5 R,0,161140,,0,-3 C,0,161140,,255,255,254 F,0,161140,161532,1,0 R,0,161140,161532,-3,-3.8
Sprite,Foreground,Centre,"star+.png",320,240 M,0,161337,,528,397 S,0,161337,,0.5 R,0,161337,,0,-3 C,0,161337,,255,255,254 F,0,161337,161729,1,0 R,0,161337,161729,-3,-3.8
Sprite,Foreground,Centre,"star+.png",320,240 M,0,161435,,510,355 S,0,161435,,0.5 R,0,161435,,0,-3 C,0,161435,,255,255,254 F,0,161435,161827,1,0 R,0,161435,161827,-3,-3.8
Sprite,Foreground,Centre,"star+.png",320,240 M,0,161533,,470,333 S,0,161533,,0.5 R,0,161533,,0,-3 C,0,161533,,255,255,254 F,0,161533,161925,1,0 R,0,161533,161925,-3,-3.8
Sprite,Foreground,Centre,"star+.png",320,240 M,0,161631,,425,336 S,0,161631,,0.5 R,0,161631,,0,-3 C,0,161631,,255,255,254 F,0,161631,162023,1,0 R,0,161631,162023,-3,-3.8
Sprite,Foreground,Centre,"star+.png",320,240 M,0,162218,,375,153 S,0,162218,,0.5 R,0,162218,,0,-3 C,0,162218,,255,255,254 F,0,162218,162610,1,0 R,0,162218,162610,-3,-3.8
Sprite,Foreground,Centre,"star+.png",320,240 M,0,162513,,531,276 S,0,162513,,0.5 R,0,162513,,0,-3 C,0,162513,,255,255,254 F,0,162513,162905,1,0 R,0,162513,162905,-3,-3.8
Sprite,Foreground,Centre,"star+.png",320,240 M,0,242121,,78,244 S,0,242121,,0.5 R,0,242121,,0,-3 C,0,242121,,255,255,254 F,0,242121,242513,1,0 R,0,242121,242513,-3,-3.8
Sprite,Foreground,Centre,"star+.png",320,240 M,0,242317,,179,134 S,0,242317,,0.5 R,0,242317,,0,-3 C,0,242317,,255,255,254 F,0,242317,242709,1,0 R,0,242317,242709,-3,-3.8
Sprite,Foreground,Centre,"star+.png",320,240 M,0,242415,,179,134 S,0,242415,,0.5 R,0,242415,,0,-3 C,0,242415,,255,255,254 F,0,242415,242807,1,0 R,0,242415,242807,-3,-3.8
Sprite,Foreground,Centre,"star+.png",320,240 M,0,242513,,179,134 S,0,242513,,0.5 R,0,242513,,0,-3 C,0,242513,,255,255,254 F,0,242513,242905,1,0 R,0,242513,242905,-3,-3.8
Sprite,Foreground,Centre,"star+.png",320,240 M,0,242709,,246,326 S,0,242709,,0.5 R,0,242709,,0,-3 C,0,242709,,255,255,254 F,0,242709,243101,1,0 R,0,242709,243101,-3,-3.8
Sprite,Foreground,Centre,"star+.png",320,240 M,0,243689,,307,278 S,0,243689,,0.5 R,0,243689,,0,-3 C,0,243689,,255,255,254 F,0,243689,244081,1,0 R,0,243689,244081,-3,-3.8
Sprite,Foreground,Centre,"star+.png",320,240 M,0,243886,,185,236 S,0,243886,,0.5 R,0,243886,,0,-3 C,0,243886,,255,255,254 F,0,243886,244278,1,0 R,0,243886,244278,-3,-3.8
Sprite,Foreground,Centre,"star+.png",320,240 M,0,243984,,185,236 S,0,243984,,0.5 R,0,243984,,0,-3 C,0,243984,,255,255,254 F,0,243984,244376,1,0 R,0,243984,244376,-3,-3.8
Sprite,Foreground,Centre,"star+.png",320,240 M,0,244474,,161,92 S,0,244474,,0.5 R,0,244474,,0,-3 C,0,244474,,255,255,254 F,0,244474,244866,1,0 R,0,244474,244866,-3,-3.8
Sprite,Foreground,Centre,"star+.png",320,240 M,0,244670,,64,312 S,0,244670,,0.5 R,0,244670,,0,-3 C,0,244670,,255,255,254 F,0,244670,245062,1,0 R,0,244670,245062,-3,-3.8
Sprite,Foreground,Centre,"star+.png",320,240 M,0,244866,,294,275 S,0,244866,,0.5 R,0,244866,,0,-3 C,0,244866,,255,255,254 F,0,244866,245258,1,0 R,0,244866,245258,-3,-3.8
Sprite,Foreground,Centre,"star+.png",320,240 M,0,245062,,68,186 S,0,245062,,0.5 R,0,245062,,0,-3 C,0,245062,,255,255,254 F,0,245062,245454,1,0 R,0,245062,245454,-3,-3.8
Sprite,Foreground,Centre,"star+.png",320,240 M,0,245258,,194,407 S,0,245258,,0.5 R,0,245258,,0,-3 C,0,245258,,255,255,254 F,0,245258,245650,1,0 R,0,245258,245650,-3,-3.8
Sprite,Foreground,Centre,"star+.png",320,240 M,0,245454,,265,171 S,0,245454,,0.5 R,0,245454,,0,-3 C,0,245454,,255,255,254 F,0,245454,245846,1,0 R,0,245454,245846,-3,-3.8
Sprite,Foreground,Centre,"star+.png",320,240 M,0,245552,,265,171 S,0,245552,,0.5 R,0,245552,,0,-3 C,0,245552,,255,255,254 F,0,245552,245944,1,0 R,0,245552,245944,-3,-3.8
Sprite,Foreground,Centre,"star+.png",320,240 M,0,245650,,265,171 S,0,245650,,0.5 R,0,245650,,0,-3 C,0,245650,,255,255,254 F,0,245650,246042,1,0 R,0,245650,246042,-3,-3.8
Sprite,Foreground,Centre,"star+.png",320,240 M,0,245846,,191,294 S,0,245846,,0.5 R,0,245846,,0,-3 C,0,245846,,255,255,254 F,0,245846,246238,1,0 R,0,245846,246238,-3,-3.8
Sprite,Foreground,Centre,"star+.png",320,240 M,0,246043,,431,263 S,0,246043,,0.5 R,0,246043,,0,-3 C,0,246043,,255,255,254 F,0,246043,246435,1,0 R,0,246043,246435,-3,-3.8
Sprite,Foreground,Centre,"star+.png",320,240 M,0,246239,,186,208 S,0,246239,,0.5 R,0,246239,,0,-3 C,0,246239,,255,255,254 F,0,246239,246631,1,0 R,0,246239,246631,-3,-3.8
Sprite,Foreground,Centre,"star+.png",320,240 M,0,246435,,299,355 S,0,246435,,0.5 R,0,246435,,0,-3 C,0,246435,,255,255,254 F,0,246435,246827,1,0 R,0,246435,246827,-3,-3.8
Sprite,Foreground,Centre,"star+.png",320,240 M,0,246631,,371,130 S,0,246631,,0.5 R,0,246631,,0,-3 C,0,246631,,255,255,254 F,0,246631,247023,1,0 R,0,246631,247023,-3,-3.8
Sprite,Foreground,Centre,"star+.png",320,240 M,0,246827,,294,275 S,0,246827,,0.5 R,0,246827,,0,-3 C,0,246827,,255,255,254 F,0,246827,247219,1,0 R,0,246827,247219,-3,-3.8
Sprite,Foreground,Centre,"star+.png",320,240 M,0,247023,,180,110 S,0,247023,,0.5 R,0,247023,,0,-3 C,0,247023,,255,255,254 F,0,247023,247415,1,0 R,0,247023,247415,-3,-3.8
Sprite,Foreground,Centre,"star+.png",320,240 M,0,247219,,194,407 S,0,247219,,0.5 R,0,247219,,0,-3 C,0,247219,,255,255,254 F,0,247219,247611,1,0 R,0,247219,247611,-3,-3.8
Sprite,Foreground,Centre,"star+.png",320,240 M,0,247415,,294,275 S,0,247415,,0.5 R,0,247415,,0,-3 C,0,247415,,255,255,254 F,0,247415,247807,1,0 R,0,247415,247807,-3,-3.8
Sprite,Foreground,Centre,"star+.png",320,240 M,0,247513,,331,249 S,0,247513,,0.5 R,0,247513,,0,-3 C,0,247513,,255,255,254 F,0,247513,247905,1,0 R,0,247513,247905,-3,-3.8
Sprite,Foreground,Centre,"star+.png",320,240 M,0,247905,,480,256 S,0,247905,,0.5 R,0,247905,,0,-3 C,0,247905,,255,255,254 F,0,247905,248297,1,0 R,0,247905,248297,-3,-3.8
Sprite,Foreground,Centre,"star+.png",320,240 M,0,248396,,447,353 S,0,248396,,0.5 R,0,248396,,0,-3 C,0,248396,,255,255,254 F,0,248396,248788,1,0 R,0,248396,248788,-3,-3.8
Sprite,Foreground,Centre,"star+.png",320,240 M,0,248592,,333,395 S,0,248592,,0.5 R,0,248592,,0,-3 C,0,248592,,255,255,254 F,0,248592,248984,1,0 R,0,248592,248984,-3,-3.8
Sprite,Foreground,Centre,"star+.png",320,240 M,0,248690,,333,395 S,0,248690,,0.5 R,0,248690,,0,-3 C,0,248690,,255,255,254 F,0,248690,249082,1,0 R,0,248690,249082,-3,-3.8
Sprite,Foreground,Centre,"star+.png",320,240 M,0,248788,,333,395 S,0,248788,,0.5 R,0,248788,,0,-3 C,0,248788,,255,255,254 F,0,248788,249180,1,0 R,0,248788,249180,-3,-3.8
Sprite,Foreground,Centre,"star+.png",320,240 M,0,248984,,293,193 S,0,248984,,0.5 R,0,248984,,0,-3 C,0,248984,,255,255,254 F,0,248984,249376,1,0 R,0,248984,249376,-3,-3.8
Sprite,Foreground,Centre,"star+.png",320,240 M,0,250160,,324,274 S,0,250160,,0.5 R,0,250160,,0,-3 C,0,250160,,255,255,254 F,0,250160,250552,1,0 R,0,250160,250552,-3,-3.8
Sprite,Foreground,Centre,"star+.png",320,240 M,0,250258,,324,274 S,0,250258,,0.5 R,0,250258,,0,-3 C,0,250258,,255,255,254 F,0,250258,250650,1,0 R,0,250258,250650,-3,-3.8
Sprite,Foreground,Centre,"star+.png",320,240 M,0,250748,,446,193 S,0,250748,,0.5 R,0,250748,,0,-3 C,0,250748,,255,255,254 F,0,250748,251140,1,0 R,0,250748,251140,-3,-3.8
Sprite,Foreground,Centre,"star+.png",320,240 M,0,250945,,433,306 S,0,250945,,0.5 R,0,250945,,0,-3 C,0,250945,,255,255,254 F,0,250945,251337,1,0 R,0,250945,251337,-3,-3.8
Sprite,Foreground,Centre,"star+.png",320,240 M,0,251141,,575,272 S,0,251141,,0.5 R,0,251141,,0,-3 C,0,251141,,255,255,254 F,0,251141,251533,1,0 R,0,251141,251533,-3,-3.8
Sprite,Foreground,Centre,"star+.png",320,240 M,0,251337,,358,166 S,0,251337,,0.5 R,0,251337,,0,-3 C,0,251337,,255,255,254 F,0,251337,251729,1,0 R,0,251337,251729,-3,-3.8
Sprite,Foreground,Centre,"star+.png",320,240 M,0,251533,,480,379 S,0,251533,,0.5 R,0,251533,,0,-3 C,0,251533,,255,255,254 F,0,251533,251925,1,0 R,0,251533,251925,-3,-3.8
Sprite,Foreground,Centre,"star+.png",320,240 M,0,251729,,530,192 S,0,251729,,0.5 R,0,251729,,0,-3 C,0,251729,,255,255,254 F,0,251729,252121,1,0 R,0,251729,252121,-3,-3.8
Sprite,Foreground,Centre,"star+.png",320,240 M,0,251827,,526,147 S,0,251827,,0.5 R,0,251827,,0,-3 C,0,251827,,255,255,254 F,0,251827,252219,1,0 R,0,251827,252219,-3,-3.8
Sprite,Foreground,Centre,"star+.png",320,240 M,0,251925,,494,115 S,0,251925,,0.5 R,0,251925,,0,-3 C,0,251925,,255,255,254 F,0,251925,252317,1,0 R,0,251925,252317,-3,-3.8
Sprite,Foreground,Centre,"star+.png",320,240 M,0,252023,,454,93 S,0,252023,,0.5 R,0,252023,,0,-3 C,0,252023,,255,255,254 F,0,252023,252415,1,0 R,0,252023,252415,-3,-3.8
Sprite,Foreground,Centre,"star+.png",320,240 M,0,252317,,329,259 S,0,252317,,0.5 R,0,252317,,0,-3 C,0,252317,,255,255,254 F,0,252317,252709,1,0 R,0,252317,252709,-3,-3.8
Sprite,Foreground,Centre,"star+.png",320,240 M,0,252415,,329,303 S,0,252415,,0.5 R,0,252415,,0,-3 C,0,252415,,255,255,254 F,0,252415,252807,1,0 R,0,252415,252807,-3,-3.8
Sprite,Foreground,Centre,"star+.png",320,240 M,0,252513,,288,323 S,0,252513,,0.5 R,0,252513,,0,-3 C,0,252513,,255,255,254 F,0,252513,252905,1,0 R,0,252513,252905,-3,-3.8
Sprite,Foreground,Centre,"star+.png",320,240 M,0,252611,,267,362 S,0,252611,,0.5 R,0,252611,,0,-3 C,0,252611,,255,255,254 F,0,252611,253003,1,0 R,0,252611,253003,-3,-3.8
Sprite,Foreground,Centre,"star+.png",320,240 M,0,253199,,138,168 S,0,253199,,0.5 R,0,253199,,0,-3 C,0,253199,,255,255,254 F,0,253199,253591,1,0 R,0,253199,253591,-3,-3.8
Sprite,Foreground,Centre,"star+.png",320,240 M,0,253494,,329,259 S,0,253494,,0.5 R,0,253494,,0,-3 C,0,253494,,255,255,254 F,0,253494,253886,1,0 R,0,253494,253886,-3,-3.8
Sprite,Foreground,Centre,"star+.png",320,240 M,0,253886,,481,119 S,0,253886,,0.5 R,0,253886,,0,-3 C,0,253886,,255,255,254 F,0,253886,254278,1,0 R,0,253886,254278,-3,-3.8
Sprite,Foreground,Centre,"star+.png",320,240 M,0,60160,,202,163 S,0,60160,,0.5 R,0,60160,,0,-3 C,0,60160,,255,255,254 F,0,60160,60552,1,0 R,0,60160,60552,-3,-3.8
Sprite,Foreground,Centre,"star+.png",320,240 M,0,60356,,247,368 S,0,60356,,0.5 R,0,60356,,0,-3 C,0,60356,,255,255,254 F,0,60356,60748,1,0 R,0,60356,60748,-3,-3.8
Sprite,Foreground,Centre,"star+.png",320,240 M,0,60454,,247,368 S,0,60454,,0.5 R,0,60454,,0,-3 C,0,60454,,255,255,254 F,0,60454,60846,1,0 R,0,60454,60846,-3,-3.8
Sprite,Foreground,Centre,"star+.png",320,240 M,0,60552,,247,368 S,0,60552,,0.5 R,0,60552,,0,-3 C,0,60552,,255,255,254 F,0,60552,60944,1,0 R,0,60552,60944,-3,-3.8
Sprite,Foreground,Centre,"star+.png",320,240 M,0,60748,,222,258 S,0,60748,,0.5 R,0,60748,,0,-3 C,0,60748,,255,255,254 F,0,60748,61140,1,0 R,0,60748,61140,-3,-3.8
Sprite,Foreground,Centre,"star+.png",320,240 M,0,61729,,508,223 S,0,61729,,0.5 R,0,61729,,0,-3 C,0,61729,,255,255,254 F,0,61729,62121,1,0 R,0,61729,62121,-3,-3.8
Sprite,Foreground,Centre,"star+.png",320,240 M,0,61827,,503,179 S,0,61827,,0.5 R,0,61827,,0,-3 C,0,61827,,255,255,254 F,0,61827,62219,1,0 R,0,61827,62219,-3,-3.8
Sprite,Foreground,Centre,"star+.png",320,240 M,0,61925,,480,141 S,0,61925,,0.5 R,0,61925,,0,-3 C,0,61925,,255,255,254 F,0,61925,62317,1,0 R,0,61925,62317,-3,-3.8
Sprite,Foreground,Centre,"star+.png",320,240 M,0,62023,,442,116 S,0,62023,,0.5 R,0,62023,,0,-3 C,0,62023,,255,255,254 F,0,62023,62415,1,0 R,0,62023,62415,-3,-3.8
Sprite,Foreground,Centre,"star+.png",320,240 M,0,62513,,160,83 S,0,62513,,0.5 R,0,62513,,0,-3 C,0,62513,,255,255,254 F,0,62513,62905,1,0 R,0,62513,62905,-3,-3.8
Sprite,Foreground,Centre,"star+.png",320,240 M,0,62709,,204,232 S,0,62709,,0.5 R,0,62709,,0,-3 C,0,62709,,255,255,254 F,0,62709,63101,1,0 R,0,62709,63101,-3,-3.8
Sprite,Foreground,Centre,"star+.png",320,240 M,0,62905,,225,145 S,0,62905,,0.5 R,0,62905,,0,-3 C,0,62905,,255,255,254 F,0,62905,63297,1,0 R,0,62905,63297,-3,-3.8
Sprite,Foreground,Centre,"star+.png",320,240 M,0,63101,,112,255 S,0,63101,,0.5 R,0,63101,,0,-3 C,0,63101,,255,255,254 F,0,63101,63493,1,0 R,0,63101,63493,-3,-3.8
Sprite,Foreground,Centre,"star+.png",320,240 M,0,63297,,255,311 S,0,63297,,0.5 R,0,63297,,0,-3 C,0,63297,,255,255,254 F,0,63297,63689,1,0 R,0,63297,63689,-3,-3.8
Sprite,Foreground,Centre,"star+.png",320,240 M,0,63395,,293,287 S,0,63395,,0.5 R,0,63395,,0,-3 C,0,63395,,255,255,254 F,0,63395,63787,1,0 R,0,63395,63787,-3,-3.8
Sprite,Foreground,Centre,"star+.png",320,240 M,0,63493,,337,288 S,0,63493,,0.5 R,0,63493,,0,-3 C,0,63493,,255,255,254 F,0,63493,63885,1,0 R,0,63493,63885,-3,-3.8
Sprite,Foreground,Centre,"star+.png",320,240 M,0,63591,,373,314 S,0,63591,,0.5 R,0,63591,,0,-3 C,0,63591,,255,255,254 F,0,63591,63983,1,0 R,0,63591,63983,-3,-3.8
Sprite,Foreground,Centre,"star+.png",320,240 M,0,64082,,457,107 S,0,64082,,0.5 R,0,64082,,0,-3 C,0,64082,,255,255,254 F,0,64082,64474,1,0 R,0,64082,64474,-3,-3.8
Sprite,Foreground,Centre,"star+.png",320,240 M,0,64278,,515,251 S,0,64278,,0.5 R,0,64278,,0,-3 C,0,64278,,255,255,254 F,0,64278,64670,1,0 R,0,64278,64670,-3,-3.8
Sprite,Foreground,Centre,"star+.png",320,240 M,0,64474,,376,175 S,0,64474,,0.5 R,0,64474,,0,-3 C,0,64474,,255,255,254 F,0,64474,64866,1,0 R,0,64474,64866,-3,-3.8
Sprite,Foreground,Centre,"star+.png",320,240 M,0,64670,,560,140 S,0,64670,,0.5 R,0,64670,,0,-3 C,0,64670,,255,255,254 F,0,64670,65062,1,0 R,0,64670,65062,-3,-3.8
Sprite,Foreground,Centre,"star+.png",320,240 M,0,64866,,470,362 S,0,64866,,0.5 R,0,64866,,0,-3 C,0,64866,,255,255,254 F,0,64866,65258,1,0 R,0,64866,65258,-3,-3.8
Sprite,Foreground,Centre,"star+.png",320,240 M,0,65062,,293,287 S,0,65062,,0.5 R,0,65062,,0,-3 C,0,65062,,255,255,254 F,0,65062,65454,1,0 R,0,65062,65454,-3,-3.8
Sprite,Foreground,Centre,"star+.png",320,240 M,0,65258,,488,179 S,0,65258,,0.5 R,0,65258,,0,-3 C,0,65258,,255,255,254 F,0,65258,65650,1,0 R,0,65258,65650,-3,-3.8
Sprite,Foreground,Centre,"star+.png",320,240 M,0,65454,,257,198 S,0,65454,,0.5 R,0,65454,,0,-3 C,0,65454,,255,255,254 F,0,65454,65846,1,0 R,0,65454,65846,-3,-3.8
Sprite,Foreground,Centre,"star+.png",320,240 M,0,65552,,240,190 S,0,65552,,0.5 R,0,65552,,0,-3 C,0,65552,,255,255,254 F,0,65552,65944,1,0 R,0,65552,65944,-3,-3.8
Sprite,Foreground,Centre,"star+.png",320,240 M,0,65846,,103,237 S,0,65846,,0.5 R,0,65846,,0,-3 C,0,65846,,255,255,254 F,0,65846,66238,1,0 R,0,65846,66238,-3,-3.8
Sprite,Foreground,Centre,"star+.png",320,240 M,0,65944,,120,244 S,0,65944,,0.5 R,0,65944,,0,-3 C,0,65944,,255,255,254 F,0,65944,66336,1,0 R,0,65944,66336,-3,-3.8
Sprite,Foreground,Centre,"star+.png",320,240 M,0,66435,,227,403 S,0,66435,,0.5 R,0,66435,,0,-3 C,0,66435,,255,255,254 F,0,66435,66827,1,0 R,0,66435,66827,-3,-3.8
Sprite,Foreground,Centre,"star+.png",320,240 M,0,66631,,379,402 S,0,66631,,0.5 R,0,66631,,0,-3 C,0,66631,,255,255,254 F,0,66631,67023,1,0 R,0,66631,67023,-3,-3.8
Sprite,Foreground,Centre,"star+.png",320,240 M,0,66729,,379,402 S,0,66729,,0.5 R,0,66729,,0,-3 C,0,66729,,255,255,254 F,0,66729,67121,1,0 R,0,66729,67121,-3,-3.8
Sprite,Foreground,Centre,"star+.png",320,240 M,0,68003,,437,251 S,0,68003,,0.5 R,0,68003,,0,-3 C,0,68003,,255,255,254 F,0,68003,68395,1,0 R,0,68003,68395,-3,-3.8
Sprite,Foreground,Centre,"star+.png",320,240 M,0,68199,,298,302 S,0,68199,,0.5 R,0,68199,,0,-3 C,0,68199,,255,255,254 F,0,68199,68591,1,0 R,0,68199,68591,-3,-3.8
Sprite,Foreground,Centre,"star+.png",320,240 M,0,68297,,257,281 S,0,68297,,0.5 R,0,68297,,0,-3 C,0,68297,,255,255,254 F,0,68297,68689,1,0 R,0,68297,68689,-3,-3.8
Sprite,Foreground,Centre,"star+.png",320,240 M,0,68787,,63,163 S,0,68787,,0.5 R,0,68787,,0,-3 C,0,68787,,255,255,254 F,0,68787,69179,1,0 R,0,68787,69179,-3,-3.8
Sprite,Foreground,Centre,"star+.png",320,240 M,0,68984,,139,302 S,0,68984,,0.5 R,0,68984,,0,-3 C,0,68984,,255,255,254 F,0,68984,69376,1,0 R,0,68984,69376,-3,-3.8
Sprite,Foreground,Centre,"star+.png",320,240 M,0,69180,,63,250 S,0,69180,,0.5 R,0,69180,,0,-3 C,0,69180,,255,255,254 F,0,69180,69572,1,0 R,0,69180,69572,-3,-3.8
Sprite,Foreground,Centre,"star+.png",320,240 M,0,69377,,137,389 S,0,69377,,0.5 R,0,69377,,0,-3 C,0,69377,,255,255,254 F,0,69377,69769,1,0 R,0,69377,69769,-3,-3.8
Sprite,Foreground,Centre,"star+.png",320,240 M,0,69572,,221,259 S,0,69572,,0.5 R,0,69572,,0,-3 C,0,69572,,255,255,254 F,0,69572,69964,1,0 R,0,69572,69964,-3,-3.8
Sprite,Foreground,Centre,"star+.png",320,240 M,0,69768,,292,396 S,0,69768,,0.5 R,0,69768,,0,-3 C,0,69768,,255,255,254 F,0,69768,70160,1,0 R,0,69768,70160,-3,-3.8
Sprite,Foreground,Centre,"star+.png",320,240 M,0,69866,,292,396 S,0,69866,,0.5 R,0,69866,,0,-3 C,0,69866,,255,255,254 F,0,69866,70258,1,0 R,0,69866,70258,-3,-3.8
Sprite,Foreground,Centre,"star+.png",320,240 M,0,69964,,292,396 S,0,69964,,0.5 R,0,69964,,0,-3 C,0,69964,,255,255,254 F,0,69964,70356,1,0 R,0,69964,70356,-3,-3.8
Sprite,Foreground,Centre,"star+.png",320,240 M,0,70160,,220,344 S,0,70160,,0.5 R,0,70160,,0,-3 C,0,70160,,255,255,254 F,0,70160,70552,1,0 R,0,70160,70552,-3,-3.8
Sprite,Foreground,Centre,"star+.png",320,240 M,0,70356,,391,408 S,0,70356,,0.5 R,0,70356,,0,-3 C,0,70356,,255,255,254 F,0,70356,70748,1,0 R,0,70356,70748,-3,-3.8
Sprite,Foreground,Centre,"star+.png",320,240 M,0,70454,,426,379 S,0,70454,,0.5 R,0,70454,,0,-3 C,0,70454,,255,255,254 F,0,70454,70846,1,0 R,0,70454,70846,-3,-3.8
Sprite,Foreground,Centre,"star+.png",320,240 M,0,70552,,445,339 S,0,70552,,0.5 R,0,70552,,0,-3 C,0,70552,,255,255,254 F,0,70552,70944,1,0 R,0,70552,70944,-3,-3.8
Sprite,Foreground,Centre,"star+.png",320,240 M,0,70650,,441,295 S,0,70650,,0.5 R,0,70650,,0,-3 C,0,70650,,255,255,254 F,0,70650,71042,1,0 R,0,70650,71042,-3,-3.8
Sprite,Foreground,Centre,"star+.png",320,240 M,0,71238,,359,325 S,0,71238,,0.5 R,0,71238,,0,-3 C,0,71238,,255,255,254 F,0,71238,71630,1,0 R,0,71238,71630,-3,-3.8
Sprite,Foreground,Centre,"star+.png",320,240 M,0,71533,,430,141 S,0,71533,,0.5 R,0,71533,,0,-3 C,0,71533,,255,255,254 F,0,71533,71925,1,0 R,0,71533,71925,-3,-3.8
Sprite,Foreground,Centre,"star+.png",320,240 S,0,59376,,0.5 C,0,59376,,255,255,254 M,0,59376,59542,103,77,89,166 R,0,59376,59542,0,-3 F,0,59542,59934,1,0 R,0,59542,59934,-3,-3.8
Sprite,Foreground,Centre,"star+.png",320,240 S,0,59768,,0.5 C,0,59768,,255,255,254 M,0,59768,59934,113,403,99,313 R,0,59768,59934,0,-3 F,0,59934,60326,1,0 R,0,59934,60326,-3,-3.8
Sprite,Foreground,Centre,"star+.png",320,240 S,0,60944,,0.5 C,0,60944,,255,255,254 M,0,60944,61110,405,214,405,259 R,0,60944,61110,0,-3 F,0,61110,61502,1,0 R,0,61110,61502,-3,-3.8
Sprite,Foreground,Centre,"star+.png",320,240 S,0,61140,,0.5 C,0,61140,,255,255,254 M,0,61140,61306,351,395,345,350 R,0,61140,61306,0,-3 F,0,61306,61698,1,0 R,0,61306,61698,-3,-3.8
Sprite,Foreground,Centre,"star+.png",320,240 S,0,61336,,0.5 C,0,61336,,255,255,254 M,0,61336,61502,405,214,405,259 R,0,61336,61502,0,-3 F,0,61502,61894,1,0 R,0,61502,61894,-3,-3.8
Sprite,Foreground,Centre,"star+.png",320,240 S,0,61532,,0.5 C,0,61532,,255,255,254 M,0,61532,61698,459,395,463,350 R,0,61532,61698,0,-3 F,0,61698,62090,1,0 R,0,61698,62090,-3,-3.8
Sprite,Foreground,Centre,"star+.png",320,240 S,0,62121,,0.5 C,0,62121,,255,255,254 M,0,62121,62287,398,110,309,117 R,0,62121,62287,0,-3 F,0,62287,62679,1,0 R,0,62287,62679,-3,-3.8
Sprite,Foreground,Centre,"star+.png",320,240 S,0,63689,,0.5 C,0,63689,,255,255,254 M,0,63689,63855,388,355,414,268 R,0,63689,63855,0,-3 F,0,63855,64247,1,0 R,0,63855,64247,-3,-3.8
Sprite,Foreground,Centre,"star+.png",320,240 S,0,65650,,0.5 C,0,65650,,255,255,254 M,0,65650,65816,223,183,180,168 R,0,65650,65816,0,-3 F,0,65816,66208,1,0 R,0,65816,66208,-3,-3.8
Sprite,Foreground,Centre,"star+.png",320,240 S,0,66042,,0.5 C,0,66042,,255,255,254 M,0,66042,66208,137,252,137,341 R,0,66042,66208,0,-3 F,0,66208,66600,1,0 R,0,66208,66600,-3,-3.8
Sprite,Foreground,Centre,"star+.png",320,240 S,0,66827,,0.5 C,0,66827,,255,255,254 M,0,66827,66993,379,402,387,312 R,0,66827,66993,0,-3 F,0,66993,67385,1,0 R,0,66993,67385,-3,-3.8
Sprite,Foreground,Centre,"star+.png",320,240 S,0,67219,,0.5 C,0,67219,,255,255,254 M,0,67219,67385,434,132,434,176 R,0,67219,67385,0,-3 F,0,67385,67777,1,0 R,0,67385,67777,-3,-3.8
Sprite,Foreground,Centre,"star+.png",320,240 S,0,67415,,0.5 C,0,67415,,255,255,254 M,0,67415,67581,497,353,477,312 R,0,67415,67581,0,-3 F,0,67581,67973,1,0 R,0,67581,67973,-3,-3.8
Sprite,Foreground,Centre,"star+.png",320,240 S,0,67611,,0.5 C,0,67611,,255,255,254 M,0,67611,67777,315,218,358,228 R,0,67611,67777,0,-3 F,0,67777,68169,1,0 R,0,67777,68169,-3,-3.8
Sprite,Foreground,Centre,"star+.png",320,240 S,0,67807,,0.5 C,0,67807,,255,255,254 M,0,67807,67973,560,231,515,232 R,0,67807,67973,0,-3 F,0,67973,68365,1,0 R,0,67973,68365,-3,-3.8
Sprite,Foreground,Centre,"star+.png",320,240 S,0,68395,,0.5 C,0,68395,,255,255,254 M,0,68395,68561,231,244,224,154 R,0,68395,68561,0,-3 F,0,68561,68953,1,0 R,0,68561,68953,-3,-3.8
Sprite,Foreground,Centre,"star+.png",320,240 S,0,70748,,0.5 C,0,70748,,255,255,254 M,0,70748,70914,417,258,412,213 R,0,70748,70914,0,-3 F,0,70914,71306,1,0 R,0,70914,71306,-3,-3.8
Sprite,Foreground,Centre,"white.png",320,240 M,0,71925,,320,240 F,0,71925,72317,0.6,0
Sprite,Foreground,Centre,"star+.png",320,240 S,0,344866,,0.5 C,0,344866,,255,255,254 M,0,344866,345032,418,324,328,331 R,0,344866,345032,0,-3 F,0,345032,345424,1,0 R,0,345032,345424,-3,-3.8
Sprite,Foreground,Centre,"star+.png",320,240 S,0,345258,,0.5 C,0,345258,,255,255,254 M,0,345258,345424,148,271,237,277 R,0,345258,345424,0,-3 F,0,345424,345816,1,0 R,0,345424,345816,-3,-3.8
Sprite,Foreground,Centre,"star+.png",320,240 S,0,346435,,0.5 C,0,346435,,255,255,254 M,0,346435,346601,239,383,283,391 R,0,346435,346601,0,-3 F,0,346601,346993,1,0 R,0,346601,346993,-3,-3.8
Sprite,Foreground,Centre,"star+.png",320,240 S,0,346631,,0.5 C,0,346631,,255,255,254 M,0,346631,346797,389,315,344,322 R,0,346631,346797,0,-3 F,0,346797,347189,1,0 R,0,346797,347189,-3,-3.8
Sprite,Foreground,Centre,"star+.png",320,240 S,0,346827,,0.5 C,0,346827,,255,255,254 M,0,346827,346993,250,244,294,252 R,0,346827,346993,0,-3 F,0,346993,347385,1,0 R,0,346993,347385,-3,-3.8
Sprite,Foreground,Centre,"star+.png",320,240 S,0,347023,,0.5 C,0,347023,,255,255,254 M,0,347023,347189,400,176,355,183 R,0,347023,347189,0,-3 F,0,347189,347581,1,0 R,0,347189,347581,-3,-3.8
Sprite,Foreground,Centre,"star+.png",320,240 S,0,347219,,0.5 C,0,347219,,255,255,254 M,0,347219,347385,252,109,296,117 R,0,347219,347385,0,-3 F,0,347385,347777,1,0 R,0,347385,347777,-3,-3.8
Sprite,Foreground,Centre,"star+.png",320,240 S,0,347611,,0.5 C,0,347611,,255,255,254 M,0,347611,347777,572,153,572,243 R,0,347611,347777,0,-3 F,0,347777,348169,1,0 R,0,347777,348169,-3,-3.8
Sprite,Foreground,Centre,"star+.png",320,240 S,0,351532,,0.5 C,0,351532,,255,255,254 M,0,351532,351698,369,360,458,347 R,0,351532,351698,0,-3 F,0,351698,352090,1,0 R,0,351698,352090,-3,-3.8
Sprite,Foreground,Centre,"star+.png",320,240 S,0,352709,,0.5 C,0,352709,,255,255,254 M,0,352709,352875,337,69,320,110 R,0,352709,352875,0,-3 F,0,352875,353267,1,0 R,0,352875,353267,-3,-3.8
Sprite,Foreground,Centre,"star+.png",320,240 S,0,352905,,0.5 C,0,352905,,255,255,254 M,0,352905,353071,265,244,238,207 R,0,352905,353071,0,-3 F,0,353071,353463,1,0 R,0,353071,353463,-3,-3.8
Sprite,Foreground,Centre,"star+.png",320,240 S,0,353101,,0.5 C,0,353101,,255,255,254 M,0,353101,353267,155,91,194,112 R,0,353101,353267,0,-3 F,0,353267,353659,1,0 R,0,353267,353659,-3,-3.8
Sprite,Foreground,Centre,"star+.png",320,240 S,0,353297,,0.5 C,0,353297,,255,255,254 M,0,353297,353463,119,197,74,205 R,0,353297,353463,0,-3 F,0,353463,353855,1,0 R,0,353463,353855,-3,-3.8
Sprite,Foreground,Centre,"star+.png",320,240 S,0,353493,,0.5 C,0,353493,,255,255,254 M,0,353493,353659,156,289,200,279 R,0,353493,353659,0,-3 F,0,353659,354051,1,0 R,0,353659,354051,-3,-3.8
Sprite,Foreground,Centre,"star+.png",320,240 S,0,353886,,0.5 C,0,353886,,255,255,254 M,0,353886,354052,385,349,401,260 R,0,353886,354052,0,-3 F,0,354052,354444,1,0 R,0,354052,354444,-3,-3.8
Sprite,Foreground,Centre,"star+.png",320,240 S,0,355650,,0.5 C,0,355650,,255,255,254 M,0,355650,355816,201,320,160,338 R,0,355650,355816,0,-3 F,0,355816,356208,1,0 R,0,355816,356208,-3,-3.8
Sprite,Foreground,Centre,"star+.png",320,240 S,0,356238,,0.5 C,0,356238,,255,255,254 M,0,356238,356404,273,210,309,183 R,0,356238,356404,0,-3 F,0,356404,356796,1,0 R,0,356404,356796,-3,-3.8
Sprite,Foreground,Centre,"star+.png",320,240 M,0,345650,,88,343 S,0,345650,,0.5 R,0,345650,,0,-3 C,0,345650,,255,255,254 F,0,345650,346042,1,0 R,0,345650,346042,-3,-3.8
Sprite,Foreground,Centre,"star+.png",320,240 M,0,345846,,69,220 S,0,345846,,0.5 R,0,345846,,0,-3 C,0,345846,,255,255,254 F,0,345846,346238,1,0 R,0,345846,346238,-3,-3.8
Sprite,Foreground,Centre,"star+.png",320,240 M,0,345944,,69,220 S,0,345944,,0.5 R,0,345944,,0,-3 C,0,345944,,255,255,254 F,0,345944,346336,1,0 R,0,345944,346336,-3,-3.8
Sprite,Foreground,Centre,"star+.png",320,240 M,0,346042,,69,220 S,0,346042,,0.5 R,0,346042,,0,-3 C,0,346042,,255,255,254 F,0,346042,346434,1,0 R,0,346042,346434,-3,-3.8
Sprite,Foreground,Centre,"star+.png",320,240 M,0,346238,,189,187 S,0,346238,,0.5 R,0,346238,,0,-3 C,0,346238,,255,255,254 F,0,346238,346630,1,0 R,0,346238,346630,-3,-3.8
Sprite,Foreground,Centre,"star+.png",320,240 M,0,347415,,572,153 S,0,347415,,0.5 R,0,347415,,0,-3 C,0,347415,,255,255,254 F,0,347415,347807,1,0 R,0,347415,347807,-3,-3.8
Sprite,Foreground,Centre,"star+.png",320,240 M,0,347513,,572,153 S,0,347513,,0.5 R,0,347513,,0,-3 C,0,347513,,255,255,254 F,0,347513,347905,1,0 R,0,347513,347905,-3,-3.8
Sprite,Foreground,Centre,"star+.png",320,240 M,0,348003,,477,406 S,0,348003,,0.5 R,0,348003,,0,-3 C,0,348003,,255,255,254 F,0,348003,348395,1,0 R,0,348003,348395,-3,-3.8
Sprite,Foreground,Centre,"star+.png",320,240 M,0,348199,,384,242 S,0,348199,,0.5 R,0,348199,,0,-3 C,0,348199,,255,255,254 F,0,348199,348591,1,0 R,0,348199,348591,-3,-3.8
Sprite,Foreground,Centre,"star+.png",320,240 M,0,348395,,572,243 S,0,348395,,0.5 R,0,348395,,0,-3 C,0,348395,,255,255,254 F,0,348395,348787,1,0 R,0,348395,348787,-3,-3.8
Sprite,Foreground,Centre,"star+.png",320,240 M,0,348591,,478,304 S,0,348591,,0.5 R,0,348591,,0,-3 C,0,348591,,255,255,254 F,0,348591,348983,1,0 R,0,348591,348983,-3,-3.8
Sprite,Foreground,Centre,"star+.png",320,240 M,0,348787,,413,101 S,0,348787,,0.5 R,0,348787,,0,-3 C,0,348787,,255,255,254 F,0,348787,349179,1,0 R,0,348787,349179,-3,-3.8
Sprite,Foreground,Centre,"star+.png",320,240 M,0,348983,,215,211 S,0,348983,,0.5 R,0,348983,,0,-3 C,0,348983,,255,255,254 F,0,348983,349375,1,0 R,0,348983,349375,-3,-3.8
Sprite,Foreground,Centre,"star+.png",320,240 M,0,349081,,215,211 S,0,349081,,0.5 R,0,349081,,0,-3 C,0,349081,,255,255,254 F,0,349081,349473,1,0 R,0,349081,349473,-3,-3.8
Sprite,Foreground,Centre,"star+.png",320,240 M,0,349179,,215,211 S,0,349179,,0.5 R,0,349179,,0,-3 C,0,349179,,255,255,254 F,0,349179,349571,1,0 R,0,349179,349571,-3,-3.8
Sprite,Foreground,Centre,"star+.png",320,240 M,0,349375,,353,227 S,0,349375,,0.5 R,0,349375,,0,-3 C,0,349375,,255,255,254 F,0,349375,349767,1,0 R,0,349375,349767,-3,-3.8
Sprite,Foreground,Centre,"star+.png",320,240 M,0,349572,,106,144 S,0,349572,,0.5 R,0,349572,,0,-3 C,0,349572,,255,255,254 F,0,349572,349964,1,0 R,0,349572,349964,-3,-3.8
Sprite,Foreground,Centre,"star+.png",320,240 M,0,349768,,218,328 S,0,349768,,0.5 R,0,349768,,0,-3 C,0,349768,,255,255,254 F,0,349768,350160,1,0 R,0,349768,350160,-3,-3.8
Sprite,Foreground,Centre,"star+.png",320,240 M,0,349964,,321,138 S,0,349964,,0.5 R,0,349964,,0,-3 C,0,349964,,255,255,254 F,0,349964,350356,1,0 R,0,349964,350356,-3,-3.8
Sprite,Foreground,Centre,"star+.png",320,240 M,0,350160,,215,211 S,0,350160,,0.5 R,0,350160,,0,-3 C,0,350160,,255,255,254 F,0,350160,350552,1,0 R,0,350160,350552,-3,-3.8
Sprite,Foreground,Centre,"star+.png",320,240 M,0,350356,,356,264 S,0,350356,,0.5 R,0,350356,,0,-3 C,0,350356,,255,255,254 F,0,350356,350748,1,0 R,0,350356,350748,-3,-3.8
Sprite,Foreground,Centre,"star+.png",320,240 M,0,350552,,427,65 S,0,350552,,0.5 R,0,350552,,0,-3 C,0,350552,,255,255,254 F,0,350552,350944,1,0 R,0,350552,350944,-3,-3.8
Sprite,Foreground,Centre,"star+.png",320,240 M,0,350748,,459,347 S,0,350748,,0.5 R,0,350748,,0,-3 C,0,350748,,255,255,254 F,0,350748,351140,1,0 R,0,350748,351140,-3,-3.8
Sprite,Foreground,Centre,"star+.png",320,240 M,0,351140,,484,212 S,0,351140,,0.5 R,0,351140,,0,-3 C,0,351140,,255,255,254 F,0,351140,351532,1,0 R,0,351140,351532,-3,-3.8
Sprite,Foreground,Centre,"star+.png",320,240 M,0,351336,,369,360 S,0,351336,,0.5 R,0,351336,,0,-3 C,0,351336,,255,255,254 F,0,351336,351728,1,0 R,0,351336,351728,-3,-3.8
Sprite,Foreground,Centre,"star+.png",320,240 M,0,351434,,369,360 S,0,351434,,0.5 R,0,351434,,0,-3 C,0,351434,,255,255,254 F,0,351434,351826,1,0 R,0,351434,351826,-3,-3.8
Sprite,Foreground,Centre,"star+.png",320,240 M,0,351925,,502,127 S,0,351925,,0.5 R,0,351925,,0,-3 C,0,351925,,255,255,254 F,0,351925,352317,1,0 R,0,351925,352317,-3,-3.8
Sprite,Foreground,Centre,"star+.png",320,240 M,0,352121,,395,236 S,0,352121,,0.5 R,0,352121,,0,-3 C,0,352121,,255,255,254 F,0,352121,352513,1,0 R,0,352121,352513,-3,-3.8
Sprite,Foreground,Centre,"star+.png",320,240 M,0,352219,,395,236 S,0,352219,,0.5 R,0,352219,,0,-3 C,0,352219,,255,255,254 F,0,352219,352611,1,0 R,0,352219,352611,-3,-3.8
Sprite,Foreground,Centre,"star+.png",320,240 M,0,352317,,395,236 S,0,352317,,0.5 R,0,352317,,0,-3 C,0,352317,,255,255,254 F,0,352317,352709,1,0 R,0,352317,352709,-3,-3.8
Sprite,Foreground,Centre,"star+.png",320,240 M,0,352513,,484,212 S,0,352513,,0.5 R,0,352513,,0,-3 C,0,352513,,255,255,254 F,0,352513,352905,1,0 R,0,352513,352905,-3,-3.8
Sprite,Foreground,Centre,"star+.png",320,240 M,0,353690,,332,282 S,0,353690,,0.5 R,0,353690,,0,-3 C,0,353690,,255,255,254 F,0,353690,354082,1,0 R,0,353690,354082,-3,-3.8
Sprite,Foreground,Centre,"star+.png",320,240 M,0,353788,,368,308 S,0,353788,,0.5 R,0,353788,,0,-3 C,0,353788,,255,255,254 F,0,353788,354180,1,0 R,0,353788,354180,-3,-3.8
Sprite,Foreground,Centre,"star+.png",320,240 M,0,354277,,553,80 S,0,354277,,0.5 R,0,354277,,0,-3 C,0,354277,,255,255,254 F,0,354277,354669,1,0 R,0,354277,354669,-3,-3.8
Sprite,Foreground,Centre,"star+.png",320,240 M,0,354474,,365,111 S,0,354474,,0.5 R,0,354474,,0,-3 C,0,354474,,255,255,254 F,0,354474,354866,1,0 R,0,354474,354866,-3,-3.8
Sprite,Foreground,Centre,"star+.png",320,240 M,0,354670,,484,257 S,0,354670,,0.5 R,0,354670,,0,-3 C,0,354670,,255,255,254 F,0,354670,355062,1,0 R,0,354670,355062,-3,-3.8
Sprite,Foreground,Centre,"star+.png",320,240 M,0,354866,,468,150 S,0,354866,,0.5 R,0,354866,,0,-3 C,0,354866,,255,255,254 F,0,354866,355258,1,0 R,0,354866,355258,-3,-3.8
Sprite,Foreground,Centre,"star+.png",320,240 M,0,355062,,574,327 S,0,355062,,0.5 R,0,355062,,0,-3 C,0,355062,,255,255,254 F,0,355062,355454,1,0 R,0,355062,355454,-3,-3.8
Sprite,Foreground,Centre,"star+.png",320,240 M,0,355258,,369,293 S,0,355258,,0.5 R,0,355258,,0,-3 C,0,355258,,255,255,254 F,0,355258,355650,1,0 R,0,355258,355650,-3,-3.8
Sprite,Foreground,Centre,"star+.png",320,240 M,0,355356,,327,311 S,0,355356,,0.5 R,0,355356,,0,-3 C,0,355356,,255,255,254 F,0,355356,355748,1,0 R,0,355356,355748,-3,-3.8
Sprite,Foreground,Centre,"star+.png",320,240 M,0,355454,,285,306 S,0,355454,,0.5 R,0,355454,,0,-3 C,0,355454,,255,255,254 F,0,355454,355846,1,0 R,0,355454,355846,-3,-3.8
Sprite,Foreground,Centre,"star+.png",320,240 M,0,355552,,242,303 S,0,355552,,0.5 R,0,355552,,0,-3 C,0,355552,,255,255,254 F,0,355552,355944,1,0 R,0,355552,355944,-3,-3.8
Sprite,Foreground,Centre,"star+.png",320,240 M,0,355846,,113,242 S,0,355846,,0.5 R,0,355846,,0,-3 C,0,355846,,255,255,254 F,0,355846,356238,1,0 R,0,355846,356238,-3,-3.8
Sprite,Foreground,Centre,"star+.png",320,240 M,0,355944,,142,207 S,0,355944,,0.5 R,0,355944,,0,-3 C,0,355944,,255,255,254 F,0,355944,356336,1,0 R,0,355944,356336,-3,-3.8
Sprite,Foreground,Centre,"star+.png",320,240 M,0,356042,,186,200 S,0,356042,,0.5 R,0,356042,,0,-3 C,0,356042,,255,255,254 F,0,356042,356434,1,0 R,0,356042,356434,-3,-3.8
Sprite,Foreground,Centre,"star+.png",320,240 M,0,356140,,230,198 S,0,356140,,0.5 R,0,356140,,0,-3 C,0,356140,,255,255,254 F,0,356140,356532,1,0 R,0,356140,356532,-3,-3.8
Sprite,Foreground,Centre,"star+.png",320,240 M,0,356728,,327,311 S,0,356728,,0.5 R,0,356728,,0,-3 C,0,356728,,255,255,254 F,0,356728,357120,1,0 R,0,356728,357120,-3,-3.8
Sprite,Foreground,Centre,"star+.png",320,240 M,0,357023,,262,128 S,0,357023,,0.5 R,0,357023,,0,-3 C,0,357023,,255,255,254 F,0,357023,357415,1,0 R,0,357023,357415,-3,-3.8
Sprite,Foreground,Centre,"star+.png",320,240 M,0,357415,,360,403 S,0,357415,,0.5 R,0,357415,,0,-3 C,0,357415,,255,255,254 F,0,357415,357807,1,0 R,0,357415,357807,-3,-3.8
Sprite,Foreground,Centre,"white.png",320,240 M,0,162905,,320,240 F,0,162905,163297,0.6,0
Sprite,Foreground,Centre,"star+.png",320,240 S,0,356533,,0.5 C,0,356533,,255,255,254 M,0,356533,356699,462,216,425,241 R,0,356533,356699,0,-3 F,0,356699,357091,1,0 R,0,356699,357091,-3,-3.8
Sprite,Foreground,Centre,"star+.png",320,240 M,0,356435,,462,216 S,0,356435,,0.5 R,0,356435,,0,-3 C,0,356435,,255,255,254 F,0,356435,356827,1,0 R,0,356435,356827,-3,-3.8
Sprite,Foreground,Centre,"star+.png",320,240 S,0,253003,,0.5 C,0,253003,,255,255,254 M,0,253003,253169,158,312,151,267 R,0,253003,253169,0,-3 F,0,253169,253561,1,0 R,0,253169,253561,-3,-3.8
Sprite,Foreground,Centre,"star+.png",320,240 M,0,252905,,158,312 S,0,252905,,0.5 R,0,252905,,0,-3 C,0,252905,,255,255,254 F,0,252905,253297,1,0 R,0,252905,253297,-3,-3.8
Sprite,Foreground,Centre,"star+.png",320,240 M,0,161925,,340,287 S,0,161925,,0.5 R,0,161925,,0,-3 C,0,161925,,255,255,254 F,0,161925,162317,1,0 R,0,161925,162317,-3,-3.8
Sprite,Foreground,Centre,"star+.png",320,240 S,0,162023,,0.5 C,0,162023,,255,255,254 M,0,162023,162189,340,287,350,243 R,0,162023,162189,0,-3 F,0,162189,162581,1,0 R,0,162189,162581,-3,-3.8
Sprite,Foreground,Centre,"star+.png",320,240 S,0,71042,,0.5 C,0,71042,,255,255,254 M,0,71042,71208,335,139,340,183 R,0,71042,71208,0,-3 F,0,71208,71600,1,0 R,0,71208,71600,-3,-3.8
Sprite,Foreground,Centre,"star+.png",320,240 M,0,70944,,335,139 S,0,70944,,0.5 R,0,70944,,0,-3 C,0,70944,,255,255,254 F,0,70944,71336,1,0 R,0,70944,71336,-3,-3.8
//Storyboard Sound Samples

[TimingPoints]
1337,392.156862745098,4,2,1,60,1,0
1337,-166.666666666667,4,2,1,60,0,0
3886,-166.666666666667,4,2,1,5,0,0
4082,-166.666666666667,4,2,1,60,0,0
4278,-166.666666666667,4,2,1,5,0,0
4474,-166.666666666667,4,2,1,60,0,0
6042,-166.666666666667,4,2,1,70,0,0
7023,-166.666666666667,4,2,1,5,0,0
7219,-166.666666666667,4,2,1,70,0,0
7415,-166.666666666667,4,2,1,5,0,0
7611,-166.666666666667,4,2,1,60,0,0
10160,-166.666666666667,4,2,1,5,0,0
10356,-166.666666666667,4,2,1,60,0,0
10552,-166.666666666667,4,2,1,5,0,0
10748,-166.666666666667,4,2,1,60,0,0
13886,-166.666666666667,4,1,0,50,0,0
15454,-100,4,1,0,50,0,0
18101,-100,4,1,0,65,0,0
18395,-100,4,1,0,80,0,0
18591,-100,4,2,1,80,0,0
18689,-100,4,2,1,70,0,0
43689,-100,4,1,0,60,0,0
45258,-100,4,2,1,50,0,0
46827,-100,4,2,1,50,0,1
47219,-100,4,2,1,50,0,0
59180,-100,4,2,1,60,0,0
59376,-100,4,2,1,60,0,1
71631,-100,4,2,1,60,0,0
83493,-100,4,2,1,50,0,0
84474,-100,4,2,1,60,0,0
95552,-100,4,2,1,50,0,0
97023,-100,4,2,1,60,0,0
109572,-100,4,1,0,60,0,0
109670,-100,4,2,1,60,0,0
111140,-100,4,2,1,60,0,1
135454,-142.857142857143,4,2,1,60,0,0
135846,-142.857142857143,4,2,1,5,0,0
136042,-100,4,2,1,60,0,0
137023,-100,4,2,1,60,0,1
137807,-100,4,2,1,60,0,1
138003,-100,4,2,1,60,0,0
148787,-100,4,2,1,50,0,0
150356,-100,4,2,1,60,0,1
161337,-100,4,2,1,50,0,1
162905,-100,4,2,1,60,0,0
168591,-100,4,2,1,50,0,0
169180,-100,4,2,1,60,0,0
173886,-166.666666666667,4,2,1,60,0,0
174670,-100,4,2,1,50,0,0
175454,-100,4,2,1,60,0,0
181337,-100,4,2,1,50,0,0
181729,-100,4,2,1,60,0,0
186533,-100,4,2,1,50,0,0
188003,-100,4,2,1,60,0,0
200552,-100,4,1,0,60,0,0
201729,-100,4,2,1,60,0,0
202121,-100,4,2,1,60,0,1
220160,-100,4,2,1,50,0,1
220944,-100,4,2,1,60,0,1
226435,-100,4,2,1,60,0,0
228787,-100,4,2,1,60,0,1
229180,-100,4,2,1,60,0,0
239768,-100,4,2,1,50,0,1
241336,-100,4,2,1,60,0,1
252317,-100,4,2,1,50,0,1
253886,-100,4,1,0,50,0,0
266042,-142.857142857143,4,2,1,60,0,0
268787,-166.666666666667,4,2,1,60,0,0
269180,-166.666666666667,4,2,1,5,0,0
269327,-142.857142857143,4,2,1,60,0,0
280454,-100,4,2,1,60,0,0
304082,-100,4,1,0,50,0,0
304278,-100,4,2,1,35,0,0
305650,-100,4,2,1,60,0,1
329964,-133.333333333333,4,2,1,60,0,0
330748,-100,4,2,1,60,0,0
332317,-100,4,2,1,60,0,1
332709,-100,4,2,1,60,0,0
343297,-100,4,2,1,50,0,1
344866,-100,4,2,1,60,0,1
355846,-100,4,2,1,50,0,0

[Colours]
Combo1 : 255,227,200
Combo2 : 255,198,140
Combo3 : 255,121,188
Combo4 : 153,0,77
Combo5 : 255,232,243

[HitObjects]
216,104,1337,5,0,0:0:0:0:
228,185,1729,1,0,0:0:0:0:
309,173,2121,1,0,0:0:0:0:
321,254,2513,5,0,0:0:0:0:
297,92,2709,1,0,0:0:0:0:
135,116,3101,5,0,0:0:0:0:
67,226,3297,1,0,0:0:0:0:
5,112,3493,1,0,0:0:0:0:
169,215,3689,2,0,L|221:200,1,53.9999983520508,0|0,0:0|0:0,0:0:0:0:
182,325,4082,2,0,L|130:311,1,53.9999983520508,0|0,0:0|0:0,0:0:0:0:
254,274,4474,53,0,0:0:0:0:
351,145,4670,1,0,0:0:0:0:
193,106,4866,1,0,0:0:0:0:
259,181,5062,1,0,0:0:0:0:
366,49,5258,1,0,0:0:0:0:
337,237,5454,1,0,0:0:0:0:
337,237,5552,1,0,0:0:0:0:
337,237,5650,1,0,0:0:0:0:
499,176,5846,1,0,0:0:0:0:
365,145,6042,5,0,0:0:0:0:
460,298,6238,1,0,0:0:0:0:
284,98,6435,1,0,0:0:0:0:
427,217,6631,1,0,0:0:0:0:
271,296,6827,2,0,P|244:290|219:280,1,53.9999983520508,0|0,0:0|0:0,0:0:0:0:
232,82,7219,2,0,P|258:88|284:98,1,53.9999983520508,0|0,0:0|0:0,0:0:0:0:
370,319,7611,37,0,0:0:0:0:
379,224,8003,1,0,0:0:0:0:
300,260,8395,5,0,0:0:0:0:
450,275,8591,1,0,0:0:0:0:
387,143,8787,1,0,0:0:0:0:
370,319,8984,1,0,0:0:0:0:
365,342,9376,5,0,0:0:0:0:
313,175,9572,1,0,0:0:0:0:
463,190,9768,1,0,0:0:0:0:
286,338,9964,2,0,L|232:336,1,53.9999983520508,0|0,0:0|0:0,0:0:0:0:
173,176,10356,2,0,L|226:174,1,53.9999983520508,0|0,0:0|0:0,0:0:0:0:
445,168,10748,37,0,0:0:0:0:
365,224,10944,1,0,0:0:0:0:
235,94,11140,1,0,0:0:0:0:
315,38,11337,1,0,0:0:0:0:
280,242,11533,1,0,0:0:0:0:
138,94,11729,1,0,0:0:0:0:
138,94,11827,1,0,0:0:0:0:
138,94,11925,1,0,0:0:0:0:
107,268,12121,1,0,0:0:0:0:
52,171,12317,5,0,0:0:0:0:
278,153,12513,1,0,0:0:0:0:
159,176,12709,1,0,0:0:0:0:
310,37,12905,1,0,0:0:0:0:
363,246,13101,1,0,0:0:0:0:
363,246,13886,5,4,1:0:0:0:
97,170,15454,37,0,0:0:0:0:
102,214,15552,1,0,0:0:0:0:
107,258,15650,1,0,0:0:0:0:
93,125,15846,1,0,0:0:0:0:
112,302,16042,1,0,0:0:0:0:
254,192,16238,5,0,0:0:0:0:
262,344,16533,5,0,0:0:0:0:
204,273,16827,37,0,0:0:0:0:
340,267,17023,5,0,0:0:0:0:
384,265,17121,1,0,0:0:0:0:
428,264,17219,1,0,0:0:0:0:
295,271,17415,1,0,0:0:0:0:
472,262,17611,1,0,0:0:0:0:
496,83,17807,5,0,0:0:0:0:
329,151,18101,37,0,0:0:0:0:
434,167,18395,5,0,0:0:0:0:
391,67,18591,6,0,P|305:50|235:103,2,180,2|2|2,0:0|0:0|0:0,0:0:0:0:
472,262,19670,1,2,0:0:0:0:
306,318,19964,1,2,0:0:0:0:
329,151,20356,37,2,0:0:0:0:
202,213,20552,2,0,P|115:198|67:125,2,180,2|2|2,0:0|0:0|0:0,0:0:0:0:
345,98,21729,6,0,P|263:68|182:101,2,180,2|2|2,0:0|0:0|0:0,0:0:0:0:
396,254,22807,1,2,0:0:0:0:
501,142,23101,1,2,0:0:0:0:
504,257,23493,5,2,0:0:0:0:
288,251,23689,2,0,B|224:242|224:242|167:255|167:255|110:246,2,180,2|2|2,0:0|0:0|0:0,0:0:0:0:
138,156,24866,38,0,P|53:171|17:249,2,180,2|2|2,0:0|0:0|0:0,0:0:0:0:
227,316,25944,1,2,0:0:0:0:
326,188,26238,1,2,0:0:0:0:
241,106,26631,5,2,0:0:0:0:
410,114,26827,2,0,B|447:148|447:148|406:205|444:269,2,180,2|2|2,0:0|0:0|0:0,0:0:0:0:
213,191,28003,6,0,P|154:127|178:44,2,180,2|2|2,0:0|0:0|0:0,0:0:0:0:
355,227,29082,1,2,0:0:0:0:
252,330,29376,1,2,0:0:0:0:
346,322,29768,37,2,0:0:0:0:
177,271,29964,2,0,P|91:286|39:357,2,180,2|2|2,0:0|0:0|0:0,0:0:0:0:
346,322,30944,1,2,0:0:0:0:
346,322,31042,1,2,0:0:0:0:
346,322,31140,6,0,L|358:232,1,90,4|0,1:0|0:0,0:0:0:0:
455,118,31533,2,0,L|467:207,1,90,8|0,0:0|0:0,0:0:0:0:
511,53,31925,1,2,0:0:0:0:
369,99,32121,1,2,0:0:0:0:
369,99,32219,1,2,0:0:0:0:
369,99,32317,1,8,0:0:0:0:
241,26,32513,1,2,0:0:0:0:
241,174,32709,5,2,0:0:0:0:
285,100,32905,1,2,0:0:0:0:
155,168,33101,1,8,0:0:0:0:
280,248,33297,1,2,0:0:0:0:
190,82,33493,1,2,0:0:0:0:
325,173,33689,1,2,0:0:0:0:
187,342,33886,2,0,L|187:252,1,90,8|0,0:0|0:0,0:0:0:0:
17,199,34278,38,0,L|100:232,1,90,4|0,1:0|0:0,0:0:0:0:
190,82,34670,2,0,L|106:115,1,90,8|0,0:0|0:0,0:0:0:0:
60,309,35062,1,2,0:0:0:0:
189,235,35258,1,2,0:0:0:0:
189,235,35356,1,2,0:0:0:0:
189,235,35454,1,8,0:0:0:0:
299,342,35650,1,2,0:0:0:0:
337,193,35846,5,2,0:0:0:0:
275,258,36042,1,2,0:0:0:0:
312,100,36238,1,8,0:0:0:0:
429,212,36435,1,2,0:0:0:0:
230,162,36631,1,2,0:0:0:0:
371,298,36827,1,2,0:0:0:0:
415,108,37023,1,8,0:0:0:0:
255,279,37219,1,2,0:0:0:0:
255,279,37317,1,2,0:0:0:0:
255,279,37415,6,0,L|271:367,1,90,4|0,1:0|0:0,0:0:0:0:
126,246,37807,2,0,L|110:334,1,90,8|0,0:0|0:0,0:0:0:0:
134,69,38199,1,2,0:0:0:0:
205,193,38395,1,2,0:0:0:0:
51,189,38591,1,8,0:0:0:0:
261,50,38787,1,2,0:0:0:0:
356,170,38984,37,2,0:0:0:0:
275,136,39180,1,2,0:0:0:0:
366,258,39376,1,8,0:0:0:0:
428,118,39572,1,2,0:0:0:0:
273,233,39768,1,2,0:0:0:0:
439,319,39964,1,2,0:0:0:0:
361,56,40160,6,0,P|340:95|339:139,1,90,8|0,0:0|0:0,0:0:0:0:
439,319,40552,2,0,P|459:280|461:235,1,90,2|0,0:0|0:0,0:0:0:0:
273,233,40944,2,0,L|183:220,1,90,8|0,0:0|0:0,0:0:0:0:
261,330,41337,1,2,0:0:0:0:
364,261,41533,1,2,0:0:0:0:
367,239,41631,1,2,0:0:0:0:
368,216,41729,1,8,0:0:0:0:
450,323,41925,1,2,0:0:0:0:
503,199,42121,5,2,0:0:0:0:
442,248,42317,1,2,0:0:0:0:
344,68,42513,1,8,0:0:0:0:
417,97,42709,1,2,0:0:0:0:
264,234,42905,1,2,0:0:0:0:
258,156,43101,1,2,0:0:0:0:
334,191,43297,1,8,0:0:0:0:
173,318,43493,1,2,0:0:0:0:
144,115,43689,37,4,1:0:0:0:
109,279,45258,5,2,0:0:0:0:
143,251,45356,1,2,0:0:0:0:
186,243,45454,1,2,0:0:0:0:
228,259,45552,1,2,0:0:0:0:
256,294,45650,2,0,L|270:251,1,45,2|2,0:0|0:0,0:0:0:0:
337,195,45846,2,0,L|350:237,1,45,2|2,0:0|0:0,0:0:0:0:
391,333,46042,5,4,0:0:0:0:
452,178,46337,53,4,0:0:0:0:
254,178,46631,5,2,0:0:0:0:
254,178,46729,1,2,0:0:0:0:
254,178,46827,38,0,L|165:194,1,90,4|0,0:0|0:0,0:0:0:0:
70,342,47219,2,0,L|90:254,1,90,8|0,0:0|0:0,0:0:0:0:
12,110,47611,1,2,0:0:0:0:
56,122,47709,1,2,0:0:0:0:
100,119,47807,1,2,0:0:0:0:
141,101,47905,1,2,0:0:0:0:
174,70,48003,2,0,L|181:159,1,90,8|2,0:0|0:0,0:0:0:0:
310,189,48395,6,0,L|306:144,1,45,2|0,0:0|0:0,0:0:0:0:
245,236,48591,2,0,L|248:280,1,45,2|0,0:0|0:0,0:0:0:0:
400,224,48787,2,0,L|397:180,1,45,8|0,0:0|0:0,0:0:0:0:
333,268,48984,2,0,L|337:313,1,45,2|0,0:0|0:0,0:0:0:0:
487,250,49180,1,2,0:0:0:0:
492,102,49376,1,2,0:0:0:0:
484,85,49474,1,2,0:0:0:0:
473,70,49572,2,0,P|431:53|386:51,1,90,8|0,0:0|0:0,0:0:0:0:
141,147,49964,5,4,0:0:0:0:
179,293,50160,1,2,0:0:0:0:
85,239,50356,1,8,0:0:0:0:
231,201,50552,1,2,0:0:0:0:
89,331,50748,1,2,0:0:0:0:
36,145,50944,1,2,0:0:0:0:
36,145,51042,1,2,0:0:0:0:
36,145,51140,1,10,0:0:0:0:
157,45,51336,1,2,0:0:0:0:
284,171,51533,37,2,0:0:0:0:
312,51,51729,1,2,0:0:0:0:
353,247,51925,1,8,0:0:0:0:
381,127,52121,1,2,0:0:0:0:
187,145,52317,1,10,0:0:0:0:
423,200,52513,1,10,0:0:0:0:
243,363,52709,2,0,L|332:347,1,90,10|2,0:0|0:0,0:0:0:0:
164,265,53101,6,0,L|220:256,1,45,4|0,0:0|0:0,0:0:0:0:
117,146,53297,1,2,0:0:0:0:
117,146,53395,1,2,0:0:0:0:
117,146,53493,2,0,L|206:130,1,90,8|0,0:0|0:0,0:0:0:0:
47,68,53886,1,2,0:0:0:0:
24,106,53984,1,2,0:0:0:0:
23,151,54082,1,2,0:0:0:0:
31,195,54180,1,2,0:0:0:0:
67,221,54278,1,8,0:0:0:0:
208,257,54474,1,2,0:0:0:0:
339,174,54670,6,0,L|346:218,1,45,2|0,0:0|0:0,0:0:0:0:
402,359,54866,2,0,L|396:314,1,45,2|0,0:0|0:0,0:0:0:0:
463,232,55062,2,0,L|407:240,1,45,8|0,0:0|0:0,0:0:0:0:
281,296,55258,2,0,L|325:289,1,45,2|0,0:0|0:0,0:0:0:0:
463,232,55454,1,2,0:0:0:0:
462,187,55552,1,2,0:0:0:0:
445,146,55650,1,2,0:0:0:0:
412,117,55748,1,2,0:0:0:0:
369,102,55846,2,0,L|263:103,1,90,8|0,0:0|0:0,0:0:0:0:
164,265,56238,37,4,0:0:0:0:
39,191,56435,1,2,0:0:0:0:
245,144,56631,1,8,0:0:0:0:
187,348,56827,1,2,0:0:0:0:
78,268,57023,1,2,0:0:0:0:
243,230,57219,1,2,0:0:0:0:
284,247,57317,1,2,0:0:0:0:
327,244,57415,1,8,0:0:0:0:
369,239,57513,1,2,0:0:0:0:
411,257,57611,1,2,0:0:0:0:
501,124,57807,5,2,0:0:0:0:
459,106,57905,1,2,0:0:0:0:
416,109,58003,1,2,0:0:0:0:
374,114,58101,1,2,0:0:0:0:
332,96,58199,2,0,L|315:137,1,45,2|2,0:0|0:0,0:0:0:0:
284,247,58395,1,2,0:0:0:0:
284,247,58493,2,0,L|266:205,1,45,2|0,0:0|0:0,0:0:0:0:
228,93,58689,1,4,0:0:0:0:
123,192,58984,5,4,0:0:0:0:
68,60,59180,1,2,0:0:0:0:
56,40,59278,1,2,0:0:0:0:
40,23,59376,38,0,L|27:112,1,90,4|0,0:0|0:0,0:0:0:0:
50,349,59768,2,0,L|37:260,1,90,8|0,0:0|0:0,0:0:0:0:
139,109,60160,1,2,0:0:0:0:
184,314,60356,1,2,0:0:0:0:
184,314,60454,1,2,0:0:0:0:
184,314,60552,1,8,0:0:0:0:
159,204,60748,1,2,0:0:0:0:
342,160,60944,6,0,L|342:205,1,45,2|0,0:0|0:0,0:0:0:0:
288,341,61140,2,0,L|282:296,1,45,2|0,0:0|0:0,0:0:0:0:
342,160,61336,2,0,L|342:205,1,45,8|0,0:0|0:0,0:0:0:0:
396,341,61532,2,0,L|401:296,1,45,2|0,0:0|0:0,0:0:0:0:
445,169,61729,1,2,0:0:0:0:
440,125,61827,1,2,0:0:0:0:
417,87,61925,1,2,0:0:0:0:
379,62,62023,1,2,0:0:0:0:
335,56,62121,2,0,B|292:68|292:68|248:64,1,90,8|0,0:0|0:0,0:0:0:0:
97,29,62513,5,6,0:0:0:0:
141,178,62709,1,0,0:0:0:0:
162,91,62905,1,8,0:0:0:0:
49,201,63101,1,2,0:0:0:0:
192,257,63297,1,2,0:0:0:0:
230,233,63395,1,2,0:0:0:0:
274,234,63493,1,2,0:0:0:0:
310,260,63591,1,2,0:0:0:0:
325,301,63689,2,0,L|351:215,1,90,8|0,0:0|0:0,0:0:0:0:
394,53,64082,37,2,0:0:0:0:
452,197,64278,1,2,0:0:0:0:
313,121,64474,1,8,0:0:0:0:
497,86,64670,1,2,0:0:0:0:
407,308,64866,1,10,0:0:0:0:
230,233,65062,1,10,0:0:0:0:
425,125,65258,1,10,0:0:0:0:
194,144,65454,1,2,0:0:0:0:
177,136,65552,1,2,0:0:0:0:
160,129,65650,6,0,L|117:114,1,45,4|2,0:0|0:0,0:0:0:0:
40,183,65846,1,2,0:0:0:0:
57,190,65944,1,2,0:0:0:0:
74,198,66042,2,0,L|75:307,1,90,8|0,0:0|0:0,0:0:0:0:
164,349,66435,1,2,0:0:0:0:
316,348,66631,1,2,0:0:0:0:
316,348,66729,1,2,0:0:0:0:
316,348,66827,2,0,L|325:258,1,90,8|2,0:0|0:0,0:0:0:0:
371,78,67219,6,0,L|372:123,1,45,2|0,0:0|0:0,0:0:0:0:
434,299,67415,2,0,L|405:240,1,45,2|0,0:0|0:0,0:0:0:0:
252,164,67611,2,0,L|319:180,1,45,8|0,0:0|0:0,0:0:0:0:
497,177,67807,2,0,L|440:179,1,45,2|0,0:0|0:0,0:0:0:0:
374,197,68003,1,2,0:0:0:0:
235,248,68199,1,2,0:0:0:0:
194,227,68297,1,2,0:0:0:0:
168,190,68395,2,0,L|161:100,1,90,8|0,0:0|0:0,0:0:0:0:
0,109,68787,37,2,0:0:0:0:
76,248,68984,1,2,0:0:0:0:
0,196,69180,1,8,0:0:0:0:
74,335,69377,1,2,0:0:0:0:
158,205,69572,1,2,0:0:0:0:
229,342,69768,1,2,0:0:0:0:
229,342,69866,1,2,0:0:0:0:
229,342,69964,1,8,0:0:0:0:
157,290,70160,1,2,0:0:0:0:
328,354,70356,5,4,0:0:0:0:
363,325,70454,1,2,0:0:0:0:
382,285,70552,1,2,0:0:0:0:
378,241,70650,1,2,0:0:0:0:
354,204,70748,2,0,L|349:158,1,45,2|2,0:0|0:0,0:0:0:0:
272,85,70944,1,2,0:0:0:0:
272,85,71042,2,0,L|277:129,1,45,2|0,0:0|0:0,0:0:0:0:
296,271,71238,5,4,0:0:0:0:
367,87,71533,1,4,0:0:0:0:
182,153,71729,1,2,0:0:0:0:
182,153,71827,1,2,0:0:0:0:
182,153,71925,38,0,L|181:63,1,90,6|2,0:0|0:0,0:0:0:0:
103,181,72317,2,0,P|126:218|166:237,1,90,8|2,0:0|0:0,0:0:0:0:
326,207,72709,1,2,0:0:0:0:
270,351,72905,1,2,0:0:0:0:
311,119,73101,1,8,0:0:0:0:
255,263,73297,1,2,0:0:0:0:
409,240,73493,6,0,L|498:228,1,90,2|2,0:0|0:0,0:0:0:0:
435,52,73886,2,0,P|414:92|408:137,1,90,8|2,0:0|0:0,0:0:0:0:
401,332,74278,1,2,0:0:0:0:
342,181,74474,1,2,0:0:0:0:
409,240,74670,1,8,0:0:0:0:
498,228,74866,1,2,0:0:0:0:
311,97,75062,6,0,P|274:121|254:160,1,90,4|2,0:0|0:0,0:0:0:0:
276,336,75454,2,0,P|314:312|334:273,1,90,8|2,0:0|0:0,0:0:0:0:
408,136,75846,2,0,L|497:124,1,90,2|2,0:0|0:0,0:0:0:0:
255,161,76238,2,0,L|165:149,1,90,8|2,0:0|0:0,0:0:0:0:
114,313,76631,38,0,P|144:280|160:238,1,90,2|2,0:0|0:0,0:0:0:0:
108,64,77023,2,0,P|77:96|61:138,1,90,8|2,0:0|0:0,0:0:0:0:
59,229,77415,1,2,0:0:0:0:
211,319,77611,1,2,0:0:0:0:
211,319,77709,1,2,0:0:0:0:
211,319,77807,2,0,L|255:310,1,45,8|2,0:0|0:0,0:0:0:0:
345,252,78003,2,0,L|300:243,1,45,2|2,0:0|0:0,0:0:0:0:
369,331,78199,6,0,P|407:309|425:269,1,90,4|2,0:0|0:0,0:0:0:0:
388,87,78591,2,0,L|390:176,1,90,8|2,0:0|0:0,0:0:0:0:
295,124,78984,1,2,0:0:0:0:
487,124,79180,1,2,0:0:0:0:
272,50,79376,1,8,0:0:0:0:
464,50,79572,1,2,0:0:0:0:
243,182,79768,6,0,P|200:173|164:147,1,90,8|2,0:0|0:0,0:0:0:0:
81,37,80160,1,8,0:0:0:0:
29,170,80356,1,2,0:0:0:0:
163,68,80552,1,2,0:0:0:0:
14,88,80748,1,2,0:0:0:0:
107,209,80944,1,8,0:0:0:0:
96,119,81140,1,2,0:0:0:0:
256,267,81337,38,0,P|297:249|323:213,1,90,4|2,0:0|0:0,0:0:0:0:
178,238,81729,2,0,P|175:282|193:323,1,90,8|2,0:0|0:0,0:0:0:0:
416,243,82121,2,0,P|418:198|400:157,1,90,2|2,0:0|0:0,0:0:0:0:
226,93,82513,2,0,L|244:182,1,90,8|2,0:0|0:0,0:0:0:0:
294,333,82905,5,2,0:0:0:0:
323,213,83101,1,2,0:0:0:0:
486,313,83297,1,8,0:0:0:0:
365,288,83493,1,8,0:0:0:0:
454,118,83787,5,8,0:0:0:0:
454,118,83886,1,8,0:0:0:0:
451,225,84082,1,8,0:0:0:0:
238,67,84278,2,0,L|236:89,3,22.5,8|0|10|0,0:0|0:0|0:0|0:0,0:0:0:0:
234,130,84474,38,0,L|229:219,1,90,8|2,0:0|0:0,0:0:0:0:
72,255,84866,2,0,L|160:271,1,90,8|2,0:0|0:0,0:0:0:0:
305,270,85258,1,2,0:0:0:0:
191,350,85454,1,2,0:0:0:0:
283,352,85650,1,8,0:0:0:0:
155,194,85846,1,2,0:0:0:0:
380,168,86042,5,8,0:0:0:0:
418,351,86238,2,0,L|417:261,1,90,2|8,0:0|0:0,0:0:0:0:
506,230,86631,1,2,0:0:0:0:
332,286,86827,1,2,0:0:0:0:
380,78,87023,2,0,L|380:168,1,90,2|8,0:0|0:0,0:0:0:0:
500,333,87415,1,0,0:0:0:0:
298,206,87611,6,0,L|208:212,1,90,4|2,0:0|0:0,0:0:0:0:
55,160,88003,1,8,0:0:0:0:
90,318,88199,2,0,L|117:232,1,90,2|2,0:0|0:0,0:0:0:0:
113,54,88591,2,0,L|141:140,1,90,2|8,0:0|0:0,0:0:0:0:
188,305,88984,1,2,0:0:0:0:
298,206,89180,37,2,0:0:0:0:
332,363,89376,2,0,L|275:295,1,90,2|8,0:0|0:0,0:0:0:0:
204,199,89768,1,0,0:0:0:0:
304,72,89964,1,2,0:0:0:0:
304,72,90062,1,2,0:0:0:0:
304,72,90160,1,2,0:0:0:0:
331,106,90258,1,2,0:0:0:0:
337,150,90356,2,0,L|328:195,1,45,8|2,0:0|0:0,0:0:0:0:
388,280,90552,2,0,L|396:235,1,45,2|2,0:0|0:0,0:0:0:0:
421,137,90748,5,2,0:0:0:0:
253,134,90944,1,2,0:0:0:0:
278,265,91140,1,8,0:0:0:0:
331,106,91337,1,2,0:0:0:0:
175,244,91533,1,2,0:0:0:0:
99,100,91729,1,2,0:0:0:0:
174,152,91925,1,8,0:0:0:0:
98,192,92121,1,2,0:0:0:0:
175,60,92317,6,0,L|266:35,1,90,2|2,0:0|0:0,0:0:0:0:
406,55,92709,1,8,0:0:0:0:
402,206,92905,1,2,0:0:0:0:
286,131,93101,1,2,0:0:0:0:
286,131,93199,1,2,0:0:0:0:
286,131,93297,2,0,L|241:136,1,45,2|2,0:0|0:0,0:0:0:0:
159,210,93493,2,0,L|203:215,1,45,8|2,0:0|0:0,0:0:0:0:
262,297,93689,2,0,L|217:302,1,45,2|2,0:0|0:0,0:0:0:0:
297,218,93886,38,0,P|343:266|340:332,1,135,4|2,0:0|0:0,0:0:0:0:
329,354,94278,1,8,0:0:0:0:
421,251,94474,2,0,L|508:229,1,90,2|2,0:0|0:0,0:0:0:0:
351,76,94866,2,0,L|438:97,1,90,2|8,0:0|0:0,0:0:0:0:
328,189,95258,2,0,L|239:203,1,90,2|2,0:0|0:0,0:0:0:0:
203,209,95552,5,2,0:0:0:0:
203,209,95650,1,2,0:0:0:0:
55,235,95846,1,8,0:0:0:0:
150,338,96042,1,8,0:0:0:0:
150,338,96140,1,8,0:0:0:0:
114,159,96435,5,8,0:0:0:0:
133,249,96631,1,8,0:0:0:0:
179,89,96827,2,0,L|215:72,3,22.5,8|0|10|0,0:0|0:0|0:0|0:0,0:0:0:0:
239,74,97023,38,0,L|240:163,1,90,4|2,0:0|0:0,0:0:0:0:
504,163,97415,2,0,L|416:147,1,90,8|2,0:0|0:0,0:0:0:0:
277,135,97807,2,0,L|275:224,1,90,8|2,0:0|0:0,0:0:0:0:
447,114,98199,2,0,L|359:98,1,90,8|2,0:0|0:0,0:0:0:0:
223,293,98591,6,0,P|258:265|275:224,1,90,8|2,0:0|0:0,0:0:0:0:
187,134,98984,2,0,L|276:134,1,90,8|2,0:0|0:0,0:0:0:0:
104,218,99376,2,0,L|194:218,1,90,8|2,0:0|0:0,0:0:0:0:
147,50,99768,2,0,P|111:77|95:118,1,90,8|2,0:0|0:0,0:0:0:0:
133,291,100160,6,0,L|223:292,1,90,8|2,0:0|0:0,0:0:0:0:
395,188,100552,2,0,L|305:188,1,90,8|2,0:0|0:0,0:0:0:0:
437,263,100944,2,0,P|467:231|479:187,1,90,8|2,0:0|0:0,0:0:0:0:
268,117,101337,2,0,P|237:148|225:192,1,90,8|2,0:0|0:0,0:0:0:0:
353,102,101729,38,0,P|334:61|298:35,1,90,8|2,0:0|0:0,0:0:0:0:
91,89,102121,2,0,L|180:100,1,90,8|2,0:0|0:0,0:0:0:0:
305,188,102513,2,0,L|310:277,1,90,8|2,0:0|0:0,0:0:0:0:
151,309,102905,2,0,L|156:219,1,90,8|2,0:0|0:0,0:0:0:0:
243,314,103297,6,0,P|319:355|386:303,1,180,4|8,0:0|0:0,0:0:0:0:
413,195,103886,1,2,0:0:0:0:
305,188,104082,2,0,L|216:171,1,90,8|2,0:0|0:0,0:0:0:0:
70,145,104474,1,8,0:0:0:0:
121,266,104670,1,2,0:0:0:0:
165,51,104866,5,8,0:0:0:0:
216,171,105062,1,2,0:0:0:0:
45,225,105258,1,8,0:0:0:0:
81,55,105454,1,2,0:0:0:0:
208,258,105650,2,0,P|286:223|296:138,1,180,8|8,0:0|0:0,0:0:0:0:
219,38,106238,1,2,0:0:0:0:
216,171,106435,37,8,0:0:0:0:
376,111,106631,1,2,0:0:0:0:
352,264,106827,1,8,0:0:0:0:
327,43,107023,1,2,0:0:0:0:
462,216,107219,1,8,0:0:0:0:
242,236,107415,1,2,0:0:0:0:
352,188,107611,1,8,0:0:0:0:
261,126,107807,1,2,0:0:0:0:
333,298,108003,5,8,0:0:0:0:
449,140,108199,1,2,0:0:0:0:
352,188,108395,1,8,0:0:0:0:
503,240,108591,1,2,0:0:0:0:
483,49,108787,1,10,0:0:0:0:
483,49,108886,1,2,0:0:0:0:
483,49,108984,1,2,0:0:0:0:
449,140,109180,1,8,0:0:0:0:
312,80,109376,1,8,0:0:0:0:
333,298,109572,5,4,0:0:0:0:
256,192,109670,12,0,110846,0:0:0:0:
176,84,111140,38,0,L|183:173,1,90,4|2,0:0|0:0,0:0:0:0:
196,327,111533,1,8,0:0:0:0:
312,253,111729,1,2,0:0:0:0:
130,248,111925,2,0,L|19:226,1,90,2|2,0:0|0:0,0:0:0:0:
74,101,112317,1,8,0:0:0:0:
97,340,112513,1,2,0:0:0:0:
232,246,112709,5,2,0:0:0:0:
240,64,112905,1,2,0:0:0:0:
151,172,113101,1,8,0:0:0:0:
331,327,113297,1,2,0:0:0:0:
382,179,113493,1,2,0:0:0:0:
295,231,113689,1,2,0:0:0:0:
376,79,113886,1,8,0:0:0:0:
474,224,114082,1,2,0:0:0:0:
235,156,114278,5,2,0:0:0:0:
180,358,114474,1,2,0:0:0:0:
246,273,114670,1,8,0:0:0:0:
124,115,114866,1,2,0:0:0:0:
135,232,115062,1,2,0:0:0:0:
224,39,115258,1,2,0:0:0:0:
224,39,115356,1,2,0:0:0:0:
224,39,115454,1,8,0:0:0:0:
13,59,115650,1,2,0:0:0:0:
188,169,115846,37,2,0:0:0:0:
112,319,116042,1,2,0:0:0:0:
19,181,116238,1,8,0:0:0:0:
203,265,116435,1,2,0:0:0:0:
111,108,116631,1,2,0:0:0:0:
108,135,116729,1,2,0:0:0:0:
103,162,116827,2,0,L|96:206,1,45,2|2,0:0|0:0,0:0:0:0:
203,265,117023,1,8,0:0:0:0:
208,238,117121,1,2,0:0:0:0:
211,211,117219,2,0,L|218:166,1,45,2|2,0:0|0:0,0:0:0:0:
239,48,117415,6,0,P|281:60|325:52,1,90,4|2,0:0|0:0,0:0:0:0:
438,22,117807,1,8,0:0:0:0:
460,212,118003,1,0,0:0:0:0:
370,137,118199,2,0,L|457:117,1,90,2|2,0:0|0:0,0:0:0:0:
484,112,118493,1,2,0:0:0:0:
484,112,118591,1,8,0:0:0:0:
432,296,118787,1,2,0:0:0:0:
273,175,118984,5,2,0:0:0:0:
354,237,119180,1,2,0:0:0:0:
370,137,119376,1,8,0:0:0:0:
221,101,119572,2,0,L|207:13,1,90,2|2,0:0|0:0,0:0:0:0:
370,137,119964,1,2,0:0:0:0:
270,265,120160,1,8,0:0:0:0:
126,240,120356,1,2,0:0:0:0:
315,340,120552,37,2,0:0:0:0:
370,137,120748,1,2,0:0:0:0:
215,194,120944,1,8,0:0:0:0:
408,210,121140,1,2,0:0:0:0:
218,337,121336,1,2,0:0:0:0:
311,195,121533,1,2,0:0:0:0:
311,195,121631,1,2,0:0:0:0:
311,195,121729,1,8,0:0:0:0:
153,266,121925,1,2,0:0:0:0:
313,285,122121,5,2,0:0:0:0:
226,115,122317,1,2,0:0:0:0:
312,323,122513,1,8,0:0:0:0:
428,128,122709,1,2,0:0:0:0:
311,195,122905,5,2,0:0:0:0:
311,195,123003,2,0,L|306:150,1,45,2|2,0:0|0:0,0:0:0:0:
226,115,123199,2,0,L|221:159,1,45,2|2,0:0|0:0,0:0:0:0:
210,239,123395,1,2,0:0:0:0:
165,236,123493,1,2,0:0:0:0:
136,201,123591,1,2,0:0:0:0:
111,163,123689,38,0,L|99:252,1,90,4|2,0:0|0:0,0:0:0:0:
222,329,124082,2,0,L|210:239,1,90,8|2,0:0|0:0,0:0:0:0:
273,94,124474,2,0,L|362:82,1,90,2|2,0:0|0:0,0:0:0:0:
389,79,124768,1,2,0:0:0:0:
389,79,124866,1,8,0:0:0:0:
476,193,125062,1,2,0:0:0:0:
496,16,125258,5,2,0:0:0:0:
382,169,125454,1,2,0:0:0:0:
475,113,125650,1,8,0:0:0:0:
385,347,125846,2,0,L|381:257,1,90,2|2,0:0|0:0,0:0:0:0:
309,41,126238,1,2,0:0:0:0:
200,205,126435,1,8,0:0:0:0:
301,153,126631,1,2,0:0:0:0:
78,35,126827,5,4,0:0:0:0:
116,170,127024,1,2,0:0:0:0:
213,67,127220,1,8,0:0:0:0:
8,131,127415,1,2,0:0:0:0:
98,278,127611,1,2,0:0:0:0:
138,95,127807,1,2,0:0:0:0:
138,95,127905,1,2,0:0:0:0:
138,95,128003,1,8,0:0:0:0:
15,231,128199,1,2,0:0:0:0:
236,243,128395,37,2,0:0:0:0:
210,346,128591,1,2,0:0:0:0:
138,271,128787,1,8,0:0:0:0:
252,130,128984,1,2,0:0:0:0:
448,224,129180,1,2,0:0:0:0:
413,233,129278,1,2,0:0:0:0:
378,243,129376,2,0,L|334:252,1,45,2|2,0:0|0:0,0:0:0:0:
375,142,129572,1,8,0:0:0:0:
410,133,129670,1,2,0:0:0:0:
445,123,129768,2,0,L|488:113,1,45,2|2,0:0|0:0,0:0:0:0:
369,327,129964,6,0,P|326:334|286:315,1,90,4|2,0:0|0:0,0:0:0:0:
252,130,130356,2,0,L|265:218,1,90,8|2,0:0|0:0,0:0:0:0:
172,102,130748,2,0,P|196:64|236:45,1,90,2|2,0:0|0:0,0:0:0:0:
272,42,131042,1,2,0:0:0:0:
272,42,131140,1,8,0:0:0:0:
179,206,131337,1,2,0:0:0:0:
80,48,131533,5,2,0:0:0:0:
272,42,131729,1,2,0:0:0:0:
172,102,131925,1,8,0:0:0:0:
185,295,132121,2,0,L|179:206,1,90,2|2,0:0|0:0,0:0:0:0:
394,210,132513,1,2,0:0:0:0:
288,354,132709,1,8,0:0:0:0:
179,206,132905,1,2,0:0:0:0:
394,210,133101,37,4,0:0:0:0:
283,250,133297,1,2,0:0:0:0:
247,59,133493,1,8,0:0:0:0:
358,99,133689,1,2,0:0:0:0:
181,176,133886,1,2,0:0:0:0:
181,176,133984,1,2,0:0:0:0:
181,176,134082,2,0,L|92:159,1,90,2|8,0:0|0:0,0:0:0:0:
322,175,134474,1,2,0:0:0:0:
170,342,134670,5,2,0:0:0:0:
31,250,134866,1,2,0:0:0:0:
181,176,135062,1,2,0:0:0:0:
54,370,135258,1,2,0:0:0:0:
241,234,135454,6,0,P|332:254|397:320,1,188.999994232178,2|0,0:0|0:0,0:0:0:0:
481,228,136238,37,2,0:0:0:0:
471,197,136336,1,2,0:0:0:0:
468,166,136434,1,2,0:0:0:0:
470,135,136532,1,2,0:0:0:0:
478,104,136631,2,0,L|435:90,1,45,2|2,0:0|0:0,0:0:0:0:
324,158,136827,2,0,L|366:143,1,45,2|2,0:0|0:0,0:0:0:0:
372,55,137023,5,4,0:0:0:0:
359,238,137317,1,4,0:0:0:0:
213,129,137611,1,2,0:0:0:0:
213,129,137709,1,2,0:0:0:0:
213,129,137807,6,0,L|205:245,1,90,4|0,0:0|0:0,0:0:0:0:
70,342,138199,2,0,L|90:254,1,90,8|0,0:0|0:0,0:0:0:0:
36,48,138591,1,2,0:0:0:0:
119,182,138787,1,2,0:0:0:0:
119,182,138885,1,2,0:0:0:0:
119,182,138983,1,8,0:0:0:0:
288,116,139179,1,2,0:0:0:0:
260,294,139376,38,0,L|320:280,1,45,2|0,0:0|0:0,0:0:0:0:
240,196,139572,2,0,L|184:208,1,45,2|0,0:0|0:0,0:0:0:0:
348,200,139768,2,0,L|404:216,1,45,8|0,0:0|0:0,0:0:0:0:
466,134,139964,2,0,L|423:119,1,45,2|0,0:0|0:0,0:0:0:0:
243,16,140160,1,2,0:0:0:0:
207,41,140258,1,2,0:0:0:0:
184,80,140356,1,2,0:0:0:0:
180,124,140454,1,2,0:0:0:0:
194,167,140552,2,0,L|106:148,1,90,8|0,0:0|0:0,0:0:0:0:
288,116,140944,5,4,0:0:0:0:
272,288,141140,1,2,0:0:0:0:
428,216,141336,1,8,0:0:0:0:
328,208,141532,1,2,0:0:0:0:
328,365,141728,1,2,0:0:0:0:
148,280,141924,1,2,0:0:0:0:
148,280,142022,1,2,0:0:0:0:
148,280,142120,1,10,0:0:0:0:
116,104,142316,1,2,0:0:0:0:
164,368,142513,5,2,0:0:0:0:
48,244,142709,1,2,0:0:0:0:
212,204,142905,1,8,0:0:0:0:
148,280,143101,1,2,0:0:0:0:
264,140,143297,1,10,0:0:0:0:
96,116,143493,1,10,0:0:0:0:
235,300,143689,1,10,0:0:0:0:
320,228,144081,37,4,0:0:0:0:
486,130,144277,1,2,0:0:0:0:
486,130,144375,1,2,0:0:0:0:
486,130,144473,2,0,L|510:216,1,90,8|0,0:0|0:0,0:0:0:0:
368,40,144866,1,2,0:0:0:0:
256,136,145062,1,2,0:0:0:0:
256,136,145160,1,2,0:0:0:0:
256,136,145258,1,8,0:0:0:0:
104,40,145454,1,2,0:0:0:0:
104,220,145650,6,0,L|104:265,1,45,2|0,0:0|0:0,0:0:0:0:
188,344,145846,2,0,L|187:299,1,45,2|0,0:0|0:0,0:0:0:0:
28,128,146042,2,0,L|28:173,1,45,8|0,0:0|0:0,0:0:0:0:
28,344,146238,2,0,L|28:299,1,45,2|0,0:0|0:0,0:0:0:0:
188,172,146435,2,0,L|188:217,1,45,2|0,0:0|0:0,0:0:0:0:
354,316,146630,1,2,0:0:0:0:
354,316,146728,1,2,0:0:0:0:
354,316,146826,2,0,L|356:226,1,90,8|0,0:0|0:0,0:0:0:0:
505,65,147219,5,4,0:0:0:0:
430,148,147415,1,2,0:0:0:0:
287,19,147611,1,8,0:0:0:0:
321,125,147807,1,2,0:0:0:0:
396,42,148003,1,2,0:0:0:0:
212,102,148199,1,2,0:0:0:0:
192,142,148297,1,2,0:0:0:0:
211,182,148395,1,8,0:0:0:0:
195,224,148493,1,2,0:0:0:0:
217,262,148591,1,2,0:0:0:0:
109,333,148787,37,2,0:0:0:0:
87,293,148885,1,2,0:0:0:0:
100,250,148983,1,2,0:0:0:0:
78,210,149081,1,2,0:0:0:0:
98,170,149179,2,0,L|115:129,1,45,2|2,0:0|0:0,0:0:0:0:
55,52,149376,1,2,0:0:0:0:
55,52,149474,2,0,L|37:94,1,45,2|0,0:0|0:0,0:0:0:0:
1,193,149669,1,4,0:0:0:0:
109,333,149964,5,4,0:0:0:0:
184,169,150160,1,2,0:0:0:0:
184,169,150258,1,0,0:0:0:0:
184,169,150356,6,0,L|190:258,1,90,4|0,0:0|0:0,0:0:0:0:
283,350,150748,2,0,L|303:262,1,90,8|0,0:0|0:0,0:0:0:0:
331,122,151140,1,2,0:0:0:0:
449,203,151336,1,2,0:0:0:0:
449,203,151434,1,2,0:0:0:0:
449,203,151532,1,8,0:0:0:0:
490,57,151728,1,2,0:0:0:0:
364,206,151925,38,0,L|354:250,1,45,2|0,0:0|0:0,0:0:0:0:
315,90,152121,2,0,L|325:46,1,45,2|0,0:0|0:0,0:0:0:0:
463,126,152317,2,0,L|420:114,1,45,8|0,0:0|0:0,0:0:0:0:
240,168,152513,2,0,L|283:184,1,45,2|0,0:0|0:0,0:0:0:0:
410,338,152709,2,0,L|367:322,1,45,2|0,0:0|0:0,0:0:0:0:
220,256,152905,1,2,0:0:0:0:
220,256,153003,1,2,0:0:0:0:
220,256,153101,2,0,L|229:345,1,90,8|0,0:0|0:0,0:0:0:0:
371,197,153493,5,6,0:0:0:0:
500,308,153689,1,0,0:0:0:0:
339,365,153885,1,8,0:0:0:0:
403,289,154081,1,2,0:0:0:0:
430,111,154277,1,2,0:0:0:0:
263,178,154473,1,2,0:0:0:0:
263,178,154571,1,2,0:0:0:0:
263,178,154669,1,8,0:0:0:0:
439,206,154865,1,0,0:0:0:0:
263,178,155062,5,2,0:0:0:0:
332,46,155258,1,2,0:0:0:0:
321,259,155454,1,8,0:0:0:0:
390,127,155650,1,2,0:0:0:0:
240,256,155846,1,10,0:0:0:0:
202,61,156042,1,10,0:0:0:0:
257,342,156238,1,10,0:0:0:0:
105,320,156631,38,0,L|96:276,1,45,4|2,0:0|0:0,0:0:0:0:
65,145,156827,2,0,L|75:189,1,45,2|2,0:0|0:0,0:0:0:0:
174,220,157022,2,0,L|155:133,1,90,8|0,0:0|0:0,0:0:0:0:
196,292,157415,1,2,0:0:0:0:
242,171,157611,1,2,0:0:0:0:
242,171,157709,1,2,0:0:0:0:
242,171,157807,1,8,0:0:0:0:
369,298,158003,1,2,0:0:0:0:
416,124,158199,6,0,L|405:167,1,45,2|0,0:0|0:0,0:0:0:0:
359,342,158395,2,0,L|369:298,1,45,2|0,0:0|0:0,0:0:0:0:
296,196,158591,2,0,L|337:212,1,45,8|0,0:0|0:0,0:0:0:0:
476,268,158787,2,0,L|434:251,1,45,2|0,0:0|0:0,0:0:0:0:
244,96,158983,1,2,0:0:0:0:
244,96,159180,2,0,L|239:141,1,45,2|2,0:0|0:0,0:0:0:0:
193,241,159375,2,0,P|152:225|122:193,1,90,8|0,0:0|0:0,0:0:0:0:
19,43,159767,5,2,0:0:0:0:
139,61,159964,1,2,0:0:0:0:
2,175,160160,1,8,0:0:0:0:
122,193,160357,1,2,0:0:0:0:
70,117,160552,1,2,0:0:0:0:
101,293,160748,1,2,0:0:0:0:
101,293,160846,1,2,0:0:0:0:
101,293,160944,1,8,0:0:0:0:
257,245,161140,1,2,0:0:0:0:
465,343,161337,37,4,0:0:0:0:
447,301,161435,1,2,0:0:0:0:
407,279,161533,1,2,0:0:0:0:
362,282,161631,1,2,0:0:0:0:
321,301,161728,2,0,L|309:344,1,45,2|2,0:0|0:0,0:0:0:0:
277,233,161925,1,2,0:0:0:0:
277,233,162023,2,0,L|288:189,1,45,2|0,0:0|0:0,0:0:0:0:
312,99,162218,5,4,0:0:0:0:
468,222,162513,1,4,0:0:0:0:
504,27,162905,6,0,L|446:97,1,90,6|2,0:0|0:0,0:0:0:0:
324,207,163297,2,0,L|310:118,1,90,8|2,0:0|0:0,0:0:0:0:
208,62,163689,1,2,0:0:0:0:
390,33,163885,1,2,0:0:0:0:
324,207,164082,1,8,0:0:0:0:
310,118,164277,1,2,0:0:0:0:
399,257,164473,38,0,L|488:245,1,90,2|2,0:0|0:0,0:0:0:0:
339,322,164866,1,8,0:0:0:0:
223,246,165062,1,2,0:0:0:0:
402,178,165258,1,2,0:0:0:0:
245,337,165454,1,2,0:0:0:0:
131,221,165650,1,8,0:0:0:0:
287,180,165846,1,2,0:0:0:0:
106,301,166042,6,0,P|68:276|48:236,1,90,4|2,0:0|0:0,0:0:0:0:
140,89,166435,1,8,0:0:0:0:
287,180,166631,2,0,L|383:177,1,90,2|2,0:0|0:0,0:0:0:0:
226,322,167023,2,0,L|219:232,1,90,2|8,0:0|0:0,0:0:0:0:
140,89,167415,6,0,L|133:179,1,90,2|2,0:0|0:0,0:0:0:0:
312,294,167807,2,0,L|408:291,1,90,2|8,0:0|0:0,0:0:0:0:
412,99,168199,2,0,P|383:133|377:177,1,90,2|2,0:0|0:0,0:0:0:0:
490,217,168591,1,2,0:0:0:0:
490,217,168689,1,2,0:0:0:0:
490,217,168787,2,0,L|497:172,1,45,8|2,0:0|0:0,0:0:0:0:
419,54,168984,2,0,L|412:99,1,45,2|2,0:0|0:0,0:0:0:0:
383,254,169180,38,0,P|338:246|294:254,1,90,4|2,0:0|0:0,0:0:0:0:
236,99,169572,2,0,P|243:143|236:187,1,90,8|2,0:0|0:0,0:0:0:0:
159,330,169964,1,2,0:0:0:0:
73,192,170160,1,2,0:0:0:0:
236,187,170356,1,8,0:0:0:0:
157,237,170552,1,2,0:0:0:0:
167,52,170748,6,0,P|200:23|244:16,1,90,2|2,0:0|0:0,0:0:0:0:
325,137,171140,1,8,0:0:0:0:
413,291,171336,1,2,0:0:0:0:
414,87,171532,1,2,0:0:0:0:
236,187,171728,1,2,0:0:0:0:
365,199,171924,1,8,0:0:0:0:
311,81,172120,1,2,0:0:0:0:
159,218,172317,6,0,P|185:253|225:271,1,90,4|2,0:0|0:0,0:0:0:0:
311,81,172709,1,8,0:0:0:0:
309,303,172905,2,0,P|284:340|244:359,1,90,2|2,0:0|0:0,0:0:0:0:
296,215,173297,2,0,P|340:217|377:243,1,90,2|8,0:0|0:0,0:0:0:0:
440,356,173689,1,2,0:0:0:0:
495,129,173885,37,8,0:0:0:0:
485,280,174081,1,8,0:0:0:0:
453,45,174474,5,2,0:0:0:0:
443,198,174670,1,8,0:0:0:0:
317,113,174866,1,8,0:0:0:0:
405,118,175062,1,8,0:0:0:0:
257,56,175258,2,0,L|241:78,3,22.5,8|0|10|0,0:0|0:0|0:0|0:0,0:0:0:0:
234,90,175454,6,0,L|229:179,1,90,8|2,0:0|0:0,0:0:0:0:
124,278,175846,2,0,L|119:189,1,90,8|2,0:0|0:0,0:0:0:0:
19,147,176238,1,2,0:0:0:0:
199,253,176434,1,2,0:0:0:0:
153,79,176630,1,8,0:0:0:0:
33,246,176826,1,2,0:0:0:0:
55,50,177022,37,2,0:0:0:0:
205,150,177219,1,2,0:0:0:0:
95,157,177415,1,8,0:0:0:0:
260,48,177611,1,2,0:0:0:0:
270,244,177807,1,2,0:0:0:0:
205,150,178003,1,2,0:0:0:0:
387,226,178199,1,8,0:0:0:0:
229,346,178395,1,2,0:0:0:0:
323,131,178591,6,0,L|413:125,1,90,4|2,0:0|0:0,0:0:0:0:
270,244,178984,1,8,0:0:0:0:
144,65,179180,2,0,P|113:98|101:141,1,90,2|2,0:0|0:0,0:0:0:0:
69,348,179571,2,0,L|41:262,1,90,2|8,0:0|0:0,0:0:0:0:
0,126,179964,1,2,0:0:0:0:
205,150,180160,5,2,0:0:0:0:
41,262,180356,2,0,L|129:245,1,90,2|8,0:0|0:0,0:0:0:0:
271,309,180748,1,0,0:0:0:0:
130,169,180944,1,2,0:0:0:0:
321,117,181140,1,2,0:0:0:0:
321,117,181238,1,2,0:0:0:0:
321,117,181337,2,0,L|364:105,1,45,8|2,0:0|0:0,0:0:0:0:
478,162,181533,2,0,L|434:173,1,45,2|2,0:0|0:0,0:0:0:0:
336,198,181729,37,2,0:0:0:0:
244,86,181924,1,2,0:0:0:0:
195,221,182120,1,8,0:0:0:0:
259,167,182317,1,2,0:0:0:0:
180,140,182513,1,2,0:0:0:0:
271,248,182709,1,2,0:0:0:0:
321,117,182905,1,8,0:0:0:0:
123,191,183101,1,2,0:0:0:0:
286,326,183297,5,2,0:0:0:0:
336,198,183493,1,2,0:0:0:0:
195,221,183689,1,8,0:0:0:0:
382,285,183885,1,2,0:0:0:0:
231,143,184081,1,2,0:0:0:0:
231,143,184180,1,0,0:0:0:0:
231,143,184278,2,0,L|174:133,1,45,2|0,0:0|0:0,0:0:0:0:
69,191,184474,2,0,L|113:198,1,45,8|0,0:0|0:0,0:0:0:0:
170,296,184670,2,0,L|113:286,1,45,2|0,0:0|0:0,0:0:0:0:
195,221,184866,6,0,P|243:264|242:330,1,135,4|2,0:0|0:0,0:0:0:0:
231,353,185258,1,8,0:0:0:0:
352,283,185454,2,0,L|439:261,1,90,2|2,0:0|0:0,0:0:0:0:
318,164,185846,2,0,L|231:143,1,90,2|8,0:0|0:0,0:0:0:0:
65,290,186238,2,0,L|154:276,1,90,2|2,0:0|0:0,0:0:0:0:
194,270,186532,37,2,0:0:0:0:
194,270,186630,1,2,0:0:0:0:
41,146,186826,1,8,0:0:0:0:
5,351,187022,1,8,0:0:0:0:
5,351,187120,1,8,0:0:0:0:
71,215,187415,5,8,0:0:0:0:
103,285,187611,1,8,0:0:0:0:
160,118,187807,2,0,L|167:96,3,22.5,8|0|10|0,0:0|0:0|0:0|0:0,0:0:0:0:
176,78,188003,6,0,L|177:167,1,90,4|2,0:0|0:0,0:0:0:0:
248,339,188395,2,0,L|249:250,1,90,8|2,0:0|0:0,0:0:0:0:
55,256,188787,2,0,L|144:257,1,90,8|2,0:0|0:0,0:0:0:0:
371,159,189180,2,0,L|282:160,1,90,8|2,0:0|0:0,0:0:0:0:
407,243,189571,38,0,P|442:215|459:173,1,90,8|2,0:0|0:0,0:0:0:0:
244,79,189964,2,0,P|208:105|192:146,1,90,8|2,0:0|0:0,0:0:0:0:
317,338,190356,2,0,L|317:248,1,90,8|2,0:0|0:0,0:0:0:0:
459,83,190748,2,0,L|459:173,1,90,8|2,0:0|0:0,0:0:0:0:
244,79,191140,6,0,L|334:80,1,90,8|2,0:0|0:0,0:0:0:0:
144,257,191532,2,0,L|54:257,1,90,8|2,0:0|0:0,0:0:0:0:
317,338,191924,2,0,P|347:306|359:262,1,90,8|2,0:0|0:0,0:0:0:0:
244,79,192317,2,0,P|214:111|202:155,1,90,8|2,0:0|0:0,0:0:0:0:
360,231,192709,6,0,P|341:191|306:165,1,90,8|2,0:0|0:0,0:0:0:0:
177,267,193101,2,0,L|266:256,1,90,8|2,0:0|0:0,0:0:0:0:
113,107,193493,2,0,L|108:196,1,90,8|2,0:0|0:0,0:0:0:0:
261,345,193885,2,0,L|266:255,1,90,8|2,0:0|0:0,0:0:0:0:
225,117,194278,37,4,0:0:0:0:
306,165,194474,1,2,0:0:0:0:
306,70,194670,1,8,0:0:0:0:
144,164,194866,1,2,0:0:0:0:
49,55,195062,1,8,0:0:0:0:
191,27,195258,1,2,0:0:0:0:
83,238,195454,1,8,0:0:0:0:
225,117,195650,1,2,0:0:0:0:
122,134,195846,5,8,0:0:0:0:
204,314,196042,1,2,0:0:0:0:
319,153,196238,1,8,0:0:0:0:
214,204,196434,1,2,0:0:0:0:
376,320,196631,2,0,P|453:275|487:193,1,180,8|8,0:0|0:0,0:0:0:0:
456,51,197218,1,2,0:0:0:0:
351,182,197415,5,8,0:0:0:0:
487,194,197611,1,2,0:0:0:0:
377,320,197807,1,8,0:0:0:0:
299,111,198003,1,2,0:0:0:0:
387,104,198199,1,8,0:0:0:0:
351,182,198395,1,2,0:0:0:0:
152,251,198591,1,8,0:0:0:0:
152,120,198787,1,2,0:0:0:0:
265,185,198984,37,8,0:0:0:0:
147,342,199179,1,2,0:0:0:0:
69,159,199375,1,8,0:0:0:0:
260,276,199571,1,2,0:0:0:0:
17,244,199767,1,10,0:0:0:0:
17,244,199866,1,2,0:0:0:0:
17,244,199964,1,2,0:0:0:0:
312,191,200160,1,8,0:0:0:0:
121,74,200356,1,8,0:0:0:0:
179,265,200552,5,4,0:0:0:0:
256,192,200650,12,0,201827,0:0:0:0:
382,71,202121,6,0,L|389:160,1,90,4|2,0:0|0:0,0:0:0:0:
398,328,202514,1,8,0:0:0:0:
500,155,202710,1,2,0:0:0:0:
287,333,202906,2,0,L|198:315,1,90,2|2,0:0|0:0,0:0:0:0:
91,127,203298,1,8,0:0:0:0:
17,311,203494,1,2,0:0:0:0:
128,35,203690,37,2,0:0:0:0:
54,219,203886,1,2,0:0:0:0:
250,192,204082,1,8,0:0:0:0:
145,147,204278,1,2,0:0:0:0:
128,35,204474,1,2,0:0:0:0:
162,259,204670,1,2,0:0:0:0:
376,92,204867,1,8,0:0:0:0:
475,269,205063,1,2,0:0:0:0:
273,266,205259,5,2,0:0:0:0:
374,210,205455,1,2,0:0:0:0:
218,360,205651,1,8,0:0:0:0:
271,151,205846,5,2,0:0:0:0:
376,325,206043,1,2,0:0:0:0:
171,228,206239,1,2,0:0:0:0:
171,228,206336,1,2,0:0:0:0:
171,228,206435,1,8,0:0:0:0:
376,92,206631,1,2,0:0:0:0:
331,235,206827,37,2,0:0:0:0:
218,71,207023,1,2,0:0:0:0:
374,168,207219,1,8,0:0:0:0:
248,287,207416,1,2,0:0:0:0:
59,151,207612,1,2,0:0:0:0:
94,149,207710,1,2,0:0:0:0:
129,149,207808,2,0,L|174:149,1,45,2|2,0:0|0:0,0:0:0:0:
283,289,208003,1,8,0:0:0:0:
248,287,208101,1,2,0:0:0:0:
213,287,208199,2,0,L|168:287,1,45,2|2,0:0|0:0,0:0:0:0:
62,237,208396,6,0,P|49:194|58:150,1,90,4|2,0:0|0:0,0:0:0:0:
196,45,208788,1,8,0:0:0:0:
230,211,208984,1,0,0:0:0:0:
351,91,209180,2,0,L|438:71,1,90,2|2,0:0|0:0,0:0:0:0:
465,66,209474,1,2,0:0:0:0:
465,66,209572,1,8,0:0:0:0:
283,42,209768,1,2,0:0:0:0:
320,216,209965,5,2,0:0:0:0:
157,143,210161,1,2,0:0:0:0:
354,128,210356,1,8,0:0:0:0:
246,310,210552,2,0,L|231:221,1,90,2|2,0:0|0:0,0:0:0:0:
259,133,210944,1,2,0:0:0:0:
136,289,211141,1,8,0:0:0:0:
63,104,211337,1,2,0:0:0:0:
243,246,211533,37,2,0:0:0:0:
153,175,211729,1,2,0:0:0:0:
13,209,211925,1,8,0:0:0:0:
54,71,212121,1,2,0:0:0:0:
120,331,212317,1,2,0:0:0:0:
153,175,212514,1,2,0:0:0:0:
152,148,212612,1,2,0:0:0:0:
151,121,212710,1,8,0:0:0:0:
155,258,212906,1,2,0:0:0:0:
357,217,213102,5,2,0:0:0:0:
240,180,213298,1,2,0:0:0:0:
272,337,213494,1,8,0:0:0:0:
155,258,213689,1,2,0:0:0:0:
399,305,213886,1,2,0:0:0:0:
433,277,213984,1,2,0:0:0:0:
451,237,214082,1,2,0:0:0:0:
450,192,214180,1,2,0:0:0:0:
429,153,214278,2,0,L|385:124,1,45,2|2,0:0|0:0,0:0:0:0:
251,64,214474,1,2,0:0:0:0:
251,64,214572,1,2,0:0:0:0:
251,64,214670,6,0,L|239:153,1,90,4|2,0:0|0:0,0:0:0:0:
54,21,215063,2,0,L|66:111,1,90,8|2,0:0|0:0,0:0:0:0:
35,275,215455,2,0,L|124:263,1,90,2|2,0:0|0:0,0:0:0:0:
155,258,215749,1,2,0:0:0:0:
155,258,215847,1,8,0:0:0:0:
319,239,216043,1,2,0:0:0:0:
164,63,216239,37,2,0:0:0:0:
235,291,216435,1,2,0:0:0:0:
368,104,216631,1,8,0:0:0:0:
171,174,216827,2,0,L|84:148,1,90,2|2,0:0|0:0,0:0:0:0:
264,85,217219,1,2,0:0:0:0:
235,291,217415,1,8,0:0:0:0:
416,206,217611,1,2,0:0:0:0:
160,66,217808,5,4,0:0:0:0:
246,208,218003,1,2,0:0:0:0:
333,147,218199,1,8,0:0:0:0:
337,251,218396,1,2,0:0:0:0:
74,277,218592,1,2,0:0:0:0:
47,78,218788,1,2,0:0:0:0:
47,78,218886,1,2,0:0:0:0:
47,78,218984,1,8,0:0:0:0:
16,216,219180,1,2,0:0:0:0:
139,164,219376,5,2,0:0:0:0:
210,346,219572,1,2,0:0:0:0:
174,256,219768,1,8,0:0:0:0:
52,361,219965,1,2,0:0:0:0:
278,264,220161,1,2,0:0:0:0:
313,255,220259,1,2,0:0:0:0:
348,245,220357,2,0,L|392:236,1,45,2|2,0:0|0:0,0:0:0:0:
279,115,220553,1,8,0:0:0:0:
244,106,220651,1,2,0:0:0:0:
209,96,220749,2,0,L|166:86,1,45,2|2,0:0|0:0,0:0:0:0:
97,242,220945,38,0,P|100:286|127:320,1,90,4|2,0:0|0:0,0:0:0:0:
235,189,221337,2,0,L|174:256,1,90,8|2,0:0|0:0,0:0:0:0:
314,203,221729,2,0,P|310:158|283:124,1,90,2|2,0:0|0:0,0:0:0:0:
252,104,222023,1,2,0:0:0:0:
252,104,222121,1,8,0:0:0:0:
174,256,222318,1,2,0:0:0:0:
79,89,222514,5,2,0:0:0:0:
235,189,222710,1,2,0:0:0:0:
72,273,222905,1,8,0:0:0:0:
183,52,223101,2,0,P|217:25|261:18,1,90,2|2,0:0|0:0,0:0:0:0:
475,147,223493,1,2,0:0:0:0:
361,292,223690,1,8,0:0:0:0:
260,151,223886,1,2,0:0:0:0:
450,71,224082,5,4,0:0:0:0:
367,187,224278,1,2,0:0:0:0:
266,46,224474,1,8,0:0:0:0:
254,256,224670,1,2,0:0:0:0:
78,141,224867,1,2,0:0:0:0:
318,101,225063,1,2,0:0:0:0:
348,95,225161,1,2,0:0:0:0:
378,88,225259,1,8,0:0:0:0:
350,301,225455,1,2,0:0:0:0:
224,166,225651,37,2,0:0:0:0:
170,342,225847,1,2,0:0:0:0:
99,66,226043,1,2,0:0:0:0:
133,200,226239,1,2,0:0:0:0:
249,92,226435,1,2,0:0:0:0:
219,247,227219,5,2,0:0:0:0:
260,229,227317,1,2,0:0:0:0:
305,227,227415,1,2,0:0:0:0:
348,241,227513,1,2,0:0:0:0:
382,269,227611,2,0,L|406:217,1,45,2|2,0:0|0:0,0:0:0:0:
368,95,227807,2,0,L|349:136,1,45,2|2,0:0|0:0,0:0:0:0:
305,227,228003,5,4,0:0:0:0:
474,141,228298,1,4,0:0:0:0:
266,45,228591,1,2,0:0:0:0:
247,64,228690,1,2,0:0:0:0:
227,82,228788,38,0,B|194:86|194:86|166:73|140:66,1,90,4|0,0:0|0:0,0:0:0:0:
218,243,229180,2,0,B|244:236|272:223|272:223|305:227,1,90,8|0,0:0|0:0,0:0:0:0:
153,323,229572,1,2,0:0:0:0:
190,165,229768,1,2,0:0:0:0:
190,165,229866,1,2,0:0:0:0:
190,165,229964,1,8,0:0:0:0:
35,214,230160,1,2,0:0:0:0:
152,44,230356,6,0,L|170:85,1,45,2|0,0:0|0:0,0:0:0:0:
132,234,230552,2,0,L|115:192,1,45,2|0,0:0|0:0,0:0:0:0:
247,109,230748,2,0,L|291:97,1,45,8|0,0:0|0:0,0:0:0:0:
262,234,230944,2,0,L|218:243,1,45,2|0,0:0|0:0,0:0:0:0:
369,305,231140,2,0,L|363:261,1,45,2|0,0:0|0:0,0:0:0:0:
344,119,231337,1,2,0:0:0:0:
370,114,231435,1,2,0:0:0:0:
396,110,231533,2,0,L|485:93,1,90,8|0,0:0|0:0,0:0:0:0:
363,261,231925,5,4,0:0:0:0:
490,214,232121,1,2,0:0:0:0:
407,190,232317,1,8,0:0:0:0:
459,327,232513,1,2,0:0:0:0:
484,93,232709,1,2,0:0:0:0:
293,220,232905,1,2,0:0:0:0:
293,220,233003,1,2,0:0:0:0:
293,220,233101,1,10,0:0:0:0:
142,161,233297,1,2,0:0:0:0:
182,319,233494,37,2,0:0:0:0:
249,115,233690,1,2,0:0:0:0:
293,326,233886,1,8,0:0:0:0:
89,258,234082,1,2,0:0:0:0:
359,132,234278,1,10,0:0:0:0:
156,54,234474,5,10,0:0:0:0:
182,319,234670,1,10,0:0:0:0:
193,160,235062,5,4,0:0:0:0:
386,248,235258,1,2,0:0:0:0:
386,248,235356,1,2,0:0:0:0:
386,248,235454,2,0,L|473:226,1,90,8|0,0:0|0:0,0:0:0:0:
295,204,235847,1,2,0:0:0:0:
264,346,236043,1,2,0:0:0:0:
264,346,236141,1,2,0:0:0:0:
264,346,236238,1,8,0:0:0:0:
105,242,236435,1,2,0:0:0:0:
284,72,236631,38,0,L|277:116,1,45,2|0,0:0|0:0,0:0:0:0:
258,247,236827,2,0,L|264:202,1,45,2|0,0:0|0:0,0:0:0:0:
146,179,237023,2,0,L|189:168,1,45,8|0,0:0|0:0,0:0:0:0:
385,154,237219,2,0,L|341:164,1,45,2|0,0:0|0:0,0:0:0:0:
258,247,237415,1,2,0:0:0:0:
189,168,237611,1,2,0:0:0:0:
168,174,237709,1,2,0:0:0:0:
146,179,237807,2,0,L|151:268,1,90,8|0,0:0|0:0,0:0:0:0:
37,76,238199,5,4,0:0:0:0:
235,108,238396,1,2,0:0:0:0:
67,222,238592,1,8,0:0:0:0:
104,27,238788,1,2,0:0:0:0:
243,230,238984,1,2,0:0:0:0:
280,35,239180,1,2,0:0:0:0:
280,35,239278,1,2,0:0:0:0:
280,35,239376,1,8,0:0:0:0:
161,145,239572,1,2,0:0:0:0:
326,261,239768,5,2,0:0:0:0:
370,268,239866,1,2,0:0:0:0:
414,258,239964,1,2,0:0:0:0:
451,234,240062,1,2,0:0:0:0:
478,198,240160,2,0,L|480:153,1,45,2|2,0:0|0:0,0:0:0:0:
382,9,240356,1,2,0:0:0:0:
382,9,240454,2,0,L|379:53,1,45,2|0,0:0|0:0,0:0:0:0:
371,158,240650,37,4,0:0:0:0:
238,319,240945,1,4,0:0:0:0:
201,100,241140,2,0,L|196:122,3,22.5,8|0|10|0,0:0|0:0|0:0|0:0,0:0:0:0:
189,153,241337,6,0,L|100:169,1,90,4|0,0:0|0:0,0:0:0:0:
325,341,241729,2,0,L|237:318,1,90,8|0,0:0|0:0,0:0:0:0:
15,190,242121,1,2,0:0:0:0:
116,80,242317,1,2,0:0:0:0:
116,80,242415,1,2,0:0:0:0:
116,80,242513,1,8,0:0:0:0:
180,270,242709,1,2,0:0:0:0:
281,111,242905,6,0,L|264:153,1,45,2|0,0:0|0:0,0:0:0:0:
220,359,243101,2,0,L|237:318,1,45,2|0,0:0|0:0,0:0:0:0:
122,182,243297,2,0,L|185:205,1,45,8|0,0:0|0:0,0:0:0:0:
343,293,243493,2,0,L|300:277,1,45,2|0,0:0|0:0,0:0:0:0:
244,224,243689,1,2,0:0:0:0:
122,182,243886,1,2,0:0:0:0:
122,182,243984,1,2,0:0:0:0:
122,183,244082,2,0,L|110:272,1,90,8|0,0:0|0:0,0:0:0:0:
98,38,244474,37,6,0:0:0:0:
1,258,244670,1,0,0:0:0:0:
231,221,244866,1,8,0:0:0:0:
5,132,245062,1,2,0:0:0:0:
131,353,245258,1,2,0:0:0:0:
202,117,245454,1,2,0:0:0:0:
202,117,245552,1,2,0:0:0:0:
202,117,245650,1,8,0:0:0:0:
128,240,245846,1,0,0:0:0:0:
368,209,246043,5,2,0:0:0:0:
123,154,246239,1,2,0:0:0:0:
236,301,246435,1,8,0:0:0:0:
308,76,246631,1,2,0:0:0:0:
231,221,246827,1,10,0:0:0:0:
117,56,247023,1,10,0:0:0:0:
131,353,247219,1,10,0:0:0:0:
231,221,247415,1,2,0:0:0:0:
268,195,247513,1,2,0:0:0:0:
303,167,247611,6,0,L|304:256,1,90,4|2,0:0|0:0,0:0:0:0:
417,202,247905,1,2,0:0:0:0:
417,202,248003,2,0,L|415:112,1,90,8|0,0:0|0:0,0:0:0:0:
384,299,248396,1,2,0:0:0:0:
270,341,248592,1,2,0:0:0:0:
270,341,248690,1,2,0:0:0:0:
270,341,248788,1,8,0:0:0:0:
230,139,248984,1,2,0:0:0:0:
350,215,249180,38,0,L|305:224,1,45,2|0,0:0|0:0,0:0:0:0:
130,253,249376,2,0,L|174:243,1,45,2|0,0:0|0:0,0:0:0:0:
358,136,249572,2,0,L|313:145,1,45,8|0,0:0|0:0,0:0:0:0:
107,176,249768,2,0,L|151:166,1,45,2|0,0:0|0:0,0:0:0:0:
196,21,249964,2,0,L|208:64,1,45,2|0,0:0|0:0,0:0:0:0:
261,220,250160,1,2,0:0:0:0:
261,220,250258,1,2,0:0:0:0:
261,220,250356,2,0,L|268:309,1,90,8|0,0:0|0:0,0:0:0:0:
383,139,250748,5,2,0:0:0:0:
370,252,250945,1,2,0:0:0:0:
512,218,251141,1,8,0:0:0:0:
295,112,251337,1,2,0:0:0:0:
417,325,251533,1,2,0:0:0:0:
467,138,251729,1,2,0:0:0:0:
463,93,251827,1,2,0:0:0:0:
431,61,251925,1,8,0:0:0:0:
391,39,252023,1,2,0:0:0:0:
346,43,252121,2,0,L|319:79,1,45,2|2,0:0|0:0,0:0:0:0:
266,205,252317,5,4,0:0:0:0:
266,249,252415,1,2,0:0:0:0:
225,269,252513,1,2,0:0:0:0:
204,308,252611,1,2,0:0:0:0:
159,313,252709,2,0,L|152:357,1,45,2|2,0:0|0:0,0:0:0:0:
95,258,252905,1,2,0:0:0:0:
95,258,253003,2,0,L|88:213,1,45,2|0,0:0|0:0,0:0:0:0:
75,114,253199,37,4,0:0:0:0:
266,205,253494,5,4,0:0:0:0:
418,65,253886,5,4,0:0:0:0:
483,227,266435,54,0,P|427:198|366:206,1,125.999996154785,2|0,0:0|0:0,0:0:0:0:
298,273,266957,2,0,L|294:314,1,41.9999987182618
207,270,267219,2,0,L|184:184,1,83.9999974365235,2|0,0:0|0:0,0:0:0:0:
107,165,267611,2,0,P|147:118|208:112,2,125.999996154785,2|2|0,0:0|0:0|0:0,0:0:0:0:
94,260,268526,2,0,L|118:294,1,41.9999987182618
167,360,268787,1,2,0:0:0:0:
395,321,269376,5,0,0:0:0:0:
395,321,269474,1,0,0:0:0:0:
395,321,269572,2,0,P|339:293|277:300,1,125.999996154785,2|0,0:0|0:0,0:0:0:0:
188,263,270095,2,0,L|175:222,1,41.9999987182618
230,143,270356,2,0,L|258:222,1,83.9999974365235
323,183,270748,2,0,L|337:100,1,83.9999974365235,2|0,0:0|0:0,0:0:0:0:
306,28,271140,2,0,P|368:25|410:70,1,125.999996154785,2|0,0:0|0:0,0:0:0:0:
431,164,271663,2,0,L|436:205,1,41.9999987182618
445,302,271925,1,2,0:0:0:0:
190,63,272709,38,0,P|203:124|174:179,1,125.999996154785,2|0,0:0|0:0,0:0:0:0:
86,218,273232,2,0,L|105:280,1,41.9999987182618
136,348,273493,2,0,L|217:329,1,83.9999974365235,2|0,0:0|0:0,0:0:0:0:
289,262,273886,2,0,L|297:136,2,125.999996154785,2|2|0,0:0|0:0|0:0,0:0:0:0:
302,357,274801,2,0,L|342:345,1,41.9999987182618
433,314,275062,1,2,0:0:0:0:
359,62,275650,5,0,0:0:0:0:
359,62,275748,1,0,0:0:0:0:
359,62,275846,2,0,P|299:43|239:60,2,125.999996154785,2|0|2,0:0|0:0|0:0,0:0:0:0:
378,156,276761,2,0,L|377:197,1,41.9999987182618
368,295,277023,2,0,P|361:336|364:377,1,83.9999974365235,2|0,0:0|0:0,0:0:0:0:
273,347,277415,2,0,P|222:311|160:314,1,125.999996154785,2|0,0:0|0:0,0:0:0:0:
73,356,277938,2,0,L|63:315,1,41.9999987182618
38,221,278199,1,2,0:0:0:0:
256,96,280552,21,2,0:0:0:0:
256,288,280944,1,2,0:0:0:0:
384,192,281336,5,2,0:0:0:0:
192,192,281631,1,2,0:0:0:0:
352,320,281925,1,2,0:0:0:0:
320,152,282317,53,2,0:0:0:0:
240,312,282513,1,2,0:0:0:0:
320,240,282905,1,2,0:0:0:0:
256,192,283297,1,2,0:0:0:0:
192,240,283689,5,2,0:0:0:0:
128,128,284081,1,2,0:0:0:0:
128,336,284474,53,2,0:0:0:0:
224,144,284768,1,2,0:0:0:0:
0,192,285062,1,2,0:0:0:0:
192,240,285454,5,2,0:0:0:0:
32,96,285650,1,2,0:0:0:0:
96,216,286042,1,2,0:0:0:0:
128,144,286434,1,2,0:0:0:0:
288,192,286827,53,2,0:0:0:0:
128,288,287219,1,2,0:0:0:0:
208,240,287611,5,2,0:0:0:0:
128,192,287906,1,2,0:0:0:0:
288,288,288200,1,2,0:0:0:0:
224,96,288592,53,2,0:0:0:0:
256,192,288788,1,2,0:0:0:0:
336,112,289180,1,2,0:0:0:0:
176,166,289572,1,2,0:0:0:0:
336,192,289964,21,2,0:0:0:0:
256,320,290356,1,2,0:0:0:0:
208,240,290748,5,2,0:0:0:0:
384,272,291043,1,2,0:0:0:0:
254,105,291337,1,2,0:0:0:0:
296,256,291729,5,2,0:0:0:0:
448,208,291925,1,2,0:0:0:0:
352,160,292317,1,2,0:0:0:0:
440,104,292709,1,2,0:0:0:0:
256,160,292905,1,2,0:0:0:0:
217,146,293003,1,2,0:0:0:0:
177,152,293101,38,0,L|77:175,1,90,4|0,0:0|0:0,0:0:0:0:
81,343,293493,2,0,P|104:304|112:260,1,90,2|0,0:0|0:0,0:0:0:0:
38,37,293886,2,0,P|15:75|7:119,1,90,2|0,0:0|0:0,0:0:0:0:
0,259,294278,1,2,0:0:0:0:
178,253,294474,2,0,P|222:251|264:266,1,90,2|0,0:0|0:0,0:0:0:0:
375,340,294866,5,2,0:0:0:0:
399,200,295062,1,2,0:0:0:0:
346,264,295258,1,2,0:0:0:0:
364,119,295454,2,0,P|407:113|449:128,1,90,2|0,0:0|0:0,0:0:0:0:
512,285,295846,2,0,P|468:291|426:276,1,90,2|0,0:0|0:0,0:0:0:0:
275,163,296238,6,0,L|185:158,1,90,2|0,0:0|0:0,0:0:0:0:
19,148,296631,1,2,0:0:0:0:
108,252,296827,1,2,0:0:0:0:
114,104,297023,2,0,L|134:16,1,90,2|0,0:0|0:0,0:0:0:0:
258,83,297415,1,2,0:0:0:0:
333,241,297611,2,0,L|243:236,1,90,2|0,0:0|0:0,0:0:0:0:
156,166,298003,37,2,0:0:0:0:
152,316,298199,1,2,0:0:0:0:
56,240,298395,1,2,0:0:0:0:
252,161,298591,2,0,L|339:140,1,90,2|2,0:0|0:0,0:0:0:0:
334,350,298984,2,0,L|246:329,1,90,2|0,0:0|0:0,0:0:0:0:
176,130,299376,6,0,P|201:94|243:79,1,90,6|0,0:0|0:0,0:0:0:0:
191,210,299768,2,0,P|146:205|113:176,1,90,2|0,0:0|0:0,0:0:0:0:
252,161,300160,2,0,P|270:201|261:244,1,90,2|0,0:0|0:0,0:0:0:0:
237,277,300454,1,2,0:0:0:0:
237,277,300552,1,2,0:0:0:0:
386,226,300748,2,0,L|492:219,1,90,2|0,0:0|0:0,0:0:0:0:
486,66,301140,5,2,0:0:0:0:
297,44,301336,1,2,0:0:0:0:
436,144,301533,1,2,0:0:0:0:
211,116,301729,2,0,L|177:33,1,90,2|0,0:0|0:0,0:0:0:0:
329,132,302121,2,0,L|294:215,1,90,2|0,0:0|0:0,0:0:0:0:
219,356,302513,37,2,0:0:0:0:
109,184,302709,1,2,0:0:0:0:
164,270,302905,1,2,0:0:0:0:
157,90,303101,1,2,0:0:0:0:
5,188,303297,1,2,0:0:0:0:
5,188,303395,1,2,0:0:0:0:
5,188,303493,1,2,0:0:0:0:
194,194,303689,1,2,0:0:0:0:
23,49,303886,1,2,0:0:0:0:
85,145,304082,5,4,0:0:0:0:
256,192,304180,12,0,305356,0:0:0:0:
452,280,305650,6,0,L|372:237,1,90,4|2,0:0|0:0,0:0:0:0:
176,128,306043,1,8,0:0:0:0:
268,332,306239,1,2,0:0:0:0:
400,152,306435,2,0,L|479:109,1,90,2|2,0:0|0:0,0:0:0:0:
285,204,306827,1,8,0:0:0:0:
219,36,307023,1,2,0:0:0:0:
107,176,307219,37,2,0:0:0:0:
377,255,307415,1,2,0:0:0:0:
240,64,307611,1,8,0:0:0:0:
182,257,307807,1,2,0:0:0:0:
314,128,308003,1,2,0:0:0:0:
108,53,308199,1,2,0:0:0:0:
377,255,308396,1,8,0:0:0:0:
55,290,308592,1,2,0:0:0:0:
235,156,308787,5,2,0:0:0:0:
180,358,308984,1,2,0:0:0:0:
59,96,309180,1,8,0:0:0:0:
242,256,309376,1,2,0:0:0:0:
1,202,309572,1,2,0:0:0:0:
163,164,309768,1,2,0:0:0:0:
157,208,309866,1,2,0:0:0:0:
148,252,309964,1,8,0:0:0:0:
219,39,310160,1,2,0:0:0:0:
369,206,310356,5,2,0:0:0:0:
244,163,310552,1,2,0:0:0:0:
268,343,310748,1,8,0:0:0:0:
335,81,310945,1,2,0:0:0:0:
203,265,311141,1,2,0:0:0:0:
158,261,311239,1,2,0:0:0:0:
118,281,311337,2,0,L|111:325,1,45,2|2,0:0|0:0,0:0:0:0:
268,343,311533,1,8,0:0:0:0:
313,347,311631,1,2,0:0:0:0:
353,327,311729,2,0,L|360:283,1,45,2|2,0:0|0:0,0:0:0:0:
402,66,311925,38,0,L|427:152,1,90,4|2,0:0|0:0,0:0:0:0:
488,343,312317,1,8,0:0:0:0:
512,130,312513,1,0,0:0:0:0:
291,267,312709,2,0,L|204:247,1,90,2|2,0:0|0:0,0:0:0:0:
160,234,313003,1,2,0:0:0:0:
160,234,313101,1,8,0:0:0:0:
461,244,313297,1,2,0:0:0:0:
273,175,313493,5,2,0:0:0:0:
353,327,313690,1,2,0:0:0:0:
423,119,313886,1,8,0:0:0:0:
190,128,314082,2,0,L|100:122,1,90,2|2,0:0|0:0,0:0:0:0:
79,306,314474,1,2,0:0:0:0:
190,128,314670,1,8,0:0:0:0:
262,271,314866,1,2,0:0:0:0:
32,207,315062,5,2,0:0:0:0:
179,356,315258,1,2,0:0:0:0:
273,175,315454,1,8,0:0:0:0:
156,236,315650,1,2,0:0:0:0:
351,350,315846,1,2,0:0:0:0:
372,119,316042,1,2,0:0:0:0:
385,148,316140,1,2,0:0:0:0:
397,177,316238,1,10,0:0:0:0:
122,305,316435,1,2,0:0:0:0:
411,283,316631,37,2,0:0:0:0:
224,100,316827,1,2,0:0:0:0:
264,339,317023,1,8,0:0:0:0:
464,216,317219,1,2,0:0:0:0:
224,30,317415,1,2,0:0:0:0:
224,65,317513,1,2,0:0:0:0:
224,100,317611,2,0,L|224:145,1,45,2|2,0:0|0:0,0:0:0:0:
311,228,317807,2,0,L|311:183,1,45,2|2,0:0|0:0,0:0:0:0:
429,41,318003,1,2,0:0:0:0:
444,41,318101,1,2,0:0:0:0:
458,47,318199,6,0,L|463:136,1,90,4|2,0:0|0:0,0:0:0:0:
316,318,318591,2,0,L|311:228,1,90,8|2,0:0|0:0,0:0:0:0:
79,234,318984,2,0,L|168:222,1,90,2|2,0:0|0:0,0:0:0:0:
195,219,319278,1,2,0:0:0:0:
195,219,319376,1,8,0:0:0:0:
414,204,319572,1,2,0:0:0:0:
275,32,319768,5,2,0:0:0:0:
240,282,319964,1,2,0:0:0:0:
475,113,320160,1,8,0:0:0:0:
224,145,320356,2,0,P|181:131|136:133,1,90,2|2,0:0|0:0,0:0:0:0:
80,302,320748,1,2,0:0:0:0:
255,257,320944,1,8,0:0:0:0:
51,193,321140,1,2,0:0:0:0:
298,106,321337,37,4,0:0:0:0:
180,336,321534,1,2,0:0:0:0:
213,67,321730,1,8,0:0:0:0:
278,358,321925,1,2,0:0:0:0:
123,230,322121,1,2,0:0:0:0:
388,139,322317,1,2,0:0:0:0:
388,139,322415,1,2,0:0:0:0:
388,139,322513,1,8,0:0:0:0:
499,346,322709,1,2,0:0:0:0:
311,262,322905,5,2,0:0:0:0:
501,135,323101,1,2,0:0:0:0:
443,253,323297,1,8,0:0:0:0:
337,24,323494,1,2,0:0:0:0:
133,117,323690,1,2,0:0:0:0:
168,126,323788,1,2,0:0:0:0:
203,136,323886,2,0,L|247:145,1,45,2|2,0:0|0:0,0:0:0:0:
165,282,324082,1,8,0:0:0:0:
130,291,324180,1,2,0:0:0:0:
95,301,324278,2,0,L|52:311,1,45,2|2,0:0|0:0,0:0:0:0:
82,61,324474,6,0,P|121:41|165:48,1,90,4|2,0:0|0:0,0:0:0:0:
240,263,324866,2,0,L|257:351,1,90,8|2,0:0|0:0,0:0:0:0:
134,120,325258,2,0,L|151:208,1,90,2|2,0:0|0:0,0:0:0:0:
165,282,325552,1,2,0:0:0:0:
165,282,325650,1,8,0:0:0:0:
272,42,325847,1,2,0:0:0:0:
438,165,326043,37,2,0:0:0:0:
321,150,326239,1,2,0:0:0:0:
246,242,326435,1,8,0:0:0:0:
388,50,326631,2,0,L|477:44,1,90,2|2,0:0|0:0,0:0:0:0:
208,137,327023,1,2,0:0:0:0:
505,262,327219,1,8,0:0:0:0:
246,242,327415,1,2,0:0:0:0:
438,165,327611,5,4,0:0:0:0:
330,346,327807,1,2,0:0:0:0:
254,51,328003,1,8,0:0:0:0:
374,251,328199,1,2,0:0:0:0:
70,144,328396,1,2,0:0:0:0:
388,50,328592,1,2,0:0:0:0:
381,80,328690,1,2,0:0:0:0:
372,110,328788,1,8,0:0:0:0:
297,368,328984,1,2,0:0:0:0:
89,230,329180,5,2,0:0:0:0:
172,346,329376,1,2,0:0:0:0:
254,51,329572,1,2,0:0:0:0:
113,83,329768,1,2,0:0:0:0:
226,272,329964,38,0,B|277:295|277:295|334:237|412:266,1,202.500007724762,2|0,0:0|0:0,0:0:0:0:
236,192,330748,5,2,0:0:0:0:
202,194,330846,1,2,0:0:0:0:
172,209,330944,1,2,0:0:0:0:
151,235,331042,1,2,0:0:0:0:
143,268,331140,2,0,L|100:254,1,45,2|2,0:0|0:0,0:0:0:0:
36,347,331337,2,0,L|78:332,1,45,2|2,0:0|0:0,0:0:0:0:
100,175,331533,5,4,0:0:0:0:
276,341,331827,1,4,0:0:0:0:
331,104,332121,1,2,0:0:0:0:
331,104,332219,1,2,0:0:0:0:
331,104,332317,38,0,L|324:193,1,90,4|0,0:0|0:0,0:0:0:0:
444,334,332709,2,0,L|437:244,1,90,8|0,0:0|0:0,0:0:0:0:
408,73,333101,1,2,0:0:0:0:
262,60,333297,1,2,0:0:0:0:
262,60,333395,1,2,0:0:0:0:
262,60,333493,1,8,0:0:0:0:
248,241,333689,1,2,0:0:0:0:
131,103,333886,6,0,L|174:93,1,45,2|0,0:0|0:0,0:0:0:0:
279,144,334083,2,0,L|236:154,1,45,2|0,0:0|0:0,0:0:0:0:
122,183,334278,2,0,L|127:227,1,45,8|0,0:0|0:0,0:0:0:0:
190,347,334474,2,0,L|185:302,1,45,2|0,0:0|0:0,0:0:0:0:
281,241,334670,2,0,L|285:285,1,45,2|0,0:0|0:0,0:0:0:0:
403,349,334866,1,2,0:0:0:0:
403,349,334964,1,2,0:0:0:0:
403,349,335062,2,0,L|395:259,1,90,8|0,0:0|0:0,0:0:0:0:
331,104,335454,5,4,0:0:0:0:
497,211,335650,1,2,0:0:0:0:
506,13,335846,1,8,0:0:0:0:
444,106,336042,1,2,0:0:0:0:
235,51,336238,1,2,0:0:0:0:
236,278,336435,1,2,0:0:0:0:
205,246,336533,1,2,0:0:0:0:
162,232,336631,1,10,0:0:0:0:
119,242,336729,1,2,0:0:0:0:
85,272,336827,1,2,0:0:0:0:
36,106,337023,37,2,0:0:0:0:
162,332,337219,1,2,0:0:0:0:
284,124,337415,1,8,0:0:0:0:
161,160,337611,1,2,0:0:0:0:
254,247,337807,1,10,0:0:0:0:
314,1,338003,1,10,0:0:0:0:
377,283,338199,2,0,L|467:256,1,90,10|2,0:0|0:0,0:0:0:0:
236,323,338591,5,4,0:0:0:0:
205,184,338787,1,2,0:0:0:0:
205,184,338885,1,2,0:0:0:0:
205,184,338984,2,0,L|187:95,1,90,8|2,0:0|0:0,0:0:0:0:
123,274,339376,1,2,0:0:0:0:
312,343,339572,1,2,0:0:0:0:
312,343,339670,1,2,0:0:0:0:
312,343,339768,1,8,0:0:0:0:
278,106,339964,1,2,0:0:0:0:
477,236,340160,6,0,L|466:165,1,45,2|0,0:0|0:0,0:0:0:0:
272,62,340356,2,0,L|279:107,1,45,2|0,0:0|0:0,0:0:0:0:
372,212,340552,2,0,L|364:153,1,45,8|0,0:0|0:0,0:0:0:0:
403,35,340748,2,0,L|409:79,1,45,2|0,0:0|0:0,0:0:0:0:
342,248,340944,1,2,0:0:0:0:
311,281,341042,1,2,0:0:0:0:
266,277,341140,1,2,0:0:0:0:
224,295,341238,1,2,0:0:0:0:
183,271,341336,2,0,P|149:244|105:241,1,90,8|0,0:0|0:0,0:0:0:0:
268,151,341728,37,4,0:0:0:0:
122,316,341925,1,2,0:0:0:0:
124,111,342121,1,8,0:0:0:0:
266,277,342317,1,2,0:0:0:0:
56,175,342513,1,2,0:0:0:0:
248,31,342709,1,2,0:0:0:0:
249,52,342807,1,2,0:0:0:0:
251,74,342905,1,8,0:0:0:0:
266,277,343101,1,2,0:0:0:0:
483,154,343297,5,2,0:0:0:0:
441,136,343395,1,2,0:0:0:0:
398,139,343493,1,2,0:0:0:0:
356,144,343591,1,2,0:0:0:0:
314,126,343689,2,0,L|297:167,1,45,2|2,0:0|0:0,0:0:0:0:
266,277,343886,1,2,0:0:0:0:
266,277,343984,2,0,L|248:235,1,45,2|0,0:0|0:0,0:0:0:0:
209,145,344179,5,4,0:0:0:0:
127,347,344474,1,4,0:0:0:0:
401,264,344670,2,0,L|378:266,3,22.5,8|0|10|0,0:0|0:0|0:0|0:0,0:0:0:0:
355,270,344866,38,0,L|266:277,1,90,4|0,0:0|0:0,0:0:0:0:
85,217,345258,2,0,L|174:223,1,90,8|0,0:0|0:0,0:0:0:0:
25,289,345650,1,2,0:0:0:0:
6,166,345846,1,2,0:0:0:0:
6,166,345944,1,2,0:0:0:0:
6,166,346042,1,8,0:0:0:0:
126,133,346238,1,2,0:0:0:0:
176,329,346435,6,0,L|220:337,1,45,2|0,0:0|0:0,0:0:0:0:
326,261,346631,2,0,L|281:269,1,45,2|0,0:0|0:0,0:0:0:0:
187,190,346827,2,0,L|231:198,1,45,8|0,0:0|0:0,0:0:0:0:
337,122,347023,2,0,L|292:130,1,45,2|0,0:0|0:0,0:0:0:0:
189,55,347219,2,0,L|233:63,1,45,2|0,0:0|0:0,0:0:0:0:
509,99,347415,1,2,0:0:0:0:
509,99,347513,1,2,0:0:0:0:
509,99,347611,2,0,L|509:189,1,90,8|2,0:0|0:0,0:0:0:0:
414,352,348003,5,6,0:0:0:0:
321,188,348199,1,0,0:0:0:0:
509,189,348395,1,8,0:0:0:0:
415,250,348591,1,2,0:0:0:0:
350,47,348787,1,2,0:0:0:0:
152,157,348983,1,2,0:0:0:0:
152,157,349081,1,2,0:0:0:0:
152,157,349179,1,8,0:0:0:0:
290,173,349375,1,2,0:0:0:0:
43,90,349572,37,2,0:0:0:0:
155,274,349768,1,2,0:0:0:0:
258,84,349964,1,8,0:0:0:0:
152,157,350160,1,2,0:0:0:0:
293,210,350356,1,10,0:0:0:0:
364,11,350552,1,10,0:0:0:0:
396,293,350748,1,10,0:0:0:0:
421,158,351140,5,4,0:0:0:0:
306,306,351336,1,2,0:0:0:0:
306,306,351434,1,2,0:0:0:0:
306,306,351532,2,0,L|396:293,1,90,8|0,0:0|0:0,0:0:0:0:
439,73,351925,1,2,0:0:0:0:
332,182,352121,1,2,0:0:0:0:
332,182,352219,1,2,0:0:0:0:
332,182,352317,1,8,0:0:0:0:
421,158,352513,1,2,0:0:0:0:
274,15,352709,6,0,L|257:57,1,45,2|0,0:0|0:0,0:0:0:0:
202,190,352905,2,0,L|166:140,1,45,2|0,0:0|0:0,0:0:0:0:
92,37,353101,2,0,L|131:58,1,45,8|0,0:0|0:0,0:0:0:0:
56,143,353297,2,0,L|11:152,1,45,2|0,0:0|0:0,0:0:0:0:
93,235,353493,2,0,L|155:222,1,45,2|0,0:0|0:0,0:0:0:0:
269,228,353690,1,2,0:0:0:0:
305,254,353788,1,2,0:0:0:0:
322,295,353886,2,0,L|339:206,1,90,8|0,0:0|0:0,0:0:0:0:
490,26,354278,37,2,0:0:0:0:
302,57,354474,1,2,0:0:0:0:
421,203,354670,1,8,0:0:0:0:
405,96,354866,1,2,0:0:0:0:
511,273,355062,1,2,0:0:0:0:
306,239,355258,1,2,0:0:0:0:
264,257,355356,1,2,0:0:0:0:
222,252,355454,1,8,0:0:0:0:
179,249,355552,1,2,0:0:0:0:
138,266,355650,2,0,L|97:285,1,45,2|2,0:0|0:0,0:0:0:0:
50,188,355846,5,4,0:0:0:0:
79,153,355944,1,2,0:0:0:0:
123,146,356042,1,2,0:0:0:0:
167,144,356140,1,2,0:0:0:0:
210,156,356238,2,0,L|246:129,1,45,2|2,0:0|0:0,0:0:0:0:
399,162,356435,1,2,0:0:0:0:
399,162,356533,2,0,L|362:188,1,45,2|0,0:0|0:0,0:0:0:0:
264,257,356728,5,4,0:0:0:0:
199,74,357023,37,4,0:0:0:0:
297,349,357415,5,6,0:0:0:0:
