osu file format v14

[General]
AudioFilename: S.A.T.O.R.A.R.E EP.mp3
AudioLeadIn: 0
PreviewTime: 297707
Countdown: 0
SampleSet: Soft
StackLeniency: 0.7
Mode: 0
LetterboxInBreaks: 1
WidescreenStoryboard: 0

[Editor]
Bookmarks: 17931,39504,42201,79954
DistanceSpacing: 0.9
BeatDivisor: 4
GridSize: 4
TimelineZoom: 1.7

[Metadata]
Title:S.A.T.O.R.A.R.E
TitleUnicode:S.A.T.O.R.A.R.E
Artist:Halozy
ArtistUnicode:Halozy
Creator:ebugers
Version:Lunatic
Source:Touhou
Tags:3rd eye satori maiden red violet future love subterranean animism
BeatmapID:664802
BeatmapSetID:295992

[Difficulty]
HPDrainRate:7
CircleSize:4
OverallDifficulty:8
ApproachRate:9
SliderMultiplier:1.6
SliderTickRate:1

[Events]
//Background and Video events
0,0,"satori.jpg",0,0
//Break Periods
2,101895,111713
2,209255,216882
2,244648,249242
2,341390,349017
//Storyboard Layer 0 (Background)
//Storyboard Layer 1 (Fail)
//Storyboard Layer 2 (Pass)
//Storyboard Layer 3 (Foreground)
//Storyboard Sound Samples

[TimingPoints]
1752.06779661017,337.078651685393,4,2,0,100,1,0
31414,-100,4,2,0,50,0,0
31752,-100,4,2,0,75,0,0
32089,-100,4,2,0,80,0,0
32426,-100,4,2,0,85,0,0
32763,-100,4,2,0,100,0,0
32931,-100,4,2,0,5,0,0
33268,-100,4,2,0,100,0,0
43549,-100,4,2,0,50,0,0
44055,-100,4,2,0,100,0,0
71864,-133.333333333333,4,2,0,100,0,0
79954,-100,4,2,0,100,0,0
112313,-200,4,2,0,100,0,0
122426,-200,4,3,0,100,0,0
122763,-100,4,2,0,100,0,0
123100,-200,4,2,0,100,0,0
141976,-100,4,3,0,100,0,0
145179,-100,4,2,0,100,0,0
152763,-166.666666666667,4,3,0,100,0,0
153100,-142.857142857143,4,3,0,100,0,0
153437,-125,4,3,0,100,0,0
155460,-100,4,1,0,100,0,0
155544,-100,4,1,0,20,0,0
155965,-100,4,1,0,100,0,0
156049,-100,4,1,0,20,0,0
156471,-100,4,1,0,100,0,0
156555,-100,4,1,0,20,0,0
156976,-100,4,1,0,100,0,0
157061,-100,4,1,0,20,0,0
157482,-100,4,1,0,100,0,0
157566,-100,4,1,0,20,0,0
157819,-100,4,1,0,100,0,0
157903,-100,4,1,0,20,0,0
158156,-100,4,1,0,100,0,0
158240,-100,4,1,0,20,0,0
158662,-100,4,1,0,100,0,0
158746,-100,4,1,0,20,0,0
159167,-100,4,1,0,100,0,0
159252,-100,4,1,0,20,0,0
159673,-100,4,1,0,100,0,0
159757,-100,4,1,0,20,0,0
160179,-100,4,1,0,100,0,0
160263,-100,4,1,0,20,0,0
160516,-100,4,1,0,100,0,0
160600,-100,4,1,0,20,0,0
160853,-100,4,1,0,100,0,0
160937,-100,4,1,0,20,0,0
161358,-100,4,1,0,100,0,0
161443,-100,4,1,0,20,0,0
161864,-100,4,1,0,100,0,0
161948,-100,4,1,0,20,0,0
162370,-100,4,1,0,100,0,0
162454,-100,4,1,0,20,0,0
162875,-100,4,1,0,100,0,0
162960,-100,4,1,0,20,0,0
163212,-100,4,1,0,100,0,0
163549,-100,4,3,0,50,0,0
163718,-100,4,3,0,60,0,0
163887,-100,4,3,0,70,0,0
164055,-100,4,3,0,80,0,0
164224,-100,4,3,0,90,0,0
164392,-100,4,3,0,100,0,0
164898,-200,4,3,1,70,0,0
165909,-100,4,2,0,10,0,0
166246,-100,4,2,1,100,0,1
168437,-100,4,2,2,100,0,1
168521,-100,4,2,1,100,0,1
169785,-100,4,2,2,100,0,1
169870,-100,4,2,1,100,0,1
172482,-100,4,2,2,100,0,1
172566,-100,4,2,1,100,0,1
173830,-100,4,2,2,100,0,1
173915,-100,4,2,1,100,0,1
179224,-100,4,2,2,100,0,1
179308,-100,4,2,1,100,0,1
180572,-100,4,2,2,100,0,1
180656,-100,4,2,1,100,0,1
183269,-100,4,2,2,100,0,1
183353,-100,4,2,1,100,0,1
184617,-100,4,2,2,100,0,1
184701,-100,4,2,1,100,0,1
187819,-100,4,2,1,100,0,0
217482,-100,4,3,0,100,0,0
220179,-100,4,1,0,100,0,0
220347,-100,4,2,0,100,0,0
249842,-100,4,3,0,100,0,0
253044,-200,4,3,0,100,0,0
274111,-200,4,3,1,59,0,1
274448,-200,4,2,1,100,0,1
274785,-200,4,3,1,100,0,1
276471,-200,4,2,1,100,0,1
276724,-200,4,3,1,100,0,1
280853,-100,4,3,1,100,0,1
281527,-200,4,3,1,100,0,1
288943,-100,4,3,1,100,0,1
289617,-200,4,3,1,100,0,1
294336,-100,4,2,0,50,0,1
294673,-100,4,2,0,70,0,1
295010,-100,4,2,0,90,0,1
295347,-200,4,2,0,100,0,1
295684,-200,4,2,0,100,0,0
296274,-200,4,2,0,25,0,0
297875,-200,4,3,1,100,0,1
298047,-100,4,2,0,100,0,1
298381,-100,4,2,1,100,0,1
300572,-100,4,2,2,100,0,1
300656,-100,4,2,1,100,0,1
301920,-100,4,2,2,100,0,1
302004,-100,4,2,1,100,0,1
304617,-100,4,2,2,100,0,1
304701,-100,4,2,1,100,0,1
305965,-100,4,2,2,100,0,1
306049,-100,4,2,1,100,0,1
311358,-100,4,2,2,100,0,1
311443,-100,4,2,1,100,0,1
312707,-100,4,2,2,100,0,1
312791,-100,4,2,1,100,0,1
315403,-100,4,2,2,100,0,1
315488,-100,4,2,1,100,0,1
316752,-100,4,2,2,100,0,1
316836,-100,4,2,1,100,0,1
318606,-200,4,2,0,100,0,1
318943,-200,4,2,3,100,0,1
319111,-200,4,2,2,100,0,1
319195,-200,4,2,1,100,0,1
319448,-200,4,2,2,80,0,1
319533,-200,4,2,1,100,0,1
319617,-200,4,2,1,100,0,0
319954,-100,4,2,1,100,0,0
349617,-100,4,3,1,100,0,0
352651,-100,4,2,0,100,0,0
361752,-100,4,3,1,100,0,0
363437,-100,4,2,0,100,0,0
372875,-100,4,3,1,100,0,0
373887,-200,4,3,1,100,0,1
377931,-100,4,3,1,100,0,1
378606,-200,4,3,1,100,0,1
380628,-100,4,3,1,100,0,1
381302,-200,4,3,1,100,0,1
386358,-100,4,3,1,100,0,1
386695,-200,4,3,1,100,0,1
388718,-100,4,3,1,100,0,1
389392,-200,4,3,1,100,0,1
397819,-200,4,2,0,100,0,0

[Colours]
Combo1 : 192,192,192
Combo2 : 128,128,255
Combo3 : 128,0,128
Combo4 : 255,0,128

[HitObjects]
44,192,1752,6,0,L|36:100,1,80,2|0,0:0|0:0,0:0:0:0:
120,240,2089,2,0,L|126:319,1,80,2|0,0:0|0:0,0:0:0:0:
180,176,2426,1,2,0:0:0:0:
252,224,2594,1,0,0:0:0:0:
128,320,2763,1,2,0:0:0:0:
252,144,2931,1,0,0:0:0:0:
396,304,3100,6,0,P|428:316|496:300,1,80,2|0,0:0|0:0,0:0:0:0:
436,216,3437,2,0,P|484:205|520:168,2,80,2|0|2,0:0|0:0|0:0,0:0:0:0:
252,224,3943,1,0,0:0:0:0:
396,304,4111,1,2,0:0:0:0:
416,128,4280,1,0,0:0:0:0:
288,324,4448,6,0,L|196:332,1,80,2|0,0:0|0:0,0:0:0:0:
48,276,4785,2,0,L|140:284,1,80,2|0,0:0|0:0,0:0:0:0:
252,224,5122,1,2,0:0:0:0:
144,208,5291,1,0,0:0:0:0:
184,320,5459,1,2,0:0:0:0:
212,112,5628,1,0,0:0:0:0:
296,140,5797,6,0,P|328:168|344:224,1,80,2|0,0:0|0:0,0:0:0:0:
132,128,6134,2,0,P|100:100|84:44,1,80,2|0,0:0|0:0,0:0:0:0:
32,172,6471,1,2,0:0:0:0:
188,40,6639,1,0,0:0:0:0:
112,220,6808,2,0,L|116:316,1,80
212,352,7145,6,0,L|204:196,1,120,2|0,0:0|0:0,0:0:0:0:
281,188,7482,2,0,L|288:268,1,80,2|0,0:0|0:0,0:0:0:0:
378,319,7819,2,0,L|372:240,1,80,2|0,0:0|0:0,0:0:0:0:
453,172,8156,2,0,L|460:252,1,80,2|0,0:0|0:0,0:0:0:0:
368,336,8493,5,2,0:0:0:0:
268,180,8662,1,0,0:0:0:0:
456,192,8830,1,2,0:0:0:0:
348,336,8999,1,0,0:0:0:0:
200,248,9167,2,0,B|156:244|156:244|96:264,1,80,2|0,0:0|0:0,0:0:0:0:
184,332,9504,2,0,L|272:340,1,80,2|0,0:0|0:0,0:0:0:0:
148,168,9841,6,0,L|56:160,1,80,2|0,0:0|0:0,0:0:0:0:
364,216,10179,2,0,L|443:222,1,80,2|0,0:0|0:0,0:0:0:0:
208,104,10516,2,0,L|136:68,1,80,2|0,0:0|0:0,0:0:0:0:
304,280,10854,2,0,L|375:315,1,80,2|0,0:0|0:0,0:0:0:0:
304,104,11190,5,2,0:0:0:0:
208,280,11358,1,0,0:0:0:0:
208,104,11527,1,2,0:0:0:0:
304,280,11695,1,0,0:0:0:0:
140,192,11864,2,0,P|136:144|120:104,1,80,2|0,0:0|0:0,0:0:0:0:
0,184,12201,2,0,P|4:232|20:272,1,80,2|0,0:0|0:0,0:0:0:0:
112,340,12538,5,0,3:0:0:0:
208,280,12707,1,0,0:0:0:0:
272,360,12875,2,0,L|360:356,1,80,0|0,3:0|0:0,0:0:0:0:
380,272,13212,2,0,L|468:268,1,80,0|0,3:0|0:0,0:0:0:0:
264,200,13549,2,0,L|352:196,1,80,0|0,3:0|0:0,0:0:0:0:
372,112,13886,6,0,L|460:108,2,80,0|0|0,3:0|0:0|3:0,0:0:0:0:
264,200,14392,1,0,0:0:0:0:
160,128,14561,2,0,P|180:84|176:32,1,80,0|0,3:0|0:0,0:0:0:0:
32,12,14898,2,0,P|12:56|16:108,1,80,0|0,3:0|0:0,0:0:0:0:
36,172,15235,5,0,3:0:0:0:
108,288,15403,2,0,L|192:284,1,80,0|0,0:0|3:0,0:0:0:0:
288,340,15740,1,0,0:0:0:0:
424,220,15909,2,0,L|436:320,2,80,0|0|0,3:0|0:0|3:0,0:0:0:0:
312,52,16414,1,0,0:0:0:0:
416,104,16583,6,0,L|495:95,1,80,0|0,3:0|0:0,0:0:0:0:
276,176,16920,2,0,L|355:167,1,80,0|0,3:0|0:0,0:0:0:0:
92,336,17257,2,0,L|12:344,1,80,0|0,3:0|0:0,0:0:0:0:
232,264,17594,2,0,L|152:272,1,80,0|0,3:0|0:0,0:0:0:0:
416,104,17931,5,0,3:0:0:0:
424,128,18100,1,0,3:0:0:0:
432,152,18268,1,0,3:0:0:0:
440,176,18437,1,0,3:0:0:0:
320,196,18606,1,0,3:0:0:0:
320,236,18774,1,0,3:0:0:0:
312,276,18943,1,0,3:0:0:0:
292,312,19111,1,0,3:0:0:0:
160,280,19280,5,0,3:0:0:0:
76,312,19448,1,0,3:0:0:0:
172,196,19617,1,0,3:0:0:0:
16,168,19785,1,0,3:0:0:0:
144,360,19954,1,0,3:0:0:0:
84,124,20122,1,0,3:0:0:0:
236,248,20291,1,0,3:0:0:0:
8,256,20459,1,0,3:0:0:0:
164,112,20628,6,0,L|160:60,3,40,2|0|0|0,3:0|3:0|3:0|3:0,3:0:0:0:
248,128,20965,2,0,L|252:180,1,40,2|0,3:0|3:0,3:0:0:0:
328,140,21134,2,0,L|332:192,1,40,0|0,3:0|3:0,3:0:0:0:
508,164,21302,2,0,L|512:216,3,40,2|0|0|0,3:0|3:0|3:0|3:0,3:0:0:0:
440,264,21639,1,2,3:0:0:0:
408,296,21723,1,0,3:0:0:0:
368,312,21808,1,0,3:0:0:0:
324,316,21892,1,0,3:0:0:0:
280,308,21976,6,0,L|220:320,1,40,2|0,3:0|3:0,3:0:0:0:
204,232,22145,2,0,B|148:272|160:264,1,40,0|0,3:0|3:0,3:0:0:0:
96,196,22313,2,0,L|76:244,1,40,2|0,3:0|3:0,3:0:0:0:
44,84,22482,1,2,3:0:0:0:
84,72,22566,1,2,3:0:0:0:
128,80,22650,2,0,P|160:108|216:124,1,80,2|4,3:0|3:0,3:0:0:0:
352,52,22988,1,2,0:0:0:0:
204,232,23156,1,2,0:0:0:0:
476,84,23325,5,4,0:0:0:0:
396,136,23493,1,0,0:0:0:0:
396,136,23577,1,0,0:0:0:0:
396,136,23662,2,0,L|408:240,1,80,2|0,0:0|0:0,0:0:0:0:
356,280,23999,1,0,0:0:0:0:
188,328,24167,2,0,L|108:304,1,80,0|2,0:0|0:0,0:0:0:0:
304,348,24504,1,0,0:0:0:0:
144,232,24673,6,0,L|84:152,1,80
184,128,25010,2,0,L|160:36,2,80,2|0|0,0:0|0:0|0:0,0:0:0:0:
144,232,25516,1,2,0:0:0:0:
188,328,25684,1,0,0:0:0:0:
240,208,25853,1,2,0:0:0:0:
84,316,26021,6,0,P|44:264|52:184,1,120
32,104,26358,2,0,P|52:144|52:216,1,80,2|0,0:0|0:0,0:0:0:0:
188,328,26695,2,0,L|296:304,1,80
360,340,27032,2,0,L|428:284,1,80,2|0,0:0|0:0,0:0:0:0:
416,88,27370,5,0,0:0:0:0:
308,184,27538,1,0,0:0:0:0:
460,224,27707,1,2,0:0:0:0:
324,96,27875,1,0,0:0:0:0:
376,248,28044,1,0,0:0:0:0:
492,136,28212,1,2,0:0:0:0:
296,264,28381,2,0,L|188:252,2,80,0|2|0,0:0|0:0|0:0,0:0:0:0:
240,352,28886,5,0,0:0:0:0:
124,240,29055,2,0,L|140:344,1,80,2|0,0:0|0:0,0:0:0:0:
48,128,29392,2,0,L|32:232,1,80
152,60,29729,1,2,0:0:0:0:
264,192,29898,1,0,0:0:0:0:
260,68,30066,5,0,0:0:0:0:
128,144,30235,1,0,0:0:0:0:
444,168,30403,1,2,0:0:0:0:
384,40,30572,1,0,0:0:0:0:
368,240,30740,2,0,P|344:276|300:304,1,80,0|2,0:0|0:0,0:0:0:0:
176,348,31077,2,0,L|88:332,1,80,0|2,0:0|0:0,0:0:0:0:
24,228,31414,6,0,L|16:196,23,20
60,216,32426,2,0,P|72:172|64:124,1,80
24,60,32763,5,4,0:1:0:0:
176,88,32931,2,0,B|220:108|220:108|240:80|240:80|256:92|284:88|284:88|344:64,1,160
313,76,33353,1,0,0:0:0:0:
313,76,33437,1,0,0:0:0:0:
416,148,33606,1,0,0:0:0:0:
200,132,33774,1,0,0:0:0:0:
220,204,33858,1,0,0:0:0:0:
300,216,33943,1,0,0:0:0:0:
300,216,34027,1,0,0:0:0:0:
300,216,34111,6,0,P|304:268|320:308,1,80,2|0,0:0|0:0,0:0:0:0:
408,352,34448,2,0,L|488:360,1,80,2|0,0:0|0:0,0:0:0:0:
420,240,34785,1,2,0:0:0:0:
256,356,34954,1,0,0:0:0:0:
116,280,35122,2,0,L|24:296,1,80
132,160,35459,6,0,L|40:176,1,80,2|0,0:0|0:0,0:0:0:0:
236,72,35797,2,0,P|264:132|264:180,1,80
208,232,36134,2,0,P|196:272|192:328,2,80,0|2|0,0:0|0:0|0:0,0:0:0:0:
344,184,36639,1,2,0:0:0:0:
436,240,36808,6,0,P|468:256|524:260,2,80,0|0|2,0:0|0:0|0:0,0:0:0:0:
208,232,37313,1,0,0:0:0:0:
208,232,37398,1,0,0:0:0:0:
208,232,37482,2,0,L|108:248,1,80
129,244,37819,1,2,0:0:0:0:
256,332,37988,1,0,0:0:0:0:
268,176,38156,5,0,0:0:0:0:
165,328,38325,1,0,0:0:0:0:
177,172,38494,1,2,0:0:0:0:
304,260,38662,1,0,0:0:0:0:
52,304,38830,2,0,P|32:256|44:204,1,80,0|2,0:0|0:0,0:0:0:0:
96,128,39167,2,0,P|116:80|104:28,1,80,0|2,0:0|0:0,0:0:0:0:
252,92,39504,5,0,3:0:0:0:
444,140,39673,1,0,3:0:0:0:
276,180,39841,2,0,L|352:212,1,80
272,76,40179,5,0,3:0:0:0:
444,172,40347,1,0,3:0:0:0:
256,192,40516,2,0,L|316:272,1,80
300,56,40853,5,0,3:0:0:0:
444,204,41021,1,0,3:0:0:0:
236,204,41190,2,0,L|244:292,1,80
332,36,41527,5,0,3:0:0:0:
444,232,41695,1,0,3:0:0:0:
216,216,41864,2,0,L|200:316,1,80
52,184,42201,2,0,L|0:172,3,40,0|0|0|0,3:0|3:0|3:0|3:0,3:0:0:0:
132,108,42538,2,0,L|180:128,1,40,0|0,3:0|3:0,3:0:0:0:
272,104,42707,2,0,L|296:156,1,40,0|0,3:0|3:0,3:0:0:0:
460,200,42875,6,0,L|512:212,3,40,0|0|0|0,3:0|3:0|3:0|3:0,3:0:0:0:
380,276,43212,2,0,L|332:256,1,40,0|0,3:0|3:0,3:0:0:0:
240,280,43381,2,0,L|216:228,1,40,0|0,3:0|3:0,3:0:0:0:
112,252,43549,6,2,L|88:260,12,20
112,216,44139,1,0,0:0:0:0:
96,180,44223,2,0,P|60:148|-4:144,1,80
60,328,44561,5,2,0:0:0:0:
152,356,44729,5,2,0:0:0:0:
244,280,44898,6,0,P|283:276|368:364,1,160,2|0,0:0|0:0,0:0:0:0:
268,380,45403,1,0,0:0:0:0:
244,280,45572,2,0,L|256:180,1,80,2|0,0:0|0:0,0:0:0:0:
464,140,45909,2,0,L|454:219,1,80
244,280,46246,6,0,B|180:276|180:276|148:288|148:288|48:280,2,160,2|0|2,0:0|0:0|0:0,0:0:0:0:
400,248,47089,1,0,0:0:0:0:
256,204,47257,2,0,L|152:196,1,80
100,96,47594,6,0,P|56:144|56:240,1,160,2|0,0:0|0:0,0:0:0:0:
152,192,48100,1,0,0:0:0:0:
208,288,48268,2,0,P|252:240|252:144,2,160,2|0|2,0:0|0:0|0:0,0:0:0:0:
60,320,49111,5,0,0:0:0:0:
208,288,49280,2,0,B|268:280|268:280|304:324|376:304,1,160
336,220,49785,1,0,0:0:0:0:
436,352,49954,2,0,P|448:312|436:264,1,80,2|2,0:0|0:0,0:0:0:0:
207,288,50291,6,0,P|179:214|204:140,1,160,2|0,0:0|0:0,0:0:0:0:
332,64,50797,1,0,0:0:0:0:
332,64,50881,1,0,0:0:0:0:
332,64,50965,2,0,L|468:68,2,120,2|2|2,0:0|0:0|0:0,0:0:0:0:
204,140,51639,6,0,L|28:136,2,160,2|2|2,0:0|0:0|0:0,0:0:0:0:
172,320,52482,1,0,0:0:0:0:
172,320,52566,1,0,0:0:0:0:
172,320,52650,2,0,L|308:324,1,120,2|0,0:0|0:0,0:0:0:0:
320,324,52988,5,2,0:0:0:0:
472,228,53156,1,2,0:0:0:0:
320,168,53325,1,2,0:0:0:0:
440,340,53493,1,2,0:0:0:0:
424,128,53662,1,2,0:0:0:0:
252,248,53830,1,2,0:0:0:0:
56,192,53999,2,0,P|44:152|40:96,1,80,2|0,0:0|0:0,0:0:0:0:
56,192,54336,6,0,P|108:260|84:352,2,160,2|0|0,0:0|0:0|0:0,0:0:0:0:
148,72,55179,2,0,B|212:80|212:80|240:104|240:104|324:116,1,160
420,128,55600,1,0,0:0:0:0:
420,128,55684,6,0,P|392:208|448:296,2,160,2|0|2,0:0|0:0|0:0,0:0:0:0:
500,204,56527,1,0,0:0:0:0:
348,340,56695,2,0,L|248:324,1,80
148,340,57032,6,0,B|108:320|104:268|104:268|80:240|12:240,2,160,2|0|2,0:0|0:0|0:0,0:0:0:0:
200,260,57875,1,0,0:0:0:0:
184,164,58044,2,0,L|156:52,1,80
184,164,58381,6,0,B|248:156|280:200|280:200|312:188|344:144,1,160,2|0,0:0|0:0,0:0:0:0:
412,136,58886,1,0,0:0:0:0:
508,152,59055,1,2,0:0:0:0:
444,224,59223,2,0,L|432:308,1,80
472,60,59561,1,0,0:0:0:0:
352,208,59729,6,0,B|312:248|312:248|256:264|184:232,2,160,2|0|0,0:0|0:0|0:0,0:0:0:0:
120,268,60572,1,0,0:0:0:0:
24,272,60740,2,0,L|32:368,1,80,2|2,0:0|0:0,0:0:0:0:
68,200,61077,6,0,P|40:144|60:64,1,120,2|0,0:0|0:0,0:0:0:0:
13,19,61414,2,0,P|39:49|46:88,1,80
136,124,61752,1,2,0:0:0:0:
340,164,62004,1,2,0:0:0:0:
168,232,62257,1,2,0:0:0:0:
256,88,62426,6,0,L|236:8,1,80,2|0,0:0|0:0,0:0:0:0:
340,164,62763,2,0,L|360:244,1,80,2|0,0:0|0:0,0:0:0:0:
260,168,63100,2,0,L|180:188,1,80,2|0,0:0|0:0,0:0:0:0:
336,84,63437,2,0,L|416:64,1,80,2|0,0:0|0:0,0:0:0:0:
456,256,63774,5,2,0:0:0:0:
396,332,63943,1,2,0:0:0:0:
300,340,64111,2,0,B|240:372|192:348|192:348|192:332|192:332|180:332|180:332|128:312,1,160,2|2,0:0|0:0,0:0:0:0:
96,256,64617,2,0,P|56:240|0:240,1,80,0|2,0:0|0:0,0:0:0:0:
32,332,64954,1,0,0:0:0:0:
80,156,65122,5,0,0:0:0:0:
88,148,65459,1,0,3:0:0:0:
96,140,65797,1,0,3:0:0:0:
24,76,65965,1,4,3:0:0:0:
104,132,66134,1,0,3:0:0:0:
308,88,66471,6,0,P|388:80|476:116,2,160,2|0|0,0:0|0:0|0:0,0:0:0:0:
308,88,67482,1,2,0:0:0:0:
360,176,67650,1,2,0:0:0:0:
456,220,67819,6,0,P|400:276|296:260,1,160,2|0,0:0|0:0,0:0:0:0:
272,256,68325,1,0,0:0:0:0:
228,232,68493,2,0,P|150:232|95:288,1,160,2|0,0:0|0:0,0:0:0:0:
192,328,68999,1,0,0:0:0:0:
228,232,69167,6,0,L|224:128,1,80,2|8,0:0|0:0,0:0:0:0:
104,88,69504,1,2,0:0:0:0:
112,276,69673,1,2,0:0:0:0:
248,212,69841,2,0,L|256:112,1,80,8|2,0:0|0:0,0:0:0:0:
76,104,70179,1,8,0:0:0:0:
140,280,70347,1,2,0:0:0:0:
272,192,70516,6,0,L|300:100,1,80,2|2,0:0|0:0,0:0:0:0:
256,192,70853,12,0,71695,0:0:0:0:
432,192,71864,6,0,L|440:272,1,60.0000022888184,0|0,3:0|3:0,3:0:0:0:
360,248,72201,2,0,L|368:328,1,60.0000022888184,0|0,3:0|3:0,3:0:0:0:
280,220,72538,2,0,L|288:300,1,60.0000022888184,0|0,3:0|3:0,3:0:0:0:
208,276,72875,2,0,L|216:356,1,60.0000022888184,0|0,3:0|3:0,3:0:0:0:
417,103,73212,6,0,L|412:44,1,60.0000022888184,0|0,3:0|3:0,3:0:0:0:
340,100,73549,2,0,L|348:180,1,60.0000022888184,0|0,3:0|3:0,3:0:0:0:
265,131,73886,2,0,L|260:72,1,60.0000022888184,0|0,3:0|3:0,3:0:0:0:
188,128,74223,2,0,L|196:208,1,60.0000022888184,0|0,3:0|3:0,3:0:0:0:
112,308,74561,5,0,0:0:0:0:
100,284,74645,1,0,0:0:0:0:
88,260,74729,1,0,0:0:0:0:
76,236,74813,1,0,0:0:0:0:
64,212,74898,2,0,L|56:160,3,30.0000011444092
320,104,75235,1,0,0:0:0:0:
344,116,75319,1,0,0:0:0:0:
364,136,75403,1,0,0:0:0:0:
376,160,75488,1,0,0:0:0:0:
400,272,75572,2,0,L|440:308,3,30.0000011444092
256,192,75909,12,0,77089,0:0:0:0:
256,192,77257,5,4,0:0:0:0:
12,136,78606,5,0,0:0:0:0:
24,152,78943,1,0,0:0:0:0:
36,172,79280,1,0,0:0:0:0:
48,192,79617,1,0,0:0:0:0:
48,192,79954,6,0,P|120:152|232:152,1,160,4|8,0:0|0:0,0:0:0:0:
272,176,80460,1,0,0:0:0:0:
328,232,80628,2,0,P|368:232|424:224,2,80,0|0|8,0:0|0:0|0:0,0:0:0:0:
272,288,81134,1,0,0:0:0:0:
216,232,81302,6,0,P|200:144|256:96,1,160,0|8,0:0|0:0,0:0:0:0:
192,32,81808,2,0,P|280:16|328:72,1,160
376,128,82313,2,0,L|448:192,1,80,8|0,0:0|0:0,0:0:0:0:
368,224,82651,6,0,L|400:320,2,80,4|0|8,0:0|0:0|0:0,0:0:0:0:
288,176,83156,1,0,0:0:0:0:
216,216,83325,2,0,P|168:224|112:200,1,80
8,104,83662,2,0,P|56:96|112:120,1,80,8|0,0:0|0:0,0:0:0:0:
175,176,83999,6,0,P|115:225|40:208,1,160,0|8,0:0|0:0,0:0:0:0:
88,104,84504,2,0,L|280:88,1,160
312,160,85010,2,0,P|336:128|336:72,1,80,8|0,0:0|0:0,0:0:0:0:
240,232,85347,6,0,P|272:256|328:256,1,80,4|0,0:0|0:0,0:0:0:0:
176,168,85684,2,0,P|152:200|152:256,1,80,8|0,0:0|0:0,0:0:0:0:
168,336,86021,2,0,L|72:384,1,80
80,280,86358,2,0,L|8:315,1,80,8|0,0:0|0:0,0:0:0:0:
48,184,86695,6,0,P|128:192|176:272,1,160,0|8,0:0|0:0,0:0:0:0:
256,296,87201,2,0,L|296:120,1,160
384,80,87707,2,0,P|400:120|384:192,1,80,8|0,0:0|0:0,0:0:0:0:
256,296,88044,6,0,P|240:256|256:184,2,80,4|0|8,0:0|0:0|0:0,0:0:0:0:
336,240,88549,1,0,0:0:0:0:
312,144,88718,2,0,L|224:112,1,80
140,172,89055,2,0,L|216:200,1,80,8|0,0:0|0:0,0:0:0:0:
40,160,89392,6,0,P|88:96|176:88,1,160,0|8,0:0|0:0,0:0:0:0:
267,226,89898,2,0,P|213:171|136:176,1,160
72,248,90403,2,0,P|112:272|168:264,1,80,8|0,0:0|0:0,0:0:0:0:
231,327,90740,6,0,P|271:330|304:352,2,80,4|0|8,0:0|0:0|0:0,0:0:0:0:
304,264,91246,1,0,0:0:0:0:
400,256,91415,2,0,L|496:280,1,80,0|0,0:0|0:0,0:0:0:0:
344,168,91752,2,0,L|266:148,1,80,8|0,0:0|0:0,0:0:0:0:
424,104,92089,6,0,L|256:56,1,160,0|8,0:0|0:0,0:0:0:0:
208,136,92594,2,0,P|128:128|40:168,1,160
16,248,93100,2,0,L|0:344,1,80,8|0,0:0|0:0,0:0:0:0:
96,304,93437,6,0,L|120:384,2,80,4|0|8,0:0|0:0|0:0,0:0:0:0:
176,256,93943,1,0,0:0:0:0:
256,312,94111,2,0,L|352:328,1,80
312,232,94448,2,0,L|416:192,1,80,8|0,0:0|0:0,0:0:0:0:
328,128,94785,6,0,P|288:72|168:48,1,160,0|8,0:0|0:0,0:0:0:0:
208,168,95291,2,0,P|152:208|128:328,1,160
32,256,95797,2,0,L|72:176,1,80,8|0,0:0|0:0,0:0:0:0:
144,216,96134,6,0,L|184:136,2,80,4|0|8,0:0|0:0|0:0,0:0:0:0:
208,304,96639,1,0,0:0:0:0:
272,232,96808,2,0,P|296:264|296:336,1,80
384,344,97145,2,0,P|416:320|488:320,1,80,8|0,0:0|0:0,0:0:0:0:
384,248,97482,6,0,L|312:96,1,160,0|8,0:0|0:0,0:0:0:0:
256,32,97988,2,0,P|224:104|256:176,1,160
240,272,98493,2,0,L|312:328,1,80,8|0,0:0|0:0,0:0:0:0:
152,312,98830,6,0,L|224:368,2,80,4|0|8,0:0|0:0|0:0,0:0:0:0:
56,304,99336,1,0,0:0:0:0:
24,216,99504,2,0,P|64:208|120:240,1,80
200,192,99842,2,0,P|208:232|176:288,1,80,8|0,0:0|0:0,0:0:0:0:
0,304,100179,6,0,P|56:248|160:224,1,160,0|8,0:0|0:0,0:0:0:0:
216,272,100684,2,0,P|272:280|360:248,1,120,0|0,0:0|0:0,0:0:0:0:
376,240,101021,1,0,0:0:0:0:
464,272,101190,2,0,P|456:192|400:152,1,120,8|0,0:0|0:0,0:0:0:0:
384,144,101527,1,0,0:0:0:0:
296,112,101695,1,0,0:0:0:0:
72,192,112313,6,0,P|48:216|40:272,1,80,8|2,0:0|0:0,0:0:0:0:
133,260,112988,2,0,P|141:298|168:328,1,80,8|2,0:0|0:0,0:0:0:0:
224,256,113662,6,0,P|253:282|291:290,1,80,8|2,0:0|0:0,0:0:0:0:
296,200,114336,2,0,P|334:192|363:165,1,80,8|2,0:0|0:0,0:0:0:0:
296,104,115010,5,8,0:0:0:0:
248,88,115347,1,2,0:0:0:0:
200,88,115684,1,8,0:0:0:0:
152,104,116021,1,2,0:0:0:0:
120,136,116358,5,8,0:0:0:0:
104,184,116695,1,2,0:0:0:0:
112,232,117033,1,8,0:0:0:0:
136,272,117370,1,2,0:0:0:0:
176,296,117707,6,0,L|264:312,1,80,8|2,0:0|0:0,0:0:0:0:
256,224,118381,2,0,L|344:240,1,80,8|2,0:0|0:0,0:0:0:0:
160,128,119055,6,0,L|238:142,1,80,8|2,0:0|0:0,0:0:0:0:
80,200,119729,2,0,L|158:214,1,80,8|2,0:0|0:0,0:0:0:0:
256,328,120403,5,8,0:0:0:0:
304,320,120740,1,2,0:0:0:0:
344,296,121078,1,8,0:0:0:0:
368,256,121415,1,2,0:0:0:0:
368,208,121752,5,0,0:0:0:0:
344,168,122089,1,2,0:0:0:0:
200,344,122426,1,8,0:0:0:0:
200,344,122510,1,8,0:0:0:0:
200,344,122594,1,8,0:0:0:0:
200,344,122679,1,0,0:0:0:0:
200,344,122763,2,2,L|136:368,3,40
200,344,123100,6,0,P|368:320|392:192,1,320,4|2,0:0|0:0,0:0:0:0:
272,128,125460,2,0,L|200:120,1,60,2|0,0:0|0:0,0:0:0:0:
200,144,125797,6,0,P|168:168|112:168,1,80,8|2,0:0|0:0,0:0:0:0:
48,144,126302,2,0,P|56:216|176:248,1,200,8|8,0:0|0:0,0:0:0:0:
256,336,127313,1,8,0:0:0:0:
256,336,127482,2,0,P|285:306|288:256,1,80,2|2,0:0|0:0,0:0:0:0:
272,192,128156,1,8,0:0:0:0:
312,80,128493,6,0,P|376:112|368:272,1,240,2|2,0:0|0:0,0:0:0:0:
312,312,129842,5,8,0:0:0:0:
312,312,130010,2,0,L|256:312,1,40,8|2,0:0|0:0,0:0:0:0:
144,312,130516,1,2,0:0:0:0:
56,216,130853,2,0,L|80:160,1,60,0|0,0:0|0:0,0:0:0:0:
64,144,131190,6,0,P|82:102|120:80,1,80,8|0,0:0|0:0,0:0:0:0:
152,160,131695,2,0,L|280:160,1,120,2|0,0:0|0:0,0:0:0:0:
360,216,132538,5,8,0:0:0:0:
360,216,132707,2,0,L|384:264,1,40,8|2,0:0|0:0,0:0:0:0:
273,331,133212,2,0,L|224:248,1,80,2|0,0:0|0:0,0:0:0:0:
152,280,133887,6,0,P|192:192|296:208,1,200,4|0,0:0|0:0,0:0:0:0:
352,240,134898,1,0,0:0:0:0:
400,336,135235,6,0,P|432:312|456:272,1,80,2|0,0:0|0:0,0:0:0:0:
352,240,135740,2,0,P|330:206|298:182,1,80,2|0,0:0|0:0,0:0:0:0:
240,280,136246,2,0,L|200:280,1,40,2|0,0:0|0:0,0:0:0:0:
96,304,136583,6,0,P|96:256|112:224,1,80,8|0,0:0|0:0,0:0:0:0:
168,152,137089,2,0,P|208:160|256:144,1,80,2|0,0:0|0:0,0:0:0:0:
280,136,137594,1,2,0:0:0:0:
432,192,137931,6,0,P|472:176|512:168,1,80,2|0,0:0|0:0,0:0:0:0:
80,312,138437,2,0,P|40:328|0:336,1,80,8|0,0:0|0:0,0:0:0:0:
336,144,138943,2,0,L|392:136,1,40,8|0,0:0|0:0,0:0:0:0:
80,232,139280,6,0,L|-8:248,1,80,2|0,0:0|0:0,0:0:0:0:
120,112,139785,2,0,L|32:128,1,80,2|0,0:0|0:0,0:0:0:0:
248,304,140291,2,0,L|160:320,1,80,2|0,0:0|0:0,0:0:0:0:
432,160,140965,5,0,0:0:0:0:
432,160,141134,2,0,B|472:160|472:160|520:184,1,80,2|0,0:0|0:0,0:0:0:0:
112,144,141639,2,0,L|56:128,1,40,2|0,0:0|0:0,0:0:0:0:
64,232,141976,5,2,0:0:0:0:
160,232,142145,1,0,0:0:0:0:
64,232,142313,1,2,0:0:0:0:
192,208,142482,1,0,0:0:0:0:
64,232,142651,1,2,0:0:0:0:
224,184,142819,1,0,0:0:0:0:
64,232,142988,1,2,0:0:0:0:
256,160,143156,1,0,0:0:0:0:
416,184,143325,5,2,0:0:0:0:
272,248,143493,1,0,0:0:0:0:
344,120,143662,1,2,0:0:0:0:
368,264,143830,1,0,0:0:0:0:
224,336,143999,1,2,0:0:0:0:
224,176,144167,1,8,0:0:0:0:
336,288,144336,1,2,0:0:0:0:
184,328,144504,1,8,0:0:0:0:
224,176,144673,6,0,P|304:120|392:144,1,160,4|0,0:0|0:0,0:0:0:0:
448,176,145179,1,2,0:0:0:0:
448,176,145263,1,8,0:0:0:0:
448,176,145347,2,0,L|408:248,1,80,2|0,0:0|0:0,0:0:0:0:
320,192,145684,2,0,B|304:232|304:232|304:296,1,80,8|8,0:0|0:0,0:0:0:0:
288,360,146021,6,0,P|251:343|216:296,1,80,2|8,0:0|0:0,0:0:0:0:
144,264,146358,2,0,P|171:234|207:218,1,80,8|2,0:0|0:0,0:0:0:0:
248,304,146695,2,0,P|328:256|320:184,1,160,8|0,0:0|0:0,0:0:0:0:
280,112,147201,2,0,L|248:56,1,40,2|8,0:0|0:0,0:0:0:0:
184,104,147370,6,0,P|144:80|96:80,1,80,2|0,0:0|0:0,0:0:0:0:
112,192,147707,2,0,P|152:216|200:216,1,80,8|0,0:0|0:0,0:0:0:0:
296,208,148044,2,0,L|432:176,1,120,2|0,0:0|0:0,0:0:0:0:
120,304,148381,2,0,L|8:328,1,80,8|0,0:0|0:0,0:0:0:0:
288,280,148718,6,0,P|328:296|448:248,1,160,8|0,0:0|0:0,0:0:0:0:
448,176,149224,2,0,L|480:120,1,40
376,112,149392,2,0,L|408:32,1,80,2|0,0:0|0:0,0:0:0:0:
288,88,149645,2,0,L|296:32,1,40,0|8,0:0|0:0,0:0:0:0:
288,88,150066,5,8,0:0:0:0:
104,144,150403,1,8,0:0:0:0:
152,240,150572,2,0,L|80:264,1,40,2|0,0:0|0:0,0:0:0:0:
152,240,150740,2,0,P|192:248|264:208,1,120,8|0,0:0|0:0,0:0:0:0:
104,144,151078,2,0,L|16:160,1,80,8|0,0:0|0:0,0:0:0:0:
152,240,151415,6,0,L|264:224,1,80,2|0,0:0|0:0,0:0:0:0:
304,288,151752,2,0,L|384:208,1,80,2|0,0:0|0:0,0:0:0:0:
448,264,152089,2,0,P|440:192|368:136,1,160,8|0,0:0|0:0,0:0:0:0:
80,88,152594,2,0,L|32:48,1,40,8|2,0:0|0:0,0:0:0:0:
80,88,152763,6,0,P|104:96|144:104,1,47.9999985351563,8|0,0:0|0:0,0:0:0:0:
120,184,153100,2,0,P|144:192|200:184,1,55.9999982910157,8|0,0:0|0:0,0:0:0:0:
208,272,153437,2,0,P|240:272|272:256,1,64,8|0,0:0|0:0,0:0:0:0:
296,232,153690,1,0,0:0:0:0:
312,200,153774,1,2,0:0:0:0:
320,160,153858,1,0,0:0:0:0:
312,120,153943,1,2,0:0:0:0:
344,136,154027,1,0,0:0:0:0:
384,136,154111,6,0,P|424:184|424:272,1,128,2|0,0:0|0:0,0:0:0:0:
296,232,154617,2,0,L|248:256,1,32,2|0,0:0|0:0,0:0:0:0:
200,176,154785,2,0,L|152:200,1,32,2|0,0:0|0:0,0:0:0:0:
56,144,154954,2,0,P|48:176|56:224,1,64,8|0,0:0|0:0,0:0:0:0:
88,304,155291,1,2,0:0:0:0:
88,304,155375,1,8,0:0:0:0:
88,304,155460,6,0,L|184:312,1,80,4|0,0:0|0:0,0:0:0:0:
168,312,155797,1,0,0:0:0:0:
376,208,155965,2,0,L|472:192,1,80,4|0,0:0|0:0,0:0:0:0:
454,194,156302,1,0,0:0:0:0:
256,72,156471,2,0,L|160:88,1,80,4|0,0:0|0:0,0:0:0:0:
177,85,156808,5,0,0:0:0:0:
432,272,156976,2,0,L|528:256,1,80,4|0,0:0|0:0,0:0:0:0:
510,258,157313,1,0,0:0:0:0:
152,192,157482,2,0,L|56:208,1,80,4|0,0:0|0:0,0:0:0:0:
432,272,157819,2,0,L|528:256,1,80,4|0,0:0|0:0,0:0:0:0:
152,192,158156,6,0,L|56:208,1,80,4|0,0:0|0:0,0:0:0:0:
73,205,158493,1,0,0:0:0:0:
328,128,158662,2,0,L|408:72,1,80,4|0,0:0|0:0,0:0:0:0:
393,82,158999,1,0,0:0:0:0:
72,144,159167,2,0,L|-8:200,1,80,4|0,0:0|0:0,0:0:0:0:
7,190,159504,5,0,0:0:0:0:
328,160,159673,2,0,L|432:144,1,80,4|0,0:0|0:0,0:0:0:0:
407,147,160010,1,0,0:0:0:0:
80,112,160179,2,0,L|-24:128,1,80,4|0,0:0|0:0,0:0:0:0:
328,160,160516,2,0,L|432:144,1,80,4|0,0:0|0:0,0:0:0:0:
256,352,160853,6,0,L|152:368,1,80,4|0,0:0|0:0,0:0:0:0:
416,328,161190,1,0,0:0:0:0:
152,256,161358,2,0,L|48:272,1,80,4|0,0:0|0:0,0:0:0:0:
312,232,161695,1,0,0:0:0:0:
208,136,161864,2,0,L|104:152,1,80,4|0,0:0|0:0,0:0:0:0:
368,112,162201,5,0,0:0:0:0:
80,48,162370,2,0,L|-24:64,1,80,4|0,0:0|0:0,0:0:0:0:
240,24,162707,1,0,0:0:0:0:
120,136,162875,2,0,L|40:200,1,80,4|0,0:0|0:0,0:0:0:0:
185,265,163212,2,0,L|216:192,1,80,4|0,0:0|0:0,0:0:0:0:
368,112,163549,5,2,0:0:0:0:
392,136,163634,1,0,0:0:0:0:
408,168,163718,1,0,0:0:0:0:
416,200,163802,1,0,0:0:0:0:
416,232,163887,1,2,0:0:0:0:
408,264,163971,1,0,0:0:0:0:
392,288,164055,1,0,0:0:0:0:
368,304,164139,1,0,0:0:0:0:
336,312,164224,1,2,0:0:0:0:
304,312,164308,1,0,0:0:0:0:
272,304,164392,1,0,0:0:0:0:
240,296,164476,1,0,0:0:0:0:
208,296,164561,2,0,L|168:320,1,40,2|0,0:0|0:0,0:0:0:0:
80,264,164729,2,0,L|120:240,1,40
72,160,164898,6,0,B|108:160|140:148|160:120|160:120|192:108|232:120|264:152,1,200,2|8,0:0|0:0,0:0:0:0:
336,200,165909,2,8,L|360:224,4,20,8|8|8|8|2,0:0|0:0|0:0|0:0|0:0,0:0:0:0:
248,240,166246,5,4,0:0:0:0:
252,244,166583,1,2,0:0:0:0:
72,160,166752,1,0,0:0:0:0:
88,136,166836,1,0,0:0:0:0:
112,120,166920,2,0,P|152:112|216:128,1,80,0|4,0:0|0:0,0:0:0:0:
248,240,167257,2,0,P|208:248|144:232,1,80,2|0,0:0|0:0,0:0:0:0:
208,112,167594,6,0,L|248:24,1,80,4|0,0:0|0:0,0:0:0:0:
360,152,167931,2,0,L|400:64,1,80,2|0,0:0|0:0,0:0:0:0:
448,264,168269,2,0,P|376:304|288:272,1,160,0|2,0:0|0:0,0:0:0:0:
192,280,168774,2,0,L|144:304,1,40,0|0,0:0|0:0,0:0:0:0:
192,280,168943,6,0,P|208:224|256:192,1,80,4|0,0:0|0:0,0:0:0:0:
360,152,169280,2,0,P|344:208|296:240,1,80,2|0,0:0|0:0,0:0:0:0:
192,280,169617,2,0,L|48:256,1,120,0|0,0:0|0:0,0:0:0:0:
264,208,169954,2,0,P|288:240|288:304,1,80,2|0,0:0|0:0,0:0:0:0:
160,184,170291,6,0,P|208:112|296:112,1,160,4|2,0:0|0:0,0:0:0:0:
360,152,170797,2,0,L|408:120,1,40,4|0,0:0|0:0,0:0:0:0:
384,240,170965,2,0,L|480:224,1,80,0|4,0:0|0:0,0:0:0:0:
360,328,171218,2,0,L|424:352,1,40,0|2,0:0|0:0,0:0:0:0:
232,248,171639,5,4,0:0:0:0:
232,248,171976,1,2,0:0:0:0:
144,216,172145,2,0,L|72:184,1,40,0|0,0:0|0:0,0:0:0:0:
24,248,172313,2,0,P|8:200|56:128,1,120
64,40,172651,2,0,P|103:61|136:120,1,80,2|0,0:0|0:0,0:0:0:0:
104,208,172988,6,0,L|192:264,1,80,4|0,0:0|0:0,0:0:0:0:
248,360,173325,2,0,P|278:334|296:298,1,80,2|0,0:0|0:0,0:0:0:0:
392,328,173662,2,0,L|368:144,1,160,0|2,0:0|0:0,0:0:0:0:
296,224,174167,1,0,0:0:0:0:
288,216,174252,1,0,0:0:0:0:
280,208,174336,6,0,L|264:96,1,80,4|0,0:0|0:0,0:0:0:0:
184,192,174673,2,0,L|168:80,1,80,2|4,0:0|0:0,0:0:0:0:
88,176,175010,2,0,L|72:64,1,80,0|4,0:0|0:0,0:0:0:0:
104,88,175263,1,0,0:0:0:0:
128,72,175347,1,2,0:0:0:0:
144,48,175431,1,0,0:0:0:0:
168,64,175516,1,0,0:0:0:0:
192,72,175600,1,0,0:0:0:0:
216,72,175684,6,0,L|384:56,1,160,4|2,0:0|0:0,0:0:0:0:
424,136,176190,2,8,L|480:136,1,40,12|8,0:0|0:0,0:0:0:0:
384,216,176358,2,8,L|432:256,1,40
304,248,176527,2,8,L|320:336,1,80,4|2,0:0|0:0,0:0:0:0:
208,232,176864,2,0,L|240:184,1,40,0|0,0:0|0:0,0:0:0:0:
208,232,177033,6,0,P|176:256|56:232,1,160,4|2,0:0|0:0,0:0:0:0:
128,144,177538,1,0,0:0:0:0:
144,136,177622,1,0,0:0:0:0:
160,128,177707,2,0,L|272:152,1,80,0|4,0:0|0:0,0:0:0:0:
384,264,178044,2,0,L|272:240,1,80,2|0,0:0|0:0,0:0:0:0:
248,32,178381,6,0,L|360:56,1,80,4|0,0:0|0:0,0:0:0:0:
472,168,178718,2,0,L|360:144,1,80,2|0,0:0|0:0,0:0:0:0:
304,128,179055,2,0,P|216:128|120:168,1,160,0|2,0:0|0:0,0:0:0:0:
56,280,179561,1,0,0:0:0:0:
72,264,179645,1,0,0:0:0:0:
88,248,179729,6,0,P|128:264|184:256,1,80,4|0,0:0|0:0,0:0:0:0:
304,216,180066,2,0,L|240:312,1,80,2|0,0:0|0:0,0:0:0:0:
88,160,180403,2,0,P|128:176|232:144,1,120
286,146,180740,2,2,P|273:109|240:88,1,80,2|0,0:0|0:0,0:0:0:0:
224,216,181078,6,0,P|280:248|368:192,1,160,4|2,0:0|0:0,0:0:0:0:
384,112,181583,2,0,L|352:56,1,40,4|0,0:0|0:0,0:0:0:0:
288,128,181752,2,0,P|248:112|184:112,1,80,0|4,0:0|0:0,0:0:0:0:
224,200,182004,2,0,L|176:208,1,40,0|2,0:0|0:0,0:0:0:0:
368,264,182426,5,4,0:0:0:0:
368,264,182763,1,2,0:0:0:0:
184,312,182931,2,0,L|120:328,1,40
184,312,183100,2,0,P|224:288|264:216,1,120,0|0,0:0|0:0,0:0:0:0:
208,128,183437,2,0,P|168:152|152:216,1,80,2|0,0:0|0:0,0:0:0:0:
264,224,183774,6,0,P|304:200|320:136,1,80,4|0,0:0|0:0,0:0:0:0:
232,40,184111,2,0,P|192:40|136:72,1,80,2|0,0:0|0:0,0:0:0:0:
80,120,184448,2,0,P|144:152|232:120,1,160,0|2,0:0|0:0,0:0:0:0:
352,40,184954,1,0,0:0:0:0:
368,48,185038,1,0,0:0:0:0:
384,56,185122,6,0,L|408:120,1,40,4|0,0:0|0:0,0:0:0:0:
312,136,185291,2,0,L|336:200,1,40
472,144,185460,2,0,L|496:208,1,40,2|0,0:0|0:0,0:0:0:0:
400,224,185629,2,0,L|424:288,1,40
336,328,185797,1,2,0:0:0:0:
320,340,185881,1,0,0:0:0:0:
300,348,185965,1,0,0:0:0:0:
280,352,186049,1,0,0:0:0:0:
260,352,186134,1,2,0:0:0:0:
240,348,186218,1,0,0:0:0:0:
220,340,186302,1,0,0:0:0:0:
204,328,186387,1,0,0:0:0:0:
192,312,186471,6,0,L|180:128,1,160,4|2,0:0|0:0,0:0:0:0:
236,92,187145,1,2,0:0:0:0:
332,84,187313,2,0,P|328:128|296:160,1,80,4|2,0:0|0:0,0:0:0:0:
68,280,187819,6,0,P|140:240|232:248,1,160,4|2,0:0|0:0,0:0:0:0:
304,276,188325,1,0,0:0:0:0:
400,264,188493,2,0,L|488:196,1,80,0|4,0:0|0:0,0:0:0:0:
404,140,188830,2,0,L|316:208,1,80,2|0,0:0|0:0,0:0:0:0:
316,96,189167,6,0,P|400:48|476:84,1,160,4|2,0:0|0:0,0:0:0:0:
404,140,189673,1,0,0:0:0:0:
320,188,189842,1,0,0:0:0:0:
232,148,190010,1,4,0:0:0:0:
288,228,190179,1,2,0:0:0:0:
260,320,190347,1,0,0:0:0:0:
168,344,190516,6,0,P|88:320|32:260,1,160,4|2,0:0|0:0,0:0:0:0:
36,172,191021,1,0,0:0:0:0:
204,96,191190,1,0,0:0:0:0:
112,116,191358,1,4,0:0:0:0:
296,108,191527,2,0,L|384:144,1,80,2|0,0:0|0:0,0:0:0:0:
460,168,191864,6,0,P|408:224|312:216,1,160,4|2,0:0|0:0,0:0:0:0:
236,208,192370,2,0,L|128:232,1,80,0|0,0:0|0:0,0:0:0:0:
85,145,192707,2,0,L|164:128,1,80,4|2,0:0|0:0,0:0:0:0:
228,56,193044,1,0,0:0:0:0:
320,88,193212,6,0,P|372:136|408:248,1,160,4|2,0:0|0:0,0:0:0:0:
304,308,193718,1,0,0:0:0:0:
288,168,193887,1,0,0:0:0:0:
212,288,194055,1,4,0:0:0:0:
340,240,194224,1,2,0:0:0:0:
212,212,194392,1,0,0:0:0:0:
103,187,194561,6,0,P|148:123|224:104,1,160,4|2,0:0|0:0,0:0:0:0:
40,260,195066,2,0,P|76:284|132:280,1,80,0|0,0:0|0:0,0:0:0:0:
172,364,195403,2,0,P|211:360|243:337,1,80,4|2,0:0|0:0,0:0:0:0:
304,260,195740,1,0,0:0:0:0:
400,280,195909,6,0,P|406:201|352:120,1,160,4|2,0:0|0:0,0:0:0:0:
276,100,196415,1,0,0:0:0:0:
180,108,196583,1,0,0:0:0:0:
240,184,196752,1,4,0:0:0:0:
180,108,196920,1,2,0:0:0:0:
136,192,197089,1,0,0:0:0:0:
192,268,197257,6,2,P|280:272|328:204,1,160,4|2,0:0|0:0,0:0:0:0:
332,128,197763,1,4,0:0:0:0:
392,204,198100,2,0,P|424:228|476:240,1,80,4|2,0:0|0:0,0:0:0:0:
468,144,198437,1,2,0:0:0:0:
412,64,198606,6,0,P|328:76|260:152,1,160,4|2,0:0|0:0,0:0:0:0:
256,220,199111,1,0,0:0:0:0:
160,200,199280,1,0,0:0:0:0:
176,104,199448,1,4,0:0:0:0:
272,120,199617,1,2,0:0:0:0:
256,220,199785,1,0,0:0:0:0:
192,292,199954,6,0,P|96:276|64:208,1,160,4|2,0:0|0:0,0:0:0:0:
160,200,200460,1,0,0:0:0:0:
176,104,200628,1,0,0:0:0:0:
256,220,200797,1,4,0:0:0:0:
352,236,200965,1,2,0:0:0:0:
352,236,201134,1,0,0:0:0:0:
432,184,201302,6,0,P|368:136|288:168,1,160,4|2,0:0|0:0,0:0:0:0:
200,156,201808,2,0,L|176:252,1,80,0|0,0:0|0:0,0:0:0:0:
84,216,202145,2,0,L|84:332,1,80,4|2,0:0|0:0,0:0:0:0:
172,332,202482,1,0,0:0:0:0:
260,296,202651,6,0,P|200:244|96:276,1,160,4|2,0:0|0:0,0:0:0:0:
44,200,203156,2,0,P|80:168|132:160,1,80,0|0,0:0|0:0,0:0:0:0:
128,64,203493,2,0,P|165:76|193:104,1,80,4|2,0:0|0:0,0:0:0:0:
228,196,203830,1,0,0:0:0:0:
232,292,203999,6,0,P|308:256|320:176,1,160,4|2,0:0|0:0,0:0:0:0:
252,124,204504,2,0,P|292:96|352:104,1,80,0|0,0:0|0:0,0:0:0:0:
408,188,204842,2,0,P|368:216|308:208,1,80,4|2,0:0|0:0,0:0:0:0:
244,200,205179,1,0,0:0:0:0:
156,160,205347,6,0,P|68:180|12:244,1,160,4|2,0:0|0:0,0:0:0:0:
32,324,205853,2,0,P|74:312|104:260,1,80,0|0,0:0|0:0,0:0:0:0:
164,356,206190,2,0,P|192:329|201:290,1,80,4|2,0:0|0:0,0:0:0:0:
176,200,206527,1,0,0:0:0:0:
268,228,206695,6,0,P|360:228|424:176,1,160,4|2,0:0|0:0,0:0:0:0:
392,96,207201,1,0,0:0:0:0:
204,88,207370,1,2,0:0:0:0:
300,72,207538,1,4,0:0:0:0:
124,144,207707,1,2,0:0:0:0:
204,88,207875,1,0,0:0:0:0:
216,184,208044,6,0,P|288:220|384:180,1,160,4|2,0:0|0:0,0:0:0:0:
448,240,208549,1,0,0:0:0:0:
396,320,208718,2,0,L|296:328,1,80,2|4,0:0|0:0,0:0:0:0:
316,326,209055,1,2,0:0:0:0:
256,192,217482,5,0,0:0:0:0:
264,208,217819,1,0,0:0:0:0:
272,224,218156,1,0,0:0:0:0:
280,240,218493,1,0,0:0:0:0:
288,256,218830,5,0,0:0:0:0:
288,256,218999,1,0,0:0:0:0:
288,256,219167,1,0,0:0:0:0:
288,256,219336,1,0,0:0:0:0:
288,256,219504,1,2,0:0:0:0:
308,272,219589,1,2,0:0:0:0:
332,276,219673,1,0,0:0:0:0:
356,272,219757,1,2,0:0:0:0:
376,260,219842,1,0,0:0:0:0:
416,172,220179,6,0,P|328:144|252:172,1,160,4|2,0:0|0:0,0:0:0:0:
196,256,220684,1,0,0:0:0:0:
196,256,220853,2,0,P|160:220|148:180,2,80,0|0|2,0:0|0:0|0:0,0:0:0:0:
296,292,221358,1,0,0:0:0:0:
392,220,221527,6,0,P|316:180|220:196,1,160,0|2,0:0|0:0,0:0:0:0:
295,83,222033,2,0,P|217:79|147:118,1,160
92,196,222538,2,0,P|128:210|168:211,1,80,2|0,0:0|0:0,0:0:0:0:
156,308,222875,6,0,P|195:307|232:292,2,80,8|0|2,0:0|0:0|0:0,0:0:0:0:
180,216,223381,1,0,0:0:0:0:
272,184,223549,2,0,P|316:204|344:256,1,80
360,320,223887,2,0,P|404:300|432:248,1,80,2|0,0:0|0:0,0:0:0:0:
488,204,224224,6,0,P|451:128|384:68,1,160,0|2,0:0|0:0,0:0:0:0:
392,196,224729,2,0,P|336:139|264:104,1,160
168,88,225235,2,0,P|120:84|68:64,1,80,2|0,0:0|0:0,0:0:0:0:
24,144,225572,6,0,P|56:164|124:164,2,80,8|0|2,0:0|0:0|0:0,0:0:0:0:
88,72,226078,1,0,0:0:0:0:
172,116,226246,2,0,L|208:200,1,80
136,260,226583,2,0,L|172:344,1,80,2|0,0:0|0:0,0:0:0:0:
167,333,226920,6,0,P|224:276|308:296,1,160,0|2,0:0|0:0,0:0:0:0:
324,196,227426,2,0,P|400:205|453:149,1,160
384,80,227931,2,0,L|276:48,1,80,2|0,0:0|0:0,0:0:0:0:
256,140,228269,6,0,L|148:152,2,80,8|0|2,0:0|0:0|0:0,0:0:0:0:
348,168,228774,1,0,0:0:0:0:
344,264,228943,2,0,P|332:300|296:344,1,80
244,260,229280,2,0,P|211:283|174:296,1,80,2|0,0:0|0:0,0:0:0:0:
160,200,229617,6,0,P|72:196|-12:156,1,160,0|2,0:0|0:0,0:0:0:0:
256,192,230122,2,0,P|344:196|428:236,1,160
468,148,230628,2,0,L|428:64,1,80,2|0,0:0|0:0,0:0:0:0:
280,40,230965,6,0,L|320:124,2,80,8|0|2,0:0|0:0|0:0,0:0:0:0:
188,68,231471,1,0,0:0:0:0:
124,140,231639,2,0,L|88:248,1,80
16,264,231976,2,0,P|40:296|108:312,1,80,2|0,0:0|0:0,0:0:0:0:
172,296,232313,6,0,P|244:264|356:276,1,160,0|2,0:0|0:0,0:0:0:0:
284,340,232819,2,0,P|240:268|288:192,1,160
364,196,233325,2,0,P|400:160|416:120,1,80,2|0,0:0|0:0,0:0:0:0:
260,84,233662,6,0,P|224:48|184:32,2,80,8|0|2,0:0|0:0|0:0,0:0:0:0:
176,128,234167,1,0,0:0:0:0:
116,204,234336,2,0,L|88:288,1,80
188,268,234673,2,0,L|204:356,1,80,2|0,0:0|0:0,0:0:0:0:
280,288,235010,6,0,P|372:268|416:196,1,160,0|2,0:0|0:0,0:0:0:0:
440,96,235516,2,0,P|348:116|304:188,1,160
228,212,236021,2,0,L|132:192,1,80,2|0,0:0|0:0,0:0:0:0:
80,128,236358,6,0,P|60:160|52:220,2,80,8|0|2,0:0|0:0|0:0,0:0:0:0:
160,72,236864,1,0,0:0:0:0:
348,92,237033,1,0,0:0:0:0:
256,60,237201,1,0,0:0:0:0:
412,164,237370,1,2,0:0:0:0:
432,256,237538,1,0,0:0:0:0:
420,352,237707,6,0,P|352:320|336:232,1,160,0|2,0:0|0:0,0:0:0:0:
240,256,238212,2,0,P|257:180|327:146,1,160
412,164,238718,2,0,P|395:198|348:228,1,80,2|0,0:0|0:0,0:0:0:0:
276,268,239055,6,0,P|244:291|226:327,2,80,8|0|2,0:0|0:0|0:0,0:0:0:0:
312,180,239561,1,0,0:0:0:0:
264,96,239729,1,0,0:0:0:0:
168,80,239898,1,0,0:0:0:0:
80,120,240066,2,0,L|40:204,1,80,2|0,0:0|0:0,0:0:0:0:
45,192,240403,6,0,P|120:204|168:276,1,160,0|2,0:0|0:0,0:0:0:0:
168,268,240909,2,0,P|212:203|289:190,1,160
380,228,241415,1,2,0:0:0:0:
396,132,241752,5,2,0:0:0:0:
396,132,241920,1,2,0:0:0:0:
256,192,242089,12,2,244448,0:0:0:0:
128,92,249842,5,2,0:0:0:0:
124,100,250010,1,0,0:0:0:0:
120,108,250179,1,0,0:0:0:0:
116,116,250347,1,2,0:0:0:0:
176,264,250516,5,0,0:0:0:0:
184,268,250684,1,0,0:0:0:0:
192,272,250853,1,2,0:0:0:0:
200,276,251021,1,0,0:0:0:0:
348,200,251190,5,0,0:0:0:0:
352,192,251358,1,2,0:0:0:0:
356,184,251527,1,0,0:0:0:0:
360,176,251695,1,0,0:0:0:0:
364,152,251864,5,2,0:0:0:0:
332,80,252033,1,8,0:0:0:0:
244,44,252201,1,2,0:0:0:0:
332,80,252370,1,8,0:0:0:0:
160,84,252538,6,0,P|139:119|184:220,1,160,4|0,0:0|0:0,0:0:0:0:
252,292,253044,2,0,L|340:284,1,80,2|0,0:0|0:0,0:0:0:0:
416,232,253549,2,0,L|436:188,1,40,2|0,0:0|0:0,0:0:0:0:
328,200,253887,6,0,P|335:177|324:108,1,80,8|0,0:0|0:0,0:0:0:0:
240,160,254392,2,0,P|200:153|162:163,1,80,2|0,0:0|0:0,0:0:0:0:
68,208,254898,2,0,L|48:160,1,40,2|0,0:0|0:0,0:0:0:0:
28,300,255235,6,0,P|68:308|116:296,1,80,4|0,0:0|0:0,0:0:0:0:
200,276,255740,2,0,P|239:268|278:276,1,80,2|0,0:0|0:0,0:0:0:0:
368,304,256246,2,0,L|416:308,1,40,2|0,0:0|0:0,0:0:0:0:
432,216,256583,6,0,L|336:208,1,80,8|0,0:0|0:0,0:0:0:0:
336,124,257089,2,0,L|240:116,1,80,2|0,0:0|0:0,0:0:0:0:
208,32,257594,2,0,L|264:36,1,40,2|0,0:0|0:0,0:0:0:0:
336,124,257931,6,0,P|336:164|304:200,1,80,4|0,0:0|0:0,0:0:0:0:
372,252,258437,2,0,P|340:275|301:275,1,80,2|0,0:0|0:0,0:0:0:0:
224,328,258943,2,0,L|208:280,1,40,2|0,0:0|0:0,0:0:0:0:
120,296,259280,6,0,P|128:252|156:220,1,80,8|0,0:0|0:0,0:0:0:0:
84,160,259785,2,0,P|115:136|155:130,1,80,2|0,0:0|0:0,0:0:0:0:
252,168,260291,2,0,L|308:168,1,40,2|0,0:0|0:0,0:0:0:0:
352,264,260628,6,0,P|392:232|404:192,1,80,4|0,0:0|0:0,0:0:0:0:
308,180,261134,2,0,P|290:144|257:122,1,80,2|0,0:0|0:0,0:0:0:0:
160,124,261639,2,0,L|104:140,1,40,2|0,0:0|0:0,0:0:0:0:
136,216,261976,6,0,L|64:268,1,80,8|0,0:0|0:0,0:0:0:0:
160,320,262482,1,2,0:0:0:0:
160,320,262566,1,2,0:0:0:0:
160,320,262651,1,2,0:0:0:0:
244,328,262819,2,0,L|284:296,1,40,8|2,0:0|0:0,0:0:0:0:
340,248,263156,1,0,0:0:0:0:
224,200,263325,6,0,P|244:164|280:136,1,80,4|0,0:0|0:0,0:0:0:0:
372,160,263830,2,0,P|352:196|316:224,1,80,2|0,0:0|0:0,0:0:0:0:
256,288,264336,2,0,L|236:336,1,40,2|0,0:0|0:0,0:0:0:0:
160,264,264673,6,0,P|120:276|76:248,1,80,8|0,0:0|0:0,0:0:0:0:
8,224,265179,2,0,L|24:144,1,80,2|0,0:0|0:0,0:0:0:0:
104,152,265684,2,0,L|128:108,1,40,2|0,0:0|0:0,0:0:0:0:
220,152,266021,6,0,P|252:124|300:120,1,80,4|0,0:0|0:0,0:0:0:0:
344,196,266527,2,0,L|436:184,1,80,2|0,0:0|0:0,0:0:0:0:
400,312,267033,2,0,L|356:320,1,40,2|0,0:0|0:0,0:0:0:0:
256,336,267370,6,0,L|176:316,1,80,8|0,0:0|0:0,0:0:0:0:
84,272,267875,2,0,P|112:236|152:216,1,80,2|0,0:0|0:0,0:0:0:0:
244,208,268381,2,0,L|288:184,1,40,2|0,0:0|0:0,0:0:0:0:
376,232,268718,6,0,L|424:164,1,80,4|0,0:0|0:0,0:0:0:0:
344,136,269224,2,0,L|356:48,1,80,2|0,0:0|0:0,0:0:0:0:
248,92,269729,2,0,L|232:56,1,40,2|0,0:0|0:0,0:0:0:0:
152,124,270066,6,0,L|72:100,1,80,8|0,0:0|0:0,0:0:0:0:
116,212,270572,2,0,L|32:228,1,80,2|0,0:0|0:0,0:0:0:0:
104,320,271078,2,0,L|152:308,1,40,2|0,0:0|0:0,0:0:0:0:
236,352,271415,6,0,L|276:280,1,80,4|0,0:0|0:0,0:0:0:0:
364,328,271920,2,0,L|368:240,1,80,2|0,0:0|0:0,0:0:0:0:
448,208,272426,2,0,L|424:164,1,40,2|0,0:0|0:0,0:0:0:0:
368,92,272763,6,0,P|324:80|240:88,1,120,8|0,0:0|0:0,0:0:0:0:
156,104,273437,2,0,L|108:112,1,40,2|0,0:0|0:0,0:0:0:0:
128,208,273774,2,0,L|96:232,1,40,8|0,0:0|0:0,0:0:0:0:
200,304,274111,6,0,P|284:308|360:272,1,160,4|2,0:0|0:0,0:0:0:0:
396,192,275122,1,8,0:0:0:0:
332,120,275460,5,4,0:0:0:0:
308,112,275544,1,0,0:0:0:0:
252,172,275628,1,0,0:0:0:0:
228,164,275712,1,4,0:0:0:0:
176,224,275797,1,0,0:0:0:0:
152,216,275881,1,0,0:0:0:0:
108,280,275965,1,4,0:0:0:0:
84,272,276049,1,0,0:0:0:0:
24,180,276134,2,0,P|72:156|152:192,1,140,2|0,0:0|0:0,0:0:0:0:
160,80,276808,6,0,L|172:32,1,40,4|0,0:0|0:0,0:0:0:0:
256,72,277145,2,0,L|268:120,1,40,0|0,0:0|0:0,0:0:0:0:
336,164,277482,1,2,0:0:0:0:
408,112,277651,1,0,0:0:0:0:
408,112,277735,1,0,0:0:0:0:
408,112,277819,2,0,L|436:160,1,40,0|0,0:0|0:0,0:0:0:0:
364,232,278156,5,4,0:0:0:0:
356,256,278240,1,4,0:0:0:0:
280,248,278325,1,4,0:0:0:0:
272,272,278409,1,4,0:0:0:0:
200,260,278493,1,8,0:0:0:0:
192,284,278577,1,0,0:0:0:0:
120,272,278662,1,4,0:0:0:0:
112,296,278746,1,4,0:0:0:0:
104,320,278830,2,0,L|28:332,2,60,2|8|2,0:0|0:0|0:0,0:0:0:0:
192,284,279504,6,0,P|264:244|296:184,1,140,4|0,0:0|0:0,0:0:0:0:
288,116,280179,2,0,L|324:84,1,40,2|0,0:0|0:0,0:0:0:0:
432,92,280516,2,0,L|464:128,1,40
460,220,280853,6,0,L|448:288,1,40,4|0,0:0|0:0,0:0:0:0:
336,188,281021,2,0,L|342:148,1,40,4|0,0:0|0:0,0:0:0:0:
468,228,281190,2,0,L|456:296,1,40,8|0,0:0|0:0,0:0:0:0:
328,180,281358,2,0,L|334:140,1,40,4|0,0:0|0:0,0:0:0:0:
368,308,281527,2,0,P|332:336|284:344,1,80,2|0,0:0|0:0,0:0:0:0:
172,328,282033,1,0,0:0:0:0:
172,328,282117,1,0,0:0:0:0:
172,328,282201,6,0,L|144:284,1,40,4|0,0:0|0:0,0:0:0:0:
64,284,282538,2,0,L|68:232,1,40,0|0,0:0|0:0,0:0:0:0:
0,192,282875,2,0,L|20:144,1,40,2|0,0:0|0:0,0:0:0:0:
84,76,283128,1,0,0:0:0:0:
132,64,283212,1,2,0:0:0:0:
180,68,283297,1,0,0:0:0:0:
224,84,283381,1,8,0:0:0:0:
256,116,283465,1,0,0:0:0:0:
280,156,283549,6,0,P|336:204|392:208,1,120,4|0,0:0|0:0,0:0:0:0:
404,204,284139,1,2,0:0:0:0:
424,192,284224,1,0,0:0:0:0:
436,172,284308,1,0,0:0:0:0:
444,148,284392,1,8,0:0:0:0:
308,88,284729,1,0,0:0:0:0:
284,92,284813,1,0,0:0:0:0:
264,104,284898,6,0,P|204:136|124:120,1,140,4|0,0:0|0:0,0:0:0:0:
44,132,285572,2,0,L|-8:140,1,40,2|0,0:0|0:0,0:0:0:0:
68,216,285909,2,0,L|32:240,1,40,0|0,0:0|0:0,0:0:0:0:
132,280,286246,5,4,0:0:0:0:
136,304,286330,1,0,0:0:0:0:
216,272,286415,1,0,0:0:0:0:
228,292,286499,1,4,0:0:0:0:
284,224,286583,1,0,0:0:0:0:
304,240,286667,1,0,0:0:0:0:
320,152,286752,1,4,0:0:0:0:
344,156,286836,1,4,0:0:0:0:
328,72,286920,2,0,L|444:68,1,100,2|0,0:0|0:0,0:0:0:0:
320,152,287426,2,0,L|264:152,1,40,0|4,0:0|0:0,0:0:0:0:
192,232,287763,6,0,L|248:232,1,40
276,336,288100,1,0,0:0:0:0:
144,360,288269,2,0,P|138:335|140:296,1,60,2|0,0:0|0:0,0:0:0:0:
192,232,288606,2,0,P|192:202|188:176,1,40
104,148,288943,6,0,L|72:120,1,40,4|0,0:0|0:0,0:0:0:0:
176,96,289111,2,0,L|152:48,1,40,0|4,0:0|0:0,0:0:0:0:
264,96,289280,2,0,L|264:48,1,40,0|0,0:0|0:0,0:0:0:0:
328,152,289448,2,0,L|352:108,1,40,4|0,0:0|0:0,0:0:0:0:
348,232,289617,2,0,L|416:200,2,60,2|8|2,0:0|0:0|0:0,0:0:0:0:
332,312,290291,6,0,P|272:360|204:368,1,140,4|0,0:0|0:0,0:0:0:0:
132,340,290965,2,0,L|104:308,1,40,2|0,0:0|0:0,0:0:0:0:
140,232,291302,2,0,L|120:180,1,40
208,160,291639,5,4,0:0:0:0:
212,136,291724,1,0,0:0:0:0:
288,144,291808,1,0,0:0:0:0:
296,120,291892,1,4,0:0:0:0:
360,172,291976,1,0,0:0:0:0:
376,152,292061,1,0,0:0:0:0:
408,228,292145,1,4,0:0:0:0:
432,224,292229,1,0,0:0:0:0:
416,304,292313,2,0,B|380:320|348:316|348:316|312:320|280:352,1,140,2|0,0:0|0:0,0:0:0:0:
196,344,292988,6,0,L|164:300,1,40,4|0,0:0|0:0,0:0:0:0:
264,240,293325,2,0,L|296:196,1,40
188,112,293662,2,0,L|156:68,1,40,2|0,0:0|0:0,0:0:0:0:
52,92,293915,1,0,0:0:0:0:
60,116,293999,1,0,0:0:0:0:
76,136,294083,1,2,0:0:0:0:
96,152,294167,1,0,0:0:0:0:
120,160,294252,1,0,0:0:0:0:
144,160,294336,6,2,L|172:152,30,20,0|0|0|0|0|0|0|0|0|0|0|0|0|0|0|0|0|0|0|0|0|0|0|0|0|0|0|0|0|0|0,0:0|0:0|0:0|0:0|0:0|0:0|0:0|0:0|0:0|0:0|0:0|0:0|0:0|0:0|0:0|0:0|0:0|0:0|0:0|0:0|0:0|0:0|0:0|0:0|0:0|0:0|0:0|0:0|0:0|0:0|0:0,0:0:0:0:
124,176,295684,2,0,P|124:228|184:288,1,140
296,320,296358,6,0,P|348:320|408:260,1,140
352,160,297033,6,0,P|274:163|221:107,1,160
172,240,297875,1,4,0:0:0:0:
0,288,298044,2,0,L|92:312,1,80,0|4,3:0|0:0,0:0:0:0:
77,308,298718,5,2,0:0:0:0:
360,260,298887,1,0,0:0:0:0:
372,244,298971,1,0,0:0:0:0:
384,228,299055,2,0,L|368:136,1,80,0|4,0:0|0:0,0:0:0:0:
236,112,299392,2,0,L|252:204,1,80,2|0,0:0|0:0,0:0:0:0:
392,216,299729,6,0,L|356:124,1,80,4|0,0:0|0:0,0:0:0:0:
232,128,300066,2,0,L|268:220,1,80,2|0,0:0|0:0,0:0:0:0:
392,216,300403,2,0,P|376:136|296:80,1,160,0|2,0:0|0:0,0:0:0:0:
224,72,300909,2,0,L|204:32,1,40
224,72,301078,6,0,P|224:108|184:172,1,80,4|0,0:0|0:0,0:0:0:0:
136,224,301415,2,0,P|172:224|236:264,1,80,2|0,0:0|0:0,0:0:0:0:
288,312,301752,2,0,P|288:276|344:180,1,120,0|0,0:0|0:0,0:0:0:0:
388,124,302089,2,0,P|352:124|288:84,1,80,2|0,0:0|0:0,0:0:0:0:
224,72,302426,6,8,L|44:84,1,160,4|2,0:0|0:0,0:0:0:0:
24,168,302931,2,0,L|-8:216,1,40,4|0,0:0|0:0,0:0:0:0:
80,240,303100,2,0,P|88:288|120:332,1,80,0|4,0:0|0:0,0:0:0:0:
192,280,303353,2,0,L|252:300,1,40,0|2,0:0|0:0,0:0:0:0:
192,280,303774,5,4,0:0:0:0:
192,280,304111,1,2,0:0:0:0:
284,256,304280,2,0,L|328:208,1,40
368,160,304448,2,0,P|296:136|244:168,1,120,0|0,0:0|0:0,0:0:0:0:
176,184,304785,2,0,P|200:220|256:244,1,80,2|0,0:0|0:0,0:0:0:0:
272,152,305122,6,0,L|216:72,1,80,4|0,0:0|0:0,0:0:0:0:
128,96,305460,2,0,P|92:120|72:176,1,80,2|0,0:0|0:0,0:0:0:0:
136,224,305797,2,0,P|152:296|244:360,1,160,0|2,0:0|0:0,0:0:0:0:
292,296,306302,1,0,0:0:0:0:
304,280,306387,1,0,0:0:0:0:
316,264,306471,6,0,L|404:248,1,80,12|0,0:0|0:0,0:0:0:0:
340,176,306808,2,0,L|428:160,1,80,2|0,0:0|0:0,0:0:0:0:
304,96,307145,2,0,L|225:110,1,80,0|4,0:0|0:0,0:0:0:0:
212,128,307398,1,0,0:0:0:0:
196,140,307482,1,2,0:0:0:0:
176,148,307566,1,0,0:0:0:0:
156,152,307651,1,0,0:0:0:0:
136,152,307735,1,0,0:0:0:0:
116,148,307819,6,0,L|72:312,1,160,4|2,0:0|0:0,0:0:0:0:
168,340,308325,1,4,0:0:0:0:
188,332,308409,1,0,0:0:0:0:
208,328,308493,1,0,0:0:0:0:
228,328,308578,1,0,0:0:0:0:
248,332,308662,2,0,L|352:288,1,80,4|2,0:0|0:0,0:0:0:0:
432,328,308999,1,4,0:0:0:0:
444,312,309083,1,0,0:0:0:0:
456,296,309167,6,0,P|464:212|424:116,1,160,4|2,0:0|0:0,0:0:0:0:
380,68,309673,2,0,L|440:44,1,40
380,68,309842,2,0,P|336:72|272:64,1,80,0|4,0:0|0:0,0:0:0:0:
224,156,310179,2,0,P|268:160|332:152,1,80,2|0,0:0|0:0,0:0:0:0:
380,248,310516,6,0,P|336:252|272:244,1,80,4|0,0:0|0:0,0:0:0:0:
292,344,310853,2,0,P|240:328|192:296,1,80,2|0,0:0|0:0,0:0:0:0:
124,336,311190,2,0,P|88:272|96:176,1,160,0|2,0:0|0:0,0:0:0:0:
184,164,311695,2,0,L|208:224,1,40
184,164,311864,6,0,P|160:124|96:104,1,80,4|0,0:0|0:0,0:0:0:0:
284,120,312201,2,0,P|324:96|344:36,1,80,2|0,0:0|0:0,0:0:0:0:
248,36,312538,2,0,P|208:60|192:144,1,120,0|0,0:0|0:0,0:0:0:0:
252,212,312875,2,0,P|288:184|292:128,1,80,2|0,0:0|0:0,0:0:0:0:
188,128,313212,6,0,P|108:156|48:236,1,160,4|2,0:0|0:0,0:0:0:0:
192,268,313718,2,0,L|184:324,1,40,4|0,0:0|0:0,0:0:0:0:
300,284,313887,2,0,L|360:356,1,80,0|4,0:0|0:0,0:0:0:0:
388,224,314139,2,0,L|432:220,1,40,0|2,0:0|0:0,0:0:0:0:
388,224,314561,5,4,0:0:0:0:
388,224,314898,1,2,0:0:0:0:
248,92,315066,1,4,0:0:0:0:
236,108,315150,1,0,0:0:0:0:
224,124,315235,2,0,P|176:152|112:140,1,120,0|0,0:0|0:0,0:0:0:0:
64,72,315572,2,0,P|32:108|16:160,1,80,2|0,0:0|0:0,0:0:0:0:
40,232,315909,6,0,P|80:256|144:252,1,80,4|0,0:0|0:0,0:0:0:0:
116,356,316246,2,0,P|155:350|188:328,1,80,2|0,0:0|0:0,0:0:0:0:
284,320,316583,2,0,P|248:252|148:240,1,160,0|2,0:0|0:0,0:0:0:0:
88,184,317089,1,0,0:0:0:0:
104,164,317173,1,0,0:0:0:0:
128,148,317257,6,0,L|184:136,1,40,4|0,0:0|0:0,0:0:0:0:
248,60,317426,1,0,0:0:0:0:
268,76,317510,1,0,0:0:0:0:
280,100,317594,2,0,L|288:168,1,40,2|0,0:0|0:0,0:0:0:0:
308,244,317763,1,4,0:0:0:0:
324,264,317847,1,0,0:0:0:0:
348,276,317931,2,0,L|416:284,1,40,0|0,0:0|0:0,0:0:0:0:
468,192,318100,1,4,0:0:0:0:
444,180,318184,1,0,0:0:0:0:
416,172,318269,1,2,0:0:0:0:
388,172,318353,1,0,0:0:0:0:
360,172,318437,1,0,0:0:0:0:
332,172,318521,1,0,0:0:0:0:
308,172,318606,6,0,B|264:196|224:200|184:184|184:184|156:156|112:144|64:168,1,240,4|2,0:0|0:0,0:0:0:0:
112,256,319954,6,0,P|192:292|272:292,1,160,4|2,0:0|0:0,0:0:0:0:
356,268,320460,1,0,0:0:0:0:
432,212,320628,2,0,P|448:168|428:112,1,80,0|4,0:0|0:0,0:0:0:0:
348,156,320965,2,0,P|352:116|336:80,1,80,2|0,0:0|0:0,0:0:0:0:
252,128,321302,6,0,P|176:116|64:140,1,160,4|2,0:0|0:0,0:0:0:0:
36,204,321808,1,0,0:0:0:0:
76,292,321976,2,0,L|176:280,1,80,0|4,0:0|0:0,0:0:0:0:
208,192,322313,2,0,L|108:204,1,80,2|0,0:0|0:0,0:0:0:0:
172,288,322651,6,0,P|260:280|304:200,1,160,4|2,0:0|0:0,0:0:0:0:
260,140,323156,1,0,0:0:0:0:
420,140,323325,1,0,0:0:0:0:
296,64,323493,1,4,0:0:0:0:
344,212,323662,1,2,0:0:0:0:
388,60,323830,1,0,0:0:0:0:
224,92,323999,6,0,P|152:128|104:224,1,160,4|2,0:0|0:0,0:0:0:0:
84,284,324504,1,0,0:0:0:0:
272,304,324673,1,0,0:0:0:0:
176,312,324842,1,4,0:0:0:0:
344,244,325010,1,2,0:0:0:0:
376,152,325179,1,0,0:0:0:0:
344,60,325347,6,0,L|176:96,1,160,4|2,0:0|0:0,0:0:0:0:
132,172,325853,1,0,0:0:0:0:
132,172,326021,2,0,L|140:280,1,80,0|4,0:0|0:0,0:0:0:0:
236,276,326358,2,0,L|292:352,1,80,2|0,0:0|0:0,0:0:0:0:
380,340,326695,6,0,P|432:300|456:196,1,160,4|2,0:0|0:0,0:0:0:0:
404,132,327201,1,0,0:0:0:0:
248,96,327370,1,0,0:0:0:0:
220,252,327538,1,4,0:0:0:0:
376,284,327707,1,2,0:0:0:0:
380,124,327875,1,0,0:0:0:0:
220,124,328044,6,0,P|240:204|320:272,1,160,4|2,0:0|0:0,0:0:0:0:
388,244,328549,1,0,0:0:0:0:
316,100,328718,1,0,0:0:0:0:
428,192,328887,1,4,0:0:0:0:
264,184,329055,1,2,0:0:0:0:
376,84,329224,1,0,0:0:0:0:
280,240,329392,6,0,P|208:288|100:280,1,160,4|2,0:0|0:0,0:0:0:0:
48,252,329898,1,4,0:0:0:0:
48,252,330235,1,4,0:0:0:0:
48,252,330403,2,0,L|8:168,1,80,2|4,0:0|0:0,0:0:0:0:
104,148,330740,6,0,P|152:88|260:96,1,160,4|2,0:0|0:0,0:0:0:0:
204,172,331246,1,0,0:0:0:0:
144,248,331415,1,0,0:0:0:0:
204,172,331583,1,4,0:0:0:0:
236,264,331752,1,2,0:0:0:0:
204,172,331920,1,0,0:0:0:0:
300,192,332089,6,0,P|384:192|468:144,1,160,4|2,0:0|0:0,0:0:0:0:
388,88,332594,1,0,0:0:0:0:
296,64,332763,1,0,0:0:0:0:
204,172,332931,1,4,0:0:0:0:
112,192,333100,1,2,0:0:0:0:
108,328,333269,1,0,0:0:0:0:
200,304,333437,6,0,P|288:296|380:344,1,160,4|2,0:0|0:0,0:0:0:0:
440,280,333943,1,0,0:0:0:0:
364,220,334111,1,0,0:0:0:0:
456,188,334280,1,4,0:0:0:0:
424,276,334448,1,2,0:0:0:0:
360,204,334617,1,0,0:0:0:0:
456,188,334785,6,0,P|444:276|352:296,1,160,4|2,0:0|0:0,0:0:0:0:
292,292,335291,1,0,0:0:0:0:
196,284,335460,2,0,L|96:324,1,80,0|4,0:0|0:0,0:0:0:0:
76,232,335797,2,0,L|1:261,1,80,2|0,0:0|0:0,0:0:0:0:
0,164,336134,6,0,P|76:132|160:184,1,160,4|2,0:0|0:0,0:0:0:0:
212,228,336639,1,0,0:0:0:0:
292,176,336808,1,0,0:0:0:0:
316,84,336976,1,4,0:0:0:0:
212,228,337145,1,2,0:0:0:0:
380,192,337313,1,0,0:0:0:0:
316,84,337482,6,0,P|232:104|196:180,1,160,4|2,0:0|0:0,0:0:0:0:
132,232,337988,1,0,0:0:0:0:
40,256,338156,1,0,0:0:0:0:
240,308,338325,1,4,0:0:0:0:
332,332,338493,1,2,0:0:0:0:
512,232,338662,1,0,0:0:0:0:
420,256,338830,6,0,P|328:244|252:200,1,160,4|2,0:0|0:0,0:0:0:0:
180,248,339336,2,0,L|144:144,1,80
60,184,339673,2,0,L|72:76,1,80,4|2,0:0|0:0,0:0:0:0:
144,48,340010,1,0,0:0:0:0:
208,120,340179,6,0,P|212:204|168:280,1,160,4|2,0:0|0:0,0:0:0:0:
260,320,340684,1,8,0:0:0:0:
352,292,340853,2,0,L|376:200,1,80,2|12,0:0|0:0,0:0:0:0:
460,172,341190,1,2,0:0:0:0:
460,172,349617,5,4,0:0:0:0:
452,160,349954,1,2,0:0:0:0:
440,152,350291,1,2,0:0:0:0:
424,148,350628,1,2,0:0:0:0:
340,216,350965,5,4,0:0:0:0:
324,224,351134,1,0,0:0:0:0:
308,228,351302,1,2,0:0:0:0:
292,228,351471,1,0,0:0:0:0:
276,224,351639,1,2,0:0:0:0:
240,216,351724,1,0,0:0:0:0:
204,216,351808,1,0,0:0:0:0:
168,224,351892,1,0,0:0:0:0:
140,248,351976,1,2,0:0:0:0:
220,328,352145,1,0,0:0:0:0:
296,132,352313,6,0,P|376:124|432:184,1,160,4|2,0:0|0:0,0:0:0:0:
344,216,352819,1,0,0:0:0:0:
344,216,352988,2,0,P|304:228|248:212,1,80
220,136,353325,2,0,P|260:124|316:140,1,80,2|0,0:0|0:0,0:0:0:0:
264,220,353662,6,0,L|208:316,1,80
64,288,353999,2,0,L|104:218,1,80,2|0,0:0|0:0,0:0:0:0:
224,136,354336,2,0,L|168:232,1,80
24,204,354673,2,0,L|64:134,1,80,2|0,0:0|0:0,0:0:0:0:
144,84,355010,6,0,P|216:44|308:96,1,160,0|2,0:0|0:0,0:0:0:0:
364,124,355516,1,0,0:0:0:0:
460,140,355684,1,0,0:0:0:0:
388,204,355853,1,0,0:0:0:0:
484,220,356021,1,2,0:0:0:0:
416,288,356190,1,0,0:0:0:0:
320,272,356358,6,0,P|240:248|148:252,1,160,0|2,0:0|0:0,0:0:0:0:
72,280,356864,1,0,0:0:0:0:
44,188,357033,1,0,0:0:0:0:
72,280,357201,1,0,0:0:0:0:
112,136,357370,1,2,0:0:0:0:
72,280,357538,1,0,0:0:0:0:
188,160,357707,6,0,P|256:188|356:152,1,160,0|2,0:0|0:0,0:0:0:0:
396,92,358212,1,0,0:0:0:0:
188,160,358381,1,0,0:0:0:0:
192,40,358549,1,0,0:0:0:0:
320,196,358718,1,2,0:0:0:0:
212,316,358887,1,0,0:0:0:0:
112,192,359055,6,0,P|64:260|64:352,1,160,0|2,0:0|0:0,0:0:0:0:
212,316,359561,1,0,0:0:0:0:
368,340,359729,1,0,0:0:0:0:
244,236,359898,1,0,0:0:0:0:
400,264,360066,1,2,0:0:0:0:
280,160,360235,1,0,0:0:0:0:
436,188,360403,6,0,P|400:124|312:60,1,160,0|2,0:0|0:0,0:0:0:0:
240,48,360909,1,0,0:0:0:0:
152,92,361078,2,0,P|176:128|232:140,1,80
244,232,361415,2,0,P|280:216|300:182,1,80,2|0,0:0|0:0,0:0:0:0:
284,88,361752,5,4,0:0:0:0:
192,56,361920,1,0,0:0:0:0:
100,88,362089,1,2,0:0:0:0:
64,176,362257,1,4,0:0:0:0:
104,264,362426,1,0,0:0:0:0:
188,312,362594,1,4,0:0:0:0:
280,288,362763,1,2,0:0:0:0:
336,212,362931,1,0,0:0:0:0:
328,116,363100,6,0,P|260:144|240:240,1,160,4|2,0:0|0:0,0:0:0:0:
336,212,363606,1,0,0:0:0:0:
328,116,363774,2,0,P|300:88|240:72,1,80
152,136,364111,2,0,P|180:164|240:180,1,80,2|0,0:0|0:0,0:0:0:0:
160,32,364448,6,0,P|76:68|44:164,1,160,0|2,0:0|0:0,0:0:0:0:
40,220,364954,1,0,0:0:0:0:
108,288,365122,1,0,0:0:0:0:
204,288,365291,1,0,0:0:0:0:
272,356,365460,1,2,0:0:0:0:
368,356,365628,1,0,0:0:0:0:
368,356,365797,6,0,B|368:296|396:272|396:272|424:248|424:180,1,160,0|2,0:0|0:0,0:0:0:0:
384,124,366302,1,0,0:0:0:0:
328,200,366471,2,0,P|376:220|424:208,1,80
240,140,366808,2,0,P|220:188|232:236,1,80,2|0,0:0|0:0,0:0:0:0:
328,200,367145,6,0,P|344:112|280:44,1,160,0|2,0:0|0:0,0:0:0:0:
208,56,367651,1,0,0:0:0:0:
120,92,367819,1,0,0:0:0:0:
124,188,367988,1,0,0:0:0:0:
208,56,368156,1,2,0:0:0:0:
52,56,368325,1,0,0:0:0:0:
124,188,368493,6,0,P|212:200|268:272,1,160,0|2,0:0|0:0,0:0:0:0:
264,344,368999,1,0,0:0:0:0:
340,288,369167,2,0,P|348:236|320:184,1,80
176,252,369504,2,0,P|214:261|253:252,1,80,2|0,0:0|0:0,0:0:0:0:
216,164,369842,6,0,P|156:112|60:132,1,160,0|2,0:0|0:0,0:0:0:0:
128,204,370347,1,0,0:0:0:0:
324,160,370516,1,0,0:0:0:0:
188,44,370684,1,0,0:0:0:0:
128,204,370853,1,2,0:0:0:0:
268,336,371021,1,0,0:0:0:0:
324,160,371190,6,0,P|256:136|132:136,1,160,0|2,0:0|0:0,0:0:0:0:
76,144,371695,1,0,0:0:0:0:
160,296,371864,1,0,0:0:0:0:
256,284,372033,1,0,0:0:0:0:
80,240,372201,1,2,0:0:0:0:
216,144,372370,1,0,0:0:0:0:
216,144,372538,6,0,P|296:140|380:204,1,160,0|2,0:0|0:0,0:0:0:0:
396,268,373044,1,4,0:0:0:0:
396,268,373212,2,0,P|432:252|452:208,1,80,2|4,0:0|0:0,0:0:0:0:
364,172,373549,2,0,P|344:137|308:121,1,80,2|0,0:0|0:0,0:0:0:0:
252,236,373887,6,0,B|204:252|172:233|172:233|144:216|104:224,1,140,4|0,0:0|0:0,0:0:0:0:
24,216,374561,2,0,P|40:168|76:140,1,80,2|0,0:0|0:0,0:0:0:0:
136,108,375066,1,0,0:0:0:0:
232,120,375235,5,4,0:0:0:0:
252,108,375319,1,0,0:0:0:0:
288,168,375403,1,0,0:0:0:0:
308,156,375487,1,4,0:0:0:0:
344,216,375572,1,0,0:0:0:0:
364,204,375656,1,0,0:0:0:0:
400,264,375740,1,4,0:0:0:0:
420,252,375824,1,0,0:0:0:0:
440,240,375909,2,0,B|476:200|468:156|468:156|444:132|444:100,1,140,2|0,0:0|0:0,0:0:0:0:
512,88,376583,6,0,P|484:52|388:68,1,140,4|0,0:0|0:0,0:0:0:0:
384,132,377257,2,0,B|360:144|332:116|332:116|300:168|256:168,1,140,2|0,0:0|0:0,0:0:0:0:
84,192,377931,2,0,L|96:240,1,40,4|0,0:0|0:0,0:0:0:0:
228,276,378100,2,0,L|216:228,1,40,0|4,0:0|0:0,0:0:0:0:
80,200,378269,2,0,L|92:248,1,40
232,268,378438,2,0,L|220:220,1,40,4|0,0:0|0:0,0:0:0:0:
76,208,378606,6,0,L|96:280,2,60,2|8|2,0:0|0:0|0:0,0:0:0:0:
40,116,379280,2,0,B|88:88|132:116|132:116|140:124|140:124|152:120|188:124,1,140,4|0,0:0|0:0,0:0:0:0:
176,208,379954,2,0,P|220:196|260:116,1,140,2|0,0:0|0:0,0:0:0:0:
232,72,380628,6,0,L|284:56,1,40,4|0,0:0|0:0,0:0:0:0:
352,156,380797,2,0,L|300:172,1,40,0|4,0:0|0:0,0:0:0:0:
236,64,380965,2,0,L|288:48,1,40
348,164,381134,2,0,L|296:180,1,40,4|0,0:0|0:0,0:0:0:0:
384,32,381302,2,0,P|452:72|480:136,1,140,2|0,0:0|0:0,0:0:0:0:
464,228,381976,6,0,L|440:300,1,60,4|0,0:0|0:0,0:0:0:0:
360,248,382313,2,0,L|304:296,1,60,0|0,0:0|0:0,0:0:0:0:
260,212,382651,2,0,L|188:208,1,60,2|0,0:0|0:0,0:0:0:0:
212,120,382988,2,0,L|148:80,1,60
52,88,383325,6,0,B|48:132|72:152|72:152|96:172|88:224,1,140,4|0,0:0|0:0,0:0:0:0:
80,312,383999,2,0,B|116:332|148:304|148:304|148:256|188:244,1,140,2|0,0:0|0:0,0:0:0:0:
232,308,384673,6,0,P|300:316|368:280,1,140,4|0,0:0|0:0,0:0:0:0:
456,272,385347,2,0,P|416:208|344:192,1,140,2|0,0:0|0:0,0:0:0:0:
284,240,386021,5,4,0:0:0:0:
284,240,386106,1,0,0:0:0:0:
284,240,386190,1,0,0:0:0:0:
284,240,386274,1,4,0:0:0:0:
284,240,386358,2,0,L|272:296,3,40,0|0|4|0,0:0|0:0|0:0|0:0,0:0:0:0:
284,240,386695,2,0,B|264:204|232:192|232:192|148:192,1,140,2|0,0:0|0:0,0:0:0:0:
88,200,387370,6,0,B|88:152|124:128|124:128|120:64,1,140,4|0,0:0|0:0,0:0:0:0:
120,72,388044,2,0,B|160:84|176:108|176:108|192:92|256:84,1,140,2|0,0:0|0:0,0:0:0:0:
328,124,388718,6,0,L|380:124,1,40,4|0,0:0|0:0,0:0:0:0:
364,232,388887,2,0,L|416:232,1,40,0|4,0:0|0:0,0:0:0:0:
248,196,389055,2,0,L|300:196,1,40,0|0,0:0|0:0,0:0:0:0:
284,304,389224,2,0,L|336:304,1,40,4|0,0:0|0:0,0:0:0:0:
184,276,389392,2,0,P|148:280|116:300,2,60,2|8|2,0:0|0:0|0:0,0:0:0:0:
284,304,390066,6,0,B|356:300|356:300|428:272,1,140,4|0,0:0|0:0,0:0:0:0:
484,220,390740,2,0,B|452:188|408:196|408:196|368:140,1,140,2|0,0:0|0:0,0:0:0:0:
308,112,391415,5,4,0:0:0:0:
288,92,391499,1,0,0:0:0:0:
232,148,391583,1,0,0:0:0:0:
208,136,391667,1,4,0:0:0:0:
176,208,391752,1,0,0:0:0:0:
152,208,391836,1,0,0:0:0:0:
160,284,391920,1,4,0:0:0:0:
136,292,392004,1,0,0:0:0:0:
176,364,392089,2,0,P|100:364|56:308,1,140,2|0,0:0|0:0,0:0:0:0:
44,232,392763,6,0,L|16:164,1,60,4|0,0:0|0:0,0:0:0:0:
256,288,393100,2,0,L|284:356,1,60
56,208,393437,2,0,L|28:140,1,60,2|0,0:0|0:0,0:0:0:0:
268,264,393774,2,0,L|296:332,1,60
64,192,394111,6,0,P|64:140|140:88,1,140,4|0,0:0|0:0,0:0:0:0:
152,172,394785,2,0,B|192:160|220:175|220:175|248:188|272:184,1,120,2|0,0:0|0:0,0:0:0:0:
268,184,395460,1,4,0:0:0:0:
280,196,396134,1,2,0:0:0:0:
292,208,396808,2,0,P|292:244|324:292,2,80,4|4|2,0:0|0:0|0:0,0:0:0:0:
376,224,397819,1,0,0:0:0:0:
