osu file format v14

[General]
AudioFilename: DiGiTAL WiNG Misato S.A.T.O.R.A.R.E (Halozy EUROBEAT Remix).mp3
AudioLeadIn: 0
PreviewTime: 87546
Countdown: 0
SampleSet: Normal
StackLeniency: 0.7
Mode: 0
LetterboxInBreaks: 0
WidescreenStoryboard: 1

[Editor]
Bookmarks: 69899
DistanceSpacing: 1.6
BeatDivisor: 4
GridSize: 4
TimelineZoom: 2.899999

[Metadata]
Title:S.A.T.O.R.A.R.E (Halozy EUROBEAT Remix)
TitleUnicode:S.A.T.O.R.A.R.E (Halozy EUROBEAT Remix)
Artist:Halozy
ArtistUnicode:Halozy
Creator:Laroete
Version:Insane
Source:Touhou
Tags:Halozy Satorare eurobeat remix
BeatmapID:2966792
BeatmapSetID:371153

[Difficulty]
HPDrainRate:7
CircleSize:3.8
OverallDifficulty:8
ApproachRate:9
SliderMultiplier:1.4
SliderTickRate:1

[Events]
//Background and Video events
0,0,"Komeiji.Satori.full.1812092.jpg",0,0
//Break Periods
2,1805,11593
//Storyboard Layer 0 (Background)
//Storyboard Layer 1 (Fail)
//Storyboard Layer 2 (Pass)
//Storyboard Layer 3 (Foreground)
//Storyboard Layer 4 (Overlay)
//Storyboard Sound Samples

[TimingPoints]
1605,352.941176470588,4,1,0,70,1,0
12899,-66.6666666666667,4,1,0,75,0,0
24193,-100,4,1,0,75,0,0
25604,-50,4,1,0,64,0,1
30546,-100,4,1,0,64,0,1
38310,-133.333333333333,4,1,0,50,0,0
89134,-66.6666666666667,4,1,0,70,0,1
111722,-100,4,1,0,50,0,0
190075,-100,4,3,0,24,0,0
190252,-100,4,3,0,36,0,0
190428,-100,4,3,0,45,0,0
190604,-100,4,3,0,66,0,0
190781,-100,4,3,0,75,0,0
193604,-100,4,1,0,66,0,1
215134,-66.6666666666667,4,1,0,68,0,0
253252,-66.6666666666667,4,1,0,76,0,1
275487,-66.6666666666667,4,1,0,60,0,0

[Colours]
Combo1 : 188,142,213
Combo2 : 206,0,0
Combo3 : 238,223,223
Combo4 : 164,153,153
Combo5 : 234,234,232
Combo6 : 167,167,167
Combo7 : 190,39,39
Combo8 : 181,111,87

[HitObjects]
257,192,1605,5,0,0:0:0:0:
356,52,12193,5,0,0:0:0:0:
366,172,12369,2,0,L|328:226,2,35
153,94,12899,6,0,B|77:104|77:104|41:143,1,105.000004005432
30,297,13252,2,0,B|106:287|106:287|142:248,1,105.000004005432
273,103,13604,2,0,B|293:83|293:83|369:73,1,105.000004005432
343,275,13957,2,0,B|323:295|323:295|247:305,1,105.000004005432
399,54,14310,6,0,B|442:108|442:108|443:156,1,105.000004005432
400,333,14663,2,0,B|357:279|357:279|356:231,1,105.000004005432
233,40,15016,1,0,0:0:0:0:
104,117,15193,1,0,0:0:0:0:
266,47,15369,1,0,0:0:0:0:
101,146,15546,1,0,0:0:0:0:
109,287,15722,6,0,B|163:348|163:348|226:348,1,105.000004005432
340,242,16075,2,0,B|286:181|286:181|223:181,1,105.000004005432
116,142,16428,2,0,B|92:142|92:142|38:81,1,105.000004005432
251,51,16781,2,0,B|274:51|274:51|328:112,1,105.000004005432
175,286,17134,6,0,B|198:286|198:286|252:347,1,105.000004005432
476,281,17487,2,0,B|452:281|452:281|398:220,1,105.000004005432
347,36,17840,2,0,B|323:36|323:36|269:97,1,105.000004005432
139,223,18193,1,0,0:0:0:0:
33,45,18369,1,0,0:0:0:0:
163,235,18546,6,0,B|203:250|203:250|239:251|271:231,1,105.000004005432
384,47,18899,2,0,B|344:32|344:32|307:30|276:51,1,105.000004005432
183,263,19252,2,0,B|223:278|223:278|259:279|291:259,1,105.000004005432
43,84,19604,2,0,B|83:69|83:69|120:67|151:88,1,105.000004005432
209,287,19957,6,0,B|232:303|269:302|269:302|309:287,1,105.000004005432
426,72,20310,2,0,B|403:56|367:57|367:57|327:72,1,105.000004005432
224,313,20663,2,0,B|247:328|283:327|283:327|323:312,1,105.000004005432
122,94,21016,1,0,0:0:0:0:
100,247,21193,1,0,0:0:0:0:
142,56,21369,6,0,B|182:41|182:41|218:39|241:55,1,105.000004005432
320,159,21722,2,0,B|312:201|312:201|296:233|270:245,1,105.000004005432
131,253,22075,2,0,B|98:225|98:225|78:194|80:167,1,105.000004005432
320,159,22428,6,0,B|362:159|362:159|397:170|412:193,1,105.000004005432
172,324,22781,6,0,B|151:328|133:325|133:325|100:304,7,52.5000020027161
351,322,23487,6,0,B|371:317|390:321|390:321|423:342,7,52.5000020027161
309,138,24193,6,0,B|247:94|247:94|183:108|183:108|128:62|128:62,1,210.000008010865
80,224,24899,6,0,B|141:267|141:267|205:253|205:253|260:299|258:298,1,210.000008010865
383,70,25604,2,0,L|437:21,2,70
129,70,25957,2,0,L|75:21,2,70
256,126,26310,1,0,0:0:0:0:
256,155,26398,1,0,0:0:0:0:
256,184,26486,1,0,0:0:0:0:
256,214,26574,1,0,0:0:0:0:
256,243,26662,53,0,0:0:0:0:
408,336,26840,1,0,0:0:0:0:
407,157,27016,2,0,B|407:54|407:54|366:19,1,140
223,147,27369,2,0,B|223:250|223:250|264:285,1,140
433,179,27722,2,0,B|433:76|433:76|392:41,1,140
121,189,28075,2,0,B|92:164|92:164|92:61,1,140
456,202,28428,2,0,B|456:99|456:99|415:64,1,140
33,239,28781,2,0,B|33:342|33:342|74:377,1,140
85,37,29134,5,0,0:0:0:0:
173,223,29310,1,0,0:0:0:0:
211,38,29487,1,0,0:0:0:0:
300,245,29663,1,0,0:0:0:0:
427,37,29840,5,0,0:0:0:0:
339,223,30016,1,0,0:0:0:0:
301,38,30193,1,0,0:0:0:0:
212,245,30369,1,0,0:0:0:0:
402,94,30546,2,0,L|327:139,1,70
124,322,30899,1,0,0:0:0:0:
175,103,31075,1,0,0:0:0:0:
268,232,31252,1,0,0:0:0:0:
155,118,31428,1,0,0:0:0:0:
276,82,31604,5,0,0:0:0:0:
482,110,31781,1,0,0:0:0:0:
385,46,31957,1,0,0:0:0:0:
492,225,32134,1,0,0:0:0:0:
276,82,32310,1,0,0:0:0:0:
384,154,32487,1,0,0:0:0:0:
492,225,32663,2,0,L|430:285,1,70
182,318,33016,1,0,0:0:0:0:
139,249,33193,1,0,0:0:0:0:
96,181,33369,1,0,0:0:0:0:
