osu file format v14

[General]
AudioFilename: Paranoid Lost-Halozy.mp3
AudioLeadIn: 0
PreviewTime: 250724
Countdown: 0
SampleSet: Soft
StackLeniency: 0.7
Mode: 3
LetterboxInBreaks: 0
SpecialStyle: 0
WidescreenStoryboard: 0

[Editor]
Bookmarks: 362,22180,33089,43998,54907,66157,87634,98543,109452,142180,153089,163998,175248,196725,207634,218543,229452,240362,251271,283998,294907,305816,316725
DistanceSpacing: 0.85
BeatDivisor: 4
GridSize: 32
TimelineZoom: 2.2

[Metadata]
Title:Paranoid Lost
TitleUnicode:Paranoid Lost
Artist:Halozy
ArtistUnicode:Halozy
Creator:by-ad
Version:Unknown Autumn
Source:東方風神録 ~ Mountain of Faith.
Tags:Touhou Toho 東方project fuujinroku j-pop jpop Japanese pop edm house project vocal comiket 81 c81 HLZY-0011 track 4 Tonic Triangle 稲田姫様に叱られるから Because Princess Inada is Scolding Me 美里 Misato すみじゅん sumijun shizuka minoriko aki FAMoss
BeatmapID:1535607
BeatmapSetID:727348

[Difficulty]
HPDrainRate:8.5
CircleSize:4
OverallDifficulty:8.5
ApproachRate:5
SliderMultiplier:2
SliderTickRate:1

[Events]
//Background and Video events
0,0,"BG UwU.jpg",0,0
//Break Periods
//Storyboard Layer 0 (Background)
//Storyboard Layer 1 (Fail)
//Storyboard Layer 2 (Pass)
//Storyboard Layer 3 (Foreground)
//Storyboard Layer 4 (Overlay)
//Storyboard Sound Samples

[TimingPoints]
362,340.909090909091,4,2,1,60,1,0
43998,-100,4,2,1,60,0,1
65816,-100,4,2,1,60,0,0
109452,-100,4,2,1,60,0,1
142180,-100,4,2,1,60,0,0
251271,-100,4,2,1,60,0,1
283998,-100,4,2,1,60,0,0

[HitObjects]
64,192,362,5,2,0:0:0:0:
192,192,362,1,0,0:0:0:0:
448,192,362,1,0,0:0:0:0:
320,192,532,1,0,0:0:0:0:
192,192,702,1,0,0:0:0:0:
64,192,873,1,0,0:0:0:0:
448,192,1043,1,0,0:0:0:0:
192,192,1214,1,0,0:0:0:0:
320,192,1384,1,0,0:0:0:0:
64,192,1555,128,0,1896:0:0:0:0:
320,192,1896,1,0,0:0:0:0:
448,192,2066,1,0,0:0:0:0:
64,192,2237,1,0,0:0:0:0:
320,192,2407,1,0,0:0:0:0:
192,192,2577,1,0,0:0:0:0:
448,192,2748,128,0,3089:0:0:0:0:
192,192,3089,1,0,0:0:0:0:
320,192,3259,1,0,0:0:0:0:
448,192,3430,1,0,0:0:0:0:
64,192,3600,1,0,0:0:0:0:
320,192,3771,1,0,0:0:0:0:
448,192,3941,1,0,0:0:0:0:
192,192,4112,1,0,0:0:0:0:
64,192,4282,128,0,4623:0:0:0:0:
448,192,4623,1,0,0:0:0:0:
320,192,4793,1,0,0:0:0:0:
64,192,4964,1,0,0:0:0:0:
448,192,5134,1,0,0:0:0:0:
192,192,5305,1,0,0:0:0:0:
320,192,5475,128,0,5816:0:0:0:0:
64,192,5816,1,0,0:0:0:0:
192,192,5987,1,0,0:0:0:0:
320,192,6157,1,0,0:0:0:0:
448,192,6327,1,0,0:0:0:0:
192,192,6498,1,0,0:0:0:0:
64,192,6668,1,0,0:0:0:0:
448,192,6839,1,0,0:0:0:0:
320,192,7009,128,0,7350:0:0:0:0:
192,192,7350,1,0,0:0:0:0:
448,192,7521,1,0,0:0:0:0:
64,192,7691,1,0,0:0:0:0:
320,192,7862,1,0,0:0:0:0:
192,192,8032,1,0,0:0:0:0:
448,192,8202,128,0,8543:0:0:0:0:
320,192,8543,1,0,0:0:0:0:
192,192,8714,1,0,0:0:0:0:
64,192,8884,1,0,0:0:0:0:
320,192,9055,1,0,0:0:0:0:
192,192,9225,1,0,0:0:0:0:
448,192,9396,1,0,0:0:0:0:
64,192,9566,1,0,0:0:0:0:
320,192,9737,128,0,10077:0:0:0:0:
192,192,10077,1,0,0:0:0:0:
64,192,10248,1,0,0:0:0:0:
448,192,10418,1,0,0:0:0:0:
192,192,10589,1,0,0:0:0:0:
320,192,10759,1,0,0:0:0:0:
64,192,10930,128,0,11271:0:0:0:0:
320,192,11271,1,2,0:0:0:0:
448,192,11271,1,0,0:0:0:0:
192,192,11441,1,0,0:0:0:0:
64,192,11612,1,0,0:0:0:0:
448,192,11782,1,0,0:0:0:0:
192,192,11952,1,0,0:0:0:0:
320,192,12123,1,0,0:0:0:0:
192,192,12293,1,0,0:0:0:0:
448,192,12464,128,0,12805:0:0:0:0:
64,192,12805,1,0,0:0:0:0:
192,192,12975,1,0,0:0:0:0:
320,192,13146,1,0,0:0:0:0:
64,192,13316,1,0,0:0:0:0:
448,192,13487,1,0,0:0:0:0:
192,192,13657,128,0,13998:0:0:0:0:
448,192,13998,1,0,0:0:0:0:
320,192,14168,1,0,0:0:0:0:
64,192,14339,1,0,0:0:0:0:
192,192,14509,1,0,0:0:0:0:
320,192,14680,1,0,0:0:0:0:
64,192,14850,1,0,0:0:0:0:
448,192,15021,1,0,0:0:0:0:
320,192,15191,128,0,15532:0:0:0:0:
192,192,15532,1,0,0:0:0:0:
64,192,15702,1,0,0:0:0:0:
448,192,15873,1,0,0:0:0:0:
192,192,16043,1,0,0:0:0:0:
320,192,16214,1,0,0:0:0:0:
64,192,16384,128,0,16725:0:0:0:0:
320,192,16725,1,0,0:0:0:0:
448,192,16896,1,0,0:0:0:0:
64,192,17066,1,0,0:0:0:0:
192,192,17237,1,0,0:0:0:0:
448,192,17407,1,0,0:0:0:0:
64,192,17577,1,0,0:0:0:0:
320,192,17748,1,0,0:0:0:0:
192,192,17918,128,0,18259:0:0:0:0:
448,192,18259,1,0,0:0:0:0:
64,192,18430,1,0,0:0:0:0:
320,192,18600,1,0,0:0:0:0:
192,192,18771,1,0,0:0:0:0:
448,192,18941,1,0,0:0:0:0:
320,192,19112,128,0,19452:0:0:0:0:
64,192,19452,1,0,0:0:0:0:
192,192,19623,1,0,0:0:0:0:
448,192,19793,1,0,0:0:0:0:
192,192,19964,1,0,0:0:0:0:
320,192,20134,1,0,0:0:0:0:
64,192,20305,1,0,0:0:0:0:
320,192,20475,1,0,0:0:0:0:
192,192,20646,128,0,22180:0:0:0:0:
448,192,20987,1,0,0:0:0:0:
320,192,21157,1,0,0:0:0:0:
64,192,21327,1,0,0:0:0:0:
448,192,21498,1,0,0:0:0:0:
64,192,21668,1,0,0:0:0:0:
320,192,21839,128,0,22180:0:0:0:0:
64,192,22180,1,2,0:0:0:0:
448,192,22180,1,0,0:0:0:0:
320,192,22350,1,0,0:0:0:0:
192,192,22521,1,0,0:0:0:0:
64,192,22691,1,0,0:0:0:0:
448,192,22691,128,0,22862:0:0:0:0:
320,192,22862,1,0,0:0:0:0:
64,192,23032,1,0,0:0:0:0:
192,192,23202,1,0,0:0:0:0:
320,192,23202,128,0,23373:0:0:0:0:
448,192,23373,1,0,0:0:0:0:
192,192,23543,1,0,0:0:0:0:
64,192,23714,128,0,23884:0:0:0:0:
448,192,23714,1,0,0:0:0:0:
320,192,23884,1,0,0:0:0:0:
192,192,24055,1,0,0:0:0:0:
64,192,24225,1,0,0:0:0:0:
448,192,24225,128,0,24396:0:0:0:0:
320,192,24396,1,0,0:0:0:0:
64,192,24566,128,0,24907:0:0:0:0:
192,192,24566,1,0,0:0:0:0:
320,192,24907,1,0,0:0:0:0:
448,192,24907,128,0,25077:0:0:0:0:
192,192,25077,1,0,0:0:0:0:
320,192,25248,1,0,0:0:0:0:
64,192,25418,128,0,25589:0:0:0:0:
448,192,25418,1,0,0:0:0:0:
192,192,25589,1,0,0:0:0:0:
448,192,25759,1,0,0:0:0:0:
192,192,25930,128,0,26100:0:0:0:0:
320,192,25930,1,0,0:0:0:0:
64,192,26100,1,0,0:0:0:0:
320,192,26271,1,0,0:0:0:0:
64,192,26441,1,0,0:0:0:0:
448,192,26441,128,0,26612:0:0:0:0:
192,192,26612,1,0,0:0:0:0:
320,192,26782,1,0,0:0:0:0:
64,192,26952,128,0,27123:0:0:0:0:
448,192,26952,1,0,0:0:0:0:
192,192,27123,1,0,0:0:0:0:
320,192,27293,1,0,0:0:0:0:
448,192,27293,128,0,27634:0:0:0:0:
64,192,27634,128,0,27805:0:0:0:0:
192,192,27634,1,0,0:0:0:0:
320,192,27805,1,0,0:0:0:0:
64,192,27975,1,0,0:0:0:0:
448,192,27975,1,0,0:0:0:0:
192,192,28146,128,0,28316:0:0:0:0:
320,192,28316,1,0,0:0:0:0:
448,192,28316,1,0,0:0:0:0:
64,192,28487,1,0,0:0:0:0:
320,192,28657,1,0,0:0:0:0:
448,192,28657,128,0,28827:0:0:0:0:
192,192,28827,1,0,0:0:0:0:
64,192,28998,1,0,0:0:0:0:
448,192,28998,1,0,0:0:0:0:
320,192,29168,128,0,29339:0:0:0:0:
64,192,29339,1,0,0:0:0:0:
192,192,29339,1,0,0:0:0:0:
320,192,29509,1,0,0:0:0:0:
64,192,29680,128,0,29850:0:0:0:0:
192,192,29680,1,0,0:0:0:0:
448,192,29850,1,0,0:0:0:0:
64,192,30021,1,0,0:0:0:0:
320,192,30021,128,0,30362:0:0:0:0:
192,192,30191,1,0,0:0:0:0:
64,192,30362,128,0,30532:0:0:0:0:
448,192,30362,1,0,0:0:0:0:
320,192,30532,1,0,0:0:0:0:
192,192,30702,1,0,0:0:0:0:
448,192,30702,1,0,0:0:0:0:
320,192,30873,128,0,31043:0:0:0:0:
64,192,31043,1,0,0:0:0:0:
192,192,31043,1,0,0:0:0:0:
320,192,31214,1,0,0:0:0:0:
64,192,31384,1,0,0:0:0:0:
448,192,31384,128,0,31555:0:0:0:0:
192,192,31555,1,0,0:0:0:0:
320,192,31725,1,0,0:0:0:0:
448,192,31725,1,0,0:0:0:0:
64,192,31896,128,0,32066:0:0:0:0:
192,192,32066,1,0,0:0:0:0:
448,192,32066,1,0,0:0:0:0:
320,192,32237,1,0,0:0:0:0:
64,192,32407,1,0,0:0:0:0:
192,192,32407,128,0,32577:0:0:0:0:
448,192,32577,1,0,0:0:0:0:
64,192,32748,1,0,0:0:0:0:
320,192,32748,128,0,33089:0:0:0:0:
64,192,33089,1,8,0:0:0:0:
192,192,33089,1,4,0:0:0:0:
448,192,33089,1,0,0:0:0:0:
320,192,33430,1,8,0:0:0:0:
448,192,33430,1,0,0:0:0:0:
64,192,33771,1,8,0:0:0:0:
320,192,33771,1,4,0:0:0:0:
448,192,33771,1,0,0:0:0:0:
64,192,34112,1,8,0:0:0:0:
192,192,34112,1,0,0:0:0:0:
64,192,34452,1,8,0:0:0:0:
192,192,34452,1,4,0:0:0:0:
448,192,34452,1,0,0:0:0:0:
192,192,34793,1,8,0:0:0:0:
320,192,34793,1,0,0:0:0:0:
64,192,35134,1,8,0:0:0:0:
320,192,35134,1,4,0:0:0:0:
448,192,35134,1,0,0:0:0:0:
192,192,35475,1,8,0:0:0:0:
448,192,35475,128,0,35816:0:0:0:0:
64,192,35816,1,4,0:0:0:0:
192,192,35816,1,8,0:0:0:0:
320,192,35816,1,0,0:0:0:0:
64,192,36157,1,8,0:0:0:0:
320,192,36157,1,0,0:0:0:0:
192,192,36498,1,4,0:0:0:0:
320,192,36498,1,8,0:0:0:0:
448,192,36498,1,0,0:0:0:0:
192,192,36839,1,8,0:0:0:0:
448,192,36839,1,0,0:0:0:0:
64,192,37180,1,8,0:0:0:0:
320,192,37180,1,4,0:0:0:0:
448,192,37180,1,0,0:0:0:0:
192,192,37521,1,8,0:0:0:0:
320,192,37521,1,0,0:0:0:0:
64,192,37862,1,8,0:0:0:0:
192,192,37862,1,4,0:0:0:0:
448,192,37862,1,0,0:0:0:0:
64,192,38202,128,8,38543:0:0:0:0:
320,192,38202,1,0,0:0:0:0:
192,192,38543,1,4,0:0:0:0:
320,192,38543,1,8,0:0:0:0:
448,192,38543,1,2,0:0:0:0:
64,192,38714,1,2,0:0:0:0:
448,192,38714,1,0,0:0:0:0:
64,192,38884,1,8,0:0:0:0:
192,192,38884,1,4,0:0:0:0:
320,192,38884,1,2,0:0:0:0:
192,192,39055,1,2,0:0:0:0:
448,192,39055,1,0,0:0:0:0:
64,192,39225,1,4,0:0:0:0:
320,192,39225,1,8,0:0:0:0:
448,192,39225,1,2,0:0:0:0:
192,192,39396,1,2,0:0:0:0:
320,192,39396,1,0,0:0:0:0:
64,192,39566,1,8,0:0:0:0:
192,192,39566,1,4,0:0:0:0:
448,192,39566,1,2,0:0:0:0:
64,192,39737,1,2,0:0:0:0:
320,192,39737,1,0,0:0:0:0:
192,192,39907,1,4,0:0:0:0:
320,192,39907,1,8,0:0:0:0:
448,192,39907,1,2,0:0:0:0:
64,192,40077,1,2,0:0:0:0:
448,192,40077,1,0,0:0:0:0:
64,192,40248,1,8,0:0:0:0:
192,192,40248,1,4,0:0:0:0:
320,192,40248,1,2,0:0:0:0:
320,192,40418,1,2,0:0:0:0:
448,192,40418,1,0,0:0:0:0:
64,192,40589,1,4,0:0:0:0:
192,192,40589,1,8,0:0:0:0:
448,192,40589,1,2,0:0:0:0:
64,192,40759,1,2,0:0:0:0:
320,192,40759,1,0,0:0:0:0:
64,192,40930,1,8,0:0:0:0:
192,192,40930,1,4,0:0:0:0:
448,192,40930,1,2,0:0:0:0:
320,192,41100,1,2,0:0:0:0:
448,192,41100,1,0,0:0:0:0:
64,192,41271,1,10,0:0:0:0:
192,192,41271,1,4,0:0:0:0:
320,192,41356,1,2,0:0:0:0:
448,192,41356,1,0,0:0:0:0:
64,192,41441,1,2,0:0:0:0:
192,192,41441,1,0,0:0:0:0:
320,192,41526,1,2,0:0:0:0:
448,192,41526,1,0,0:0:0:0:
64,192,41612,1,6,0:0:0:0:
192,192,41612,1,8,0:0:0:0:
320,192,41697,1,2,0:0:0:0:
448,192,41697,1,0,0:0:0:0:
64,192,41782,1,2,0:0:0:0:
192,192,41782,1,0,0:0:0:0:
320,192,41867,1,2,0:0:0:0:
448,192,41867,1,0,0:0:0:0:
64,192,41952,1,10,0:0:0:0:
192,192,41952,1,4,0:0:0:0:
320,192,42038,1,2,0:0:0:0:
448,192,42038,1,0,0:0:0:0:
64,192,42123,1,2,0:0:0:0:
192,192,42123,1,0,0:0:0:0:
320,192,42208,1,2,0:0:0:0:
448,192,42208,1,0,0:0:0:0:
64,192,42293,1,6,0:0:0:0:
192,192,42293,1,8,0:0:0:0:
320,192,42379,1,2,0:0:0:0:
448,192,42379,1,0,0:0:0:0:
64,192,42464,1,2,0:0:0:0:
192,192,42464,1,0,0:0:0:0:
320,192,42549,1,2,0:0:0:0:
64,192,42634,1,2,0:0:0:0:
192,192,42634,1,4,0:0:0:0:
448,192,42634,1,0,0:0:0:0:
320,192,42805,1,0,0:0:0:0:
448,192,42975,1,0,0:0:0:0:
192,192,43146,1,0,0:0:0:0:
64,192,43316,1,8,0:0:0:0:
320,192,43316,1,4,0:0:0:0:
448,192,43316,1,0,0:0:0:0:
64,192,43487,1,2,0:0:0:0:
192,192,43487,1,0,0:0:0:0:
192,192,43657,1,8,0:0:0:0:
320,192,43657,1,4,0:0:0:0:
448,192,43657,128,0,43998:0:0:0:0:
64,192,43998,1,2,0:0:0:0:
192,192,43998,1,4,0:0:0:0:
320,192,43998,1,0,0:0:0:0:
192,192,44168,1,0,0:0:0:0:
64,192,44339,1,8,0:0:0:0:
320,192,44339,1,0,0:0:0:0:
448,192,44339,1,0,0:0:0:0:
192,192,44509,1,0,0:0:0:0:
320,192,44594,1,0,0:0:0:0:
448,192,44680,1,0,0:0:0:0:
320,192,44765,1,0,0:0:0:0:
64,192,44850,1,2,0:0:0:0:
192,192,44850,1,0,0:0:0:0:
64,192,45021,1,8,0:0:0:0:
320,192,45021,1,0,0:0:0:0:
448,192,45021,1,0,0:0:0:0:
192,192,45191,1,0,0:0:0:0:
64,192,45362,1,2,0:0:0:0:
448,192,45362,1,0,0:0:0:0:
320,192,45532,1,0,0:0:0:0:
64,192,45702,1,8,0:0:0:0:
192,192,45702,1,0,0:0:0:0:
448,192,45702,1,0,0:0:0:0:
320,192,45873,1,0,0:0:0:0:
448,192,45958,1,0,0:0:0:0:
192,192,46043,1,0,0:0:0:0:
64,192,46129,1,0,0:0:0:0:
320,192,46214,1,2,0:0:0:0:
448,192,46214,1,0,0:0:0:0:
64,192,46384,128,8,46725:0:0:0:0:
192,192,46384,1,0,0:0:0:0:
448,192,46384,1,0,0:0:0:0:
192,192,46725,1,2,0:0:0:0:
320,192,46725,1,0,0:0:0:0:
448,192,46896,1,0,0:0:0:0:
64,192,47066,1,8,0:0:0:0:
320,192,47066,1,0,0:0:0:0:
448,192,47066,1,0,0:0:0:0:
192,192,47237,1,0,0:0:0:0:
320,192,47322,1,0,0:0:0:0:
64,192,47407,1,0,0:0:0:0:
192,192,47492,1,0,0:0:0:0:
320,192,47577,1,2,0:0:0:0:
448,192,47577,1,0,0:0:0:0:
64,192,47748,1,8,0:0:0:0:
192,192,47748,1,0,0:0:0:0:
448,192,47748,1,0,0:0:0:0:
320,192,47918,1,0,0:0:0:0:
64,192,48089,1,2,0:0:0:0:
192,192,48089,1,0,0:0:0:0:
448,192,48259,1,0,0:0:0:0:
64,192,48430,1,8,0:0:0:0:
320,192,48430,1,0,0:0:0:0:
448,192,48430,1,0,0:0:0:0:
192,192,48600,1,0,0:0:0:0:
320,192,48685,1,0,0:0:0:0:
448,192,48771,1,0,0:0:0:0:
320,192,48856,1,0,0:0:0:0:
64,192,48941,1,2,0:0:0:0:
192,192,48941,1,0,0:0:0:0:
64,192,49112,128,8,49452:0:0:0:0:
320,192,49112,1,0,0:0:0:0:
448,192,49112,1,0,0:0:0:0:
192,192,49452,1,2,0:0:0:0:
448,192,49452,1,0,0:0:0:0:
320,192,49623,1,0,0:0:0:0:
64,192,49793,1,8,0:0:0:0:
192,192,49793,1,0,0:0:0:0:
448,192,49793,1,0,0:0:0:0:
320,192,49964,1,0,0:0:0:0:
192,192,50049,1,0,0:0:0:0:
64,192,50134,1,0,0:0:0:0:
192,192,50219,1,0,0:0:0:0:
320,192,50305,1,2,0:0:0:0:
448,192,50305,1,0,0:0:0:0:
64,192,50475,1,8,0:0:0:0:
192,192,50475,1,0,0:0:0:0:
448,192,50475,1,0,0:0:0:0:
320,192,50646,1,0,0:0:0:0:
64,192,50816,1,2,0:0:0:0:
448,192,50816,1,0,0:0:0:0:
192,192,50987,1,0,0:0:0:0:
64,192,51157,1,8,0:0:0:0:
320,192,51157,1,0,0:0:0:0:
448,192,51157,1,0,0:0:0:0:
192,192,51327,1,0,0:0:0:0:
64,192,51413,1,0,0:0:0:0:
320,192,51498,1,0,0:0:0:0:
448,192,51583,1,0,0:0:0:0:
64,192,51668,1,2,0:0:0:0:
192,192,51668,1,0,0:0:0:0:
64,192,51839,1,8,0:0:0:0:
320,192,51839,1,0,0:0:0:0:
448,192,51839,128,0,52180:0:0:0:0:
192,192,52180,1,2,0:0:0:0:
320,192,52180,1,0,0:0:0:0:
64,192,52350,1,0,0:0:0:0:
64,192,52521,1,8,0:0:0:0:
192,192,52521,1,0,0:0:0:0:
448,192,52521,1,0,0:0:0:0:
320,192,52691,1,0,0:0:0:0:
192,192,52776,1,0,0:0:0:0:
448,192,52862,1,0,0:0:0:0:
320,192,52947,1,0,0:0:0:0:
64,192,53032,1,2,0:0:0:0:
192,192,53032,1,0,0:0:0:0:
64,192,53202,1,8,0:0:0:0:
320,192,53202,1,0,0:0:0:0:
448,192,53202,1,0,0:0:0:0:
192,192,53373,1,0,0:0:0:0:
320,192,53543,1,2,0:0:0:0:
448,192,53543,1,0,0:0:0:0:
64,192,53714,1,0,0:0:0:0:
64,192,53884,1,8,0:0:0:0:
192,192,53884,1,0,0:0:0:0:
448,192,53884,1,0,0:0:0:0:
320,192,54055,1,0,0:0:0:0:
192,192,54140,1,0,0:0:0:0:
64,192,54225,1,0,0:0:0:0:
448,192,54310,1,0,0:0:0:0:
192,192,54396,1,2,0:0:0:0:
320,192,54396,1,0,0:0:0:0:
64,192,54566,1,8,0:0:0:0:
320,192,54566,1,0,0:0:0:0:
448,192,54566,128,0,54907:0:0:0:0:
64,192,54907,1,2,0:0:0:0:
192,192,54907,128,4,55077:0:0:0:0:
320,192,54907,1,0,0:0:0:0:
448,192,55077,1,0,0:0:0:0:
64,192,55248,1,8,0:0:0:0:
320,192,55248,1,0,0:0:0:0:
448,192,55248,1,0,0:0:0:0:
192,192,55418,128,0,55589:0:0:0:0:
320,192,55504,1,0,0:0:0:0:
448,192,55589,1,0,0:0:0:0:
320,192,55674,1,0,0:0:0:0:
64,192,55759,1,2,0:0:0:0:
192,192,55759,1,0,0:0:0:0:
64,192,55930,1,8,0:0:0:0:
320,192,55930,1,0,0:0:0:0:
448,192,55930,128,0,56100:0:0:0:0:
192,192,56100,1,0,0:0:0:0:
320,192,56271,1,2,0:0:0:0:
448,192,56271,1,0,0:0:0:0:
64,192,56441,128,0,56612:0:0:0:0:
192,192,56612,1,8,0:0:0:0:
320,192,56612,1,0,0:0:0:0:
448,192,56612,1,0,0:0:0:0:
64,192,56782,1,0,0:0:0:0:
192,192,56867,1,0,0:0:0:0:
448,192,56952,128,0,57123:0:0:0:0:
320,192,57038,1,0,0:0:0:0:
64,192,57123,1,2,0:0:0:0:
192,192,57123,1,0,0:0:0:0:
64,192,57293,1,8,0:0:0:0:
320,192,57293,128,0,57634:0:0:0:0:
448,192,57293,1,0,0:0:0:0:
64,192,57634,128,2,57805:0:0:0:0:
192,192,57634,1,0,0:0:0:0:
320,192,57805,1,0,0:0:0:0:
64,192,57975,1,8,0:0:0:0:
192,192,57975,1,0,0:0:0:0:
448,192,57975,1,0,0:0:0:0:
320,192,58146,128,0,58316:0:0:0:0:
192,192,58231,1,0,0:0:0:0:
64,192,58316,1,0,0:0:0:0:
192,192,58401,1,0,0:0:0:0:
320,192,58487,1,2,0:0:0:0:
448,192,58487,1,0,0:0:0:0:
64,192,58657,128,8,58827:0:0:0:0:
192,192,58657,1,0,0:0:0:0:
448,192,58657,1,0,0:0:0:0:
320,192,58827,1,0,0:0:0:0:
64,192,58998,1,2,0:0:0:0:
192,192,58998,1,0,0:0:0:0:
448,192,59168,128,0,59339:0:0:0:0:
64,192,59339,1,8,0:0:0:0:
192,192,59339,1,0,0:0:0:0:
320,192,59339,1,0,0:0:0:0:
448,192,59509,1,0,0:0:0:0:
320,192,59594,1,0,0:0:0:0:
64,192,59680,128,0,59850:0:0:0:0:
192,192,59765,1,0,0:0:0:0:
320,192,59850,1,2,0:0:0:0:
448,192,59850,1,0,0:0:0:0:
64,192,60021,1,8,0:0:0:0:
192,192,60021,128,0,60362:0:0:0:0:
448,192,60021,1,0,0:0:0:0:
320,192,60362,1,2,0:0:0:0:
448,192,60362,128,0,60532:0:0:0:0:
192,192,60532,1,0,0:0:0:0:
64,192,60702,1,8,0:0:0:0:
320,192,60702,1,0,0:0:0:0:
448,192,60702,1,0,0:0:0:0:
192,192,60873,128,0,61043:0:0:0:0:
320,192,60958,1,0,0:0:0:0:
448,192,61043,1,0,0:0:0:0:
320,192,61129,1,0,0:0:0:0:
64,192,61214,1,2,0:0:0:0:
192,192,61214,1,0,0:0:0:0:
64,192,61384,1,8,0:0:0:0:
320,192,61384,128,0,61555:0:0:0:0:
448,192,61384,1,0,0:0:0:0:
192,192,61555,1,0,0:0:0:0:
64,192,61725,1,2,0:0:0:0:
448,192,61725,1,0,0:0:0:0:
320,192,61896,128,0,62066:0:0:0:0:
64,192,62066,1,8,0:0:0:0:
192,192,62066,1,0,0:0:0:0:
448,192,62066,1,0,0:0:0:0:
320,192,62237,1,0,0:0:0:0:
192,192,62322,1,0,0:0:0:0:
448,192,62407,128,0,62577:0:0:0:0:
320,192,62492,1,0,0:0:0:0:
64,192,62577,1,2,0:0:0:0:
192,192,62577,1,0,0:0:0:0:
64,192,62748,128,8,63089:0:0:0:0:
320,192,62748,1,0,0:0:0:0:
448,192,62748,1,0,0:0:0:0:
192,192,63089,1,2,0:0:0:0:
320,192,63089,128,0,63259:0:0:0:0:
448,192,63259,1,0,0:0:0:0:
64,192,63430,1,8,0:0:0:0:
320,192,63430,1,0,0:0:0:0:
448,192,63430,1,0,0:0:0:0:
192,192,63600,128,0,63771:0:0:0:0:
64,192,63685,1,0,0:0:0:0:
320,192,63771,1,0,0:0:0:0:
448,192,63856,1,0,0:0:0:0:
64,192,63941,1,2,0:0:0:0:
192,192,63941,1,0,0:0:0:0:
64,192,64112,1,8,0:0:0:0:
320,192,64112,128,0,64282:0:0:0:0:
448,192,64112,1,0,0:0:0:0:
192,192,64282,1,0,0:0:0:0:
64,192,64452,1,2,0:0:0:0:
448,192,64452,1,0,0:0:0:0:
192,192,64623,128,0,64793:0:0:0:0:
64,192,64793,1,8,0:0:0:0:
320,192,64793,1,0,0:0:0:0:
448,192,64793,1,0,0:0:0:0:
192,192,64964,1,0,0:0:0:0:
448,192,65049,1,0,0:0:0:0:
64,192,65134,1,8,0:0:0:0:
192,192,65134,1,0,0:0:0:0:
320,192,65134,1,0,0:0:0:0:
64,192,65305,1,2,0:0:0:0:
448,192,65305,1,0,0:0:0:0:
192,192,65475,1,8,0:0:0:0:
320,192,65475,1,0,0:0:0:0:
448,192,65475,128,0,65816:0:0:0:0:
64,192,65816,1,4,0:0:0:0:
192,192,65816,1,2,0:0:0:0:
320,192,65816,1,0,0:0:0:0:
64,192,66157,1,8,0:0:0:0:
192,192,66157,1,0,0:0:0:0:
448,192,66157,1,0,0:0:0:0:
320,192,66327,1,0,0:0:0:0:
64,192,66498,1,0,0:0:0:0:
192,192,66668,1,2,0:0:0:0:
448,192,66668,1,0,0:0:0:0:
64,192,66839,1,8,0:0:0:0:
320,192,66839,1,0,0:0:0:0:
448,192,66839,1,0,0:0:0:0:
320,192,67009,1,0,0:0:0:0:
64,192,67180,1,2,0:0:0:0:
192,192,67180,1,0,0:0:0:0:
448,192,67350,1,0,0:0:0:0:
64,192,67521,1,8,0:0:0:0:
192,192,67521,1,0,0:0:0:0:
448,192,67521,1,0,0:0:0:0:
320,192,67691,1,0,0:0:0:0:
64,192,67862,1,0,0:0:0:0:
192,192,68032,1,2,0:0:0:0:
320,192,68032,1,0,0:0:0:0:
64,192,68202,1,8,0:0:0:0:
320,192,68202,1,0,0:0:0:0:
448,192,68202,1,0,0:0:0:0:
192,192,68373,1,0,0:0:0:0:
64,192,68543,1,2,0:0:0:0:
448,192,68543,1,0,0:0:0:0:
320,192,68714,1,0,0:0:0:0:
64,192,68884,1,8,0:0:0:0:
192,192,68884,1,0,0:0:0:0:
448,192,68884,1,0,0:0:0:0:
320,192,69055,1,0,0:0:0:0:
192,192,69225,1,0,0:0:0:0:
320,192,69396,1,2,0:0:0:0:
448,192,69396,1,0,0:0:0:0:
64,192,69566,1,8,0:0:0:0:
192,192,69566,1,0,0:0:0:0:
448,192,69566,1,0,0:0:0:0:
192,192,69737,1,0,0:0:0:0:
320,192,69907,1,2,0:0:0:0:
448,192,69907,1,0,0:0:0:0:
64,192,70077,1,0,0:0:0:0:
64,192,70248,1,8,0:0:0:0:
192,192,70248,1,0,0:0:0:0:
448,192,70248,1,0,0:0:0:0:
320,192,70418,1,0,0:0:0:0:
64,192,70589,1,0,0:0:0:0:
192,192,70759,1,2,0:0:0:0:
320,192,70759,1,0,0:0:0:0:
64,192,70930,1,8,0:0:0:0:
320,192,70930,1,0,0:0:0:0:
448,192,70930,1,0,0:0:0:0:
192,192,71100,1,0,0:0:0:0:
64,192,71271,1,2,0:0:0:0:
448,192,71271,1,0,0:0:0:0:
320,192,71441,1,0,0:0:0:0:
192,192,71612,1,8,0:0:0:0:
320,192,71612,1,0,0:0:0:0:
448,192,71612,1,0,0:0:0:0:
64,192,71782,1,0,0:0:0:0:
448,192,71952,1,0,0:0:0:0:
64,192,72123,1,2,0:0:0:0:
192,192,72123,1,0,0:0:0:0:
64,192,72293,1,8,0:0:0:0:
192,192,72293,1,0,0:0:0:0:
448,192,72293,1,0,0:0:0:0:
320,192,72464,1,0,0:0:0:0:
64,192,72634,1,2,0:0:0:0:
448,192,72634,1,0,0:0:0:0:
192,192,72805,1,0,0:0:0:0:
64,192,72975,1,8,0:0:0:0:
192,192,72975,1,0,0:0:0:0:
320,192,72975,1,0,0:0:0:0:
448,192,73146,1,0,0:0:0:0:
64,192,73316,1,0,0:0:0:0:
320,192,73487,1,2,0:0:0:0:
448,192,73487,1,0,0:0:0:0:
64,192,73657,1,8,0:0:0:0:
320,192,73657,1,0,0:0:0:0:
448,192,73657,1,0,0:0:0:0:
192,192,73827,1,0,0:0:0:0:
64,192,73998,1,2,0:0:0:0:
448,192,73998,1,0,0:0:0:0:
320,192,74168,1,0,0:0:0:0:
64,192,74339,1,8,0:0:0:0:
192,192,74339,1,0,0:0:0:0:
448,192,74339,1,0,0:0:0:0:
320,192,74509,1,0,0:0:0:0:
64,192,74680,1,0,0:0:0:0:
192,192,74850,1,2,0:0:0:0:
320,192,74850,1,0,0:0:0:0:
64,192,75021,1,8,0:0:0:0:
320,192,75021,1,0,0:0:0:0:
448,192,75021,1,0,0:0:0:0:
192,192,75191,1,0,0:0:0:0:
64,192,75362,1,2,0:0:0:0:
448,192,75362,1,0,0:0:0:0:
320,192,75532,1,0,0:0:0:0:
64,192,75702,1,8,0:0:0:0:
192,192,75702,1,0,0:0:0:0:
448,192,75702,1,0,0:0:0:0:
192,192,75873,1,2,0:0:0:0:
320,192,75873,1,0,0:0:0:0:
448,192,76043,1,0,0:0:0:0:
192,192,76214,1,2,0:0:0:0:
320,192,76214,1,0,0:0:0:0:
64,192,76384,1,8,0:0:0:0:
320,192,76384,1,0,0:0:0:0:
448,192,76384,1,0,0:0:0:0:
64,192,76555,1,2,0:0:0:0:
192,192,76597,1,2,0:0:0:0:
448,192,76640,1,2,0:0:0:0:
320,192,76683,1,2,0:0:0:0:
64,192,76725,1,4,0:0:0:0:
192,192,76725,1,2,0:0:0:0:
320,192,76896,1,0,0:0:0:0:
64,192,77066,1,8,0:0:0:0:
320,192,77066,1,0,0:0:0:0:
448,192,77066,1,0,0:0:0:0:
192,192,77237,1,0,0:0:0:0:
448,192,77407,1,0,0:0:0:0:
64,192,77577,1,2,0:0:0:0:
192,192,77577,1,0,0:0:0:0:
64,192,77748,1,8,0:0:0:0:
320,192,77748,1,0,0:0:0:0:
448,192,77748,1,0,0:0:0:0:
192,192,77918,1,0,0:0:0:0:
192,192,78089,1,2,0:0:0:0:
448,192,78089,1,0,0:0:0:0:
320,192,78259,1,0,0:0:0:0:
64,192,78430,1,8,0:0:0:0:
320,192,78430,1,0,0:0:0:0:
448,192,78430,1,0,0:0:0:0:
192,192,78600,1,0,0:0:0:0:
448,192,78771,1,0,0:0:0:0:
64,192,78941,1,2,0:0:0:0:
320,192,78941,1,0,0:0:0:0:
64,192,79112,1,8,0:0:0:0:
192,192,79112,1,0,0:0:0:0:
448,192,79112,1,0,0:0:0:0:
320,192,79282,1,0,0:0:0:0:
64,192,79452,1,2,0:0:0:0:
448,192,79452,1,0,0:0:0:0:
192,192,79623,1,0,0:0:0:0:
64,192,79793,1,8,0:0:0:0:
320,192,79793,1,0,0:0:0:0:
448,192,79793,1,0,0:0:0:0:
192,192,79964,1,0,0:0:0:0:
320,192,80134,1,0,0:0:0:0:
64,192,80305,1,2,0:0:0:0:
192,192,80305,1,0,0:0:0:0:
64,192,80475,1,8,0:0:0:0:
320,192,80475,1,0,0:0:0:0:
448,192,80475,1,0,0:0:0:0:
192,192,80646,1,0,0:0:0:0:
320,192,80816,1,2,0:0:0:0:
448,192,80816,1,0,0:0:0:0:
192,192,80987,1,0,0:0:0:0:
64,192,81157,1,8,0:0:0:0:
320,192,81157,1,0,0:0:0:0:
448,192,81157,1,0,0:0:0:0:
320,192,81327,1,0,0:0:0:0:
64,192,81498,1,0,0:0:0:0:
192,192,81668,1,2,0:0:0:0:
448,192,81668,1,0,0:0:0:0:
64,192,81839,1,8,0:0:0:0:
320,192,81839,128,0,82180:0:0:0:0:
448,192,81839,1,0,0:0:0:0:
64,192,82180,1,2,0:0:0:0:
192,192,82180,128,0,82521:0:0:0:0:
448,192,82350,1,0,0:0:0:0:
64,192,82521,1,8,0:0:0:0:
320,192,82521,1,0,0:0:0:0:
448,192,82521,1,0,0:0:0:0:
192,192,82691,128,0,82862:0:0:0:0:
320,192,82862,1,0,0:0:0:0:
192,192,83032,128,2,83202:0:0:0:0:
448,192,83032,1,0,0:0:0:0:
64,192,83202,1,8,0:0:0:0:
320,192,83202,128,0,83543:0:0:0:0:
448,192,83202,1,0,0:0:0:0:
192,192,83373,1,0,0:0:0:0:
64,192,83543,128,2,83884:0:0:0:0:
448,192,83543,1,0,0:0:0:0:
320,192,83714,1,0,0:0:0:0:
192,192,83884,1,8,0:0:0:0:
320,192,83884,1,0,0:0:0:0:
448,192,83884,1,0,0:0:0:0:
64,192,84055,128,0,84225:0:0:0:0:
192,192,84225,1,0,0:0:0:0:
64,192,84396,128,2,84566:0:0:0:0:
448,192,84396,1,0,0:0:0:0:
192,192,84566,1,8,0:0:0:0:
320,192,84566,1,0,0:0:0:0:
448,192,84566,128,0,84907:0:0:0:0:
64,192,84907,1,2,0:0:0:0:
192,192,84907,128,0,85248:0:0:0:0:
320,192,85077,1,0,0:0:0:0:
64,192,85248,1,8,0:0:0:0:
320,192,85248,1,0,0:0:0:0:
448,192,85248,1,0,0:0:0:0:
192,192,85418,128,0,85589:0:0:0:0:
448,192,85589,1,0,0:0:0:0:
64,192,85759,1,2,0:0:0:0:
192,192,85759,128,0,85930:0:0:0:0:
64,192,85930,1,8,0:0:0:0:
320,192,85930,1,0,0:0:0:0:
448,192,85930,128,0,86271:0:0:0:0:
64,192,86271,1,2,0:0:0:0:
192,192,86271,1,0,0:0:0:0:
320,192,86441,1,0,0:0:0:0:
64,192,86612,1,8,0:0:0:0:
192,192,86612,1,0,0:0:0:0:
448,192,86612,1,0,0:0:0:0:
64,192,86782,1,0,0:0:0:0:
192,192,86952,1,8,0:0:0:0:
320,192,86952,1,0,0:0:0:0:
448,192,86952,1,0,0:0:0:0:
448,192,87123,1,2,0:0:0:0:
64,192,87293,1,8,0:0:0:0:
192,192,87293,1,0,0:0:0:0:
320,192,87293,1,0,0:0:0:0:
64,192,87464,1,2,0:0:0:0:
320,192,87634,1,2,0:0:0:0:
448,192,87634,128,0,90021:0:0:0:0:
64,192,87805,1,0,0:0:0:0:
192,192,87975,1,0,0:0:0:0:
320,192,88146,1,0,0:0:0:0:
64,192,88316,1,0,0:0:0:0:
320,192,88487,1,0,0:0:0:0:
192,192,88657,1,0,0:0:0:0:
64,192,88827,1,0,0:0:0:0:
320,192,89168,1,0,0:0:0:0:
64,192,89339,1,0,0:0:0:0:
320,192,89509,1,0,0:0:0:0:
192,192,89680,1,0,0:0:0:0:
320,192,89850,1,0,0:0:0:0:
64,192,90021,128,0,90106:0:0:0:0:
192,192,90191,128,0,91725:0:0:0:0:
448,192,90362,1,0,0:0:0:0:
64,192,90532,1,0,0:0:0:0:
320,192,90702,1,0,0:0:0:0:
64,192,90873,1,0,0:0:0:0:
448,192,91043,1,0,0:0:0:0:
64,192,91214,1,0,0:0:0:0:
320,192,91384,1,0,0:0:0:0:
448,192,91555,1,0,0:0:0:0:
320,192,91896,1,0,0:0:0:0:
64,192,92066,1,0,0:0:0:0:
192,192,92237,1,0,0:0:0:0:
448,192,92407,128,0,92748:0:0:0:0:
192,192,92577,1,0,0:0:0:0:
320,192,92748,128,0,93089:0:0:0:0:
64,192,93089,128,0,95475:0:0:0:0:
192,192,93259,1,0,0:0:0:0:
448,192,93430,1,0,0:0:0:0:
320,192,93600,1,0,0:0:0:0:
192,192,93771,1,0,0:0:0:0:
320,192,93941,1,0,0:0:0:0:
448,192,94112,1,0,0:0:0:0:
192,192,94282,1,0,0:0:0:0:
448,192,94623,1,0,0:0:0:0:
192,192,94793,1,0,0:0:0:0:
320,192,94964,1,0,0:0:0:0:
448,192,95134,1,0,0:0:0:0:
192,192,95305,1,0,0:0:0:0:
448,192,95475,128,0,95560:0:0:0:0:
320,192,95646,128,0,96839:0:0:0:0:
64,192,95816,1,0,0:0:0:0:
192,192,95987,1,0,0:0:0:0:
448,192,96157,1,0,0:0:0:0:
192,192,96327,1,0,0:0:0:0:
64,192,96498,1,0,0:0:0:0:
448,192,96668,1,0,0:0:0:0:
64,192,96839,128,0,96924:0:0:0:0:
448,192,97009,128,0,98202:0:0:0:0:
192,192,97180,1,0,0:0:0:0:
320,192,97350,1,0,0:0:0:0:
64,192,97521,1,0,0:0:0:0:
192,192,97691,1,0,0:0:0:0:
64,192,97862,128,0,98202:0:0:0:0:
320,192,98032,1,0,0:0:0:0:
192,192,98202,1,0,0:0:0:0:
64,192,98543,1,4,0:0:0:0:
192,192,98543,1,8,0:0:0:0:
448,192,98543,1,0,0:0:0:0:
192,192,98884,1,8,0:0:0:0:
448,192,98884,1,0,0:0:0:0:
64,192,99225,1,4,0:0:0:0:
320,192,99225,1,8,0:0:0:0:
448,192,99225,1,0,0:0:0:0:
64,192,99566,1,8,0:0:0:0:
192,192,99566,1,0,0:0:0:0:
64,192,99907,1,4,0:0:0:0:
320,192,99907,1,8,0:0:0:0:
448,192,99907,1,0,0:0:0:0:
320,192,100248,1,8,0:0:0:0:
448,192,100248,1,0,0:0:0:0:
64,192,100589,1,4,0:0:0:0:
192,192,100589,1,8,0:0:0:0:
448,192,100589,1,0,0:0:0:0:
64,192,100930,128,8,101271:0:0:0:0:
320,192,100930,1,0,0:0:0:0:
192,192,101271,1,8,0:0:0:0:
320,192,101271,1,4,0:0:0:0:
448,192,101271,1,0,0:0:0:0:
320,192,101612,1,8,0:0:0:0:
448,192,101612,1,0,0:0:0:0:
64,192,101952,1,8,0:0:0:0:
192,192,101952,1,4,0:0:0:0:
448,192,101952,1,0,0:0:0:0:
64,192,102293,1,8,0:0:0:0:
192,192,102293,1,0,0:0:0:0:
64,192,102634,1,4,0:0:0:0:
320,192,102634,1,8,0:0:0:0:
448,192,102634,1,0,0:0:0:0:
192,192,102975,1,8,0:0:0:0:
320,192,102975,1,0,0:0:0:0:
64,192,103316,1,4,0:0:0:0:
320,192,103316,1,8,0:0:0:0:
448,192,103316,1,0,0:0:0:0:
192,192,103657,1,8,0:0:0:0:
448,192,103657,128,0,103998:0:0:0:0:
64,192,103998,1,2,0:0:0:0:
192,192,103998,1,8,0:0:0:0:
320,192,103998,1,4,0:0:0:0:
64,192,104168,1,2,0:0:0:0:
448,192,104168,1,0,0:0:0:0:
192,192,104339,1,2,0:0:0:0:
320,192,104339,1,4,0:0:0:0:
448,192,104339,1,8,0:0:0:0:
64,192,104509,1,2,0:0:0:0:
320,192,104509,1,0,0:0:0:0:
64,192,104680,1,2,0:0:0:0:
192,192,104680,1,8,0:0:0:0:
448,192,104680,1,4,0:0:0:0:
192,192,104850,1,2,0:0:0:0:
320,192,104850,1,0,0:0:0:0:
64,192,105021,1,2,0:0:0:0:
320,192,105021,1,4,0:0:0:0:
448,192,105021,1,8,0:0:0:0:
192,192,105191,1,2,0:0:0:0:
448,192,105191,1,0,0:0:0:0:
64,192,105362,1,2,0:0:0:0:
192,192,105362,1,8,0:0:0:0:
320,192,105362,1,4,0:0:0:0:
64,192,105532,1,2,0:0:0:0:
448,192,105532,1,0,0:0:0:0:
192,192,105702,1,2,0:0:0:0:
320,192,105702,1,4,0:0:0:0:
448,192,105702,1,8,0:0:0:0:
64,192,105873,1,2,0:0:0:0:
192,192,105873,1,0,0:0:0:0:
64,192,106043,1,2,0:0:0:0:
320,192,106043,1,8,0:0:0:0:
448,192,106043,1,4,0:0:0:0:
192,192,106214,1,2,0:0:0:0:
320,192,106214,1,0,0:0:0:0:
64,192,106384,1,2,0:0:0:0:
192,192,106384,1,4,0:0:0:0:
448,192,106384,1,8,0:0:0:0:
320,192,106555,1,2,0:0:0:0:
448,192,106555,1,0,0:0:0:0:
64,192,106725,1,12,0:0:0:0:
192,192,106725,1,2,0:0:0:0:
320,192,106810,1,2,0:0:0:0:
448,192,106810,1,0,0:0:0:0:
64,192,106896,1,2,0:0:0:0:
192,192,106896,1,0,0:0:0:0:
320,192,106981,1,2,0:0:0:0:
448,192,106981,1,0,0:0:0:0:
64,192,107066,1,12,0:0:0:0:
192,192,107066,1,2,0:0:0:0:
320,192,107151,1,2,0:0:0:0:
448,192,107151,1,0,0:0:0:0:
64,192,107237,1,2,0:0:0:0:
192,192,107237,1,0,0:0:0:0:
320,192,107322,1,2,0:0:0:0:
448,192,107322,1,0,0:0:0:0:
64,192,107407,1,12,0:0:0:0:
192,192,107407,1,2,0:0:0:0:
320,192,107492,1,2,0:0:0:0:
448,192,107492,1,0,0:0:0:0:
64,192,107577,1,2,0:0:0:0:
192,192,107577,1,0,0:0:0:0:
320,192,107663,1,2,0:0:0:0:
448,192,107663,1,0,0:0:0:0:
64,192,107748,1,12,0:0:0:0:
192,192,107748,1,2,0:0:0:0:
320,192,107833,1,2,0:0:0:0:
448,192,107833,1,0,0:0:0:0:
64,192,107918,1,2,0:0:0:0:
192,192,107918,1,0,0:0:0:0:
320,192,108004,1,2,0:0:0:0:
64,192,108089,1,4,0:0:0:0:
192,192,108089,1,2,0:0:0:0:
448,192,108089,1,0,0:0:0:0:
64,192,108259,1,0,0:0:0:0:
320,192,108430,1,0,0:0:0:0:
192,192,108600,1,0,0:0:0:0:
64,192,108771,1,8,0:0:0:0:
320,192,108771,1,4,0:0:0:0:
448,192,108771,1,0,0:0:0:0:
192,192,108941,1,2,0:0:0:0:
448,192,108941,1,0,0:0:0:0:
64,192,109112,1,8,0:0:0:0:
192,192,109112,1,4,0:0:0:0:
320,192,109112,1,0,0:0:0:0:
64,192,109282,1,0,0:0:0:0:
192,192,109452,1,4,0:0:0:0:
320,192,109452,1,2,0:0:0:0:
448,192,109452,128,0,109964:0:0:0:0:
64,192,109793,1,8,0:0:0:0:
192,192,109793,1,0,0:0:0:0:
320,192,109793,1,0,0:0:0:0:
64,192,109964,128,0,110134:0:0:0:0:
448,192,110134,128,0,110305:0:0:0:0:
192,192,110305,128,2,110475:0:0:0:0:
320,192,110305,1,0,0:0:0:0:
64,192,110475,128,8,110646:0:0:0:0:
320,192,110475,1,0,0:0:0:0:
448,192,110475,1,0,0:0:0:0:
192,192,110646,128,0,110816:0:0:0:0:
320,192,110816,1,2,0:0:0:0:
448,192,110816,128,0,111157:0:0:0:0:
64,192,110987,1,0,0:0:0:0:
64,192,111157,1,8,0:0:0:0:
192,192,111157,1,0,0:0:0:0:
320,192,111157,1,0,0:0:0:0:
192,192,111327,128,0,111668:0:0:0:0:
64,192,111498,1,0,0:0:0:0:
320,192,111668,1,2,0:0:0:0:
448,192,111668,1,0,0:0:0:0:
64,192,111839,1,8,0:0:0:0:
192,192,111839,1,0,0:0:0:0:
448,192,111839,1,0,0:0:0:0:
320,192,112009,128,0,112180:0:0:0:0:
64,192,112180,128,2,112691:0:0:0:0:
192,192,112180,1,0,0:0:0:0:
448,192,112350,1,0,0:0:0:0:
192,192,112521,1,8,0:0:0:0:
320,192,112521,1,0,0:0:0:0:
448,192,112521,1,0,0:0:0:0:
192,192,112691,128,0,112862:0:0:0:0:
448,192,112862,128,0,113032:0:0:0:0:
64,192,113032,1,2,0:0:0:0:
192,192,113032,128,0,113202:0:0:0:0:
64,192,113202,128,8,113373:0:0:0:0:
320,192,113202,1,0,0:0:0:0:
448,192,113202,1,0,0:0:0:0:
192,192,113373,128,0,113543:0:0:0:0:
320,192,113543,128,2,113884:0:0:0:0:
448,192,113543,1,0,0:0:0:0:
192,192,113714,1,0,0:0:0:0:
64,192,113884,1,8,0:0:0:0:
192,192,113884,1,0,0:0:0:0:
448,192,113884,1,0,0:0:0:0:
64,192,114055,128,0,114396:0:0:0:0:
448,192,114225,1,0,0:0:0:0:
192,192,114396,1,2,0:0:0:0:
320,192,114396,1,0,0:0:0:0:
64,192,114566,1,8,0:0:0:0:
320,192,114566,1,0,0:0:0:0:
448,192,114566,128,0,114907:0:0:0:0:
192,192,114907,128,2,115077:0:0:0:0:
320,192,114907,1,0,0:0:0:0:
64,192,115077,1,0,0:0:0:0:
64,192,115248,1,8,0:0:0:0:
192,192,115248,1,0,0:0:0:0:
448,192,115248,1,0,0:0:0:0:
320,192,115418,128,0,115589:0:0:0:0:
448,192,115589,1,0,0:0:0:0:
64,192,115759,1,2,0:0:0:0:
192,192,115759,1,0,0:0:0:0:
64,192,115930,128,8,116100:0:0:0:0:
320,192,115930,1,0,0:0:0:0:
448,192,115930,1,0,0:0:0:0:
192,192,116100,1,0,0:0:0:0:
64,192,116271,1,2,0:0:0:0:
320,192,116271,1,0,0:0:0:0:
448,192,116441,128,0,116612:0:0:0:0:
64,192,116612,1,8,0:0:0:0:
192,192,116612,1,0,0:0:0:0:
320,192,116612,1,0,0:0:0:0:
192,192,116782,1,0,0:0:0:0:
448,192,116952,128,0,117123:0:0:0:0:
64,192,117123,1,2,0:0:0:0:
192,192,117123,1,0,0:0:0:0:
64,192,117293,128,8,117634:0:0:0:0:
320,192,117293,1,0,0:0:0:0:
448,192,117293,1,0,0:0:0:0:
192,192,117634,1,2,0:0:0:0:
320,192,117634,128,0,117805:0:0:0:0:
448,192,117805,1,0,0:0:0:0:
64,192,117975,1,8,0:0:0:0:
320,192,117975,1,0,0:0:0:0:
448,192,117975,1,0,0:0:0:0:
192,192,118146,128,0,118316:0:0:0:0:
64,192,118316,1,0,0:0:0:0:
320,192,118487,1,2,0:0:0:0:
448,192,118487,1,0,0:0:0:0:
64,192,118657,1,8,0:0:0:0:
192,192,118657,1,0,0:0:0:0:
448,192,118657,128,0,118827:0:0:0:0:
320,192,118827,1,0,0:0:0:0:
192,192,118998,1,2,0:0:0:0:
448,192,118998,1,0,0:0:0:0:
64,192,119168,128,0,119339:0:0:0:0:
192,192,119339,1,8,0:0:0:0:
320,192,119339,1,0,0:0:0:0:
448,192,119339,1,0,0:0:0:0:
320,192,119509,1,0,0:0:0:0:
64,192,119680,128,0,119850:0:0:0:0:
320,192,119850,1,2,0:0:0:0:
448,192,119850,1,0,0:0:0:0:
64,192,120021,1,8,0:0:0:0:
192,192,120021,1,0,0:0:0:0:
448,192,120021,128,0,120362:0:0:0:0:
192,192,120362,128,4,120873:0:0:0:0:
320,192,120362,1,2,0:0:0:0:
64,192,120702,1,8,0:0:0:0:
320,192,120702,1,0,0:0:0:0:
448,192,120702,1,0,0:0:0:0:
448,192,120873,128,0,121043:0:0:0:0:
64,192,121043,128,0,121214:0:0:0:0:
192,192,121214,128,2,121384:0:0:0:0:
448,192,121214,1,0,0:0:0:0:
64,192,121384,1,8,0:0:0:0:
320,192,121384,1,0,0:0:0:0:
448,192,121384,128,0,121555:0:0:0:0:
192,192,121555,128,0,121725:0:0:0:0:
64,192,121725,128,2,122066:0:0:0:0:
448,192,121725,1,0,0:0:0:0:
320,192,121896,1,0,0:0:0:0:
192,192,122066,1,8,0:0:0:0:
320,192,122066,1,0,0:0:0:0:
448,192,122066,1,0,0:0:0:0:
192,192,122237,128,0,122577:0:0:0:0:
64,192,122407,1,0,0:0:0:0:
320,192,122577,1,2,0:0:0:0:
448,192,122577,1,0,0:0:0:0:
64,192,122748,1,8,0:0:0:0:
192,192,122748,1,0,0:0:0:0:
448,192,122748,1,0,0:0:0:0:
320,192,122918,128,0,123089:0:0:0:0:
64,192,123089,1,2,0:0:0:0:
448,192,123089,128,0,123600:0:0:0:0:
192,192,123259,1,0,0:0:0:0:
64,192,123430,1,8,0:0:0:0:
192,192,123430,1,0,0:0:0:0:
320,192,123430,1,0,0:0:0:0:
320,192,123600,128,0,123771:0:0:0:0:
64,192,123771,128,0,123941:0:0:0:0:
192,192,123941,128,2,124112:0:0:0:0:
448,192,123941,1,0,0:0:0:0:
64,192,124112,1,8,0:0:0:0:
320,192,124112,1,0,0:0:0:0:
448,192,124112,128,0,124282:0:0:0:0:
320,192,124282,128,0,124452:0:0:0:0:
64,192,124452,1,2,0:0:0:0:
192,192,124452,128,0,124793:0:0:0:0:
320,192,124623,1,0,0:0:0:0:
64,192,124793,1,8,0:0:0:0:
320,192,124793,1,0,0:0:0:0:
448,192,124793,1,0,0:0:0:0:
448,192,124964,128,0,125305:0:0:0:0:
64,192,125134,1,0,0:0:0:0:
192,192,125305,1,2,0:0:0:0:
320,192,125305,1,0,0:0:0:0:
64,192,125475,128,8,125816:0:0:0:0:
320,192,125475,1,0,0:0:0:0:
448,192,125475,1,0,0:0:0:0:
192,192,125816,1,2,0:0:0:0:
448,192,125816,128,0,125987:0:0:0:0:
320,192,125987,1,0,0:0:0:0:
64,192,126157,1,8,0:0:0:0:
192,192,126157,1,0,0:0:0:0:
448,192,126157,1,0,0:0:0:0:
320,192,126327,128,0,126498:0:0:0:0:
448,192,126498,1,0,0:0:0:0:
64,192,126668,1,2,0:0:0:0:
192,192,126668,1,0,0:0:0:0:
64,192,126839,128,8,127009:0:0:0:0:
320,192,126839,1,0,0:0:0:0:
448,192,126839,1,0,0:0:0:0:
192,192,127009,1,0,0:0:0:0:
64,192,127180,1,2,0:0:0:0:
448,192,127180,1,0,0:0:0:0:
192,192,127350,128,0,127521:0:0:0:0:
64,192,127521,1,8,0:0:0:0:
320,192,127521,1,0,0:0:0:0:
448,192,127521,1,0,0:0:0:0:
192,192,127691,1,0,0:0:0:0:
320,192,127862,128,0,128032:0:0:0:0:
64,192,128032,1,2,0:0:0:0:
192,192,128032,1,0,0:0:0:0:
64,192,128202,1,8,0:0:0:0:
320,192,128202,1,0,0:0:0:0:
448,192,128202,128,0,128543:0:0:0:0:
64,192,128543,128,2,128714:0:0:0:0:
192,192,128543,1,0,0:0:0:0:
320,192,128714,1,0,0:0:0:0:
64,192,128884,1,8,0:0:0:0:
320,192,128884,1,0,0:0:0:0:
448,192,128884,1,0,0:0:0:0:
192,192,129055,128,0,129225:0:0:0:0:
448,192,129225,1,0,0:0:0:0:
64,192,129396,1,2,0:0:0:0:
192,192,129396,1,0,0:0:0:0:
64,192,129566,1,8,0:0:0:0:
320,192,129566,1,0,0:0:0:0:
448,192,129566,128,0,129737:0:0:0:0:
192,192,129737,1,0,0:0:0:0:
64,192,129907,1,2,0:0:0:0:
448,192,129907,1,0,0:0:0:0:
320,192,130077,128,0,130248:0:0:0:0:
64,192,130248,1,8,0:0:0:0:
192,192,130248,1,0,0:0:0:0:
448,192,130248,1,0,0:0:0:0:
320,192,130418,1,0,0:0:0:0:
192,192,130589,128,0,130759:0:0:0:0:
320,192,130759,1,2,0:0:0:0:
448,192,130759,1,0,0:0:0:0:
64,192,130930,1,8,0:0:0:0:
192,192,130930,1,0,0:0:0:0:
448,192,130930,128,0,131271:0:0:0:0:
64,192,131271,128,2,133998:0:0:0:0:
320,192,131271,1,4,0:0:0:0:
448,192,131441,1,0,0:0:0:0:
192,192,131612,1,8,0:0:0:0:
320,192,131612,1,0,0:0:0:0:
448,192,131782,1,0,0:0:0:0:
192,192,131952,1,0,0:0:0:0:
320,192,132123,1,2,0:0:0:0:
448,192,132123,1,0,0:0:0:0:
192,192,132293,1,8,0:0:0:0:
448,192,132293,1,0,0:0:0:0:
320,192,132464,1,0,0:0:0:0:
192,192,132634,1,2,0:0:0:0:
448,192,132634,1,0,0:0:0:0:
192,192,132805,1,0,0:0:0:0:
320,192,132975,1,8,0:0:0:0:
448,192,132975,1,0,0:0:0:0:
192,192,133146,1,0,0:0:0:0:
448,192,133316,1,0,0:0:0:0:
192,192,133487,1,2,0:0:0:0:
320,192,133487,1,0,0:0:0:0:
192,192,133657,1,8,0:0:0:0:
448,192,133657,1,0,0:0:0:0:
320,192,133998,1,2,0:0:0:0:
448,192,133998,1,0,0:0:0:0:
192,192,134168,1,0,0:0:0:0:
64,192,134339,1,8,0:0:0:0:
192,192,134339,1,0,0:0:0:0:
448,192,134339,1,0,0:0:0:0:
320,192,134509,1,0,0:0:0:0:
192,192,134680,1,0,0:0:0:0:
320,192,134850,1,2,0:0:0:0:
448,192,134850,1,0,0:0:0:0:
64,192,135021,1,8,0:0:0:0:
192,192,135021,1,0,0:0:0:0:
448,192,135021,1,0,0:0:0:0:
320,192,135191,1,0,0:0:0:0:
64,192,135362,1,2,0:0:0:0:
192,192,135362,1,0,0:0:0:0:
320,192,135532,1,0,0:0:0:0:
64,192,135702,1,8,0:0:0:0:
320,192,135702,1,0,0:0:0:0:
448,192,135702,1,0,0:0:0:0:
192,192,135873,1,0,0:0:0:0:
448,192,136043,128,0,136725:0:0:0:0:
64,192,136214,1,2,0:0:0:0:
192,192,136214,1,0,0:0:0:0:
64,192,136384,1,8,0:0:0:0:
320,192,136384,1,0,0:0:0:0:
64,192,136725,128,2,139112:0:0:0:0:
320,192,136725,1,0,0:0:0:0:
448,192,136896,1,0,0:0:0:0:
192,192,137066,1,8,0:0:0:0:
320,192,137066,1,0,0:0:0:0:
448,192,137237,1,0,0:0:0:0:
192,192,137407,1,0,0:0:0:0:
320,192,137577,1,2,0:0:0:0:
448,192,137577,1,0,0:0:0:0:
192,192,137748,1,8,0:0:0:0:
448,192,137748,1,0,0:0:0:0:
320,192,137918,1,0,0:0:0:0:
192,192,138089,1,2,0:0:0:0:
320,192,138089,1,0,0:0:0:0:
448,192,138259,1,0,0:0:0:0:
192,192,138430,1,8,0:0:0:0:
448,192,138430,1,0,0:0:0:0:
320,192,138600,1,0,0:0:0:0:
192,192,138771,1,0,0:0:0:0:
320,192,138941,1,2,0:0:0:0:
448,192,138941,1,0,0:0:0:0:
192,192,139112,1,8,0:0:0:0:
448,192,139112,128,0,139197:0:0:0:0:
320,192,139282,128,0,140475:0:0:0:0:
64,192,139452,1,2,0:0:0:0:
192,192,139452,1,0,0:0:0:0:
448,192,139623,1,0,0:0:0:0:
64,192,139793,1,8,0:0:0:0:
192,192,139793,1,0,0:0:0:0:
448,192,139964,1,0,0:0:0:0:
64,192,140134,1,0,0:0:0:0:
192,192,140305,1,2,0:0:0:0:
448,192,140305,1,0,0:0:0:0:
64,192,140475,128,8,140560:0:0:0:0:
192,192,140475,1,0,0:0:0:0:
320,192,140646,128,0,141498:0:0:0:0:
192,192,140816,1,2,0:0:0:0:
448,192,140816,1,0,0:0:0:0:
64,192,140987,1,0,0:0:0:0:
64,192,141157,1,8,0:0:0:0:
448,192,141157,1,0,0:0:0:0:
448,192,141327,1,0,0:0:0:0:
64,192,141498,128,8,141839:0:0:0:0:
192,192,141498,1,0,0:0:0:0:
320,192,141668,1,2,0:0:0:0:
448,192,141668,1,0,0:0:0:0:
192,192,141839,1,8,0:0:0:0:
320,192,141839,1,0,0:0:0:0:
448,192,141839,1,0,0:0:0:0:
64,192,142180,1,4,0:0:0:0:
192,192,142180,1,2,0:0:0:0:
448,192,142180,1,8,0:0:0:0:
64,192,142521,1,8,0:0:0:0:
320,192,142521,1,0,0:0:0:0:
192,192,142862,1,4,0:0:0:0:
320,192,142862,1,8,0:0:0:0:
448,192,142862,1,0,0:0:0:0:
64,192,143202,1,8,0:0:0:0:
448,192,143202,1,0,0:0:0:0:
64,192,143543,1,4,0:0:0:0:
192,192,143543,1,8,0:0:0:0:
448,192,143543,1,0,0:0:0:0:
192,192,143884,1,8,0:0:0:0:
320,192,143884,1,0,0:0:0:0:
64,192,144225,1,4,0:0:0:0:
320,192,144225,1,8,0:0:0:0:
448,192,144225,1,0,0:0:0:0:
64,192,144566,1,8,0:0:0:0:
192,192,144566,128,0,144907:0:0:0:0:
64,192,144907,1,8,0:0:0:0:
320,192,144907,1,4,0:0:0:0:
448,192,144907,1,0,0:0:0:0:
192,192,145248,1,8,0:0:0:0:
448,192,145248,1,0,0:0:0:0:
64,192,145589,1,8,0:0:0:0:
320,192,145589,1,4,0:0:0:0:
448,192,145589,1,0,0:0:0:0:
64,192,145930,1,8,0:0:0:0:
192,192,145930,1,0,0:0:0:0:
64,192,146271,1,4,0:0:0:0:
320,192,146271,1,8,0:0:0:0:
448,192,146271,1,0,0:0:0:0:
192,192,146612,1,8,0:0:0:0:
320,192,146612,1,0,0:0:0:0:
64,192,146952,1,4,0:0:0:0:
192,192,146952,1,8,0:0:0:0:
448,192,146952,1,0,0:0:0:0:
320,192,147293,128,8,147634:0:0:0:0:
448,192,147293,1,0,0:0:0:0:
64,192,147634,1,8,0:0:0:0:
192,192,147634,1,4,0:0:0:0:
448,192,147634,1,0,0:0:0:0:
64,192,147805,1,2,0:0:0:0:
320,192,147805,1,0,0:0:0:0:
64,192,147975,1,2,0:0:0:0:
448,192,147975,1,0,0:0:0:0:
192,192,148146,1,4,0:0:0:0:
320,192,148146,1,8,0:0:0:0:
448,192,148146,1,0,0:0:0:0:
64,192,148316,1,2,0:0:0:0:
320,192,148316,1,0,0:0:0:0:
320,192,148487,1,2,0:0:0:0:
448,192,148487,1,0,0:0:0:0:
64,192,148657,1,8,0:0:0:0:
192,192,148657,1,4,0:0:0:0:
448,192,148657,1,0,0:0:0:0:
192,192,148827,1,2,0:0:0:0:
320,192,148827,1,0,0:0:0:0:
64,192,148998,1,2,0:0:0:0:
192,192,148998,1,0,0:0:0:0:
64,192,149168,1,4,0:0:0:0:
320,192,149168,1,8,0:0:0:0:
448,192,149168,1,0,0:0:0:0:
192,192,149339,1,2,0:0:0:0:
448,192,149339,1,0,0:0:0:0:
64,192,149509,1,2,0:0:0:0:
448,192,149509,1,0,0:0:0:0:
64,192,149680,1,8,0:0:0:0:
192,192,149680,1,4,0:0:0:0:
320,192,149680,1,0,0:0:0:0:
192,192,149850,1,2,0:0:0:0:
448,192,149850,1,0,0:0:0:0:
64,192,150021,1,8,0:0:0:0:
320,192,150021,1,4,0:0:0:0:
448,192,150021,1,0,0:0:0:0:
64,192,150191,1,2,0:0:0:0:
192,192,150191,1,0,0:0:0:0:
192,192,150362,1,8,0:0:0:0:
320,192,150362,1,4,0:0:0:0:
448,192,150362,1,0,0:0:0:0:
64,192,150532,1,2,0:0:0:0:
448,192,150532,1,0,0:0:0:0:
320,192,150702,1,2,0:0:0:0:
448,192,150702,1,0,0:0:0:0:
64,192,150873,1,4,0:0:0:0:
192,192,150873,1,8,0:0:0:0:
320,192,150873,1,0,0:0:0:0:
192,192,151043,1,2,0:0:0:0:
448,192,151043,1,0,0:0:0:0:
64,192,151214,1,2,0:0:0:0:
192,192,151214,1,0,0:0:0:0:
64,192,151384,1,8,0:0:0:0:
320,192,151384,1,4,0:0:0:0:
448,192,151384,1,0,0:0:0:0:
192,192,151555,1,2,0:0:0:0:
320,192,151555,1,0,0:0:0:0:
320,192,151725,1,2,0:0:0:0:
448,192,151725,1,0,0:0:0:0:
64,192,151896,1,4,0:0:0:0:
192,192,151896,1,8,0:0:0:0:
448,192,151896,1,0,0:0:0:0:
64,192,152066,1,2,0:0:0:0:
320,192,152066,1,0,0:0:0:0:
64,192,152237,1,2,0:0:0:0:
192,192,152237,1,0,0:0:0:0:
320,192,152407,1,4,0:0:0:0:
448,192,152407,1,8,0:0:0:0:
64,192,152492,1,8,0:0:0:0:
192,192,152492,1,0,0:0:0:0:
320,192,152577,1,8,0:0:0:0:
448,192,152577,1,0,0:0:0:0:
64,192,152663,1,8,0:0:0:0:
192,192,152663,1,0,0:0:0:0:
320,192,152748,1,8,0:0:0:0:
448,192,152748,1,0,0:0:0:0:
64,192,152833,1,8,0:0:0:0:
192,192,152833,1,0,0:0:0:0:
320,192,152918,1,8,0:0:0:0:
448,192,152918,1,0,0:0:0:0:
192,192,153004,1,8,0:0:0:0:
64,192,153089,1,4,0:0:0:0:
320,192,153089,1,2,0:0:0:0:
448,192,153089,1,0,0:0:0:0:
192,192,153259,1,0,0:0:0:0:
64,192,153430,1,8,0:0:0:0:
192,192,153430,1,0,0:0:0:0:
448,192,153430,1,0,0:0:0:0:
320,192,153600,1,0,0:0:0:0:
448,192,153685,1,0,0:0:0:0:
192,192,153771,1,0,0:0:0:0:
64,192,153856,1,0,0:0:0:0:
320,192,153941,1,2,0:0:0:0:
448,192,153941,1,0,0:0:0:0:
64,192,154112,1,8,0:0:0:0:
192,192,154112,1,0,0:0:0:0:
448,192,154112,1,0,0:0:0:0:
320,192,154282,1,0,0:0:0:0:
64,192,154452,1,2,0:0:0:0:
192,192,154452,1,0,0:0:0:0:
320,192,154623,1,0,0:0:0:0:
64,192,154793,1,8,0:0:0:0:
320,192,154793,1,0,0:0:0:0:
448,192,154793,1,0,0:0:0:0:
192,192,154964,1,0,0:0:0:0:
64,192,155049,1,0,0:0:0:0:
448,192,155134,1,0,0:0:0:0:
320,192,155219,1,0,0:0:0:0:
64,192,155305,1,2,0:0:0:0:
192,192,155305,1,0,0:0:0:0:
64,192,155475,1,8,0:0:0:0:
320,192,155475,1,0,0:0:0:0:
448,192,155475,128,0,155816:0:0:0:0:
192,192,155816,1,2,0:0:0:0:
320,192,155816,1,0,0:0:0:0:
64,192,155987,1,0,0:0:0:0:
64,192,156157,1,8,0:0:0:0:
192,192,156157,1,0,0:0:0:0:
448,192,156157,1,0,0:0:0:0:
320,192,156327,1,0,0:0:0:0:
448,192,156413,1,0,0:0:0:0:
64,192,156498,1,0,0:0:0:0:
192,192,156583,1,0,0:0:0:0:
320,192,156668,1,2,0:0:0:0:
448,192,156668,1,0,0:0:0:0:
64,192,156839,1,8,0:0:0:0:
192,192,156839,1,0,0:0:0:0:
448,192,156839,1,0,0:0:0:0:
64,192,157009,1,0,0:0:0:0:
192,192,157180,1,2,0:0:0:0:
320,192,157180,1,0,0:0:0:0:
448,192,157350,1,0,0:0:0:0:
64,192,157521,1,8,0:0:0:0:
320,192,157521,1,0,0:0:0:0:
448,192,157521,1,0,0:0:0:0:
192,192,157691,1,0,0:0:0:0:
64,192,157776,1,0,0:0:0:0:
448,192,157862,1,0,0:0:0:0:
320,192,157947,1,0,0:0:0:0:
64,192,158032,1,2,0:0:0:0:
192,192,158032,1,0,0:0:0:0:
64,192,158202,128,8,158543:0:0:0:0:
320,192,158202,1,0,0:0:0:0:
448,192,158202,1,0,0:0:0:0:
192,192,158543,1,2,0:0:0:0:
320,192,158543,1,0,0:0:0:0:
448,192,158714,1,0,0:0:0:0:
64,192,158884,1,8,0:0:0:0:
320,192,158884,1,0,0:0:0:0:
448,192,158884,1,0,0:0:0:0:
192,192,159055,1,0,0:0:0:0:
320,192,159140,1,0,0:0:0:0:
64,192,159225,1,0,0:0:0:0:
192,192,159310,1,0,0:0:0:0:
320,192,159396,1,2,0:0:0:0:
448,192,159396,1,0,0:0:0:0:
64,192,159566,1,8,0:0:0:0:
192,192,159566,1,0,0:0:0:0:
448,192,159566,1,0,0:0:0:0:
320,192,159737,1,0,0:0:0:0:
64,192,159907,1,2,0:0:0:0:
192,192,159907,1,0,0:0:0:0:
320,192,160077,1,0,0:0:0:0:
64,192,160248,1,8,0:0:0:0:
320,192,160248,1,0,0:0:0:0:
448,192,160248,1,0,0:0:0:0:
192,192,160418,1,0,0:0:0:0:
64,192,160504,1,0,0:0:0:0:
320,192,160589,1,0,0:0:0:0:
448,192,160674,1,0,0:0:0:0:
64,192,160759,1,2,0:0:0:0:
192,192,160759,1,0,0:0:0:0:
64,192,160930,1,8,0:0:0:0:
320,192,160930,1,0,0:0:0:0:
448,192,160930,128,0,161271:0:0:0:0:
192,192,161271,1,2,0:0:0:0:
320,192,161271,1,0,0:0:0:0:
64,192,161441,1,0,0:0:0:0:
64,192,161612,1,8,0:0:0:0:
192,192,161612,1,0,0:0:0:0:
448,192,161612,1,0,0:0:0:0:
320,192,161782,1,0,0:0:0:0:
448,192,161867,1,0,0:0:0:0:
192,192,161952,1,0,0:0:0:0:
64,192,162038,1,0,0:0:0:0:
320,192,162123,1,2,0:0:0:0:
448,192,162123,1,0,0:0:0:0:
64,192,162293,1,8,0:0:0:0:
192,192,162293,1,0,0:0:0:0:
448,192,162293,1,0,0:0:0:0:
320,192,162464,1,0,0:0:0:0:
64,192,162634,1,2,0:0:0:0:
448,192,162634,1,0,0:0:0:0:
192,192,162805,1,0,0:0:0:0:
64,192,162975,1,8,0:0:0:0:
320,192,162975,1,0,0:0:0:0:
448,192,162975,1,0,0:0:0:0:
192,192,163146,1,0,0:0:0:0:
320,192,163231,1,0,0:0:0:0:
448,192,163316,1,0,0:0:0:0:
64,192,163401,1,0,0:0:0:0:
192,192,163487,1,2,0:0:0:0:
320,192,163487,1,0,0:0:0:0:
64,192,163657,128,8,163998:0:0:0:0:
192,192,163657,1,0,0:0:0:0:
448,192,163657,1,0,0:0:0:0:
192,192,163998,1,4,0:0:0:0:
320,192,163998,128,2,164168:0:0:0:0:
448,192,163998,1,0,0:0:0:0:
64,192,164168,1,0,0:0:0:0:
64,192,164339,1,8,0:0:0:0:
192,192,164339,1,0,0:0:0:0:
448,192,164339,1,0,0:0:0:0:
320,192,164509,128,0,164680:0:0:0:0:
192,192,164594,1,0,0:0:0:0:
64,192,164680,1,0,0:0:0:0:
192,192,164765,1,0,0:0:0:0:
320,192,164850,1,2,0:0:0:0:
448,192,164850,1,0,0:0:0:0:
64,192,165021,128,8,165191:0:0:0:0:
192,192,165021,1,0,0:0:0:0:
448,192,165021,1,0,0:0:0:0:
320,192,165191,1,0,0:0:0:0:
64,192,165362,1,2,0:0:0:0:
192,192,165362,1,0,0:0:0:0:
448,192,165532,128,0,165702:0:0:0:0:
64,192,165702,1,8,0:0:0:0:
192,192,165702,1,0,0:0:0:0:
320,192,165702,1,0,0:0:0:0:
448,192,165873,1,0,0:0:0:0:
320,192,165958,1,0,0:0:0:0:
64,192,166043,128,0,166214:0:0:0:0:
192,192,166129,1,0,0:0:0:0:
320,192,166214,1,2,0:0:0:0:
448,192,166214,1,0,0:0:0:0:
64,192,166384,1,8,0:0:0:0:
192,192,166384,128,0,166725:0:0:0:0:
448,192,166384,1,0,0:0:0:0:
320,192,166725,1,2,0:0:0:0:
448,192,166725,128,0,166896:0:0:0:0:
192,192,166896,1,0,0:0:0:0:
64,192,167066,1,8,0:0:0:0:
320,192,167066,1,0,0:0:0:0:
448,192,167066,1,0,0:0:0:0:
192,192,167237,128,0,167407:0:0:0:0:
320,192,167322,1,0,0:0:0:0:
448,192,167407,1,0,0:0:0:0:
320,192,167492,1,0,0:0:0:0:
64,192,167577,1,2,0:0:0:0:
192,192,167577,1,0,0:0:0:0:
64,192,167748,1,8,0:0:0:0:
320,192,167748,1,0,0:0:0:0:
448,192,167748,128,0,167918:0:0:0:0:
192,192,167918,1,0,0:0:0:0:
320,192,168089,1,2,0:0:0:0:
448,192,168089,1,0,0:0:0:0:
64,192,168259,128,0,168430:0:0:0:0:
192,192,168430,1,8,0:0:0:0:
320,192,168430,1,0,0:0:0:0:
448,192,168430,1,0,0:0:0:0:
64,192,168600,1,0,0:0:0:0:
192,192,168685,1,0,0:0:0:0:
448,192,168771,128,0,168941:0:0:0:0:
320,192,168856,1,0,0:0:0:0:
64,192,168941,1,2,0:0:0:0:
192,192,168941,1,0,0:0:0:0:
64,192,169112,1,8,0:0:0:0:
320,192,169112,128,0,169452:0:0:0:0:
448,192,169112,1,0,0:0:0:0:
64,192,169452,1,2,0:0:0:0:
192,192,169452,128,0,169623:0:0:0:0:
320,192,169623,1,0,0:0:0:0:
64,192,169793,1,8,0:0:0:0:
320,192,169793,1,0,0:0:0:0:
448,192,169793,1,0,0:0:0:0:
192,192,169964,128,0,170134:0:0:0:0:
64,192,170049,1,0,0:0:0:0:
320,192,170134,1,0,0:0:0:0:
448,192,170219,1,0,0:0:0:0:
64,192,170305,1,2,0:0:0:0:
192,192,170305,1,0,0:0:0:0:
64,192,170475,1,8,0:0:0:0:
320,192,170475,128,0,170646:0:0:0:0:
448,192,170475,1,0,0:0:0:0:
192,192,170646,1,0,0:0:0:0:
64,192,170816,1,2,0:0:0:0:
448,192,170816,1,0,0:0:0:0:
320,192,170987,128,0,171157:0:0:0:0:
64,192,171157,1,8,0:0:0:0:
192,192,171157,1,0,0:0:0:0:
448,192,171157,1,0,0:0:0:0:
320,192,171327,1,0,0:0:0:0:
448,192,171413,1,0,0:0:0:0:
192,192,171498,128,0,171668:0:0:0:0:
64,192,171583,1,0,0:0:0:0:
320,192,171668,1,2,0:0:0:0:
448,192,171668,1,0,0:0:0:0:
64,192,171839,1,8,0:0:0:0:
320,192,171839,128,0,172180:0:0:0:0:
448,192,171839,1,0,0:0:0:0:
64,192,172180,128,2,172350:0:0:0:0:
192,192,172180,1,0,0:0:0:0:
320,192,172350,1,0,0:0:0:0:
64,192,172521,1,8,0:0:0:0:
192,192,172521,1,0,0:0:0:0:
448,192,172521,1,0,0:0:0:0:
320,192,172691,128,0,172862:0:0:0:0:
192,192,172776,1,0,0:0:0:0:
64,192,172862,1,0,0:0:0:0:
192,192,172947,1,0,0:0:0:0:
320,192,173032,1,2,0:0:0:0:
448,192,173032,1,0,0:0:0:0:
64,192,173202,128,8,173373:0:0:0:0:
192,192,173202,1,0,0:0:0:0:
448,192,173202,1,0,0:0:0:0:
320,192,173373,1,0,0:0:0:0:
64,192,173543,1,2,0:0:0:0:
192,192,173543,1,0,0:0:0:0:
320,192,173714,128,0,173884:0:0:0:0:
64,192,173884,1,8,0:0:0:0:
192,192,173884,1,0,0:0:0:0:
448,192,173884,1,0,0:0:0:0:
320,192,174055,1,0,0:0:0:0:
64,192,174140,1,0,0:0:0:0:
192,192,174225,1,8,0:0:0:0:
320,192,174225,1,0,0:0:0:0:
448,192,174225,1,0,0:0:0:0:
64,192,174396,1,2,0:0:0:0:
448,192,174396,1,0,0:0:0:0:
64,192,174566,128,8,174907:0:0:0:0:
192,192,174566,1,0,0:0:0:0:
320,192,174566,1,0,0:0:0:0:
192,192,174907,1,2,0:0:0:0:
320,192,174907,1,4,0:0:0:0:
448,192,174907,1,0,0:0:0:0:
64,192,175248,1,8,0:0:0:0:
320,192,175248,1,0,0:0:0:0:
448,192,175248,1,0,0:0:0:0:
192,192,175418,1,0,0:0:0:0:
448,192,175589,1,0,0:0:0:0:
192,192,175759,1,2,0:0:0:0:
320,192,175759,1,0,0:0:0:0:
64,192,175930,1,8,0:0:0:0:
192,192,175930,1,0,0:0:0:0:
448,192,175930,1,0,0:0:0:0:
64,192,176100,1,0,0:0:0:0:
320,192,176271,1,2,0:0:0:0:
448,192,176271,1,0,0:0:0:0:
192,192,176441,1,0,0:0:0:0:
64,192,176612,1,8,0:0:0:0:
320,192,176612,1,0,0:0:0:0:
448,192,176612,1,0,0:0:0:0:
192,192,176782,1,0,0:0:0:0:
64,192,176952,1,0,0:0:0:0:
320,192,177123,1,2,0:0:0:0:
448,192,177123,1,0,0:0:0:0:
64,192,177293,1,8,0:0:0:0:
192,192,177293,1,0,0:0:0:0:
448,192,177293,1,0,0:0:0:0:
320,192,177464,1,0,0:0:0:0:
64,192,177634,1,2,0:0:0:0:
448,192,177634,1,0,0:0:0:0:
192,192,177805,1,0,0:0:0:0:
64,192,177975,1,8,0:0:0:0:
320,192,177975,1,0,0:0:0:0:
448,192,177975,1,0,0:0:0:0:
192,192,178146,1,0,0:0:0:0:
320,192,178316,1,0,0:0:0:0:
64,192,178487,1,2,0:0:0:0:
192,192,178487,1,0,0:0:0:0:
64,192,178657,1,8,0:0:0:0:
320,192,178657,1,0,0:0:0:0:
448,192,178657,1,0,0:0:0:0:
448,192,178827,1,0,0:0:0:0:
64,192,178998,1,2,0:0:0:0:
192,192,178998,1,0,0:0:0:0:
320,192,179168,1,0,0:0:0:0:
64,192,179339,1,8,0:0:0:0:
192,192,179339,1,0,0:0:0:0:
448,192,179339,1,0,0:0:0:0:
320,192,179509,1,0,0:0:0:0:
448,192,179680,1,0,0:0:0:0:
64,192,179850,1,2,0:0:0:0:
192,192,179850,1,0,0:0:0:0:
64,192,180021,1,8,0:0:0:0:
320,192,180021,1,0,0:0:0:0:
448,192,180021,1,0,0:0:0:0:
192,192,180191,1,0,0:0:0:0:
320,192,180362,1,2,0:0:0:0:
448,192,180362,1,0,0:0:0:0:
192,192,180532,1,0,0:0:0:0:
64,192,180702,1,8,0:0:0:0:
192,192,180702,1,0,0:0:0:0:
320,192,180702,1,0,0:0:0:0:
448,192,180873,1,0,0:0:0:0:
64,192,181043,1,0,0:0:0:0:
320,192,181214,1,2,0:0:0:0:
448,192,181214,1,0,0:0:0:0:
64,192,181384,1,8,0:0:0:0:
320,192,181384,1,0,0:0:0:0:
448,192,181384,1,0,0:0:0:0:
192,192,181555,1,0,0:0:0:0:
64,192,181725,1,2,0:0:0:0:
448,192,181725,1,0,0:0:0:0:
320,192,181896,1,0,0:0:0:0:
192,192,182066,1,8,0:0:0:0:
320,192,182066,1,0,0:0:0:0:
448,192,182066,1,0,0:0:0:0:
64,192,182237,1,0,0:0:0:0:
448,192,182407,1,0,0:0:0:0:
64,192,182577,1,2,0:0:0:0:
192,192,182577,1,0,0:0:0:0:
64,192,182748,1,8,0:0:0:0:
192,192,182748,1,0,0:0:0:0:
448,192,182748,1,0,0:0:0:0:
320,192,182918,1,0,0:0:0:0:
64,192,183089,1,2,0:0:0:0:
448,192,183089,1,0,0:0:0:0:
192,192,183259,1,0,0:0:0:0:
64,192,183430,1,8,0:0:0:0:
320,192,183430,1,0,0:0:0:0:
448,192,183430,1,0,0:0:0:0:
192,192,183600,1,0,0:0:0:0:
448,192,183771,1,0,0:0:0:0:
192,192,183941,1,2,0:0:0:0:
320,192,183941,1,0,0:0:0:0:
64,192,184112,1,8,0:0:0:0:
192,192,184112,1,0,0:0:0:0:
448,192,184112,1,0,0:0:0:0:
320,192,184282,1,0,0:0:0:0:
64,192,184452,1,2,0:0:0:0:
448,192,184452,1,0,0:0:0:0:
192,192,184623,1,0,0:0:0:0:
64,192,184793,1,8,0:0:0:0:
320,192,184793,1,0,0:0:0:0:
448,192,184793,1,0,0:0:0:0:
192,192,184964,1,2,0:0:0:0:
320,192,184964,1,0,0:0:0:0:
64,192,185134,1,0,0:0:0:0:
192,192,185305,1,2,0:0:0:0:
320,192,185305,1,0,0:0:0:0:
64,192,185475,1,8,0:0:0:0:
192,192,185475,1,0,0:0:0:0:
448,192,185475,1,0,0:0:0:0:
448,192,185646,1,2,0:0:0:0:
320,192,185688,1,2,0:0:0:0:
64,192,185731,1,2,0:0:0:0:
192,192,185773,1,2,0:0:0:0:
320,192,185816,1,2,0:0:0:0:
448,192,185816,1,4,0:0:0:0:
192,192,185987,1,0,0:0:0:0:
64,192,186157,1,8,0:0:0:0:
320,192,186157,1,0,0:0:0:0:
448,192,186157,1,0,0:0:0:0:
192,192,186327,1,0,0:0:0:0:
448,192,186498,1,0,0:0:0:0:
64,192,186668,1,2,0:0:0:0:
192,192,186668,1,0,0:0:0:0:
64,192,186839,1,8,0:0:0:0:
320,192,186839,1,0,0:0:0:0:
448,192,186839,1,0,0:0:0:0:
192,192,187009,1,0,0:0:0:0:
320,192,187180,1,2,0:0:0:0:
448,192,187180,1,0,0:0:0:0:
64,192,187350,1,0,0:0:0:0:
64,192,187521,1,8,0:0:0:0:
192,192,187521,1,0,0:0:0:0:
448,192,187521,1,0,0:0:0:0:
320,192,187691,1,0,0:0:0:0:
192,192,187862,1,0,0:0:0:0:
320,192,188032,1,2,0:0:0:0:
448,192,188032,1,0,0:0:0:0:
64,192,188202,1,8,0:0:0:0:
192,192,188202,1,0,0:0:0:0:
448,192,188202,1,0,0:0:0:0:
320,192,188373,1,0,0:0:0:0:
64,192,188543,1,2,0:0:0:0:
192,192,188543,1,0,0:0:0:0:
320,192,188714,1,0,0:0:0:0:
64,192,188884,1,8,0:0:0:0:
320,192,188884,1,0,0:0:0:0:
448,192,188884,1,0,0:0:0:0:
192,192,189055,1,0,0:0:0:0:
448,192,189225,1,0,0:0:0:0:
64,192,189396,1,2,0:0:0:0:
320,192,189396,1,0,0:0:0:0:
64,192,189566,1,8,0:0:0:0:
192,192,189566,1,0,0:0:0:0:
448,192,189566,1,0,0:0:0:0:
320,192,189737,1,0,0:0:0:0:
64,192,189907,1,2,0:0:0:0:
192,192,189907,1,0,0:0:0:0:
320,192,190077,1,0,0:0:0:0:
64,192,190248,1,8,0:0:0:0:
320,192,190248,1,0,0:0:0:0:
448,192,190248,1,0,0:0:0:0:
192,192,190418,1,0,0:0:0:0:
448,192,190589,1,0,0:0:0:0:
64,192,190759,1,2,0:0:0:0:
320,192,190759,1,0,0:0:0:0:
64,192,190930,1,8,0:0:0:0:
192,192,190930,128,0,191271:0:0:0:0:
448,192,190930,1,0,0:0:0:0:
320,192,191271,128,2,191612:0:0:0:0:
448,192,191271,1,0,0:0:0:0:
64,192,191441,1,0,0:0:0:0:
64,192,191612,1,8,0:0:0:0:
192,192,191612,1,0,0:0:0:0:
448,192,191612,1,0,0:0:0:0:
320,192,191782,128,0,191952:0:0:0:0:
192,192,191952,1,0,0:0:0:0:
64,192,192123,1,2,0:0:0:0:
320,192,192123,128,0,192293:0:0:0:0:
64,192,192293,1,8,0:0:0:0:
192,192,192293,128,0,192634:0:0:0:0:
448,192,192293,1,0,0:0:0:0:
320,192,192464,1,0,0:0:0:0:
64,192,192634,1,2,0:0:0:0:
448,192,192634,128,0,192975:0:0:0:0:
192,192,192805,1,0,0:0:0:0:
64,192,192975,1,8,0:0:0:0:
192,192,192975,1,0,0:0:0:0:
320,192,192975,1,0,0:0:0:0:
448,192,193146,128,0,193316:0:0:0:0:
320,192,193316,1,0,0:0:0:0:
64,192,193487,1,2,0:0:0:0:
448,192,193487,128,0,193657:0:0:0:0:
64,192,193657,128,8,193998:0:0:0:0:
192,192,193657,1,0,0:0:0:0:
320,192,193657,1,0,0:0:0:0:
320,192,193998,128,2,194339:0:0:0:0:
448,192,193998,1,0,0:0:0:0:
192,192,194168,1,0,0:0:0:0:
64,192,194339,1,8,0:0:0:0:
192,192,194339,1,0,0:0:0:0:
448,192,194339,1,0,0:0:0:0:
320,192,194509,128,0,194680:0:0:0:0:
64,192,194680,1,0,0:0:0:0:
320,192,194850,128,2,195021:0:0:0:0:
448,192,194850,1,0,0:0:0:0:
64,192,195021,128,8,195362:0:0:0:0:
192,192,195021,1,0,0:0:0:0:
448,192,195021,1,0,0:0:0:0:
320,192,195362,1,2,0:0:0:0:
448,192,195362,1,0,0:0:0:0:
192,192,195532,1,0,0:0:0:0:
64,192,195702,1,8,0:0:0:0:
320,192,195702,1,0,0:0:0:0:
448,192,195702,1,0,0:0:0:0:
448,192,195873,1,0,0:0:0:0:
64,192,196043,1,8,0:0:0:0:
192,192,196043,1,0,0:0:0:0:
320,192,196043,1,0,0:0:0:0:
64,192,196214,1,2,0:0:0:0:
192,192,196384,1,8,0:0:0:0:
320,192,196384,1,0,0:0:0:0:
448,192,196384,1,0,0:0:0:0:
320,192,196555,1,2,0:0:0:0:
64,192,196725,128,2,199112:0:0:0:0:
448,192,196725,1,0,0:0:0:0:
192,192,196896,1,0,0:0:0:0:
448,192,197066,1,0,0:0:0:0:
320,192,197237,1,0,0:0:0:0:
448,192,197407,1,0,0:0:0:0:
192,192,197577,1,0,0:0:0:0:
448,192,197748,1,0,0:0:0:0:
320,192,197918,1,0,0:0:0:0:
192,192,198259,1,0,0:0:0:0:
320,192,198430,1,0,0:0:0:0:
448,192,198600,1,0,0:0:0:0:
192,192,198771,1,0,0:0:0:0:
320,192,198941,1,0,0:0:0:0:
448,192,199112,128,0,199282:0:0:0:0:
320,192,199282,128,0,200816:0:0:0:0:
64,192,199452,1,0,0:0:0:0:
448,192,199623,1,0,0:0:0:0:
192,192,199793,1,0,0:0:0:0:
448,192,199964,1,0,0:0:0:0:
64,192,200134,1,0,0:0:0:0:
192,192,200305,1,0,0:0:0:0:
448,192,200475,1,0,0:0:0:0:
64,192,200646,1,0,0:0:0:0:
448,192,200987,1,0,0:0:0:0:
192,192,201157,1,0,0:0:0:0:
320,192,201327,1,0,0:0:0:0:
64,192,201498,128,0,201839:0:0:0:0:
448,192,201668,1,0,0:0:0:0:
320,192,201839,128,0,202180:0:0:0:0:
448,192,202180,128,0,204225:0:0:0:0:
192,192,202350,1,0,0:0:0:0:
64,192,202521,1,0,0:0:0:0:
320,192,202691,1,0,0:0:0:0:
64,192,202862,1,0,0:0:0:0:
192,192,203032,1,0,0:0:0:0:
320,192,203202,1,0,0:0:0:0:
64,192,203373,1,0,0:0:0:0:
192,192,203714,1,0,0:0:0:0:
64,192,203884,1,0,0:0:0:0:
320,192,204055,1,0,0:0:0:0:
192,192,204225,1,0,0:0:0:0:
64,192,204396,1,0,0:0:0:0:
448,192,204566,128,0,204737:0:0:0:0:
320,192,204737,128,0,205930:0:0:0:0:
64,192,204907,1,0,0:0:0:0:
448,192,205077,1,0,0:0:0:0:
64,192,205248,1,0,0:0:0:0:
192,192,205418,1,0,0:0:0:0:
448,192,205589,1,0,0:0:0:0:
64,192,205759,1,0,0:0:0:0:
448,192,205930,128,0,206100:0:0:0:0:
64,192,206100,128,0,207293:0:0:0:0:
320,192,206271,1,0,0:0:0:0:
448,192,206441,1,0,0:0:0:0:
192,192,206612,1,0,0:0:0:0:
320,192,206782,1,0,0:0:0:0:
448,192,206952,128,0,207293:0:0:0:0:
192,192,207123,1,0,0:0:0:0:
320,192,207293,1,0,0:0:0:0:
64,192,207634,1,4,0:0:0:0:
320,192,207634,1,8,0:0:0:0:
448,192,207634,1,0,0:0:0:0:
64,192,207975,1,8,0:0:0:0:
448,192,207975,1,0,0:0:0:0:
192,192,208316,1,8,0:0:0:0:
320,192,208316,1,4,0:0:0:0:
448,192,208316,1,0,0:0:0:0:
64,192,208657,1,8,0:0:0:0:
192,192,208657,1,0,0:0:0:0:
64,192,208998,1,8,0:0:0:0:
320,192,208998,1,4,0:0:0:0:
448,192,208998,1,0,0:0:0:0:
320,192,209339,1,8,0:0:0:0:
448,192,209339,1,0,0:0:0:0:
64,192,209680,1,8,0:0:0:0:
192,192,209680,1,4,0:0:0:0:
448,192,209680,1,0,0:0:0:0:
64,192,210021,128,8,210362:0:0:0:0:
320,192,210021,1,0,0:0:0:0:
192,192,210362,1,4,0:0:0:0:
320,192,210362,1,8,0:0:0:0:
448,192,210362,1,0,0:0:0:0:
320,192,210702,1,8,0:0:0:0:
448,192,210702,1,0,0:0:0:0:
64,192,211043,1,4,0:0:0:0:
192,192,211043,1,8,0:0:0:0:
320,192,211043,1,0,0:0:0:0:
64,192,211384,1,8,0:0:0:0:
448,192,211384,1,0,0:0:0:0:
192,192,211725,1,8,0:0:0:0:
320,192,211725,1,4,0:0:0:0:
448,192,211725,1,0,0:0:0:0:
64,192,212066,1,8,0:0:0:0:
320,192,212066,1,0,0:0:0:0:
64,192,212407,1,8,0:0:0:0:
192,192,212407,1,4,0:0:0:0:
448,192,212407,1,0,0:0:0:0:
192,192,212748,1,8,0:0:0:0:
448,192,212748,128,0,213089:0:0:0:0:
64,192,213089,1,4,0:0:0:0:
192,192,213089,1,8,0:0:0:0:
320,192,213089,1,2,0:0:0:0:
64,192,213259,1,2,0:0:0:0:
448,192,213259,1,0,0:0:0:0:
192,192,213430,1,8,0:0:0:0:
320,192,213430,1,4,0:0:0:0:
448,192,213430,1,2,0:0:0:0:
64,192,213600,1,2,0:0:0:0:
320,192,213600,1,0,0:0:0:0:
64,192,213771,1,4,0:0:0:0:
192,192,213771,1,8,0:0:0:0:
448,192,213771,1,2,0:0:0:0:
192,192,213941,1,2,0:0:0:0:
320,192,213941,1,0,0:0:0:0:
64,192,214112,1,8,0:0:0:0:
320,192,214112,1,4,0:0:0:0:
448,192,214112,1,2,0:0:0:0:
192,192,214282,1,2,0:0:0:0:
448,192,214282,1,0,0:0:0:0:
64,192,214452,1,4,0:0:0:0:
192,192,214452,1,8,0:0:0:0:
320,192,214452,1,2,0:0:0:0:
64,192,214623,1,2,0:0:0:0:
448,192,214623,1,0,0:0:0:0:
192,192,214793,1,8,0:0:0:0:
320,192,214793,1,4,0:0:0:0:
448,192,214793,1,2,0:0:0:0:
64,192,214964,1,2,0:0:0:0:
192,192,214964,1,0,0:0:0:0:
64,192,215134,1,4,0:0:0:0:
320,192,215134,1,8,0:0:0:0:
448,192,215134,1,2,0:0:0:0:
192,192,215305,1,2,0:0:0:0:
448,192,215305,1,0,0:0:0:0:
64,192,215475,1,8,0:0:0:0:
320,192,215475,1,4,0:0:0:0:
448,192,215475,1,2,0:0:0:0:
64,192,215646,1,2,0:0:0:0:
192,192,215646,1,0,0:0:0:0:
320,192,215816,1,10,0:0:0:0:
448,192,215816,1,4,0:0:0:0:
64,192,215901,1,2,0:0:0:0:
192,192,215901,1,0,0:0:0:0:
320,192,215987,1,2,0:0:0:0:
448,192,215987,1,0,0:0:0:0:
64,192,216072,1,2,0:0:0:0:
192,192,216072,1,0,0:0:0:0:
320,192,216157,1,6,0:0:0:0:
448,192,216157,1,8,0:0:0:0:
64,192,216242,1,2,0:0:0:0:
192,192,216242,1,0,0:0:0:0:
320,192,216327,1,2,0:0:0:0:
448,192,216327,1,0,0:0:0:0:
64,192,216413,1,2,0:0:0:0:
192,192,216413,1,0,0:0:0:0:
320,192,216498,1,10,0:0:0:0:
448,192,216498,1,4,0:0:0:0:
64,192,216583,1,2,0:0:0:0:
192,192,216583,1,0,0:0:0:0:
320,192,216668,1,2,0:0:0:0:
448,192,216668,1,0,0:0:0:0:
64,192,216754,1,2,0:0:0:0:
192,192,216754,1,0,0:0:0:0:
320,192,216839,1,6,0:0:0:0:
448,192,216839,1,8,0:0:0:0:
64,192,216924,1,2,0:0:0:0:
192,192,216924,1,0,0:0:0:0:
320,192,217009,1,2,0:0:0:0:
448,192,217009,1,0,0:0:0:0:
192,192,217094,1,2,0:0:0:0:
64,192,217180,1,2,0:0:0:0:
320,192,217180,1,4,0:0:0:0:
448,192,217180,1,0,0:0:0:0:
192,192,217350,1,0,0:0:0:0:
64,192,217521,1,0,0:0:0:0:
320,192,217691,1,0,0:0:0:0:
64,192,217862,1,8,0:0:0:0:
192,192,217862,1,4,0:0:0:0:
448,192,217862,1,0,0:0:0:0:
320,192,218032,1,2,0:0:0:0:
448,192,218032,1,0,0:0:0:0:
64,192,218202,1,8,0:0:0:0:
192,192,218202,128,4,218543:0:0:0:0:
320,192,218202,1,0,0:0:0:0:
64,192,218543,1,2,0:0:0:0:
320,192,218543,1,4,0:0:0:0:
448,192,218543,1,0,0:0:0:0:
192,192,218714,1,0,0:0:0:0:
320,192,218884,1,0,0:0:0:0:
64,192,219055,128,0,219225:0:0:0:0:
448,192,219055,1,0,0:0:0:0:
192,192,219225,1,0,0:0:0:0:
448,192,219396,1,0,0:0:0:0:
192,192,219566,128,0,219737:0:0:0:0:
320,192,219566,1,0,0:0:0:0:
64,192,219737,1,0,0:0:0:0:
320,192,219907,1,0,0:0:0:0:
64,192,220077,1,0,0:0:0:0:
448,192,220077,128,0,220248:0:0:0:0:
192,192,220248,1,0,0:0:0:0:
320,192,220418,1,0,0:0:0:0:
64,192,220589,128,0,220759:0:0:0:0:
448,192,220589,1,0,0:0:0:0:
192,192,220759,1,0,0:0:0:0:
320,192,220930,1,0,0:0:0:0:
448,192,220930,128,0,221271:0:0:0:0:
64,192,221271,128,0,221441:0:0:0:0:
192,192,221271,1,0,0:0:0:0:
320,192,221441,1,0,0:0:0:0:
192,192,221612,1,0,0:0:0:0:
64,192,221782,1,0,0:0:0:0:
448,192,221782,128,0,221952:0:0:0:0:
320,192,221952,1,0,0:0:0:0:
64,192,222123,1,0,0:0:0:0:
192,192,222293,1,0,0:0:0:0:
320,192,222293,128,0,222464:0:0:0:0:
448,192,222464,1,0,0:0:0:0:
192,192,222634,1,0,0:0:0:0:
64,192,222805,128,0,222975:0:0:0:0:
448,192,222805,1,0,0:0:0:0:
320,192,222975,1,0,0:0:0:0:
192,192,223146,1,0,0:0:0:0:
64,192,223316,1,0,0:0:0:0:
448,192,223316,128,0,223487:0:0:0:0:
320,192,223487,1,0,0:0:0:0:
192,192,223657,128,0,223998:0:0:0:0:
448,192,223657,1,0,0:0:0:0:
64,192,223998,128,0,224509:0:0:0:0:
192,192,224168,1,0,0:0:0:0:
448,192,224339,1,0,0:0:0:0:
320,192,224509,128,0,225021:0:0:0:0:
192,192,224680,1,0,0:0:0:0:
64,192,224850,1,0,0:0:0:0:
192,192,225021,128,0,225532:0:0:0:0:
448,192,225191,1,0,0:0:0:0:
320,192,225362,1,0,0:0:0:0:
448,192,225532,128,0,226043:0:0:0:0:
64,192,225702,1,0,0:0:0:0:
192,192,225873,1,0,0:0:0:0:
320,192,226043,128,0,226384:0:0:0:0:
448,192,226214,1,0,0:0:0:0:
64,192,226384,128,0,226725:0:0:0:0:
192,192,226555,1,0,0:0:0:0:
448,192,226725,128,0,227237:0:0:0:0:
320,192,226896,1,0,0:0:0:0:
64,192,227066,1,0,0:0:0:0:
192,192,227237,128,0,227748:0:0:0:0:
320,192,227407,1,0,0:0:0:0:
448,192,227577,1,0,0:0:0:0:
320,192,227748,128,0,228259:0:0:0:0:
64,192,227918,1,0,0:0:0:0:
192,192,228089,1,0,0:0:0:0:
64,192,228259,128,0,228771:0:0:0:0:
448,192,228430,1,0,0:0:0:0:
320,192,228600,1,0,0:0:0:0:
192,192,228771,128,0,229112:0:0:0:0:
64,192,228941,1,0,0:0:0:0:
448,192,229112,128,0,229452:0:0:0:0:
64,192,229452,1,2,0:0:0:0:
192,192,229452,1,4,0:0:0:0:
320,192,229452,1,0,0:0:0:0:
64,192,229793,1,8,0:0:0:0:
192,192,229793,1,0,0:0:0:0:
448,192,229793,1,0,0:0:0:0:
320,192,229964,128,0,230134:0:0:0:0:
64,192,230134,1,0,0:0:0:0:
192,192,230305,1,2,0:0:0:0:
320,192,230305,1,0,0:0:0:0:
64,192,230475,128,8,230646:0:0:0:0:
320,192,230475,1,0,0:0:0:0:
448,192,230475,1,0,0:0:0:0:
192,192,230646,1,0,0:0:0:0:
64,192,230816,1,2,0:0:0:0:
448,192,230816,1,0,0:0:0:0:
320,192,230987,128,0,231157:0:0:0:0:
64,192,231157,1,8,0:0:0:0:
192,192,231157,1,0,0:0:0:0:
448,192,231157,1,0,0:0:0:0:
320,192,231327,1,0,0:0:0:0:
448,192,231498,128,0,231668:0:0:0:0:
64,192,231668,1,2,0:0:0:0:
192,192,231668,1,0,0:0:0:0:
64,192,231839,128,8,232180:0:0:0:0:
320,192,231839,1,0,0:0:0:0:
448,192,231839,1,0,0:0:0:0:
192,192,232180,1,2,0:0:0:0:
320,192,232180,1,0,0:0:0:0:
448,192,232350,1,0,0:0:0:0:
64,192,232521,1,8,0:0:0:0:
320,192,232521,1,0,0:0:0:0:
448,192,232521,1,0,0:0:0:0:
192,192,232691,128,0,232862:0:0:0:0:
448,192,232862,1,0,0:0:0:0:
64,192,233032,1,2,0:0:0:0:
192,192,233032,1,0,0:0:0:0:
64,192,233202,1,8,0:0:0:0:
320,192,233202,1,0,0:0:0:0:
448,192,233202,128,0,233373:0:0:0:0:
192,192,233373,1,0,0:0:0:0:
64,192,233543,1,2,0:0:0:0:
448,192,233543,1,0,0:0:0:0:
320,192,233714,128,0,233884:0:0:0:0:
64,192,233884,1,8,0:0:0:0:
192,192,233884,1,0,0:0:0:0:
448,192,233884,1,0,0:0:0:0:
320,192,234055,1,0,0:0:0:0:
64,192,234225,128,0,234396:0:0:0:0:
320,192,234396,1,2,0:0:0:0:
448,192,234396,1,0,0:0:0:0:
64,192,234566,1,8,0:0:0:0:
192,192,234566,1,0,0:0:0:0:
448,192,234566,128,0,234907:0:0:0:0:
64,192,234907,128,2,235418:0:0:0:0:
320,192,234907,1,0,0:0:0:0:
192,192,235077,1,0,0:0:0:0:
320,192,235248,1,8,0:0:0:0:
448,192,235248,1,0,0:0:0:0:
192,192,235418,128,0,235930:0:0:0:0:
448,192,235589,1,0,0:0:0:0:
64,192,235759,1,2,0:0:0:0:
320,192,235759,1,0,0:0:0:0:
64,192,235930,1,8,0:0:0:0:
320,192,235930,1,0,0:0:0:0:
448,192,235930,128,0,236441:0:0:0:0:
64,192,236100,1,0,0:0:0:0:
192,192,236271,1,2,0:0:0:0:
320,192,236271,1,0,0:0:0:0:
64,192,236441,128,0,236782:0:0:0:0:
320,192,236612,1,8,0:0:0:0:
448,192,236612,1,0,0:0:0:0:
192,192,236782,1,0,0:0:0:0:
64,192,236952,128,0,237123:0:0:0:0:
320,192,237123,1,2,0:0:0:0:
448,192,237123,1,0,0:0:0:0:
64,192,237293,1,8,0:0:0:0:
192,192,237293,128,0,237634:0:0:0:0:
448,192,237293,1,0,0:0:0:0:
320,192,237634,1,2,0:0:0:0:
448,192,237634,128,0,238146:0:0:0:0:
64,192,237805,1,0,0:0:0:0:
192,192,237975,1,8,0:0:0:0:
320,192,237975,1,0,0:0:0:0:
64,192,238146,128,0,238657:0:0:0:0:
320,192,238316,1,0,0:0:0:0:
192,192,238487,1,2,0:0:0:0:
448,192,238487,1,0,0:0:0:0:
192,192,238657,1,8,0:0:0:0:
320,192,238657,128,0,239168:0:0:0:0:
448,192,238657,1,0,0:0:0:0:
192,192,238827,1,0,0:0:0:0:
64,192,238998,1,2,0:0:0:0:
448,192,238998,1,0,0:0:0:0:
192,192,239168,128,0,239509:0:0:0:0:
64,192,239339,1,8,0:0:0:0:
448,192,239339,1,0,0:0:0:0:
320,192,239509,1,0,0:0:0:0:
192,192,239680,128,0,239850:0:0:0:0:
64,192,239850,1,2,0:0:0:0:
320,192,239850,1,0,0:0:0:0:
192,192,240021,1,8,0:0:0:0:
320,192,240021,1,0,0:0:0:0:
448,192,240021,128,0,240362:0:0:0:0:
64,192,240362,1,4,0:0:0:0:
192,192,240362,1,8,0:0:0:0:
320,192,240362,1,0,0:0:0:0:
64,192,240702,1,8,0:0:0:0:
448,192,240702,1,0,0:0:0:0:
192,192,241043,1,4,0:0:0:0:
320,192,241043,1,8,0:0:0:0:
448,192,241043,1,0,0:0:0:0:
64,192,241384,1,8,0:0:0:0:
448,192,241384,1,0,0:0:0:0:
64,192,241725,1,4,0:0:0:0:
192,192,241725,1,8,0:0:0:0:
320,192,241725,1,0,0:0:0:0:
192,192,242066,1,8,0:0:0:0:
320,192,242066,1,0,0:0:0:0:
64,192,242407,1,4,0:0:0:0:
192,192,242407,1,8,0:0:0:0:
448,192,242407,1,0,0:0:0:0:
64,192,242748,1,8,0:0:0:0:
320,192,242748,128,0,243089:0:0:0:0:
64,192,243089,1,8,0:0:0:0:
192,192,243089,1,4,0:0:0:0:
448,192,243089,1,0,0:0:0:0:
320,192,243430,1,8,0:0:0:0:
448,192,243430,1,0,0:0:0:0:
64,192,243771,1,8,0:0:0:0:
192,192,243771,1,4,0:0:0:0:
448,192,243771,1,0,0:0:0:0:
64,192,244112,1,8,0:0:0:0:
192,192,244112,1,0,0:0:0:0:
64,192,244452,1,4,0:0:0:0:
320,192,244452,1,8,0:0:0:0:
448,192,244452,1,0,0:0:0:0:
192,192,244793,1,8,0:0:0:0:
320,192,244793,1,0,0:0:0:0:
64,192,245134,1,4,0:0:0:0:
192,192,245134,1,8,0:0:0:0:
448,192,245134,1,0,0:0:0:0:
64,192,245475,128,8,245816:0:0:0:0:
320,192,245475,1,0,0:0:0:0:
192,192,245816,1,2,0:0:0:0:
320,192,245816,1,8,0:0:0:0:
448,192,245816,1,4,0:0:0:0:
64,192,245987,1,2,0:0:0:0:
448,192,245987,1,0,0:0:0:0:
64,192,246157,1,2,0:0:0:0:
192,192,246157,1,4,0:0:0:0:
320,192,246157,1,8,0:0:0:0:
192,192,246327,1,2,0:0:0:0:
448,192,246327,1,0,0:0:0:0:
64,192,246498,1,2,0:0:0:0:
320,192,246498,1,8,0:0:0:0:
448,192,246498,1,4,0:0:0:0:
192,192,246668,1,2,0:0:0:0:
320,192,246668,1,0,0:0:0:0:
64,192,246839,1,2,0:0:0:0:
192,192,246839,1,4,0:0:0:0:
448,192,246839,1,8,0:0:0:0:
64,192,247009,1,2,0:0:0:0:
320,192,247009,1,0,0:0:0:0:
192,192,247180,1,2,0:0:0:0:
320,192,247180,1,8,0:0:0:0:
448,192,247180,1,4,0:0:0:0:
64,192,247350,1,2,0:0:0:0:
448,192,247350,1,0,0:0:0:0:
64,192,247521,1,2,0:0:0:0:
192,192,247521,1,4,0:0:0:0:
320,192,247521,1,8,0:0:0:0:
320,192,247691,1,2,0:0:0:0:
448,192,247691,1,0,0:0:0:0:
64,192,247862,1,2,0:0:0:0:
192,192,247862,1,8,0:0:0:0:
448,192,247862,1,4,0:0:0:0:
192,192,248032,1,2,0:0:0:0:
320,192,248032,1,0,0:0:0:0:
64,192,248202,1,2,0:0:0:0:
320,192,248202,1,4,0:0:0:0:
448,192,248202,1,8,0:0:0:0:
64,192,248373,1,2,0:0:0:0:
192,192,248373,1,0,0:0:0:0:
320,192,248543,1,12,0:0:0:0:
448,192,248543,1,2,0:0:0:0:
64,192,248629,1,2,0:0:0:0:
192,192,248629,1,0,0:0:0:0:
320,192,248714,1,2,0:0:0:0:
448,192,248714,1,0,0:0:0:0:
64,192,248799,1,2,0:0:0:0:
192,192,248799,1,0,0:0:0:0:
320,192,248884,1,12,0:0:0:0:
448,192,248884,1,2,0:0:0:0:
64,192,248969,1,2,0:0:0:0:
192,192,248969,1,0,0:0:0:0:
320,192,249055,1,2,0:0:0:0:
448,192,249055,1,0,0:0:0:0:
64,192,249140,1,2,0:0:0:0:
192,192,249140,1,0,0:0:0:0:
320,192,249225,1,12,0:0:0:0:
448,192,249225,1,2,0:0:0:0:
64,192,249310,1,2,0:0:0:0:
192,192,249310,1,0,0:0:0:0:
320,192,249396,1,2,0:0:0:0:
448,192,249396,1,0,0:0:0:0:
64,192,249481,1,2,0:0:0:0:
192,192,249481,1,0,0:0:0:0:
320,192,249566,1,12,0:0:0:0:
448,192,249566,1,2,0:0:0:0:
64,192,249651,1,2,0:0:0:0:
192,192,249651,1,0,0:0:0:0:
320,192,249737,1,2,0:0:0:0:
448,192,249737,1,0,0:0:0:0:
192,192,249822,1,2,0:0:0:0:
64,192,249907,1,4,0:0:0:0:
320,192,249907,1,2,0:0:0:0:
448,192,249907,1,0,0:0:0:0:
448,192,250077,1,0,0:0:0:0:
192,192,250248,1,0,0:0:0:0:
320,192,250418,1,0,0:0:0:0:
64,192,250589,1,8,0:0:0:0:
192,192,250589,1,4,0:0:0:0:
448,192,250589,1,0,0:0:0:0:
64,192,250759,1,2,0:0:0:0:
320,192,250759,1,0,0:0:0:0:
192,192,250930,1,8,0:0:0:0:
320,192,250930,1,4,0:0:0:0:
448,192,250930,1,0,0:0:0:0:
448,192,251100,1,0,0:0:0:0:
64,192,251271,128,4,251782:0:0:0:0:
192,192,251271,1,2,0:0:0:0:
320,192,251271,1,0,0:0:0:0:
192,192,251612,1,8,0:0:0:0:
320,192,251612,1,0,0:0:0:0:
448,192,251612,1,0,0:0:0:0:
320,192,251782,128,0,251952:0:0:0:0:
448,192,251952,128,0,252123:0:0:0:0:
64,192,252123,1,2,0:0:0:0:
192,192,252123,128,0,252293:0:0:0:0:
64,192,252293,128,8,252464:0:0:0:0:
320,192,252293,1,0,0:0:0:0:
448,192,252293,1,0,0:0:0:0:
192,192,252464,128,0,252634:0:0:0:0:
320,192,252634,1,2,0:0:0:0:
448,192,252634,128,0,252975:0:0:0:0:
64,192,252805,1,0,0:0:0:0:
64,192,252975,1,8,0:0:0:0:
192,192,252975,1,0,0:0:0:0:
320,192,252975,1,0,0:0:0:0:
192,192,253146,128,0,253487:0:0:0:0:
64,192,253316,1,0,0:0:0:0:
320,192,253487,1,2,0:0:0:0:
448,192,253487,1,0,0:0:0:0:
64,192,253657,1,8,0:0:0:0:
192,192,253657,1,0,0:0:0:0:
448,192,253657,1,0,0:0:0:0:
320,192,253827,128,0,253998:0:0:0:0:
64,192,253998,1,2,0:0:0:0:
192,192,253998,128,0,254509:0:0:0:0:
448,192,254168,1,0,0:0:0:0:
64,192,254339,1,8,0:0:0:0:
320,192,254339,1,0,0:0:0:0:
448,192,254339,1,0,0:0:0:0:
64,192,254509,128,0,254680:0:0:0:0:
448,192,254680,128,0,254850:0:0:0:0:
192,192,254850,128,2,255021:0:0:0:0:
320,192,254850,1,0,0:0:0:0:
64,192,255021,1,8,0:0:0:0:
320,192,255021,128,0,255191:0:0:0:0:
448,192,255021,1,0,0:0:0:0:
192,192,255191,128,0,255362:0:0:0:0:
64,192,255362,128,2,255702:0:0:0:0:
448,192,255362,1,0,0:0:0:0:
320,192,255532,1,0,0:0:0:0:
192,192,255702,1,8,0:0:0:0:
320,192,255702,1,0,0:0:0:0:
448,192,255702,1,0,0:0:0:0:
448,192,255873,128,0,256214:0:0:0:0:
64,192,256043,1,0,0:0:0:0:
192,192,256214,1,2,0:0:0:0:
320,192,256214,1,0,0:0:0:0:
64,192,256384,128,8,256725:0:0:0:0:
192,192,256384,1,0,0:0:0:0:
448,192,256384,1,0,0:0:0:0:
192,192,256725,1,2,0:0:0:0:
320,192,256725,128,0,256896:0:0:0:0:
448,192,256896,1,0,0:0:0:0:
64,192,257066,1,8,0:0:0:0:
320,192,257066,1,0,0:0:0:0:
448,192,257066,1,0,0:0:0:0:
192,192,257237,128,0,257407:0:0:0:0:
448,192,257407,1,0,0:0:0:0:
64,192,257577,1,2,0:0:0:0:
192,192,257577,1,0,0:0:0:0:
64,192,257748,1,8,0:0:0:0:
320,192,257748,1,0,0:0:0:0:
448,192,257748,128,0,257918:0:0:0:0:
192,192,257918,1,0,0:0:0:0:
320,192,258089,1,2,0:0:0:0:
448,192,258089,1,0,0:0:0:0:
64,192,258259,128,0,258430:0:0:0:0:
192,192,258430,1,8,0:0:0:0:
320,192,258430,1,0,0:0:0:0:
448,192,258430,1,0,0:0:0:0:
320,192,258600,1,0,0:0:0:0:
64,192,258771,128,0,258941:0:0:0:0:
192,192,258941,1,2,0:0:0:0:
320,192,258941,1,0,0:0:0:0:
64,192,259112,1,8,0:0:0:0:
320,192,259112,1,0,0:0:0:0:
448,192,259112,128,0,259452:0:0:0:0:
192,192,259452,128,2,259623:0:0:0:0:
320,192,259452,1,0,0:0:0:0:
64,192,259623,1,0,0:0:0:0:
64,192,259793,1,8,0:0:0:0:
192,192,259793,1,0,0:0:0:0:
448,192,259793,1,0,0:0:0:0:
320,192,259964,128,0,260134:0:0:0:0:
64,192,260134,1,0,0:0:0:0:
320,192,260305,1,2,0:0:0:0:
448,192,260305,1,0,0:0:0:0:
64,192,260475,128,8,260646:0:0:0:0:
192,192,260475,1,0,0:0:0:0:
448,192,260475,1,0,0:0:0:0:
320,192,260646,1,0,0:0:0:0:
64,192,260816,1,2,0:0:0:0:
192,192,260816,1,0,0:0:0:0:
448,192,260987,128,0,261157:0:0:0:0:
64,192,261157,1,8,0:0:0:0:
192,192,261157,1,0,0:0:0:0:
320,192,261157,1,0,0:0:0:0:
192,192,261327,1,0,0:0:0:0:
448,192,261498,128,0,261668:0:0:0:0:
64,192,261668,1,2,0:0:0:0:
192,192,261668,1,0,0:0:0:0:
64,192,261839,128,8,262180:0:0:0:0:
320,192,261839,1,0,0:0:0:0:
448,192,261839,1,0,0:0:0:0:
192,192,262180,1,4,0:0:0:0:
320,192,262180,128,2,262691:0:0:0:0:
64,192,262521,1,8,0:0:0:0:
192,192,262521,1,0,0:0:0:0:
448,192,262521,1,0,0:0:0:0:
64,192,262691,128,0,262862:0:0:0:0:
448,192,262862,128,0,263032:0:0:0:0:
192,192,263032,128,2,263202:0:0:0:0:
320,192,263032,1,0,0:0:0:0:
64,192,263202,128,8,263373:0:0:0:0:
320,192,263202,1,0,0:0:0:0:
448,192,263202,1,0,0:0:0:0:
192,192,263373,128,0,263543:0:0:0:0:
320,192,263543,1,2,0:0:0:0:
448,192,263543,128,0,263884:0:0:0:0:
64,192,263714,1,0,0:0:0:0:
64,192,263884,1,8,0:0:0:0:
192,192,263884,1,0,0:0:0:0:
320,192,263884,1,0,0:0:0:0:
192,192,264055,128,0,264396:0:0:0:0:
448,192,264225,1,0,0:0:0:0:
64,192,264396,1,2,0:0:0:0:
320,192,264396,1,0,0:0:0:0:
64,192,264566,1,8,0:0:0:0:
192,192,264566,1,0,0:0:0:0:
448,192,264566,1,0,0:0:0:0:
320,192,264737,128,0,264907:0:0:0:0:
64,192,264907,128,2,265418:0:0:0:0:
448,192,264907,1,0,0:0:0:0:
192,192,265077,1,0,0:0:0:0:
192,192,265248,1,8,0:0:0:0:
320,192,265248,1,0,0:0:0:0:
448,192,265248,1,0,0:0:0:0:
448,192,265418,128,0,265589:0:0:0:0:
64,192,265589,128,0,265759:0:0:0:0:
192,192,265759,128,2,265930:0:0:0:0:
448,192,265759,1,0,0:0:0:0:
64,192,265930,1,8,0:0:0:0:
320,192,265930,1,0,0:0:0:0:
448,192,265930,128,0,266100:0:0:0:0:
192,192,266100,128,0,266271:0:0:0:0:
320,192,266271,128,2,266612:0:0:0:0:
448,192,266271,1,0,0:0:0:0:
64,192,266441,1,0,0:0:0:0:
64,192,266612,1,8,0:0:0:0:
192,192,266612,1,0,0:0:0:0:
448,192,266612,1,0,0:0:0:0:
192,192,266782,128,0,267123:0:0:0:0:
448,192,266952,1,0,0:0:0:0:
64,192,267123,1,2,0:0:0:0:
320,192,267123,1,0,0:0:0:0:
64,192,267293,128,8,267634:0:0:0:0:
320,192,267293,1,0,0:0:0:0:
448,192,267293,1,0,0:0:0:0:
320,192,267634,1,2,0:0:0:0:
448,192,267634,128,0,267805:0:0:0:0:
192,192,267805,1,0,0:0:0:0:
64,192,267975,1,8,0:0:0:0:
192,192,267975,1,0,0:0:0:0:
448,192,267975,1,0,0:0:0:0:
320,192,268146,128,0,268316:0:0:0:0:
192,192,268316,1,0,0:0:0:0:
320,192,268487,1,2,0:0:0:0:
448,192,268487,1,0,0:0:0:0:
64,192,268657,1,8,0:0:0:0:
192,192,268657,128,0,268827:0:0:0:0:
448,192,268657,1,0,0:0:0:0:
320,192,268827,1,0,0:0:0:0:
64,192,268998,1,2,0:0:0:0:
448,192,268998,1,0,0:0:0:0:
64,192,269168,128,0,269339:0:0:0:0:
192,192,269339,1,8,0:0:0:0:
320,192,269339,1,0,0:0:0:0:
448,192,269339,1,0,0:0:0:0:
320,192,269509,1,0,0:0:0:0:
192,192,269680,128,0,269850:0:0:0:0:
64,192,269850,1,2,0:0:0:0:
320,192,269850,1,0,0:0:0:0:
64,192,270021,1,8,0:0:0:0:
192,192,270021,1,0,0:0:0:0:
448,192,270021,128,0,270362:0:0:0:0:
64,192,270362,128,2,270532:0:0:0:0:
192,192,270362,1,0,0:0:0:0:
320,192,270532,1,0,0:0:0:0:
64,192,270702,1,8,0:0:0:0:
320,192,270702,1,0,0:0:0:0:
448,192,270702,1,0,0:0:0:0:
192,192,270873,128,0,271043:0:0:0:0:
320,192,271043,1,0,0:0:0:0:
64,192,271214,1,2,0:0:0:0:
192,192,271214,1,0,0:0:0:0:
64,192,271384,1,8,0:0:0:0:
320,192,271384,128,0,271555:0:0:0:0:
448,192,271384,1,0,0:0:0:0:
192,192,271555,1,0,0:0:0:0:
64,192,271725,1,2,0:0:0:0:
448,192,271725,1,0,0:0:0:0:
448,192,271896,128,0,272066:0:0:0:0:
64,192,272066,1,8,0:0:0:0:
192,192,272066,1,0,0:0:0:0:
320,192,272066,1,0,0:0:0:0:
192,192,272237,1,0,0:0:0:0:
320,192,272407,128,0,272577:0:0:0:0:
192,192,272577,1,2,0:0:0:0:
448,192,272577,1,0,0:0:0:0:
64,192,272748,128,8,273089:0:0:0:0:
320,192,272748,1,0,0:0:0:0:
448,192,272748,1,0,0:0:0:0:
192,192,273089,1,2,0:0:0:0:
448,192,273089,128,4,275816:0:0:0:0:
320,192,273259,1,0,0:0:0:0:
64,192,273430,1,8,0:0:0:0:
192,192,273430,1,0,0:0:0:0:
320,192,273600,1,0,0:0:0:0:
64,192,273771,1,0,0:0:0:0:
192,192,273941,1,2,0:0:0:0:
320,192,273941,1,0,0:0:0:0:
64,192,274112,1,8,0:0:0:0:
320,192,274112,1,0,0:0:0:0:
192,192,274282,1,0,0:0:0:0:
64,192,274452,1,2,0:0:0:0:
320,192,274452,1,0,0:0:0:0:
64,192,274623,1,0,0:0:0:0:
192,192,274793,1,8,0:0:0:0:
320,192,274793,1,0,0:0:0:0:
320,192,274964,1,0,0:0:0:0:
64,192,275134,1,0,0:0:0:0:
192,192,275305,1,2,0:0:0:0:
320,192,275305,1,0,0:0:0:0:
64,192,275475,1,8,0:0:0:0:
320,192,275475,1,0,0:0:0:0:
64,192,275816,1,2,0:0:0:0:
192,192,275816,1,0,0:0:0:0:
320,192,275987,1,0,0:0:0:0:
64,192,276157,1,8,0:0:0:0:
320,192,276157,1,0,0:0:0:0:
448,192,276157,1,0,0:0:0:0:
192,192,276327,1,0,0:0:0:0:
320,192,276498,1,0,0:0:0:0:
64,192,276668,1,2,0:0:0:0:
192,192,276668,1,0,0:0:0:0:
64,192,276839,1,8,0:0:0:0:
320,192,276839,1,0,0:0:0:0:
448,192,276839,1,0,0:0:0:0:
192,192,277009,1,0,0:0:0:0:
320,192,277180,1,2,0:0:0:0:
448,192,277180,1,0,0:0:0:0:
192,192,277350,1,0,0:0:0:0:
64,192,277521,1,8,0:0:0:0:
192,192,277521,1,0,0:0:0:0:
448,192,277521,1,0,0:0:0:0:
320,192,277691,1,0,0:0:0:0:
64,192,277862,128,0,278543:0:0:0:0:
192,192,278032,1,2,0:0:0:0:
320,192,278032,1,0,0:0:0:0:
192,192,278202,1,8,0:0:0:0:
448,192,278202,1,0,0:0:0:0:
320,192,278543,1,2,0:0:0:0:
448,192,278543,128,0,280930:0:0:0:0:
64,192,278714,1,0,0:0:0:0:
192,192,278884,1,8,0:0:0:0:
320,192,278884,1,0,0:0:0:0:
64,192,279055,1,0,0:0:0:0:
320,192,279225,1,0,0:0:0:0:
64,192,279396,1,2,0:0:0:0:
192,192,279396,1,0,0:0:0:0:
64,192,279566,1,8,0:0:0:0:
320,192,279566,1,0,0:0:0:0:
192,192,279737,1,0,0:0:0:0:
64,192,279907,1,2,0:0:0:0:
192,192,279907,1,0,0:0:0:0:
320,192,280077,1,0,0:0:0:0:
64,192,280248,1,8,0:0:0:0:
320,192,280248,1,0,0:0:0:0:
192,192,280418,1,0,0:0:0:0:
320,192,280589,1,0,0:0:0:0:
64,192,280759,1,2,0:0:0:0:
192,192,280759,1,0,0:0:0:0:
64,192,280930,128,8,281015:0:0:0:0:
320,192,280930,1,0,0:0:0:0:
192,192,281100,128,0,282293:0:0:0:0:
320,192,281271,1,2,0:0:0:0:
448,192,281271,1,0,0:0:0:0:
64,192,281441,1,0,0:0:0:0:
320,192,281612,1,8,0:0:0:0:
448,192,281612,1,0,0:0:0:0:
64,192,281782,1,0,0:0:0:0:
448,192,281952,1,0,0:0:0:0:
64,192,282123,1,2,0:0:0:0:
320,192,282123,1,0,0:0:0:0:
320,192,282293,1,8,0:0:0:0:
448,192,282293,128,0,282379:0:0:0:0:
64,192,282464,128,0,283316:0:0:0:0:
192,192,282634,1,2,0:0:0:0:
320,192,282634,1,0,0:0:0:0:
448,192,282805,1,0,0:0:0:0:
192,192,282975,1,8,0:0:0:0:
448,192,282975,1,0,0:0:0:0:
320,192,283146,1,0,0:0:0:0:
192,192,283316,1,8,0:0:0:0:
448,192,283316,128,0,283657:0:0:0:0:
64,192,283487,1,2,0:0:0:0:
320,192,283487,1,0,0:0:0:0:
64,192,283657,1,8,0:0:0:0:
192,192,283657,1,0,0:0:0:0:
320,192,283657,1,0,0:0:0:0:
64,192,283998,1,4,0:0:0:0:
192,192,283998,1,2,0:0:0:0:
448,192,283998,1,8,0:0:0:0:
320,192,284339,1,8,0:0:0:0:
448,192,284339,1,0,0:0:0:0:
64,192,284680,1,4,0:0:0:0:
320,192,284680,1,8,0:0:0:0:
448,192,284680,1,0,0:0:0:0:
192,192,285021,1,8,0:0:0:0:
320,192,285021,1,0,0:0:0:0:
64,192,285362,1,4,0:0:0:0:
192,192,285362,1,8,0:0:0:0:
448,192,285362,1,0,0:0:0:0:
64,192,285702,1,8,0:0:0:0:
320,192,285702,1,0,0:0:0:0:
64,192,286043,1,4,0:0:0:0:
192,192,286043,1,8,0:0:0:0:
448,192,286043,1,0,0:0:0:0:
320,192,286384,128,8,286725:0:0:0:0:
448,192,286384,1,0,0:0:0:0:
64,192,286725,1,8,0:0:0:0:
192,192,286725,1,4,0:0:0:0:
448,192,286725,1,0,0:0:0:0:
192,192,287066,1,8,0:0:0:0:
448,192,287066,1,0,0:0:0:0:
64,192,287407,1,8,0:0:0:0:
320,192,287407,1,4,0:0:0:0:
448,192,287407,1,0,0:0:0:0:
64,192,287748,1,8,0:0:0:0:
192,192,287748,1,0,0:0:0:0:
64,192,288089,1,4,0:0:0:0:
192,192,288089,1,8,0:0:0:0:
448,192,288089,1,0,0:0:0:0:
320,192,288430,1,8,0:0:0:0:
448,192,288430,1,0,0:0:0:0:
64,192,288771,1,4,0:0:0:0:
192,192,288771,1,8,0:0:0:0:
448,192,288771,1,0,0:0:0:0:
64,192,289112,1,8,0:0:0:0:
192,192,289112,128,0,289452:0:0:0:0:
64,192,289452,1,8,0:0:0:0:
320,192,289452,1,4,0:0:0:0:
448,192,289452,1,0,0:0:0:0:
64,192,289623,1,2,0:0:0:0:
192,192,289623,1,0,0:0:0:0:
320,192,289793,1,2,0:0:0:0:
448,192,289793,1,0,0:0:0:0:
64,192,289964,1,4,0:0:0:0:
192,192,289964,1,8,0:0:0:0:
320,192,289964,1,0,0:0:0:0:
320,192,290134,1,2,0:0:0:0:
448,192,290134,1,0,0:0:0:0:
64,192,290305,1,2,0:0:0:0:
192,192,290305,1,0,0:0:0:0:
64,192,290475,1,8,0:0:0:0:
320,192,290475,1,4,0:0:0:0:
448,192,290475,1,0,0:0:0:0:
64,192,290646,1,2,0:0:0:0:
192,192,290646,1,0,0:0:0:0:
320,192,290816,1,2,0:0:0:0:
448,192,290816,1,0,0:0:0:0:
64,192,290987,1,4,0:0:0:0:
192,192,290987,1,8,0:0:0:0:
448,192,290987,1,0,0:0:0:0:
320,192,291157,1,2,0:0:0:0:
448,192,291157,1,0,0:0:0:0:
64,192,291327,1,2,0:0:0:0:
192,192,291327,1,0,0:0:0:0:
64,192,291498,1,8,0:0:0:0:
320,192,291498,1,4,0:0:0:0:
448,192,291498,1,0,0:0:0:0:
192,192,291668,1,2,0:0:0:0:
320,192,291668,1,0,0:0:0:0:
64,192,291839,1,8,0:0:0:0:
192,192,291839,1,4,0:0:0:0:
448,192,291839,1,0,0:0:0:0:
192,192,292009,1,2,0:0:0:0:
320,192,292009,1,0,0:0:0:0:
64,192,292180,1,8,0:0:0:0:
320,192,292180,1,4,0:0:0:0:
448,192,292180,1,0,0:0:0:0:
64,192,292350,1,2,0:0:0:0:
192,192,292350,1,0,0:0:0:0:
320,192,292521,1,2,0:0:0:0:
448,192,292521,1,0,0:0:0:0:
64,192,292691,1,4,0:0:0:0:
192,192,292691,1,8,0:0:0:0:
320,192,292691,1,0,0:0:0:0:
320,192,292862,1,2,0:0:0:0:
448,192,292862,1,0,0:0:0:0:
64,192,293032,1,2,0:0:0:0:
192,192,293032,1,0,0:0:0:0:
64,192,293202,1,8,0:0:0:0:
320,192,293202,1,4,0:0:0:0:
448,192,293202,1,0,0:0:0:0:
192,192,293373,1,2,0:0:0:0:
320,192,293373,1,0,0:0:0:0:
192,192,293543,1,2,0:0:0:0:
320,192,293543,1,0,0:0:0:0:
64,192,293714,1,4,0:0:0:0:
192,192,293714,1,8,0:0:0:0:
448,192,293714,1,0,0:0:0:0:
192,192,293884,1,2,0:0:0:0:
320,192,293884,1,0,0:0:0:0:
192,192,294055,1,2,0:0:0:0:
320,192,294055,1,0,0:0:0:0:
64,192,294225,1,4,0:0:0:0:
448,192,294225,1,8,0:0:0:0:
192,192,294310,1,8,0:0:0:0:
320,192,294310,1,0,0:0:0:0:
64,192,294396,1,8,0:0:0:0:
448,192,294396,1,0,0:0:0:0:
192,192,294481,1,8,0:0:0:0:
320,192,294481,1,0,0:0:0:0:
64,192,294566,1,8,0:0:0:0:
448,192,294566,1,0,0:0:0:0:
192,192,294651,1,8,0:0:0:0:
320,192,294651,1,0,0:0:0:0:
64,192,294737,1,8,0:0:0:0:
448,192,294737,1,0,0:0:0:0:
192,192,294822,1,8,0:0:0:0:
64,192,294907,1,4,0:0:0:0:
320,192,294907,1,2,0:0:0:0:
448,192,294907,1,0,0:0:0:0:
192,192,295077,1,0,0:0:0:0:
64,192,295248,1,8,0:0:0:0:
192,192,295248,1,0,0:0:0:0:
448,192,295248,1,0,0:0:0:0:
320,192,295418,128,0,295589:0:0:0:0:
64,192,295589,1,0,0:0:0:0:
320,192,295759,1,2,0:0:0:0:
448,192,295759,1,0,0:0:0:0:
64,192,295930,128,8,296100:0:0:0:0:
192,192,295930,1,0,0:0:0:0:
448,192,295930,1,0,0:0:0:0:
320,192,296100,1,0,0:0:0:0:
64,192,296271,1,2,0:0:0:0:
192,192,296271,1,0,0:0:0:0:
448,192,296441,128,0,296612:0:0:0:0:
64,192,296612,1,8,0:0:0:0:
192,192,296612,1,0,0:0:0:0:
320,192,296612,1,0,0:0:0:0:
320,192,296782,1,0,0:0:0:0:
192,192,296952,128,0,297123:0:0:0:0:
320,192,297123,1,2,0:0:0:0:
448,192,297123,1,0,0:0:0:0:
64,192,297293,1,8,0:0:0:0:
192,192,297293,1,0,0:0:0:0:
448,192,297293,128,0,297634:0:0:0:0:
64,192,297634,128,2,297805:0:0:0:0:
320,192,297634,1,0,0:0:0:0:
192,192,297805,1,0,0:0:0:0:
64,192,297975,1,8,0:0:0:0:
192,192,297975,1,0,0:0:0:0:
448,192,297975,1,0,0:0:0:0:
320,192,298146,128,0,298316:0:0:0:0:
448,192,298316,1,0,0:0:0:0:
64,192,298487,1,2,0:0:0:0:
192,192,298487,1,0,0:0:0:0:
64,192,298657,1,8,0:0:0:0:
320,192,298657,1,0,0:0:0:0:
448,192,298657,128,0,298827:0:0:0:0:
192,192,298827,1,0,0:0:0:0:
64,192,298998,1,2,0:0:0:0:
448,192,298998,1,0,0:0:0:0:
320,192,299168,128,0,299339:0:0:0:0:
64,192,299339,1,8,0:0:0:0:
192,192,299339,1,0,0:0:0:0:
448,192,299339,1,0,0:0:0:0:
320,192,299509,1,0,0:0:0:0:
64,192,299680,128,0,299850:0:0:0:0:
448,192,299680,1,0,0:0:0:0:
192,192,299850,1,2,0:0:0:0:
320,192,299850,1,0,0:0:0:0:
64,192,300021,1,8,0:0:0:0:
320,192,300021,1,0,0:0:0:0:
448,192,300021,128,0,300362:0:0:0:0:
192,192,300191,1,0,0:0:0:0:
64,192,300362,1,2,0:0:0:0:
192,192,300362,1,0,0:0:0:0:
320,192,300532,1,0,0:0:0:0:
64,192,300702,1,8,0:0:0:0:
320,192,300702,1,0,0:0:0:0:
448,192,300702,1,0,0:0:0:0:
192,192,300873,128,0,301043:0:0:0:0:
64,192,301043,1,0,0:0:0:0:
320,192,301214,1,2,0:0:0:0:
448,192,301214,1,0,0:0:0:0:
64,192,301384,128,8,301555:0:0:0:0:
192,192,301384,1,0,0:0:0:0:
448,192,301384,1,0,0:0:0:0:
320,192,301555,1,0,0:0:0:0:
64,192,301725,1,2,0:0:0:0:
192,192,301725,1,0,0:0:0:0:
448,192,301896,128,0,302066:0:0:0:0:
64,192,302066,1,8,0:0:0:0:
192,192,302066,1,0,0:0:0:0:
320,192,302066,1,0,0:0:0:0:
192,192,302237,1,0,0:0:0:0:
320,192,302407,128,0,302577:0:0:0:0:
64,192,302577,1,2,0:0:0:0:
192,192,302577,1,0,0:0:0:0:
64,192,302748,128,8,303089:0:0:0:0:
320,192,302748,1,0,0:0:0:0:
448,192,302748,1,0,0:0:0:0:
192,192,302918,1,0,0:0:0:0:
192,192,303089,1,2,0:0:0:0:
448,192,303089,128,0,303259:0:0:0:0:
320,192,303259,1,0,0:0:0:0:
64,192,303430,1,8,0:0:0:0:
320,192,303430,1,0,0:0:0:0:
448,192,303430,1,0,0:0:0:0:
192,192,303600,128,0,303771:0:0:0:0:
448,192,303771,1,0,0:0:0:0:
192,192,303941,1,2,0:0:0:0:
320,192,303941,1,0,0:0:0:0:
64,192,304112,128,8,304282:0:0:0:0:
192,192,304112,1,0,0:0:0:0:
448,192,304112,1,0,0:0:0:0:
320,192,304282,1,0,0:0:0:0:
64,192,304452,1,2,0:0:0:0:
192,192,304452,1,0,0:0:0:0:
320,192,304623,128,0,304793:0:0:0:0:
64,192,304793,1,8,0:0:0:0:
192,192,304793,1,0,0:0:0:0:
448,192,304793,1,0,0:0:0:0:
320,192,304964,1,0,0:0:0:0:
64,192,305134,128,0,305305:0:0:0:0:
192,192,305134,1,0,0:0:0:0:
320,192,305305,1,2,0:0:0:0:
448,192,305305,1,0,0:0:0:0:
64,192,305475,1,8,0:0:0:0:
192,192,305475,1,0,0:0:0:0:
448,192,305475,128,0,305816:0:0:0:0:
64,192,305816,128,4,305987:0:0:0:0:
320,192,305816,1,2,0:0:0:0:
192,192,305987,128,0,306157:0:0:0:0:
64,192,306157,1,8,0:0:0:0:
448,192,306157,128,0,306327:0:0:0:0:
192,192,306327,128,0,306498:0:0:0:0:
320,192,306498,128,0,306668:0:0:0:0:
64,192,306668,1,2,0:0:0:0:
448,192,306668,128,0,306839:0:0:0:0:
192,192,306839,128,8,307009:0:0:0:0:
320,192,306839,1,0,0:0:0:0:
64,192,307009,128,0,307521:0:0:0:0:
320,192,307180,1,2,0:0:0:0:
448,192,307180,1,0,0:0:0:0:
192,192,307350,1,0,0:0:0:0:
320,192,307521,1,8,0:0:0:0:
448,192,307521,128,0,307691:0:0:0:0:
192,192,307691,1,0,0:0:0:0:
320,192,307862,128,0,308032:0:0:0:0:
64,192,308032,1,2,0:0:0:0:
192,192,308032,1,0,0:0:0:0:
64,192,308202,1,8,0:0:0:0:
320,192,308202,1,0,0:0:0:0:
448,192,308202,128,0,308543:0:0:0:0:
64,192,308543,128,2,308884:0:0:0:0:
192,192,308543,1,0,0:0:0:0:
320,192,308714,1,0,0:0:0:0:
192,192,308884,128,8,309055:0:0:0:0:
448,192,308884,1,0,0:0:0:0:
320,192,309055,128,0,309225:0:0:0:0:
64,192,309225,1,0,0:0:0:0:
192,192,309396,1,2,0:0:0:0:
448,192,309396,128,0,309737:0:0:0:0:
192,192,309566,1,8,0:0:0:0:
320,192,309566,1,0,0:0:0:0:
64,192,309737,128,0,310759:0:0:0:0:
320,192,309907,1,2,0:0:0:0:
448,192,309907,1,0,0:0:0:0:
192,192,310077,1,0,0:0:0:0:
192,192,310248,1,8,0:0:0:0:
448,192,310248,1,0,0:0:0:0:
320,192,310418,1,0,0:0:0:0:
448,192,310589,1,0,0:0:0:0:
192,192,310759,1,2,0:0:0:0:
320,192,310759,128,0,310930:0:0:0:0:
64,192,310930,1,8,0:0:0:0:
448,192,310930,128,0,311100:0:0:0:0:
192,192,311100,128,0,311271:0:0:0:0:
320,192,311271,1,2,0:0:0:0:
448,192,311271,128,0,311612:0:0:0:0:
192,192,311441,1,0,0:0:0:0:
64,192,311612,1,8,0:0:0:0:
320,192,311612,1,0,0:0:0:0:
192,192,311782,128,0,311952:0:0:0:0:
320,192,311952,128,0,312123:0:0:0:0:
64,192,312123,128,2,312293:0:0:0:0:
448,192,312123,1,0,0:0:0:0:
192,192,312293,1,8,0:0:0:0:
320,192,312293,128,0,312464:0:0:0:0:
448,192,312464,128,0,312634:0:0:0:0:
64,192,312634,128,2,312975:0:0:0:0:
192,192,312634,1,0,0:0:0:0:
448,192,312805,1,0,0:0:0:0:
192,192,312975,1,8,0:0:0:0:
320,192,312975,128,0,313146:0:0:0:0:
448,192,313146,128,0,313487:0:0:0:0:
64,192,313316,1,0,0:0:0:0:
192,192,313487,128,2,313657:0:0:0:0:
320,192,313487,1,0,0:0:0:0:
64,192,313657,1,8,0:0:0:0:
448,192,313657,128,0,313827:0:0:0:0:
320,192,313827,128,0,313998:0:0:0:0:
64,192,313998,128,2,314509:0:0:0:0:
192,192,313998,1,0,0:0:0:0:
320,192,314168,1,0,0:0:0:0:
192,192,314339,1,8,0:0:0:0:
448,192,314339,1,0,0:0:0:0:
448,192,314509,128,0,314680:0:0:0:0:
320,192,314680,128,0,314850:0:0:0:0:
64,192,314850,1,2,0:0:0:0:
192,192,314850,128,0,315021:0:0:0:0:
320,192,315021,1,8,0:0:0:0:
448,192,315021,128,0,315362:0:0:0:0:
64,192,315362,128,2,316384:0:0:0:0:
192,192,315362,1,0,0:0:0:0:
448,192,315532,1,0,0:0:0:0:
192,192,315702,1,8,0:0:0:0:
320,192,315702,1,0,0:0:0:0:
192,192,315873,1,0,0:0:0:0:
320,192,316043,1,8,0:0:0:0:
448,192,316043,1,0,0:0:0:0:
448,192,316214,1,2,0:0:0:0:
192,192,316384,1,8,0:0:0:0:
320,192,316384,1,0,0:0:0:0:
448,192,316384,128,0,316725:0:0:0:0:
64,192,316725,1,2,0:0:0:0:
192,192,316725,128,4,318089:0:0:0:0:
320,192,316896,1,0,0:0:0:0:
64,192,317066,1,8,0:0:0:0:
448,192,317066,1,0,0:0:0:0:
320,192,317237,1,0,0:0:0:0:
448,192,317322,1,0,0:0:0:0:
320,192,317407,1,0,0:0:0:0:
64,192,317492,1,0,0:0:0:0:
320,192,317577,1,2,0:0:0:0:
448,192,317577,1,0,0:0:0:0:
64,192,317748,1,8,0:0:0:0:
448,192,317748,1,0,0:0:0:0:
64,192,317918,1,0,0:0:0:0:
320,192,318089,128,2,319452:0:0:0:0:
448,192,318089,1,0,0:0:0:0:
64,192,318259,1,0,0:0:0:0:
64,192,318430,1,8,0:0:0:0:
192,192,318430,1,0,0:0:0:0:
448,192,318600,1,0,0:0:0:0:
64,192,318685,1,0,0:0:0:0:
192,192,318771,1,0,0:0:0:0:
448,192,318856,1,0,0:0:0:0:
64,192,318941,1,2,0:0:0:0:
192,192,318941,1,0,0:0:0:0:
64,192,319112,1,8,0:0:0:0:
448,192,319112,1,0,0:0:0:0:
192,192,319282,1,0,0:0:0:0:
64,192,319452,1,2,0:0:0:0:
448,192,319452,128,0,320816:0:0:0:0:
192,192,319623,1,0,0:0:0:0:
192,192,319793,1,8,0:0:0:0:
320,192,319793,1,0,0:0:0:0:
64,192,319964,1,0,0:0:0:0:
320,192,320049,1,0,0:0:0:0:
192,192,320134,1,0,0:0:0:0:
320,192,320219,1,0,0:0:0:0:
64,192,320305,1,2,0:0:0:0:
192,192,320305,1,0,0:0:0:0:
64,192,320475,1,8,0:0:0:0:
320,192,320475,1,0,0:0:0:0:
192,192,320646,1,0,0:0:0:0:
64,192,320816,1,2,0:0:0:0:
320,192,320816,128,0,321498:0:0:0:0:
448,192,320987,1,0,0:0:0:0:
64,192,321157,1,8,0:0:0:0:
448,192,321157,1,0,0:0:0:0:
192,192,321327,1,0,0:0:0:0:
64,192,321498,128,0,322180:0:0:0:0:
320,192,321668,1,2,0:0:0:0:
448,192,321668,1,0,0:0:0:0:
192,192,321839,1,8,0:0:0:0:
448,192,321839,1,0,0:0:0:0:
192,192,322180,1,2,0:0:0:0:
320,192,322180,128,0,323543:0:0:0:0:
64,192,322350,1,0,0:0:0:0:
64,192,322521,1,8,0:0:0:0:
448,192,322521,1,0,0:0:0:0:
192,192,322691,1,0,0:0:0:0:
64,192,322776,1,0,0:0:0:0:
192,192,322862,1,0,0:0:0:0:
448,192,322947,1,0,0:0:0:0:
64,192,323032,1,2,0:0:0:0:
192,192,323032,1,0,0:0:0:0:
64,192,323202,1,8,0:0:0:0:
448,192,323202,1,0,0:0:0:0:
448,192,323373,1,0,0:0:0:0:
64,192,323543,128,2,324907:0:0:0:0:
192,192,323543,1,0,0:0:0:0:
448,192,323714,1,0,0:0:0:0:
192,192,323884,1,8,0:0:0:0:
320,192,323884,1,0,0:0:0:0:
448,192,324055,1,0,0:0:0:0:
192,192,324140,1,0,0:0:0:0:
320,192,324225,1,0,0:0:0:0:
192,192,324310,1,0,0:0:0:0:
320,192,324396,1,2,0:0:0:0:
448,192,324396,1,0,0:0:0:0:
192,192,324566,1,8,0:0:0:0:
448,192,324566,1,0,0:0:0:0:
320,192,324737,1,0,0:0:0:0:
192,192,324907,1,2,0:0:0:0:
448,192,324907,128,0,326271:0:0:0:0:
320,192,325077,1,0,0:0:0:0:
64,192,325248,1,8,0:0:0:0:
320,192,325248,1,0,0:0:0:0:
192,192,325418,1,0,0:0:0:0:
64,192,325504,1,0,0:0:0:0:
192,192,325589,1,0,0:0:0:0:
320,192,325674,1,0,0:0:0:0:
64,192,325759,1,2,0:0:0:0:
192,192,325759,1,0,0:0:0:0:
64,192,325930,1,8,0:0:0:0:
320,192,325930,1,0,0:0:0:0:
320,192,326100,1,0,0:0:0:0:
64,192,326271,128,2,326952:0:0:0:0:
192,192,326271,1,0,0:0:0:0:
448,192,326441,1,0,0:0:0:0:
192,192,326612,1,8,0:0:0:0:
448,192,326612,1,0,0:0:0:0:
320,192,326782,1,0,0:0:0:0:
448,192,326867,1,0,0:0:0:0:
192,192,326952,128,0,327634:0:0:0:0:
320,192,327123,1,2,0:0:0:0:
448,192,327123,1,0,0:0:0:0:
64,192,327293,1,8,0:0:0:0:
448,192,327293,1,0,0:0:0:0:
320,192,327464,1,0,0:0:0:0:
64,192,327634,1,4,0:0:0:0:
320,192,327634,1,8,0:0:0:0:
448,192,327634,128,0,328998:0:0:0:0:
192,192,327805,1,0,0:0:0:0:
64,192,327975,1,8,0:0:0:0:
192,192,327975,1,0,0:0:0:0:
320,192,328146,1,0,0:0:0:0:
64,192,328316,1,4,0:0:0:0:
192,192,328316,1,8,0:0:0:0:
320,192,328316,1,0,0:0:0:0:
64,192,328487,1,0,0:0:0:0:
192,192,328657,1,8,0:0:0:0:
320,192,328657,1,0,0:0:0:0:
64,192,328827,1,0,0:0:0:0:
64,192,328998,128,4,330362:0:0:0:0:
192,192,328998,1,8,0:0:0:0:
320,192,328998,1,0,0:0:0:0:
448,192,329168,1,0,0:0:0:0:
192,192,329339,1,8,0:0:0:0:
448,192,329339,1,0,0:0:0:0:
320,192,329509,1,0,0:0:0:0:
192,192,329680,1,4,0:0:0:0:
320,192,329680,1,8,0:0:0:0:
448,192,329680,1,0,0:0:0:0:
448,192,329850,1,0,0:0:0:0:
192,192,330021,1,8,0:0:0:0:
320,192,330021,1,0,0:0:0:0:
192,192,330362,128,8,331725:0:0:0:0:
320,192,330362,1,4,0:0:0:0:
448,192,330362,1,0,0:0:0:0:
64,192,330532,1,0,0:0:0:0:
64,192,330702,1,8,0:0:0:0:
448,192,330702,1,0,0:0:0:0:
320,192,330873,1,0,0:0:0:0:
64,192,331043,1,8,0:0:0:0:
320,192,331043,1,4,0:0:0:0:
448,192,331043,1,0,0:0:0:0:
448,192,331214,1,0,0:0:0:0:
64,192,331384,1,8,0:0:0:0:
320,192,331384,1,0,0:0:0:0:
448,192,331555,1,0,0:0:0:0:
64,192,331725,1,4,0:0:0:0:
320,192,331725,128,8,332407:0:0:0:0:
448,192,331725,1,0,0:0:0:0:
192,192,331896,1,0,0:0:0:0:
64,192,332066,1,8,0:0:0:0:
448,192,332066,1,0,0:0:0:0:
192,192,332237,1,0,0:0:0:0:
64,192,332407,1,4,0:0:0:0:
192,192,332407,1,8,0:0:0:0:
448,192,332407,128,0,332748:0:0:0:0:
320,192,332577,1,0,0:0:0:0:
64,192,332748,1,8,0:0:0:0:
192,192,332748,128,0,333089:0:0:0:0:
448,192,332918,1,0,0:0:0:0:
64,192,333089,1,2,0:0:0:0:
320,192,333089,1,8,0:0:0:0:
448,192,333089,1,4,0:0:0:0:
64,192,333259,1,2,0:0:0:0:
192,192,333259,1,0,0:0:0:0:
192,192,333430,1,2,0:0:0:0:
320,192,333430,1,4,0:0:0:0:
448,192,333430,1,8,0:0:0:0:
320,192,333600,1,2,0:0:0:0:
448,192,333600,1,0,0:0:0:0:
64,192,333771,1,2,0:0:0:0:
192,192,333771,1,8,0:0:0:0:
320,192,333771,1,4,0:0:0:0:
64,192,333941,1,2,0:0:0:0:
192,192,333941,1,0,0:0:0:0:
192,192,334112,1,2,0:0:0:0:
320,192,334112,1,4,0:0:0:0:
448,192,334112,1,8,0:0:0:0:
320,192,334282,1,2,0:0:0:0:
448,192,334282,1,0,0:0:0:0:
64,192,334452,1,2,0:0:0:0:
192,192,334452,1,8,0:0:0:0:
320,192,334452,1,4,0:0:0:0:
64,192,334623,1,2,0:0:0:0:
192,192,334623,1,0,0:0:0:0:
192,192,334793,1,2,0:0:0:0:
320,192,334793,1,4,0:0:0:0:
448,192,334793,1,8,0:0:0:0:
320,192,334964,1,2,0:0:0:0:
448,192,334964,1,0,0:0:0:0:
64,192,335134,1,2,0:0:0:0:
192,192,335134,1,8,0:0:0:0:
320,192,335134,1,4,0:0:0:0:
64,192,335305,1,2,0:0:0:0:
192,192,335305,1,0,0:0:0:0:
192,192,335475,1,2,0:0:0:0:
320,192,335475,1,4,0:0:0:0:
448,192,335475,1,8,0:0:0:0:
320,192,335646,1,2,0:0:0:0:
448,192,335646,1,0,0:0:0:0:
64,192,335816,1,12,0:0:0:0:
192,192,335816,1,2,0:0:0:0:
320,192,335901,1,2,0:0:0:0:
448,192,335901,1,0,0:0:0:0:
64,192,335987,1,2,0:0:0:0:
192,192,335987,1,0,0:0:0:0:
320,192,336072,1,2,0:0:0:0:
448,192,336072,1,0,0:0:0:0:
64,192,336157,1,12,0:0:0:0:
192,192,336157,1,2,0:0:0:0:
320,192,336242,1,2,0:0:0:0:
448,192,336242,1,0,0:0:0:0:
64,192,336327,1,2,0:0:0:0:
192,192,336327,1,0,0:0:0:0:
320,192,336413,1,2,0:0:0:0:
448,192,336413,1,0,0:0:0:0:
64,192,336498,1,12,0:0:0:0:
192,192,336498,1,2,0:0:0:0:
320,192,336583,1,2,0:0:0:0:
448,192,336583,1,0,0:0:0:0:
64,192,336668,1,2,0:0:0:0:
192,192,336668,1,0,0:0:0:0:
320,192,336754,1,2,0:0:0:0:
448,192,336754,1,0,0:0:0:0:
64,192,336839,1,12,0:0:0:0:
192,192,336839,1,2,0:0:0:0:
320,192,336924,1,2,0:0:0:0:
448,192,336924,1,0,0:0:0:0:
64,192,337009,1,2,0:0:0:0:
192,192,337009,1,0,0:0:0:0:
320,192,337094,1,2,0:0:0:0:
64,192,337180,1,4,0:0:0:0:
192,192,337180,1,2,0:0:0:0:
448,192,337180,1,0,0:0:0:0:
64,192,337350,1,0,0:0:0:0:
320,192,337521,1,0,0:0:0:0:
192,192,337691,1,0,0:0:0:0:
64,192,337862,1,8,0:0:0:0:
320,192,337862,1,4,0:0:0:0:
448,192,337862,1,0,0:0:0:0:
192,192,338032,1,2,0:0:0:0:
448,192,338032,1,0,0:0:0:0:
64,192,338202,128,8,338543:0:0:0:0:
192,192,338202,1,4,0:0:0:0:
320,192,338202,1,0,0:0:0:0:
320,192,338543,1,4,0:0:0:0:
448,192,338543,1,2,0:0:0:0:
192,192,338884,1,0,0:0:0:0:
64,192,339225,1,0,0:0:0:0:
448,192,339566,1,0,0:0:0:0:
64,192,339737,1,0,0:0:0:0:
192,192,339822,1,0,0:0:0:0:
320,192,339879,1,0,0:0:0:0:
448,192,339950,128,0,342123:0:0:0:0:
