osu file format v14

[General]
AudioFilename: Paranoid Lost-Halozy.mp3
AudioLeadIn: 0
PreviewTime: 250721
Countdown: 0
SampleSet: Soft
StackLeniency: 0.7
Mode: 2
LetterboxInBreaks: 0
WidescreenStoryboard: 0

[Editor]
Bookmarks: 10891,152710,174869,190551,289073,316346,339571
DistanceSpacing: 2.8
BeatDivisor: 8
GridSize: 8
TimelineZoom: 3.499999

[Metadata]
Title:Paranoid Lost
TitleUnicode:Paranoid Lost
Artist:Halozy
ArtistUnicode:Halozy
Creator:Kyuare
Version:Eternal Wandering
Source:東方Project
Tags:東方風神録 ~ mountain of faith autumn shizuka minoriko aki Tonic Triangle Touhou 稲田姫様に叱られるから Because Princess Inada is Scolding Me Touhou すみじゅん 美里 misato Ashasaki sumijun
BeatmapID:688531
BeatmapSetID:307818

[Difficulty]
HPDrainRate:6
CircleSize:4
OverallDifficulty:9.2
ApproachRate:9.2
SliderMultiplier:2
SliderTickRate:2

[Events]
//Background and Video events
0,0,"Background.jpg",0,0
//Break Periods
2,87455,97594
2,196546,206685
//Storyboard Layer 0 (Background)
//Storyboard Layer 1 (Fail)
//Storyboard Layer 2 (Pass)
//Storyboard Layer 3 (Foreground)
//Storyboard Sound Samples

[TimingPoints]
-17,340.909090909091,4,2,1,50,1,0
16005,-100,4,2,1,60,0,0
16346,-100,4,2,1,50,0,0
40892,-100,4,3,1,50,0,0
42255,-100,4,2,1,50,0,0
43278,-100,4,2,1,6,0,0
43321,-100,4,2,1,12,0,0
43363,-100,4,2,1,18,0,0
43406,-100,4,2,1,24,0,0
43448,-100,4,2,1,30,0,0
43491,-100,4,2,1,36,0,0
43534,-100,4,2,1,60,0,0
43576,-100,4,2,1,48,0,0
43619,-100,4,2,1,60,0,0
65778,-100,4,2,1,55,0,0
87255,-200,4,2,1,50,0,0
103619,-100,4,2,1,60,0,0
108733,-100,4,2,1,6,0,0
108775,-100,4,2,1,12,0,0
108818,-100,4,2,1,18,0,0
108860,-100,4,2,1,24,0,0
108903,-100,4,2,1,30,0,0
108946,-100,4,2,1,36,0,0
108988,-100,4,2,1,42,0,0
109031,-100,4,2,1,48,0,0
109073,-100,4,2,1,70,0,1
147426,-100,4,3,1,70,0,1
152710,-100,4,2,1,60,0,0
174869,-100,4,2,1,55,0,0
196346,-200,4,2,1,50,0,0
212710,-100,4,2,1,55,0,0
213733,-100,4,2,1,60,0,0
215437,-100,4,2,1,70,0,0
217823,-100,4,2,1,6,0,0
217866,-100,4,2,1,12,0,0
217909,-100,4,2,1,18,0,0
217951,-100,4,2,1,24,0,0
217994,-100,4,2,1,30,0,0
218036,-100,4,2,1,36,0,0
218079,-100,4,2,1,42,0,0
218122,-100,4,2,1,48,0,0
218164,-100,4,2,1,30,0,0
229073,-100,4,2,1,35,0,0
239982,-100,4,2,1,40,0,0
242710,-100,4,2,1,50,0,0
245437,-100,4,2,1,60,0,0
246801,-100,4,2,1,70,0,0
248164,-100,4,2,1,75,0,0
250593,-100,4,2,1,12,0,0
250636,-100,4,2,1,18,0,0
250679,-100,4,2,1,24,0,0
250721,-100,4,2,1,30,0,0
250764,-100,4,2,1,36,0,0
250806,-100,4,2,1,42,0,0
250892,-100,4,2,1,70,0,1
289073,-100,4,3,1,70,0,1
294528,-100,4,2,1,60,0,0
336119,-100,4,3,1,60,0,0
336801,-100,4,2,1,60,0,0
337483,-83.3333333333333,4,2,1,85,0,0
337823,-69.9300699300699,4,2,1,90,0,0
338164,-100,4,2,1,70,0,0
338505,-100,4,2,1,60,0,0
338846,-100,4,2,1,50,0,0
339187,-100,4,2,1,40,0,0

[Colours]
Combo1 : 89,57,125
Combo2 : 119,51,51
Combo3 : 125,113,136
Combo4 : 245,181,165
Combo5 : 170,91,4
Combo6 : 255,254,225

[HitObjects]
128,192,10892,5,2,3:0:0:0:
256,192,11062,1,0,0:0:0:0:
192,128,11233,1,2,0:0:0:0:
320,112,11403,1,0,0:0:0:0:
384,144,11573,1,2,0:0:0:0:
256,224,11744,1,0,0:0:0:0:
128,288,11914,1,2,0:0:0:0:
256,160,12085,1,2,0:0:0:0:
288,64,12426,5,0,0:0:0:0:
128,64,12596,1,2,0:0:0:0:
192,96,12767,1,0,0:0:0:0:
48,128,12937,1,2,0:0:0:0:
112,160,13108,1,0,0:0:0:0:
224,160,13278,1,2,0:0:0:0:
192,192,13619,5,0,0:0:0:0:
272,160,13789,1,2,0:0:0:0:
388,128,13960,1,0,0:0:0:0:
256,96,14130,1,2,0:0:0:0:
176,64,14301,1,0,0:0:0:0:
320,64,14471,1,2,0:0:0:0:
416,64,14641,1,0,0:0:0:0:
284,112,14812,1,2,0:0:0:0:
224,192,15153,5,0,0:0:0:0:
352,192,15323,1,2,0:0:0:0:
352,240,15494,1,0,0:0:0:0:
256,240,15664,1,2,0:0:0:0:
176,240,15835,1,0,0:0:0:0:
336,288,16005,1,2,0:0:0:0:
256,288,16346,5,0,0:0:0:0:
160,288,16517,1,2,0:0:0:0:
220,240,16687,1,0,0:0:0:0:
96,240,16858,1,2,0:0:0:0:
156,192,17028,1,0,0:0:0:0:
24,192,17198,1,2,0:0:0:0:
96,144,17369,1,0,0:0:0:0:
256,128,17539,1,2,0:0:0:0:
256,208,17880,5,0,0:0:0:0:
192,176,18051,1,2,0:0:0:0:
256,128,18221,1,0,0:0:0:0:
384,128,18391,1,2,0:0:0:0:
480,128,18562,1,0,0:0:0:0:
368,208,18733,1,2,0:0:0:0:
256,272,19073,5,2,0:0:0:0:
328,220,19243,1,0,0:0:0:0:
192,192,19414,1,0,0:0:0:0:
256,152,19584,1,2,0:0:0:0:
112,144,19755,1,0,0:0:0:0:
176,112,19925,1,2,0:0:0:0:
272,80,20095,1,0,0:0:0:0:
144,40,20267,1,2,0:0:0:0:
256,192,20437,12,2,21630,3:0:0:0:
256,192,21801,5,2,3:0:0:0:
256,192,22142,1,0,0:0:0:0:
128,160,22312,2,0,P|144:112|192:80,1,100,2|0,0:0|0:0,0:0:0:0:
288,64,22653,1,0,0:0:0:0:
176,176,22823,2,0,P|128:160|96:112,1,100,2|0,0:0|0:0,0:0:0:0:
224,64,23164,1,0,0:0:0:0:
64,64,23335,2,0,P|112:80|128:128,1,100,2|0,0:0|0:0,0:0:0:0:
32,160,23676,1,0,0:0:0:0:
160,176,23846,6,0,P|256:184|296:152,1,150,2|0,0:0|0:0,0:0:0:0:
204,48,24187,2,0,B|108:72|108:72|140:112,1,150,2|0,0:0|0:0,0:0:0:0:
240,152,24528,5,2,0:0:0:0:
360,176,24698,1,0,0:0:0:0:
224,192,24869,1,0,0:0:0:0:
360,176,25039,2,0,P|360:128|312:104,1,100,2|0,0:0|0:0,0:0:0:0:
184,64,25380,1,0,0:0:0:0:
288,192,25551,2,0,P|336:176|368:128,1,100,2|0,0:0|0:0,0:0:0:0:
248,64,25892,1,0,0:0:0:0:
408,80,26062,2,0,P|360:96|328:144,1,100,2|0,0:0|0:0,0:0:0:0:
440,160,26403,1,0,0:0:0:0:
320,184,26573,6,0,P|248:160|272:112,1,150,2|0,0:0|0:0,0:0:0:0:
416,96,26914,2,0,B|440:88|440:88|448:56|416:16|352:48,1,150,2|0,0:0|0:0,0:0:0:0:
256,64,27255,5,2,0:0:0:0:
144,80,27426,1,0,0:0:0:0:
256,128,27596,1,0,0:0:0:0:
160,136,27767,1,2,0:0:0:0:
256,192,27937,1,0,0:0:0:0:
352,240,28108,1,0,0:0:0:0:
208,240,28278,2,0,L|280:312,1,100,2|0,0:0|0:0,0:0:0:0:
176,320,28619,1,0,0:0:0:0:
280,332,28789,2,0,L|368:284,1,100,2|0,0:0|0:0,0:0:0:0:
232,320,29130,1,0,0:0:0:0:
320,320,29301,6,0,P|392:296|392:232,1,150,2|0,0:0|0:0,0:0:0:0:
296,240,29642,2,0,P|224:216|224:152,1,150,2|0,0:0|0:0,0:0:0:0:
328,152,29983,5,2,0:0:0:0:
256,192,30323,1,0,0:0:0:0:
376,308,30494,2,0,P|408:220|344:148,1,200,2|0,0:0|0:0,0:0:0:0:
212,224,31005,2,0,P|176:136|244:72,1,200,2|0,0:0|0:0,0:0:0:0:
400,112,31517,2,0,P|312:80|240:144,1,200,2|0,0:0|0:0,0:0:0:0:
384,160,32028,2,0,B|432:248|432:248|348:300,1,200,2|0,0:0|0:0,0:0:0:0:
272,304,32539,1,0,0:0:0:0:
120,304,32710,5,4,0:0:0:0:
224,256,33051,2,0,P|208:224|224:160,1,100,8|0,0:0|0:0,0:0:0:0:
384,160,33392,1,4,0:0:0:0:
256,192,33733,2,0,P|272:160|256:96,1,100,8|0,0:0|0:0,0:0:0:0:
128,160,34074,1,4,0:0:0:0:
288,192,34414,2,0,P|240:176|224:128,1,100,8|0,0:0|0:0,0:0:0:0:
480,128,34755,1,4,0:0:0:0:
224,192,35096,2,0,P|272:176|288:128,1,100,8|0,0:0|0:0,0:0:0:0:
48,192,35437,5,4,0:0:0:0:
288,96,35778,1,8,0:0:0:0:
64,240,36119,1,4,0:0:0:0:
304,144,36460,1,8,0:0:0:0:
80,288,36801,1,4,0:0:0:0:
320,192,37142,1,8,0:0:0:0:
144,256,37483,1,4,0:0:0:0:
224,192,37653,1,0,0:0:0:0:
112,192,37823,2,0,P|64:176|48:128,1,100,8|0,0:0|0:0,0:0:0:0:
288,96,38164,5,4,0:0:0:0:
160,96,38335,1,8,0:0:0:0:
272,144,38505,1,4,0:0:0:0:
144,144,38676,1,8,0:0:0:0:
384,256,38846,5,4,0:0:0:0:
480,256,39017,1,8,0:0:0:0:
368,304,39187,1,4,0:0:0:0:
464,304,39358,1,8,0:0:0:0:
160,264,39528,5,4,0:0:0:0:
32,328,39698,1,8,0:0:0:0:
168,328,39869,1,4,0:0:0:0:
40,264,40039,1,8,0:0:0:0:
344,160,40210,5,4,0:0:0:0:
472,224,40380,1,8,0:0:0:0:
328,224,40551,1,4,0:0:0:0:
480,288,40721,1,8,0:0:0:0:
224,192,40892,5,2,3:0:0:0:
160,160,40977,1,2,3:0:0:0:
128,96,41062,1,2,3:0:0:0:
160,32,41147,1,2,3:0:0:0:
352,96,41233,5,2,3:0:0:0:
416,128,41318,1,2,3:0:0:0:
448,192,41403,1,2,3:0:0:0:
432,256,41488,1,2,3:0:0:0:
256,64,41573,6,0,L|216:96,1,50,2|0,0:0|0:0,0:0:0:0:
384,96,41744,2,0,L|416:136,1,50,2|0,0:0|0:0,0:0:0:0:
240,160,41914,2,0,L|200:192,1,50,2|2,0:0|0:0,0:0:0:0:
384,192,42085,2,0,L|416:232,1,50,2|2,0:0|0:0,0:0:0:0:
192,248,42255,6,0,B|164:248|164:248|120:264|104:288,1,100,4|2,0:0|0:0,0:0:0:0:
176,320,42596,1,2,0:0:0:0:
272,288,42767,1,2,0:0:0:0:
32,288,42937,2,0,L|32:184,1,100,4|2,0:0|3:0,0:0:0:0:
352,272,43278,5,4,0:0:0:0:
392,264,43321,1,0,0:0:0:0:
432,240,43363,1,0,0:0:0:0:
448,208,43405,1,0,0:0:0:0:
448,160,43448,1,0,0:0:0:0:
432,128,43491,1,0,0:0:0:0:
392,104,43534,1,0,0:0:0:0:
352,96,43576,1,0,0:0:0:0:
160,96,43619,5,4,0:0:0:0:
256,192,43960,1,8,0:0:0:0:
256,144,44130,1,0,0:0:0:0:
160,192,44301,1,2,0:0:0:0:
320,192,44471,1,2,3:0:0:0:
72,192,44642,1,8,0:0:0:0:
256,240,44983,6,0,B|304:240|304:240|336:200,1,100,2|0,3:0|0:0,0:0:0:0:
216,184,45323,2,0,B|248:144|248:144|296:144,1,100,8|0,0:0|0:0,0:0:0:0:
240,144,45579,1,0,0:0:0:0:
184,144,45664,1,2,0:0:0:0:
320,120,45835,1,2,3:0:0:0:
72,192,46005,1,8,0:0:0:0:
32,280,46176,1,0,0:0:0:0:
72,280,46261,1,0,0:0:0:0:
224,280,46346,6,0,B|192:240|192:240|144:240,1,100,2|0,3:3|0:0,0:0:0:0:
224,208,46687,1,8,0:0:0:0:
96,208,46858,2,0,B|48:192|48:192|32:144,1,100,0|2,0:0|0:0,0:0:0:0:
160,144,47198,1,2,3:0:0:0:
16,128,47369,2,0,P|32:80|80:64,1,100,8|0,0:0|0:0,0:0:0:0:
176,96,47710,6,0,P|128:112|112:160,1,100,2|0,3:0|0:0,0:0:0:0:
391,31,48051,1,8,0:0:0:0:
400,80,48221,1,0,0:0:0:0:
344,80,48306,1,0,0:0:0:0:
288,80,48392,1,2,0:0:0:0:
408,128,48562,1,2,3:0:0:0:
160,152,48733,2,0,P|128:112|120:64,1,100,8|0,0:0|0:0,0:0:0:0:
408,192,49073,5,2,3:0:0:0:
432,128,49244,1,0,0:0:0:0:
192,128,49414,1,8,0:0:0:0:
160,192,49585,1,0,0:0:0:0:
288,192,49755,1,2,0:0:0:0:
160,256,49926,1,2,3:0:0:0:
416,256,50096,1,8,0:0:0:0:
496,224,50267,1,0,0:0:0:0:
352,224,50437,5,2,3:0:0:0:
432,224,50608,1,0,0:0:0:0:
192,224,50778,1,8,0:0:0:0:
160,192,50948,1,0,0:0:0:0:
216,192,51034,1,0,0:0:0:0:
272,192,51119,2,0,P|320:176|336:128,1,100,2|2,0:0|3:0,0:0:0:0:
80,96,51460,1,8,0:0:0:0:
32,160,51630,1,0,0:0:0:0:
96,160,51715,1,0,0:0:0:0:
256,192,51801,5,2,3:0:0:0:
336,192,51971,1,0,0:0:0:0:
192,160,52142,1,8,0:0:0:0:
176,192,52312,1,0,0:0:0:0:
336,192,52483,1,2,0:0:0:0:
384,128,52653,1,2,3:0:0:0:
128,160,52823,1,8,0:0:0:0:
112,256,52994,1,0,0:0:0:0:
272,160,53164,5,2,3:0:0:0:
144,160,53335,1,0,0:0:0:0:
128,256,53505,1,8,0:0:0:0:
288,192,53676,1,0,0:0:0:0:
224,192,53761,1,0,0:0:0:0:
160,192,53846,1,2,0:0:0:0:
272,128,54017,1,2,3:0:0:0:
32,192,54187,2,0,P|16:144|48:112,1,100,8|0,0:0|0:0,0:0:0:0:
288,128,54528,5,4,0:0:0:0:
160,120,54869,1,8,0:0:0:0:
304,120,55039,2,0,B|352:136|352:136|304:120,1,100,0|2,0:0|0:0,0:0:0:0:
160,120,55380,1,0,0:0:0:0:
352,160,55551,2,0,P|368:208|344:248,1,100,8|0,0:0|0:0,0:0:0:0:
168,247,55892,5,2,3:0:0:0:
144,160,56062,1,0,0:0:0:0:
384,248,56233,1,8,0:0:0:0:
480,304,56403,1,0,0:0:0:0:
424,304,56488,1,0,0:0:0:0:
368,304,56573,1,2,0:0:0:0:
432,352,56744,1,2,3:0:0:0:
304,304,56914,1,8,0:0:0:0:
400,240,57085,1,0,0:0:0:0:
144,304,57255,5,4,0:0:0:0:
256,192,57596,1,8,0:0:0:0:
144,192,57767,1,0,0:0:0:0:
200,192,57852,1,0,0:0:0:0:
256,192,57937,1,2,0:0:0:0:
368,248,58108,1,2,3:0:0:0:
128,248,58278,2,0,P|80:232|56:192,1,100,8|0,0:0|0:0,0:0:0:0:
216,192,58619,6,0,P|264:176|288:136,1,100,2|0,3:0|0:0,0:0:0:0:
48,264,58960,2,0,B|48:240|48:240|120:216,1,100,8|0,0:0|0:0,0:0:0:0:
188,216,59215,1,0,0:0:0:0:
256,216,59301,1,2,0:0:0:0:
384,160,59471,1,2,3:0:0:0:
144,160,59642,2,0,B|96:176|96:176|144:192,1,100,8|0,0:0|0:0,0:0:0:0:
407,248,59983,6,0,P|455:232|479:192,1,100,2|0,3:0|0:0,0:0:0:0:
336,192,60323,1,8,0:0:0:0:
256,128,60494,1,0,0:0:0:0:
312,128,60579,1,0,0:0:0:0:
368,128,60664,1,2,0:0:0:0:
240,192,60835,1,2,3:0:0:0:
480,240,61005,2,0,P|496:192|480:144,1,100,8|0,0:0|0:0,0:0:0:0:
368,128,61346,6,0,P|400:96|448:112,1,100,2|0,3:0|0:0,0:0:0:0:
208,64,61687,1,8,0:0:0:0:
160,240,61858,1,0,0:0:0:0:
192,240,61943,1,0,0:0:0:0:
256,240,62028,1,2,0:0:0:0:
160,192,62198,1,2,3:0:0:0:
256,128,62369,1,8,0:0:0:0:
160,144,62539,1,0,0:0:0:0:
432,192,62710,5,4,0:0:0:0:
256,192,63051,1,8,0:0:0:0:
224,272,63221,1,0,0:0:0:0:
368,192,63392,2,0,P|400:224|384:272,1,100,2|2,0:0|3:0,0:0:0:0:
144,272,63733,2,0,P|112:240|128:192,1,100,8|0,0:0|0:0,0:0:0:0:
288,80,64073,5,2,3:0:0:0:
176,80,64244,1,0,0:0:0:0:
224,144,64329,1,0,0:0:0:0:
400,192,64414,5,8,0:0:0:0:
464,176,64500,1,0,0:0:0:0:
480,112,64585,1,0,0:0:0:0:
432,80,64670,1,0,0:0:0:0:
288,192,64755,5,8,0:0:0:0:
208,224,64841,1,0,0:0:0:0:
184,288,64926,1,0,0:0:0:0:
240,328,65011,1,0,0:0:0:0:
432,288,65096,5,8,0:0:0:0:
500,260,65181,1,0,0:0:0:0:
512,188,65267,1,0,0:0:0:0:
448,160,65352,1,0,0:0:0:0:
288,192,65437,5,4,0:0:0:0:
128,200,65778,2,0,L|224:232,1,100,8|0,0:0|0:0,0:0:0:0:
168,232,66034,1,0,0:0:0:0:
112,232,66119,1,2,0:0:0:0:
256,288,66289,1,2,3:0:0:0:
112,288,66460,1,8,0:0:0:0:
112,208,66630,1,0,0:0:0:0:
256,208,66801,6,0,P|304:192|320:144,1,100,2|0,3:0|0:0,0:0:0:0:
32,240,67142,2,0,P|16:192|40:152,1,100,8|0,0:0|0:0,0:0:0:0:
88,136,67397,1,0,0:0:0:0:
152,136,67483,1,2,0:0:0:0:
16,96,67653,1,2,3:0:0:0:
256,96,67823,1,8,0:0:0:0:
152,96,68164,5,2,3:0:0:0:
48,96,68335,1,0,0:0:0:0:
288,32,68505,2,0,L|400:32,1,100,8|0,0:0|0:0,0:0:0:0:
320,48,68761,1,0,0:0:0:0:
256,64,68846,2,0,L|356:64,1,100,2|2,0:0|3:3,0:0:0:0:
224,80,69187,1,8,0:0:0:0:
156,152,69358,1,0,0:0:0:0:
304,192,69528,6,0,P|344:224|328:264,1,100,2|0,3:0|0:0,0:0:0:0:
192,272,69869,1,8,0:0:0:0:
192,208,70039,1,0,0:0:0:0:
256,224,70125,1,0,0:0:0:0:
320,240,70210,2,0,P|256:224|224:208,1,100,2|2,0:0|3:3,0:0:0:0:
480,256,70551,1,8,0:0:0:0:
480,192,70721,1,0,0:0:0:0:
320,192,70892,6,0,P|220:192|148:256,1,200,2|8,3:0|0:0,0:0:0:0:
272,304,71403,1,0,0:0:0:0:
208,304,71488,1,0,0:0:0:0:
144,304,71573,1,2,0:0:0:0:
288,192,71744,1,2,3:0:0:0:
48,192,71914,2,0,P|7:151|23:119,1,100,8|0,0:0|0:0,0:0:0:0:
165,231,72255,6,0,P|206:272|190:304,1,100,2|0,3:0|0:0,0:0:0:0:
32,192,72596,1,8,0:0:0:0:
32,96,72767,1,0,0:0:0:0:
96,96,72852,1,0,0:0:0:0:
160,96,72937,1,2,0:0:0:0:
64,288,73108,1,2,3:0:0:0:
304,288,73278,2,0,P|345:247|329:215,1,100,8|0,0:0|0:0,0:0:0:0:
192,160,73619,6,0,P|144:176|128:224,1,100,2|0,3:0|0:0,0:0:0:0:
360,144,73960,2,0,L|448:96,1,100,8|0,0:0|0:0,0:0:0:0:
384,96,74215,1,0,0:0:0:0:
320,96,74301,1,2,0:0:0:0:
416,160,74471,1,0,0:0:0:0:
288,160,74642,2,0,P|240:176|224:224,1,100,8|0,0:0|0:0,0:0:0:0:
464,224,74983,6,0,P|480:272|448:304,1,100,2|0,3:0|0:0,0:0:0:0:
288,288,75323,1,8,0:0:0:0:
400,304,75494,1,2,3:0:0:0:
400,352,75664,1,2,0:0:0:0:
288,368,75835,1,2,3:0:0:0:
400,256,76005,5,8,0:0:0:0:
448,224,76090,1,0,0:0:0:0:
464,160,76176,1,0,3:0:0:0:
448,128,76218,1,0,3:0:0:0:
432,112,76261,1,2,3:0:0:0:
400,96,76303,1,2,3:0:0:0:
256,96,76346,5,4,0:0:0:0:
192,96,76517,1,2,0:0:0:0:
288,160,76687,1,8,0:0:0:0:
368,160,76858,1,0,0:0:0:0:
256,160,77028,1,2,0:0:0:0:
160,160,77198,1,2,3:0:0:0:
288,288,77369,1,8,0:0:0:0:
288,224,77539,1,0,0:0:0:0:
160,192,77710,6,0,P|240:144|320:200,1,200,2|8,3:3|0:0,0:0:0:0:
184,264,78221,1,0,0:0:0:0:
120,264,78392,1,2,0:0:0:0:
384,240,78562,1,2,3:0:0:0:
272,192,78733,1,8,0:0:0:0:
384,152,78903,1,0,0:0:0:0:
128,152,79073,5,2,3:0:0:0:
320,80,79414,1,8,0:0:0:0:
192,80,79585,1,0,0:0:0:0:
256,80,79670,1,0,0:0:0:0:
320,80,79755,1,2,0:0:0:0:
192,144,79926,1,2,3:0:0:0:
448,80,80096,1,8,0:0:0:0:
480,144,80267,1,0,0:0:0:0:
240,224,80437,6,0,L|144:192,1,100,2|0,3:3|0:0,0:0:0:0:
288,216,80778,2,0,L|384:184,1,100,8|0,0:0|0:0,0:0:0:0:
224,192,81119,2,0,L|136:144,1,100,2|2,0:0|3:3,0:0:0:0:
320,152,81460,2,0,P|360:120|344:80,1,100,8|0,0:0|0:0,0:0:0:0:
64,216,81801,6,0,P|32:176|32:128,1,100,2|0,3:0|0:0,0:0:0:0:
152,144,82142,1,8,0:0:0:0:
0,144,82312,1,0,0:0:0:0:
128,96,82483,1,2,0:0:0:0:
184,96,82568,1,0,0:0:0:0:
240,96,82653,1,2,3:0:0:0:
88,144,82823,1,8,0:0:0:0:
32,176,82909,1,0,0:0:0:0:
88,208,82994,1,0,0:0:0:0:
448,216,83164,6,0,P|480:176|480:128,1,100,2|0,3:0|0:0,0:0:0:0:
360,144,83505,1,8,0:0:0:0:
512,240,83676,1,0,0:0:0:0:
368,96,83846,1,2,0:0:0:0:
312,96,83931,1,0,0:0:0:0:
256,96,84016,1,2,3:0:0:0:
424,144,84187,1,8,0:0:0:0:
480,176,84272,1,0,0:0:0:0:
424,208,84358,1,0,0:0:0:0:
152,240,84528,6,0,P|96:160|152:88,1,200,2|8,3:3|0:0,0:0:0:0:
256,96,85039,1,0,0:0:0:0:
112,160,85210,1,2,0:0:0:0:
64,192,85295,1,0,0:0:0:0:
112,224,85380,1,2,3:0:0:0:
384,288,85551,1,8,0:0:0:0:
256,256,85721,1,0,0:0:0:0:
432,240,85892,5,2,3:0:0:0:
480,192,86062,1,0,0:0:0:0:
240,120,86233,1,8,0:0:0:0:
160,128,86403,1,0,0:0:0:0:
400,144,86573,1,8,0:0:0:0:
304,192,86744,1,2,3:0:0:0:
400,240,86914,1,8,0:0:0:0:
224,240,87085,1,0,0:0:0:0:
496,192,87255,1,4,0:0:0:0:
96,160,98164,5,4,0:0:0:0:
336,144,98505,1,8,0:0:0:0:
336,176,98676,1,0,0:0:0:0:
96,168,98846,1,4,0:0:0:0:
256,128,99187,1,8,0:0:0:0:
176,152,99358,1,0,0:0:0:0:
448,192,99528,5,4,0:0:0:0:
352,256,99698,1,0,0:0:0:0:
256,320,99869,1,8,0:0:0:0:
376,224,100039,1,0,0:0:0:0:
136,224,100210,1,4,0:0:0:0:
352,160,100551,1,8,0:0:0:0:
96,128,100892,5,4,0:0:0:0:
288,160,101233,1,8,0:0:0:0:
192,144,101403,1,0,0:0:0:0:
432,160,101573,1,4,0:0:0:0:
224,192,101914,5,8,0:0:0:0:
160,224,102085,1,0,0:0:0:0:
400,224,102255,1,4,0:0:0:0:
400,160,102426,1,0,0:0:0:0:
256,192,102596,1,8,0:0:0:0:
256,128,102767,1,0,0:0:0:0:
496,192,102937,1,4,0:0:0:0:
320,208,103278,1,8,0:0:0:0:
128,224,103619,6,0,L|176:136,1,100,4|0,0:0|0:0,0:0:0:0:
352,160,103960,2,0,L|320:64,1,100,8|0,0:0|0:0,0:0:0:0:
64,224,104301,2,0,L|96:128,1,100,4|0,0:0|0:0,0:0:0:0:
384,128,104642,1,8,0:0:0:0:
288,192,104812,1,0,0:0:0:0:
416,192,104983,5,4,0:0:0:0:
320,256,105153,1,0,0:0:0:0:
448,256,105323,1,8,0:0:0:0:
352,320,105494,1,0,0:0:0:0:
96,192,105664,5,4,0:0:0:0:
224,224,105834,1,0,0:0:0:0:
224,288,106004,1,8,0:0:0:0:
96,304,106175,1,0,0:0:0:0:
352,304,106346,5,2,3:0:0:0:
368,288,106431,1,0,3:0:0:0:
320,256,106517,1,0,3:0:0:0:
256,272,106602,1,0,3:0:0:0:
440,304,106687,5,2,3:0:0:0:
496,272,106772,1,0,3:0:0:0:
496,224,106858,1,0,3:0:0:0:
440,192,106943,1,0,3:0:0:0:
224,192,107028,5,2,3:0:0:0:
176,176,107113,1,0,3:0:0:0:
176,128,107198,1,0,3:0:0:0:
224,104,107284,1,0,3:0:0:0:
448,96,107369,5,2,3:0:0:0:
512,128,107454,1,0,3:0:0:0:
512,192,107539,1,2,3:0:0:0:
448,224,107625,1,0,3:0:0:0:
288,256,107710,5,4,0:0:0:0:
208,192,107880,1,2,0:0:0:0:
320,192,108051,1,2,0:0:0:0:
192,256,108221,1,2,0:0:0:0:
464,208,108392,2,0,B|512:192|512:192|464:176,1,100,4|2,0:0|3:0,0:0:0:0:
224,128,108733,5,4,0:0:0:0:
192,128,108775,1,4,0:0:0:0:
168,136,108818,1,4,0:0:0:0:
152,160,108860,1,4,0:0:0:0:
160,192,108903,1,4,0:0:0:0:
192,208,108946,1,4,0:0:0:0:
224,192,108988,1,4,0:0:0:0:
480,192,109073,6,0,P|408:128|312:144,1,200,4|8,0:0|0:0,0:0:0:0:
408,128,109585,1,0,0:0:0:0:
240,144,109755,1,2,0:0:0:0:
320,112,109926,1,2,3:0:0:0:
81,176,110096,2,0,P|32:184|40:224,1,100,8|0,0:0|0:0,0:0:0:0:
384,32,110437,6,0,P|424:120|352:168,1,200,2|8,3:3|0:0,0:0:0:0:
256,160,110948,1,0,0:0:0:0:
416,256,111119,2,0,P|464:240|480:192,1,100,2|2,0:0|3:0,0:0:0:0:
160,159,111460,1,8,0:0:0:0:
80,192,111630,1,0,0:0:0:0:
160,224,111715,1,0,0:0:0:0:
352,160,111801,6,0,B|448:192|448:192|352:224,1,200,2|8,3:0|0:0,0:0:0:0:
480,160,112312,1,0,0:0:0:0:
359,239,112483,1,2,0:0:0:0:
480,288,112653,1,2,3:0:0:0:
240,288,112823,1,8,0:0:0:0:
160,240,112994,1,0,0:0:0:0:
416,176,113164,6,0,P|472:104|393:65,1,200,2|8,3:3|0:0,0:0:0:0:
128,176,113676,1,0,0:0:0:0:
136,112,113761,1,0,0:0:0:0:
184,64,113846,1,2,0:0:0:0:
256,48,113931,1,0,0:0:0:0:
336,48,114017,1,2,3:0:0:0:
96,176,114187,1,8,0:0:0:0:
96,224,114358,1,0,0:0:0:0:
384,192,114528,6,0,L|288:160,2,100,2|0|8,3:0|0:0|0:0,0:0:0:0:
128,192,115039,2,0,L|224:160,2,100,0|2|2,0:0|0:0|3:3,0:0:0:0:
384,176,115551,6,0,L|288:144,2,100,8|0|2,0:0|0:0|3:3,0:0:0:0:
112,128,116062,2,0,L|208:96,2,100,0|8|0,0:0|0:0|0:0,0:0:0:0:
352,112,116573,6,0,P|304:96|256:104,1,100,2|2,0:0|3:0,0:0:0:0:
400,112,116914,2,0,P|448:96|440:56,1,100,8|0,0:0|0:0,0:0:0:0:
120,128,117255,6,0,L|216:96,2,100,2|0|8,3:0|0:0|2:2,0:0:0:0:
392,192,117767,2,0,L|296:160,2,100,0|2|2,0:0|0:0|3:3,0:0:0:0:
64,160,118278,6,0,L|160:128,2,100,8|0|2,0:0|0:0|3:3,0:0:0:0:
320,224,118790,2,0,L|224:192,2,100,0|8|0,0:0|0:0|2:2,0:0:0:0:
40,224,119301,6,2,P|8:192|24:144,1,100,2|2,0:0|3:0,0:0:0:0:
160,160,119642,2,0,P|112:144|96:96,1,100,8|0,0:0|0:0,0:0:0:0:
354,95,119983,6,0,P|434:139|400:224,1,200,4|8,0:0|0:0,0:0:0:0:
288,96,120494,1,0,0:0:0:0:
354,95,120579,1,0,0:0:0:0:
416,96,120664,1,2,0:0:0:0:
256,160,120835,1,2,3:0:0:0:
488,192,121005,1,8,0:0:0:0:
488,128,121176,1,0,0:0:0:0:
256,192,121346,6,0,P|216:224|232:264,1,100,2|0,3:0|0:0,0:0:0:0:
352,264,121687,1,8,0:0:0:0:
384,192,121858,1,0,0:0:0:0:
319,191,121943,1,0,0:0:0:0:
256,192,122028,2,0,P|208:176|192:128,1,100,2|2,0:0|3:0,0:0:0:0:
448,128,122369,1,8,0:0:0:0:
480,192,122539,1,0,0:0:0:0:
160,96,122710,5,2,3:0:0:0:
128,128,122880,1,0,0:0:0:0:
256,128,123051,1,8,0:0:0:0:
272,176,123221,1,0,0:0:0:0:
112,192,123392,1,2,0:0:0:0:
256,224,123562,1,2,3:0:0:0:
16,320,123733,1,8,0:0:0:0:
16,256,123903,1,0,0:0:0:0:
288,288,124073,5,2,3:0:0:0:
304,224,124244,1,0,0:0:0:0:
192,208,124414,1,8,0:0:0:0:
320,160,124585,1,0,0:0:0:0:
176,144,124755,1,2,0:0:0:0:
128,208,124926,1,2,3:0:0:0:
384,288,125096,1,8,0:0:0:0:
448,256,125181,1,0,0:0:0:0:
448,192,125267,1,0,0:0:0:0:
384,160,125352,1,0,0:0:0:0:
128,216,125437,6,0,L|224:188,2,100,2|0|8,3:0|0:0|0:0,0:0:0:0:
384,216,125948,2,0,L|288:188,2,100,0|2|2,0:0|0:0|3:3,0:0:0:0:
136,168,126460,6,0,L|224:120,2,100,8|0|2,0:0|0:0|3:3,0:0:0:0:
376,168,126971,2,0,L|288:120,2,100,0|8|0,0:0|0:0|0:0,0:0:0:0:
72,128,127483,6,0,P|108:96|152:112,1,100,2|2,0:0|3:0,0:0:0:0:
440,256,127823,2,0,P|405:287|361:271,1,100,8|0,0:0|0:0,0:0:0:0:
112,160,128164,6,0,P|144:128|192:144,2,100,2|0|8,3:0|0:0|0:0,0:0:0:0:
400,208,128676,2,0,P|368:240|320:224,2,100,0|2|2,0:0|0:0|3:0,0:0:0:0:
80,176,129187,6,0,L|168:224,2,100,8|0|2,0:0|0:0|3:0,0:0:0:0:
432,176,129698,2,0,L|344:224,2,100,0|8|0,0:0|0:0|0:0,0:0:0:0:
96,128,130210,6,0,B|80:108|80:108|120:40|184:72,1,150,4|0,0:0|0:0,0:0:0:0:
416,256,130551,2,0,B|432:276|432:276|392:344|328:312,1,150,4|0,0:0|0:0,0:0:0:0:
64,240,130892,5,4,0:0:0:0:
32,192,131062,1,0,0:0:0:0:
272,192,131233,1,8,0:0:0:0:
320,128,131403,1,0,0:0:0:0:
256,128,131488,1,0,0:0:0:0:
192,128,131573,1,2,0:0:0:0:
304,64,131744,1,0,0:0:0:0:
168,64,131914,1,8,0:0:0:0:
128,128,132085,1,0,0:0:0:0:
288,136,132255,5,2,3:0:0:0:
288,192,132426,1,0,0:0:0:0:
128,192,132596,1,8,0:0:0:0:
96,128,132767,1,0,0:0:0:0:
160,128,132852,1,0,0:0:0:0:
224,128,132937,1,2,0:0:0:0:
128,64,133108,1,2,3:0:0:0:
384,288,133278,1,8,0:0:0:0:
480,192,133448,1,0,0:0:0:0:
224,128,133619,6,0,P|272:120|308:84,1,100,2|0,3:3|0:0,0:0:0:0:
192,64,133960,1,8,0:0:0:0:
288,128,134130,2,0,P|240:120|204:84,1,100,0|2,0:0|0:0,0:0:0:0:
320,64,134471,1,2,3:0:0:0:
88,128,134642,2,0,P|43:146|28:192,1,100,8|0,0:0|0:0,0:0:0:0:
176,240,134983,6,0,P|144:272|80:256,1,100,2|0,3:0|0:0,0:0:0:0:
336,240,135323,1,8,0:0:0:0:
224,192,135494,1,0,0:0:0:0:
336,176,135664,1,2,0:0:0:0:
400,176,135749,1,0,0:0:0:0:
432,176,135835,1,2,3:0:0:0:
176,144,136005,1,8,0:0:0:0:
112,144,136176,1,0,0:0:0:0:
144,192,136261,1,0,0:0:0:0:
288,192,136346,5,4,0:0:0:0:
336,192,136517,1,0,0:0:0:0:
176,192,136687,1,8,0:0:0:0:
160,128,136858,1,0,0:0:0:0:
192,128,136943,1,0,0:0:0:0:
256,128,137028,1,2,0:0:0:0:
128,192,137198,1,2,3:0:0:0:
384,264,137369,1,8,0:0:0:0:
424,200,137539,1,0,0:0:0:0:
304,192,137710,6,0,P|352:208|384:176,1,100,2|0,3:0|0:0,0:0:0:0:
128,144,138051,1,8,0:0:0:0:
112,96,138221,1,0,0:0:0:0:
168,96,138306,1,0,0:0:0:0:
224,96,138392,1,2,0:0:0:0:
128,48,138562,1,2,3:0:0:0:
384,96,138733,1,8,0:0:0:0:
400,160,138903,1,0,0:0:0:0:
160,224,139073,5,2,3:0:0:0:
128,160,139244,1,0,0:0:0:0:
368,160,139414,1,8,0:0:0:0:
384,288,139585,1,0,0:0:0:0:
328,288,139670,1,0,0:0:0:0:
272,288,139755,1,2,0:0:0:0:
384,224,139926,1,2,3:0:0:0:
128,224,140096,1,8,0:0:0:0:
112,192,140267,1,0,0:0:0:0:
256,160,140437,5,2,3:0:0:0:
352,224,140608,1,0,0:0:0:0:
240,208,140778,1,8,0:0:0:0:
176,96,140948,1,0,0:0:0:0:
232,96,141034,1,0,0:0:0:0:
288,96,141119,1,8,0:0:0:0:
128,160,141289,1,2,3:0:0:0:
384,160,141460,1,8,0:0:0:0:
416,192,141630,1,0,0:0:0:0:
352,192,141715,1,0,0:0:0:0:
128,192,141801,6,0,P|81:169|88:128,1,100,4|0,0:0|0:0,0:0:0:0:
215,128,142142,2,0,P|262:151|255:192,1,100,8|0,0:0|0:0,0:0:0:0:
16,144,142483,1,4,0:0:0:0:
256,192,142823,1,8,0:0:0:0:
144,192,142994,1,0,0:0:0:0:
384,192,143164,6,0,P|432:176|456:136,1,100,4|0,0:0|0:0,0:0:0:0:
288,144,143505,2,0,P|240:128|216:88,1,100,8|0,0:0|0:0,0:0:0:0:
464,112,143846,2,0,P|504:144|480:192,1,100,4|0,0:0|0:0,0:0:0:0:
256,192,144187,1,8,0:0:0:0:
464,112,144528,5,4,0:0:0:0:
240,272,144869,1,8,0:0:0:0:
480,192,145210,1,4,0:0:0:0:
224,288,145551,1,8,0:0:0:0:
288,288,145721,1,0,0:0:0:0:
48,192,145892,5,4,0:0:0:0:
32,256,146062,1,0,0:0:0:0:
208,192,146233,1,8,0:0:0:0:
272,256,146403,1,0,0:0:0:0:
32,192,146573,2,0,P|64:232|104:216,1,100,4|0,0:0|0:0,0:0:0:0:
344,336,146914,2,0,P|408:264|392:224,1,150,8|0,0:0|0:0,0:0:0:0:
120,56,147255,6,0,L|192:128,1,100,4|2,0:0|3:0,0:0:0:0:
96,128,147596,1,2,3:0:0:0:
224,160,147767,2,0,L|136:112,1,100,8|2,2:2|3:0,0:0:0:0:
256,112,148108,1,2,3:0:0:0:
16,144,148278,2,0,L|104:192,1,100,4|2,2:2|3:0,0:0:0:0:
16,224,148619,5,2,3:0:0:0:
184,240,148789,2,0,L|120:144,1,100,8|2,2:2|3:0,0:0:0:0:
256,128,149130,1,2,3:0:0:0:
16,192,149301,1,4,2:0:0:0:
176,192,149471,1,2,3:0:0:0:
96,128,149642,1,4,2:0:0:0:
256,128,149812,1,2,3:0:0:0:
496,64,149983,6,0,P|448:80|424:120,2,100,4|2|2,2:0|0:0|0:0,0:0:0:0:
256,192,150494,2,0,P|304:176|328:136,2,100,8|2|2,2:0|0:0|0:0,0:0:0:0:
496,192,151005,2,0,P|448:176|424:136,2,100,4|2|2,2:0|0:0|0:0,0:0:0:0:
224,192,151517,2,0,P|272:176|296:136,2,100,8|2|0,2:0|0:0|0:0,0:0:0:0:
480,288,152028,5,4,0:0:0:0:
496,256,152113,1,0,0:0:0:0:
480,224,152198,1,0,0:0:0:0:
432,208,152284,1,0,0:0:0:0:
368,192,152369,1,0,0:0:0:0:
432,176,152454,1,0,0:0:0:0:
480,160,152539,1,0,0:0:0:0:
496,120,152625,1,0,0:0:0:0:
256,192,152710,5,4,0:0:0:0:
160,192,152880,1,0,0:0:0:0:
416,120,153051,1,8,0:0:0:0:
324,159,153221,2,0,L|416:119,1,100,0|2,0:0|0:0,0:0:0:0:
184,80,153562,1,2,3:0:0:0:
280,160,153733,2,0,P|232:160|184:144,1,100,8|0,0:0|0:0,0:0:0:0:
416,192,154073,5,2,3:0:0:0:
480,128,154244,1,0,0:0:0:0:
240,192,154414,1,8,0:0:0:0:
144,112,154585,1,0,0:0:0:0:
200,112,154670,1,0,0:0:0:0:
256,112,154755,1,2,0:0:0:0:
144,224,154926,1,2,3:0:0:0:
256,224,155096,1,8,0:0:0:0:
144,192,155267,1,0,0:0:0:0:
384,192,155437,5,2,3:0:0:0:
480,128,155608,1,0,0:0:0:0:
240,128,155778,1,8,0:0:0:0:
368,128,155948,1,0,0:0:0:0:
304,128,156034,1,0,0:0:0:0:
240,128,156119,1,2,0:0:0:0:
336,64,156289,1,2,3:0:0:0:
96,64,156460,1,8,0:0:0:0:
160,128,156630,1,0,0:0:0:0:
320,80,156801,5,2,3:0:0:0:
160,184,156971,1,0,0:0:0:0:
320,160,157142,1,8,0:0:0:0:
160,240,157312,1,0,0:0:0:0:
224,240,157397,1,0,0:0:0:0:
288,240,157483,1,2,0:0:0:0:
160,320,157653,1,2,3:0:0:0:
400,352,157823,2,0,B|448:352|448:352|392:328,1,100,8|0,0:0|0:0,0:0:0:0:
112,240,158164,5,2,3:0:0:0:
96,192,158335,1,0,0:0:0:0:
224,192,158505,1,8,0:0:0:0:
80,144,158676,1,0,0:0:0:0:
112,112,158761,1,2,0:0:0:0:
176,112,158846,1,0,0:0:0:0:
64,96,159017,1,2,3:0:0:0:
304,96,159187,1,8,0:0:0:0:
320,192,159358,1,0,0:0:0:0:
192,192,159528,5,2,3:0:0:0:
128,192,159698,1,0,0:0:0:0:
384,192,159869,1,8,0:0:0:0:
256,128,160039,1,0,0:0:0:0:
304,128,160124,1,0,0:0:0:0:
352,128,160210,1,2,0:0:0:0:
224,192,160380,1,2,3:0:0:0:
464,144,160551,1,8,0:0:0:0:
464,192,160721,1,0,0:0:0:0:
224,192,160892,5,2,3:0:0:0:
128,192,161062,1,0,0:0:0:0:
256,240,161233,1,8,0:0:0:0:
144,224,161403,1,0,0:0:0:0:
192,224,161488,1,0,0:0:0:0:
240,224,161573,1,2,0:0:0:0:
128,240,161744,1,2,3:0:0:0:
400,192,161914,1,8,0:0:0:0:
400,144,162085,1,0,0:0:0:0:
256,144,162255,5,2,3:0:0:0:
192,144,162426,1,0,0:0:0:0:
448,192,162596,1,8,0:0:0:0:
336,192,162767,1,0,0:0:0:0:
392,192,162852,1,0,0:0:0:0:
448,152,162937,2,0,P|413:119|368:136,1,100,2|2,0:0|3:0,0:0:0:0:
96,192,163278,1,8,0:0:0:0:
192,192,163448,1,0,0:0:0:0:
432,192,163619,6,0,P|480:208|496:256,1,100,4|0,0:0|0:0,0:0:0:0:
352,272,163960,2,0,P|304:256|288:208,1,100,8|0,0:0|0:0,0:0:0:0:
320,160,164215,1,0,0:0:0:0:
384,160,164301,1,2,0:0:0:0:
256,160,164471,1,2,3:0:0:0:
496,224,164642,1,8,0:0:0:0:
496,176,164812,1,0,0:0:0:0:
320,128,164983,5,2,3:0:0:0:
256,128,165153,1,0,0:0:0:0:
496,128,165323,1,8,0:0:0:0:
376,128,165494,1,0,0:0:0:0:
320,96,165579,1,0,0:0:0:0:
376,64,165664,1,2,0:0:0:0:
256,128,165835,1,2,3:0:0:0:
496,128,166005,1,8,0:0:0:0:
496,224,166176,1,0,0:0:0:0:
256,64,166346,5,4,2:0:0:0:
160,64,166517,1,0,0:0:0:0:
288,104,166687,1,8,0:0:0:0:
176,160,166858,1,0,0:0:0:0:
232,160,166943,1,0,0:0:0:0:
288,160,167028,1,2,0:0:0:0:
176,192,167198,1,2,3:0:0:0:
416,192,167369,1,8,0:0:0:0:
416,128,167539,1,0,0:0:0:0:
176,128,167710,6,0,P|128:112|112:64,1,100,2|0,3:0|0:0,0:0:0:0:
352,64,168051,1,8,0:0:0:0:
320,32,168221,1,0,0:0:0:0:
256,32,168306,1,0,0:0:0:0:
192,32,168392,1,2,0:0:0:0:
336,104,168562,1,2,3:0:0:0:
96,224,168733,1,8,0:0:0:0:
32,160,168903,1,0,0:0:0:0:
288,192,169073,6,0,P|240:192|208:232,2,100,2|0|8,3:0|0:0|0:0,0:0:0:0:
192,240,169585,2,0,P|144:240|112:280,1,100,0|2,0:0|0:0,0:0:0:0:
256,288,169926,1,2,3:0:0:0:
144,288,170096,2,0,P|96:288|64:328,1,100,8|0,0:0|0:0,0:0:0:0:
352,96,170437,6,0,P|400:96|432:56,1,100,2|0,3:0|0:0,0:0:0:0:
160,192,170778,1,8,0:0:0:0:
64,128,170948,1,0,0:0:0:0:
120,128,171034,1,0,0:0:0:0:
176,128,171119,2,0,L|80:96,1,100,2|2,0:0|3:0,0:0:0:0:
320,96,171460,1,8,0:0:0:0:
192,192,171630,1,0,0:0:0:0:
432,192,171801,5,4,0:0:0:0:
432,128,171971,1,0,0:0:0:0:
304,128,172142,1,8,0:0:0:0:
448,128,172312,1,0,0:0:0:0:
464,64,172482,1,2,0:0:0:0:
336,64,172653,1,2,3:0:0:0:
480,128,172823,1,8,0:0:0:0:
496,64,172993,1,0,0:0:0:0:
256,64,173164,5,2,3:0:0:0:
240,128,173335,1,0,0:0:0:0:
480,192,173505,1,8,0:0:0:0:
480,256,173676,1,0,0:0:0:0:
448,256,173761,1,0,0:0:0:0:
280,256,173846,1,8,0:0:0:0:
160,256,174017,1,0,0:0:0:0:
400,256,174187,1,8,0:0:0:0:
464,224,174272,1,0,0:0:0:0:
464,160,174358,1,0,0:0:0:0:
400,128,174443,1,0,0:0:0:0:
256,192,174528,5,4,0:0:0:0:
256,192,174869,1,8,0:0:0:0:
448,192,175210,1,2,0:0:0:0:
288,136,175551,1,8,0:0:0:0:
336,288,175721,1,0,0:0:0:0:
176,288,175892,6,0,P|128:272|136:232,1,100,2|0,3:0|0:0,0:0:0:0:
368,288,176233,2,0,P|416:272|408:232,1,100,8|0,0:0|0:0,0:0:0:0:
256,224,176573,1,2,0:0:0:0:
336,192,176744,1,0,0:0:0:0:
232,168,176914,1,8,0:0:0:0:
440,216,177255,5,2,3:0:0:0:
208,192,177596,1,8,0:0:0:0:
96,112,177767,1,0,0:0:0:0:
208,112,177937,2,0,L|304:144,1,100,2|0,0:0|0:0,0:0:0:0:
152,192,178278,1,8,0:0:0:0:
176,256,178448,1,0,0:0:0:0:
424,232,178619,6,0,B|432:256|432:256|368:296|264:248,1,200,2|8,3:0|0:0,0:0:0:0:
384,240,179130,1,0,0:0:0:0:
480,192,179301,1,2,0:0:0:0:
480,80,179471,1,2,3:0:0:0:
240,80,179642,2,0,P|192:96|176:144,1,100,8|0,0:0|0:0,0:0:0:0:
416,144,179983,6,0,B|432:192|432:192|416:240,1,100,2|0,3:0|0:0,0:0:0:0:
160,208,180323,1,8,0:0:0:0:
144,144,180494,1,0,0:0:0:0:
200,144,180579,1,0,0:0:0:0:
256,144,180664,1,2,0:0:0:0:
128,80,180835,1,2,3:0:0:0:
376,80,181005,2,0,P|408:120|392:168,1,100,8|0,0:0|0:0,0:0:0:0:
256,160,181346,6,0,P|208:176|176:224,1,100,2|0,3:0|0:0,0:0:0:0:
416,192,181687,1,8,0:0:0:0:
480,128,181858,1,0,0:0:0:0:
424,128,181943,1,0,0:0:0:0:
368,128,182028,1,2,0:0:0:0:
448,64,182198,1,2,3:0:0:0:
208,80,182369,2,0,P|160:96|144:144,1,100,8|0,0:0|0:0,0:0:0:0:
256,192,182710,6,0,L|160:160,1,100,2|0,3:3|0:0,0:0:0:0:
416,96,183051,2,0,P|464:112|448:160,1,100,8|0,0:0|0:0,0:0:0:0:
416,192,183306,1,0,0:0:0:0:
352,192,183392,1,2,0:0:0:0:
448,240,183562,1,2,3:0:0:0:
208,224,183733,1,8,0:0:0:0:
208,160,183903,1,0,0:0:0:0:
448,240,184073,6,0,P|480:208|464:160,1,100,2|0,3:0|0:0,0:0:0:0:
352,160,184414,1,8,0:0:0:0:
464,128,184585,1,2,3:0:0:0:
408,128,184670,1,0,0:0:0:0:
352,128,184755,1,2,0:0:0:0:
464,192,184926,1,2,3:0:0:0:
224,304,185096,5,8,0:0:0:0:
176,272,185181,1,0,0:0:0:0:
160,208,185267,1,0,3:0:0:0:
176,176,185309,1,0,3:0:0:0:
192,160,185352,1,2,3:0:0:0:
224,144,185394,1,2,3:0:0:0:
368,144,185437,5,4,0:0:0:0:
480,156,185608,1,2,0:0:0:0:
348,156,185778,1,8,0:0:0:0:
256,236,185948,1,0,0:0:0:0:
360,288,186119,1,2,0:0:0:0:
456,288,186289,1,2,3:0:0:0:
328,264,186460,1,8,0:0:0:0:
208,240,186630,1,0,0:0:0:0:
360,224,186801,6,0,P|312:136|224:144,1,200,2|8,3:0|0:0,0:0:0:0:
296,216,187312,1,0,0:0:0:0:
192,192,187483,1,2,0:0:0:0:
296,264,187653,1,2,3:0:0:0:
160,240,187823,1,8,0:0:0:0:
296,312,187994,1,0,0:0:0:0:
32,312,188164,5,2,3:0:0:0:
224,64,188505,1,8,0:0:0:0:
96,128,188676,1,0,0:0:0:0:
160,128,188761,1,0,0:0:0:0:
224,128,188846,1,2,0:0:0:0:
288,176,189017,1,2,3:0:0:0:
128,176,189187,1,8,0:0:0:0:
64,224,189358,1,0,0:0:0:0:
336,224,189528,6,0,P|384:208|400:160,1,100,2|0,3:0|0:0,0:0:0:0:
256,192,189869,2,0,P|208:176|192:128,1,100,8|0,0:0|0:0,0:0:0:0:
304,192,190210,2,0,P|352:176|368:128,1,100,2|2,0:0|3:0,0:0:0:0:
112,248,190551,2,0,P|64:232|48:184,1,100,8|0,0:0|0:0,0:0:0:0:
352,272,190892,6,0,P|400:256|416:208,1,100,2|0,3:0|0:0,0:0:0:0:
256,192,191233,1,8,0:0:0:0:
160,112,191403,1,0,0:0:0:0:
224,112,191488,1,0,0:0:0:0:
288,112,191573,1,2,0:0:0:0:
144,144,191744,1,2,3:0:0:0:
384,144,191914,1,8,0:0:0:0:
408,208,192085,1,0,0:0:0:0:
160,272,192255,6,0,P|112:256|96:208,1,100,2|0,3:0|0:0,0:0:0:0:
256,192,192596,1,8,0:0:0:0:
352,112,192766,1,0,0:0:0:0:
288,112,192851,1,0,0:0:0:0:
224,112,192936,1,2,0:0:0:0:
368,144,193107,1,2,3:0:0:0:
128,144,193277,1,8,0:0:0:0:
104,208,193448,1,0,0:0:0:0:
352,240,193619,6,0,P|416:168|360:96,1,200,2|8,3:0|0:0,0:0:0:0:
416,176,194130,1,0,0:0:0:0:
288,160,194301,1,2,0:0:0:0:
368,208,194471,1,2,3:0:0:0:
312,208,194556,1,0,0:0:0:0:
256,208,194642,1,8,0:0:0:0:
352,256,194812,1,0,0:0:0:0:
224,256,194983,5,2,3:0:0:0:
208,192,195153,1,0,0:0:0:0:
464,256,195323,1,8,0:0:0:0:
480,192,195494,1,0,0:0:0:0:
224,176,195664,5,4,0:0:0:0:
344,184,195835,1,8,0:0:0:0:
224,216,196005,1,4,0:0:0:0:
352,240,196176,1,8,0:0:0:0:
96,240,196346,1,4,0:0:0:0:
256,192,207255,5,4,0:0:0:0:
96,160,207596,1,8,0:0:0:0:
176,176,207767,1,0,0:0:0:0:
416,128,207937,1,4,0:0:0:0:
256,128,208278,1,8,0:0:0:0:
336,128,208448,1,0,0:0:0:0:
64,320,208619,1,4,0:0:0:0:
64,256,208789,1,0,0:0:0:0:
224,272,208960,1,8,0:0:0:0:
128,224,209130,1,0,0:0:0:0:
384,224,209301,1,4,0:0:0:0:
192,192,209642,1,8,0:0:0:0:
416,128,209983,5,4,0:0:0:0:
224,160,210323,1,8,0:0:0:0:
320,144,210494,1,0,0:0:0:0:
80,160,210664,1,4,0:0:0:0:
224,192,211005,1,8,0:0:0:0:
128,224,211176,1,0,0:0:0:0:
384,224,211346,1,4,0:0:0:0:
384,160,211517,1,0,0:0:0:0:
224,192,211687,1,8,0:0:0:0:
208,128,211858,1,0,0:0:0:0:
480,192,212028,1,4,0:0:0:0:
224,192,212369,1,8,0:0:0:0:
384,224,212710,5,4,0:0:0:0:
384,224,212880,1,0,0:0:0:0:
224,192,213051,1,8,0:0:0:0:
176,192,213221,1,0,0:0:0:0:
416,224,213392,1,4,0:0:0:0:
416,224,213562,1,0,0:0:0:0:
288,192,213733,1,8,0:0:0:0:
416,160,213903,1,0,0:0:0:0:
160,160,214073,6,0,P|112:144|88:104,1,100,4|0,0:0|0:0,0:0:0:0:
208,112,214414,2,0,L|96:112,1,100,8|0,0:0|0:0,0:0:0:0:
384,128,214755,1,4,0:0:0:0:
288,192,214926,1,0,0:0:0:0:
400,192,215096,1,4,0:0:0:0:
272,240,215267,1,0,0:0:0:0:
416,256,215437,6,0,L|432:208,1,50,2|0,3:0|3:0,3:0:0:0:
256,288,215608,2,0,L|224:240,1,50,0|0,3:0|3:0,3:0:0:0:
400,192,215778,2,0,L|416:144,1,50,2|0,3:0|3:0,3:0:0:0:
240,224,215949,2,0,L|208:176,1,50,0|0,3:0|3:0,3:0:0:0:
384,128,216119,5,2,3:0:0:0:
432,112,216204,1,0,3:0:0:0:
432,64,216289,1,0,3:0:0:0:
384,48,216375,1,0,3:0:0:0:
176,128,216460,1,2,3:0:0:0:
160,96,216545,1,0,3:0:0:0:
192,64,216630,1,2,3:0:0:0:
256,64,216716,1,0,3:0:0:0:
432,112,216801,5,4,0:0:0:0:
320,128,216971,1,2,0:0:0:0:
448,208,217142,1,2,0:0:0:0:
336,224,217312,1,2,0:0:0:0:
96,224,217483,2,0,B|48:208|48:208|96:224,1,100,4|2,0:0|3:0,0:0:0:0:
336,304,217823,5,4,0:0:0:0:
384,288,217866,1,4,0:0:0:0:
416,256,217909,1,4,0:0:0:0:
432,216,217951,1,4,0:0:0:0:
432,184,217994,1,4,0:0:0:0:
432,216,218036,1,4,0:0:0:0:
416,256,218079,1,4,0:0:0:0:
384,288,218122,1,4,0:0:0:0:
336,304,218164,1,4,0:0:0:0:
176,304,218676,5,0,0:0:0:0:
304,64,218846,1,2,0:0:0:0:
192,64,219017,1,0,0:0:0:0:
304,112,219187,1,2,0:0:0:0:
416,160,219358,1,2,0:0:0:0:
256,192,219528,6,0,L|440:112,1,200,2|2,0:0|0:0,0:0:0:0:
256,104,220039,1,0,0:0:0:0:
392,192,220551,2,0,L|480:144,1,100,2|0,0:0|0:0,0:0:0:0:
232,192,220892,6,0,P|304:128|400:144,1,200,2|0,0:0|0:0,0:0:0:0:
256,96,221403,1,2,0:0:0:0:
336,160,221573,1,2,0:0:0:0:
416,224,221744,1,0,0:0:0:0:
288,224,221914,1,2,0:0:0:0:
176,160,222085,1,0,0:0:0:0:
288,320,222255,2,0,P|376:272|352:192,1,200,2|0,0:0|0:0,0:0:0:0:
88,232,222767,2,0,P|0:184|24:104,1,200,2|0,0:0|0:0,0:0:0:0:
192,96,223278,1,2,0:0:0:0:
272,160,223448,1,0,0:0:0:0:
40,192,223619,5,2,0:0:0:0:
32,240,223789,1,0,0:0:0:0:
80,272,223960,1,0,0:0:0:0:
192,288,224130,1,2,0:0:0:0:
264,256,224301,1,0,0:0:0:0:
280,192,224471,1,0,0:0:0:0:
160,160,224642,5,2,0:0:0:0:
64,160,224812,1,0,0:0:0:0:
32,224,224983,1,0,0:0:0:0:
144,256,225153,1,2,0:0:0:0:
256,224,225323,1,0,0:0:0:0:
240,160,225494,1,0,0:0:0:0:
80,192,225664,6,0,P|32:176|16:128,1,100,2|0,0:0|0:0,0:0:0:0:
160,144,226005,1,2,0:0:0:0:
256,128,226176,1,0,0:0:0:0:
128,80,226346,5,2,0:0:0:0:
32,112,226517,1,0,0:0:0:0:
64,192,226687,1,0,0:0:0:0:
224,256,226858,1,2,0:0:0:0:
320,224,227028,1,0,0:0:0:0:
264,152,227198,1,0,0:0:0:0:
128,160,227369,5,2,0:0:0:0:
64,224,227539,1,0,0:0:0:0:
128,288,227710,1,0,0:0:0:0:
256,280,227880,1,2,0:0:0:0:
320,240,228051,1,0,0:0:0:0:
256,192,228221,1,0,0:0:0:0:
144,208,228392,5,2,0:0:0:0:
128,160,228562,1,0,0:0:0:0:
384,160,228733,1,2,0:0:0:0:
192,208,229073,5,4,0:0:0:0:
352,208,229414,1,8,0:0:0:0:
384,160,229585,1,0,0:0:0:0:
296,112,229755,1,2,0:0:0:0:
176,128,229926,1,2,3:0:0:0:
304,192,230096,1,8,0:0:0:0:
344,160,230267,1,0,0:0:0:0:
224,192,230437,6,0,P|152:136|224:80,1,200,2|8,3:3|0:0,0:0:0:0:
256,48,230948,1,0,0:0:0:0:
144,32,231119,1,2,0:0:0:0:
128,96,231289,1,2,3:0:0:0:
256,48,231460,1,8,0:0:0:0:
272,112,231630,1,0,0:0:0:0:
112,156,231801,6,0,P|160:240|256:248,1,200,2|8,3:0|0:0,0:0:0:0:
112,156,232312,1,0,0:0:0:0:
256,144,232483,1,2,0:0:0:0:
240,192,232653,1,2,3:0:0:0:
96,224,232823,1,8,0:0:0:0:
80,176,232994,1,0,0:0:0:0:
336,176,233164,5,0,0:0:0:0:
432,144,233335,1,0,0:0:0:0:
352,96,233505,1,8,0:0:0:0:
112,64,233676,1,2,0:0:0:0:
32,128,233846,1,0,0:0:0:0:
128,160,234017,1,2,3:0:0:0:
416,208,234187,2,0,P|464:192|480:144,1,100,8|0,0:0|0:0,0:0:0:0:
224,192,234528,6,0,P|128:160|112:64,1,200,2|8,3:0|0:0,0:0:0:0:
368,64,235039,2,0,P|464:96|480:192,1,200,2|2,0:0|3:0,0:0:0:0:
240,320,235551,2,0,P|144:288|128:192,1,200,8|2,0:0|3:0,0:0:0:0:
368,64,236062,2,0,P|464:96|480:192,1,200
368,192,236573,6,0,P|416:176|432:128,1,100,2|2,0:0|3:0,0:0:0:0:
192,192,236914,2,0,P|144:176|128:128,1,100,8|0,0:0|0:0,0:0:0:0:
368,256,237255,6,0,P|464:224|496:128,1,200,2|8,3:0|0:0,0:0:0:0:
256,128,237767,2,0,P|160:160|128:256,1,200,0|2,0:0|3:0,0:0:0:0:
384,304,238278,2,0,P|480:272|512:176,1,200,8|2,0:0|3:0,0:0:0:0:
224,80,238789,2,0,P|128:112|96:208,1,200
352,352,239301,6,0,P|432:336|448:256,1,150,2|0,0:0|0:0,0:0:0:0:
368,208,239642,2,0,P|288:192|256:128,1,150,8|0,0:0|0:0,0:0:0:0:
416,96,239983,5,4,0:0:0:0:
256,128,240323,1,8,0:0:0:0:
400,144,240664,1,4,0:0:0:0:
224,176,241005,1,8,0:0:0:0:
384,192,241346,1,4,0:0:0:0:
192,224,241687,1,8,0:0:0:0:
368,240,242028,1,4,0:0:0:0:
160,272,242369,1,8,0:0:0:0:
352,288,242710,5,4,0:0:0:0:
128,320,243051,2,0,P|88:288|104:248,1,100,8|0,0:0|0:0,0:0:0:0:
256,192,243392,1,4,0:0:0:0:
192,192,243733,2,0,P|232:160|216:120,1,100,8|0,0:0|0:0,0:0:0:0:
48,64,244074,1,4,0:0:0:0:
192,192,244414,2,0,P|152:160|168:120,1,100,8|0,0:0|0:0,0:0:0:0:
416,112,244755,5,4,0:0:0:0:
360,160,245096,2,0,L|448:112,1,100,8|0,0:0|0:0,0:0:0:0:
160,160,245437,6,0,P|176:112|224:96,1,100,4|0,0:0|0:0,0:0:0:0:
320,192,245778,2,0,P|284:223|240:207,1,100,8|0,0:0|0:0,0:0:0:0:
96,96,246119,6,0,L|168:24,1,100,4|0,0:0|0:0,0:0:0:0:
312,96,246460,2,0,L|240:168,1,100,8|0,0:0|0:0,0:0:0:0:
480,192,246801,5,4,0:0:0:0:
384,160,246971,1,0,0:0:0:0:
496,128,247141,1,8,0:0:0:0:
384,96,247312,1,0,0:0:0:0:
32,100,247483,5,4,0:0:0:0:
168,160,247653,1,0,0:0:0:0:
32,192,247823,1,8,0:0:0:0:
168,224,247994,1,0,0:0:0:0:
416,136,248164,5,4,0:0:0:0:
479,154,248250,1,0,0:0:0:0:
480,216,248335,1,0,0:0:0:0:
416,232,248420,1,0,0:0:0:0:
200,152,248505,5,4,0:0:0:0:
137,170,248591,1,0,0:0:0:0:
136,232,248676,1,0,0:0:0:0:
200,248,248761,1,0,0:0:0:0:
392,192,248846,6,0,L|440:176,1,50,4|0,0:0|0:0,0:0:0:0:
288,160,249017,2,0,L|240:144,1,50,4|0,0:0|0:0,0:0:0:0:
432,128,249187,2,0,L|480:112,1,50,4|0,0:0|0:0,0:0:0:0:
336,96,249358,2,0,L|288:80,1,50
464,56,249528,5,4,0:0:0:0:
480,128,249698,1,2,0:0:0:0:
400,192,249869,1,2,0:0:0:0:
256,192,250039,1,2,0:0:0:0:
496,128,250210,1,4,0:0:0:0:
496,200,250380,1,2,3:0:0:0:
256,128,250551,5,4,0:0:0:0:
224,128,250593,1,4,0:0:0:0:
200,136,250636,1,4,0:0:0:0:
184,160,250678,1,4,0:0:0:0:
192,192,250721,1,4,0:0:0:0:
224,208,250764,1,4,0:0:0:0:
256,192,250806,1,4,0:0:0:0:
464,192,250892,6,0,B|496:160|496:160|448:128|352:192,1,200,4|8,0:0|0:0,0:0:0:0:
408,128,251403,1,0,0:0:0:0:
176,256,251573,1,2,0:0:0:0:
96,240,251744,1,2,3:0:0:0:
336,256,251914,1,8,0:0:0:0:
416,240,252085,1,0,0:0:0:0:
256,272,252255,6,0,B|160:240|160:240|256:216,1,200,2|8,3:0|0:0,0:0:0:0:
384,128,252767,1,0,0:0:0:0:
320,128,252852,1,0,0:0:0:0:
256,128,252937,2,0,L|159:105,1,100,2|2,0:0|3:3,0:0:0:0:
432,152,253278,1,8,0:0:0:0:
496,192,253448,1,0,0:0:0:0:
256,112,253619,6,0,P|160:144|144:232,1,200,2|8,3:0|0:0,0:0:0:0:
256,256,254130,1,0,0:0:0:0:
200,256,254215,1,0,0:0:0:0:
144,256,254301,1,2,2:0:0:0:
256,320,254471,1,2,3:0:0:0:
144,320,254642,1,8,0:0:0:0:
288,320,254812,1,0,0:0:0:0:
56,320,254983,6,0,P|0:248|72:176,1,200,2|8,3:3|0:0,0:0:0:0:
320,144,255494,2,0,B|368:160|368:160|320:144,1,100,0|2,0:0|0:0,0:0:0:0:
169,230,255835,1,2,3:0:0:0:
432,224,256005,5,8,0:0:0:0:
480,168,256090,1,0,0:0:0:0:
448,104,256176,1,0,0:0:0:0:
384,104,256261,1,0,0:0:0:0:
224,224,256346,6,0,P|256:192|320:192,2,100,2|0|8,3:0|0:0|0:0,0:0:0:0:
464,224,256858,2,0,P|432:192|368:192,2,100,0|2|2,0:0|0:0|3:0,0:0:0:0:
96,224,257369,6,0,P|128:256|192:256,2,100,8|0|2,0:0|0:0|3:0,0:0:0:0:
416,224,257880,2,0,P|384:256|320:256,2,100,0|8|0,0:0|0:0|0:0,0:0:0:0:
168,192,258392,6,0,P|120:176|88:128,1,100,2|0,0:0|0:0,0:0:0:0:
344,192,258733,2,0,P|392:176|424:128,1,100,8|0,0:0|0:0,0:0:0:0:
128,80,259073,6,0,L|222:112,2,100,2|0|8,3:0|0:0|0:0,0:0:0:0:
384,128,259585,2,0,L|289:160,2,100,0|2|2,0:0|0:0|3:0,0:0:0:0:
96,112,260096,6,0,L|190:144,2,100,8|0|2,2:0|0:0|3:0,0:0:0:0:
352,160,260608,2,0,L|257:192,2,100,0|8|0,0:0|0:0|2:0,0:0:0:0:
90,137,261119,6,0,P|128:168|176:160,1,100,2|2,0:0|3:0,0:0:0:0:
416,192,261460,2,0,P|392:160|336:160,1,100,8|0,0:0|0:0,0:0:0:0:
272,160,261715,1,0,0:0:0:0:
80,144,261801,6,0,B|64:144|64:144|64:192|64:192|112:192,1,100,4|0,0:0|0:0,0:0:0:0:
256,192,262142,1,8,0:0:0:0:
160,144,262312,1,2,0:0:0:0:
256,96,262483,1,2,0:0:0:0:
128,96,262653,1,2,3:0:0:0:
384,96,262823,1,8,0:0:0:0:
288,128,262994,1,0,0:0:0:0:
416,128,263164,6,0,P|464:208|384:272,1,200,2|8,3:3|0:0,0:0:0:0:
256,192,263676,1,0,0:0:0:0:
416,128,263846,2,0,P|464:112|488:72,1,100,2|2,0:0|3:0,0:0:0:0:
248,160,264187,2,0,P|200:144|176:104,1,100,8|0,0:0|0:0,0:0:0:0:
432,96,264528,5,2,3:0:0:0:
448,128,264698,1,0,0:0:0:0:
304,192,264869,1,8,0:0:0:0:
384,224,265039,1,0,0:0:0:0:
144,224,265210,1,2,0:0:0:0:
256,240,265380,1,2,3:0:0:0:
144,272,265551,1,8,0:0:0:0:
256,288,265721,1,0,0:0:0:0:
16,192,265892,5,2,3:0:0:0:
96,160,266062,1,0,0:0:0:0:
16,128,266233,1,8,0:0:0:0:
256,112,266403,1,0,0:0:0:0:
384,112,266573,1,2,0:0:0:0:
320,160,266744,1,2,3:0:0:0:
80,256,266914,5,8,0:0:0:0:
16,224,267000,1,0,0:0:0:0:
16,160,267085,1,0,0:0:0:0:
80,128,267170,1,0,0:0:0:0:
256,112,267255,6,0,L|168:160,2,100,2|0|8,3:3|0:0|0:0,0:0:0:0:
0,176,267767,2,0,L|88:128,2,100,0|2|2,2:2|0:0|3:0,0:0:0:0:
272,144,268278,6,0,L|184:192,2,100,8|0|2,0:0|0:0|3:0,0:0:0:0:
16,256,268789,2,0,L|104:208,2,100,0|8|0,0:0|0:0|0:0,0:0:0:0:
256,128,269301,6,0,P|211:112|176:144,1,100,2|2,0:0|3:0,0:0:0:0:
288,224,269642,2,0,P|333:240|368:208,1,100,8|0,0:0|0:0,0:0:0:0:
128,224,269983,6,0,L|224:196,2,100,2|0|8,3:3|0:0|0:0,0:0:0:0:
384,224,270494,2,0,L|288:196,2,100,0|2|2,0:0|0:0|3:0,0:0:0:0:
96,176,271005,6,0,L|184:128,2,100,8|2|2,0:0|0:0|3:0,0:0:0:0:
416,176,271517,2,0,L|328:128,2,100,0|8|0,0:0|0:0|0:0,0:0:0:0:
96,128,272028,6,0,B|80:108|80:108|120:40|184:72,1,150,4|0,0:0|0:0,0:0:0:0:
416,256,272369,2,0,B|432:276|432:276|392:344|328:312,1,150,4|0,0:0|0:0,0:0:0:0:
96,240,272710,5,4,0:0:0:0:
32,192,272880,1,0,0:0:0:0:
160,192,273051,1,8,0:0:0:0:
48,128,273221,1,0,0:0:0:0:
112,128,273306,1,0,0:0:0:0:
176,128,273392,1,2,0:0:0:0:
64,64,273562,1,2,3:0:0:0:
304,64,273733,1,8,0:0:0:0:
416,64,273903,1,0,0:0:0:0:
176,128,274073,5,2,3:0:0:0:
128,192,274244,1,0,0:0:0:0:
400,192,274414,1,8,0:0:0:0:
480,144,274585,1,0,0:0:0:0:
424,144,274670,1,0,0:0:0:0:
368,144,274755,1,2,0:0:0:0:
480,240,274926,1,2,3:0:0:0:
240,192,275096,1,8,0:0:0:0:
368,192,275267,1,2,0:0:0:0:
496,192,275437,5,2,3:0:0:0:
352,192,275608,1,0,0:0:0:0:
224,192,275778,1,8,0:0:0:0:
384,64,275948,1,0,0:0:0:0:
256,152,276119,1,2,0:0:0:0:
376,216,276289,1,2,3:0:0:0:
88,128,276460,2,0,P|43:146|28:192,1,100,8|0,0:0|0:0,0:0:0:0:
272,256,276801,6,0,P|316:237|331:191,1,100,2|0,3:0|0:0,0:0:0:0:
96,304,277142,1,8,0:0:0:0:
224,240,277312,1,0,0:0:0:0:
160,240,277397,1,0,0:0:0:0:
96,240,277483,1,2,0:0:0:0:
224,192,277653,1,2,3:0:0:0:
96,144,277823,1,8,0:0:0:0:
336,144,277994,1,0,0:0:0:0:
400,192,278079,1,0,0:0:0:0:
208,240,278164,5,4,2:0:0:0:
128,192,278335,1,0,0:0:0:0:
368,192,278505,1,8,0:0:0:0:
368,240,278676,1,0,0:0:0:0:
312,240,278761,1,0,0:0:0:0:
256,240,278846,1,2,0:0:0:0:
400,272,279017,1,2,3:0:0:0:
144,240,279187,1,8,0:0:0:0:
144,192,279358,1,0,0:0:0:0:
288,192,279528,6,0,P|336:176|352:128,1,100,2|0,3:0|0:0,0:0:0:0:
96,144,279869,1,8,0:0:0:0:
80,80,280039,1,0,0:0:0:0:
128,80,280125,1,0,0:0:0:0:
192,80,280210,1,2,0:0:0:0:
96,144,280380,1,2,3:0:0:0:
336,128,280551,1,8,0:0:0:0:
336,176,280721,1,0,0:0:0:0:
176,208,280892,5,2,3:0:0:0:
96,192,281062,1,0,0:0:0:0:
256,224,281233,1,8,0:0:0:0:
144,288,281403,1,0,0:0:0:0:
200,288,281488,1,0,0:0:0:0:
256,288,281573,1,2,0:0:0:0:
144,240,281744,1,2,3:0:0:0:
376,224,281914,1,8,0:0:0:0:
376,160,282085,1,0,0:0:0:0:
256,160,282255,5,2,3:0:0:0:
224,96,282426,1,0,0:0:0:0:
384,96,282596,1,8,0:0:0:0:
256,32,282767,2,0,L|208:48,1,50
352,96,282937,1,8,0:0:0:0:
448,128,283108,2,0,L|400:144,1,50,2|0,3:3|0:0,0:0:0:0:
192,192,283278,1,8,0:0:0:0:
96,192,283448,1,0,0:0:0:0:
144,192,283534,1,0,0:0:0:0:
360,200,283619,6,0,P|407:177|400:136,1,100,4|0,0:0|0:0,0:0:0:0:
272,128,283960,2,0,P|225:151|232:192,1,100,8|0,0:0|0:0,0:0:0:0:
488,144,284301,1,4,0:0:0:0:
272,192,284641,1,8,0:0:0:0:
384,160,284812,1,0,0:0:0:0:
144,160,284982,6,0,P|96:144|72:104,1,100,4|0,0:0|0:0,0:0:0:0:
224,144,285323,2,0,P|272:128|296:88,1,100,8|0,0:0|0:0,0:0:0:0:
48,112,285664,2,0,P|8:144|0:192,1,100,4|0,0:0|0:0,0:0:0:0:
184,264,286005,2,0,P|240:192|216:152,1,150,8|0,0:0|0:0,0:0:0:0:
48,112,286346,5,4,0:0:0:0:
256,288,286687,1,8,0:0:0:0:
32,192,287028,1,4,0:0:0:0:
224,192,287369,1,8,0:0:0:0:
288,192,287539,1,0,0:0:0:0:
48,192,287710,5,4,0:0:0:0:
32,256,287880,1,0,0:0:0:0:
208,256,288051,1,8,0:0:0:0:
224,320,288221,1,0,0:0:0:0:
464,256,288392,1,4,0:0:0:0:
480,320,288562,1,0,0:0:0:0:
240,320,288733,2,0,P|176:248|192:208,1,150,8|0,0:0|0:0,0:0:0:0:
424,56,289073,6,0,L|352:128,1,100,4|0,2:0|0:0,0:0:0:0:
448,128,289414,1,2,0:0:0:0:
320,160,289585,2,0,L|408:112,1,100,8|0,2:2|0:0,0:0:0:0:
288,192,289926,1,2,0:0:0:0:
48,128,290096,2,0,L|136:176,1,100,4|0,2:2|0:0,0:0:0:0:
32,192,290437,1,2,0:0:0:0:
184,240,290607,2,0,L|136:152,1,100,8|0,2:2|0:0,0:0:0:0:
256,120,290948,1,2,0:0:0:0:
16,192,291119,5,4,2:0:0:0:
160,192,291289,1,0,0:0:0:0:
16,128,291460,1,4,2:0:0:0:
160,128,291630,1,0,0:0:0:0:
16,64,291801,6,0,P|64:80|88:120,2,100,0|2|2,2:0|0:0|0:0,0:0:0:0:
256,192,292312,2,0,P|208:176|184:136,2,100,8|2|2,2:0|0:0|0:0,0:0:0:0:
16,192,292823,2,0,P|64:176|88:136,2,100,4|2|2,2:0|0:0|0:0,0:0:0:0:
256,120,293335,1,8,2:0:0:0:
200,192,293505,1,2,0:0:0:0:
312,192,293676,1,2,0:0:0:0:
200,192,293846,6,0,L|168:152,1,50,2|0,0:0|0:0,0:0:0:0:
312,128,294017,2,0,L|360:112,1,50,2|0,0:0|0:0,0:0:0:0:
200,112,294187,2,0,L|152:96,1,50,2|0,0:0|0:0,0:0:0:0:
328,96,294358,2,0,L|360:56,1,50,2|0,0:0|0:0,0:0:0:0:
200,48,294528,5,4,0:0:0:0:
160,160,294698,1,2,0:0:0:0:
400,192,294869,1,8,0:0:0:0:
312,272,295039,2,0,L|400:224,1,100,2|0,0:0|0:0,0:0:0:0:
256,192,295380,2,0,L|352:160,2,100,2|8|0,3:3|0:0|0:0,0:0:0:0:
496,192,295892,5,2,3:0:0:0:
256,144,296233,1,8,0:0:0:0:
368,192,296403,1,0,0:0:0:0:
312,192,296488,1,0,0:0:0:0:
256,192,296573,1,2,0:0:0:0:
368,128,296744,1,2,3:0:0:0:
128,128,296914,2,0,P|144:80|192:64,1,100,8|0,0:0|0:0,0:0:0:0:
464,96,297255,6,0,L|370:128,1,100,2|0,3:3|0:0,0:0:0:0:
464,192,297596,1,8,0:0:0:0:
224,240,297767,2,0,L|400:144,1,200,2|2,0:0|3:3,0:0:0:0:
312,192,298278,1,8,0:0:0:0:
400,240,298448,2,0,L|224:336,1,200,2|0,0:0|0:0,0:0:0:0:
312,288,298960,1,8,0:0:0:0:
224,192,299130,1,0,0:0:0:0:
288,192,299215,1,0,0:0:0:0:
352,192,299301,1,2,0:0:0:0:
447,184,299471,2,0,L|352:215,2,100,2|8|0,3:3|0:0|0:0,0:0:0:0:
208,192,299983,6,0,L|384:96,1,200,4|8,0:0|0:0,0:0:0:0:
208,176,300494,1,0,0:0:0:0:
272,240,300664,1,2,0:0:0:0:
176,240,300835,1,2,3:0:0:0:
248,288,301005,1,8,0:0:0:0:
120,288,301176,1,0,0:0:0:0:
368,288,301346,6,0,P|384:240|360:200,1,100,2|0,3:0|0:0,0:0:0:0:
224,192,301687,1,8,0:0:0:0:
240,144,301858,1,0,0:0:0:0:
352,96,302028,2,0,P|304:80|256:96,2,100,2|2|8,0:0|3:0|0:0,0:0:0:0:
224,192,302539,1,0,0:0:0:0:
464,192,302710,6,0,P|408:272|312:288,1,200,2|8,3:3|0:0,0:0:0:0:
408,272,303221,1,0,0:0:0:0:
256,144,303392,1,2,0:0:0:0:
352,112,303562,1,0,0:0:0:0:
448,80,303733,1,8,0:0:0:0:
192,144,304073,6,0,P|145:129|119:87,1,100,2|0,3:0|0:0,0:0:0:0:
224,64,304414,1,8,0:0:0:0:
112,112,304585,1,0,0:0:0:0:
168,112,304670,1,0,0:0:0:0:
224,112,304755,1,2,0:0:0:0:
128,192,304926,1,2,3:0:0:0:
384,192,305096,1,8,0:0:0:0:
272,192,305267,1,0,0:0:0:0:
240,256,305352,1,0,0:0:0:0:
384,256,305437,5,4,0:0:0:0:
464,256,305608,1,2,0:0:0:0:
384,256,305778,1,8,0:0:0:0:
480,208,305948,1,0,0:0:0:0:
352,208,306119,1,2,0:0:0:0:
224,208,306289,1,2,3:0:0:0:
464,256,306460,1,8,0:0:0:0:
480,192,306630,1,0,0:0:0:0:
208,144,306801,5,2,3:0:0:0:
384,176,307142,1,8,0:0:0:0:
272,224,307312,1,0,0:0:0:0:
328,224,307397,1,0,0:0:0:0:
384,224,307483,1,2,0:0:0:0:
256,176,307653,1,2,3:0:0:0:
496,208,307823,1,8,0:0:0:0:
496,128,307994,1,0,0:0:0:0:
256,112,308164,5,2,3:0:0:0:
176,112,308335,1,0,0:0:0:0:
336,112,308505,1,8,0:0:0:0:
336,272,308676,1,0,0:0:0:0:
208,352,308846,1,2,0:0:0:0:
264,352,308931,1,0,0:0:0:0:
320,352,309017,1,2,3:0:0:0:
176,352,309187,1,8,0:0:0:0:
160,288,309358,1,0,0:0:0:0:
304,272,309528,5,2,3:0:0:0:
224,192,309698,1,0,0:0:0:0:
464,192,309869,1,8,0:0:0:0:
352,160,310039,1,0,0:0:0:0:
408,160,310125,1,0,0:0:0:0:
464,160,310210,1,2,0:0:0:0:
352,224,310380,1,2,3:0:0:0:
464,224,310551,1,8,0:0:0:0:
352,288,310721,1,0,0:0:0:0:
96,288,310892,5,2,3:0:0:0:
80,224,311062,1,0,0:0:0:0:
336,320,311233,1,8,0:0:0:0:
224,320,311403,1,2,0:0:0:0:
352,272,311573,1,2,0:0:0:0:
240,272,311744,1,2,3:0:0:0:
368,224,311914,1,8,0:0:0:0:
256,224,312085,1,0,0:0:0:0:
384,128,312255,6,0,P|432:112|448:64,1,100,2|0,3:0|0:0,0:0:0:0:
288,48,312596,1,8,0:0:0:0:
400,64,312767,1,0,0:0:0:0:
344,64,312852,1,0,0:0:0:0:
288,64,312937,2,0,P|336:80|384:80,1,100,2|2,0:0|3:0,0:0:0:0:
256,96,313278,1,8,0:0:0:0:
112,112,313448,1,2,0:0:0:0:
400,112,313619,5,4,0:0:0:0:
256,240,313960,1,8,0:0:0:0:
304,192,314130,1,0,0:0:0:0:
192,160,314301,1,2,0:0:0:0:
320,112,314471,1,2,3:0:0:0:
64,208,314642,1,8,0:0:0:0:
256,192,314983,12,8,316005,0:0:0:0:
256,192,316346,5,4,0:0:0:0:
128,192,316687,1,8,0:0:0:0:
224,192,316858,1,0,0:0:0:0:
208,144,316943,1,0,0:0:0:0:
144,144,317028,1,2,0:0:0:0:
96,96,317198,1,2,3:0:0:0:
256,48,317369,1,8,0:0:0:0:
240,96,317539,1,0,0:0:0:0:
192,96,317625,1,0,0:0:0:0:
128,96,317710,5,2,3:0:0:0:
80,160,317880,1,0,0:0:0:0:
352,96,318051,1,8,0:0:0:0:
256,96,318221,1,0,0:0:0:0:
304,96,318306,1,0,0:0:0:0:
352,96,318392,1,2,0:0:0:0:
280,136,318562,1,2,3:0:0:0:
384,136,318733,2,0,P|431:144|454:187,1,100,8|0,0:0|0:0,0:0:0:0:
160,96,319073,5,2,3:0:0:0:
96,96,319244,1,0,0:0:0:0:
256,96,319414,1,8,0:0:0:0:
256,160,319585,1,0,0:0:0:0:
144,160,319755,1,2,0:0:0:0:
96,160,319926,1,2,3:0:0:0:
384,224,320096,5,8,0:0:0:0:
448,192,320181,1,0,0:0:0:0:
480,128,320267,1,0,0:0:0:0:
448,64,320352,1,0,0:0:0:0:
288,48,320437,6,0,L|200:96,1,100,2|0,3:3|0:0,0:0:0:0:
288,112,320778,1,8,0:0:0:0:
192,144,320948,1,0,0:0:0:0:
248,144,321034,1,0,0:0:0:0:
304,144,321119,1,2,0:0:0:0:
192,208,321289,1,2,3:0:0:0:
336,224,321460,1,8,0:0:0:0:
176,224,321801,5,2,3:0:0:0:
176,192,321971,1,0,0:0:0:0:
336,184,322142,1,8,0:0:0:0:
368,120,322312,1,0,0:0:0:0:
312,120,322397,1,0,0:0:0:0:
256,120,322483,1,2,0:0:0:0:
176,240,322653,1,2,3:0:0:0:
416,272,322823,1,8,0:0:0:0:
416,208,322994,1,0,0:0:0:0:
256,312,323164,6,0,P|208:296|184:256,1,100,2|0,3:0|0:0,0:0:0:0:
448,272,323505,1,8,0:0:0:0:
336,224,323676,1,0,0:0:0:0:
392,224,323761,1,0,0:0:0:0:
448,224,323846,1,2,0:0:0:0:
352,160,324017,1,2,3:0:0:0:
496,192,324187,2,0,L|464:96,1,100,8|0,0:0|0:0,0:0:0:0:
224,192,324528,6,0,B|176:176|176:176|224:192,1,100,2|0,3:0|0:0,0:0:0:0:
496,192,324869,1,8,0:0:0:0:
384,176,325039,1,0,0:0:0:0:
440,176,325125,1,0,0:0:0:0:
496,176,325210,1,2,0:0:0:0:
384,64,325380,1,2,3:0:0:0:
127,131,325551,2,0,P|128:80|168:56,1,100,8|0,0:0|0:0,0:0:0:0:
256,192,325892,6,0,P|237:147|191:132,1,100,2|0,3:0|0:0,0:0:0:0:
432,192,326233,1,8,0:0:0:0:
288,192,326403,2,0,L|232:192,2,50,0|0|2,0:0|0:0|0:0,0:0:0:0:
416,240,326744,1,2,3:0:0:0:
256,240,326914,2,0,P|208:224|184:184,1,100,8|0,0:0|0:0,0:0:0:0:
432,176,327255,5,4,0:0:0:0:
480,112,327426,1,0,0:0:0:0:
336,112,327596,1,8,0:0:0:0:
352,48,327767,1,0,0:0:0:0:
80,176,327937,5,4,0:0:0:0:
32,112,328108,1,0,0:0:0:0:
176,112,328278,1,8,0:0:0:0:
160,48,328449,1,0,0:0:0:0:
480,192,328619,5,4,0:0:0:0:
464,128,328789,1,0,0:0:0:0:
320,128,328960,1,8,0:0:0:0:
304,64,329130,1,0,0:0:0:0:
32,192,329301,5,4,0:0:0:0:
48,128,329471,1,0,0:0:0:0:
192,128,329642,1,8,0:0:0:0:
208,64,329812,1,0,0:0:0:0:
464,64,329983,5,4,0:0:0:0:
480,96,330153,1,0,0:0:0:0:
336,144,330323,1,8,0:0:0:0:
368,192,330494,1,0,0:0:0:0:
48,64,330664,5,4,0:0:0:0:
32,96,330834,1,0,0:0:0:0:
176,144,331004,1,8,0:0:0:0:
144,192,331175,1,0,0:0:0:0:
480,32,331346,5,4,0:0:0:0:
480,96,331517,1,0,0:0:0:0:
336,96,331687,1,8,0:0:0:0:
336,160,331858,1,0,0:0:0:0:
32,160,332028,5,4,0:0:0:0:
32,224,332199,1,0,0:0:0:0:
176,224,332369,1,8,0:0:0:0:
176,288,332540,1,0,0:0:0:0:
416,192,332710,5,4,0:0:0:0:
480,160,332880,1,0,0:0:0:0:
352,128,333051,1,8,0:0:0:0:
416,96,333221,1,0,0:0:0:0:
96,192,333392,5,4,0:0:0:0:
32,160,333562,1,0,0:0:0:0:
160,128,333733,1,8,0:0:0:0:
96,96,333903,1,0,0:0:0:0:
400,192,334073,5,4,0:0:0:0:
448,256,334244,1,0,0:0:0:0:
336,256,334414,1,8,0:0:0:0:
464,320,334585,1,0,0:0:0:0:
112,192,334755,5,4,0:0:0:0:
64,256,334926,1,0,0:0:0:0:
176,256,335096,1,8,0:0:0:0:
48,320,335267,1,0,0:0:0:0:
320,256,335437,5,4,0:0:0:0:
384,256,335522,1,0,3:0:0:0:
432,256,335608,1,0,3:0:0:0:
448,256,335693,1,0,3:0:0:0:
192,128,335778,5,2,3:0:0:0:
128,128,335863,1,0,3:0:0:0:
80,128,335948,1,0,3:0:0:0:
64,128,336034,1,0,3:0:0:0:
320,192,336119,5,2,0:0:0:0:
352,192,336204,1,2,0:0:0:0:
192,128,336289,1,2,0:0:0:0:
144,128,336375,1,2,0:0:0:0:
352,64,336460,5,2,0:0:0:0:
368,128,336545,1,2,0:0:0:0:
160,64,336630,1,2,0:0:0:0:
144,128,336716,1,2,0:0:0:0:
392,192,336801,5,4,0:0:0:0:
400,256,336971,1,0,0:0:0:0:
120,192,337142,1,8,0:0:0:0:
112,256,337312,1,0,0:0:0:0:
480,192,337483,2,0,L|360:192,1,119.999996337891,4|0,0:0|0:0,0:0:0:0:
96,192,337823,2,0,P|224:136|368:112,1,286.000003927612,8|0,0:0|0:0,0:0:0:0:
240,144,338505,5,0,0:0:0:0:
368,112,338846,1,0,0:0:0:0:
272,80,339187,1,0,0:0:0:0:
352,32,339358,1,2,0:0:0:0:
344,64,339443,1,2,0:0:0:0:
304,96,339507,1,2,0:0:0:0:
240,112,339571,1,2,0:0:0:0:
