osu file format v14

[General]
AudioFilename: Paranoid Lost.mp3
AudioLeadIn: 0
PreviewTime: 251108
Countdown: 1
SampleSet: Normal
StackLeniency: 0.7
Mode: 1
LetterboxInBreaks: 0
WidescreenStoryboard: 0

[Editor]
Bookmarks: 350,43986,109440,196713,218531,251259,294895,316713
DistanceSpacing: 1.5
BeatDivisor: 4
GridSize: 32
TimelineZoom: 1.5

[Metadata]
Title:Paranoid Lost
TitleUnicode:Paranoid Lost
Artist:Halozy
ArtistUnicode:Halozy
Creator:Kin
Version:Autumn
Source:東方風神録 ~ Mountain of Faith.
Tags:Greenshell Fuujinroku 東方Project Shizuha 秋静葉 秋穣子 Minoriko Aki Tonic Triangle HLZY-0011 Touhou th10 Stage 1 Boss 稲田姫様に叱られるから Because Princess Inada is Scolding Me 美里 Misato Misty ZUN Team Shanghai Alice 上海アリス幻樂団 C81 すみじゅん sumijun DnB Drum and Bass
BeatmapID:1447507
BeatmapSetID:683947

[Difficulty]
HPDrainRate:5
CircleSize:2
OverallDifficulty:6
ApproachRate:5
SliderMultiplier:1.4
SliderTickRate:1

[Events]
//Background and Video events
0,0,"Akis.jpg",0,0
//Break Periods
2,6019,10074
//Storyboard Layer 0 (Background)
//Storyboard Layer 1 (Fail)
//Storyboard Layer 2 (Pass)
//Storyboard Layer 3 (Foreground)
//Storyboard Sound Samples

[TimingPoints]
365,340.909090909091,4,1,0,80,1,0
705,-100,4,1,0,75,0,8
1046,-100,4,1,0,70,0,8
1387,-100,4,1,0,65,0,8
1728,-111.111111111111,4,1,0,60,0,8
2069,-111.111111111111,4,1,0,55,0,8
2410,-111.111111111111,4,1,0,50,0,8
2751,-111.111111111111,4,1,0,45,0,8
3092,-125,4,1,0,40,0,8
3433,-125,4,1,0,35,0,8
3774,-125,4,1,0,30,0,8
4115,-125,4,1,0,25,0,8
4455,-142.857142857143,4,1,0,20,0,8
4796,-142.857142857143,4,1,0,15,0,8
5137,-142.857142857143,4,1,0,10,0,8
5478,-142.857142857143,4,1,0,5,0,8
5819,-166.666666666667,4,1,0,50,0,8
7179,-200,4,1,0,50,0,8
22183,-133.333333333333,4,1,0,60,0,8
27296,-123.076923076923,4,1,0,60,0,8
27467,-118.518518518519,4,1,0,60,0,8
27637,-114.285714285714,4,1,0,60,0,8
32751,-106.666666666667,4,1,0,60,0,8
32921,-103.225806451613,4,1,0,65,0,8
33092,-100,4,1,0,70,0,8
38205,-95.2380952380952,4,1,0,70,0,8
38376,-93.0232558139535,4,1,0,75,0,8
38546,-90.9090909090909,4,1,0,80,0,8
42978,-100,4,1,0,70,0,8
43319,-92.5925925925926,4,1,0,80,0,8
43490,-86.2068965517241,4,1,0,80,0,8
43660,-80.6451612903226,4,1,0,80,0,8
44001,-100,4,1,0,80,0,8
87722,-133.333333333333,4,1,0,60,0,8
98546,-100,4,1,0,80,0,8
103660,-95.2380952380952,4,1,0,80,0,8
104001,-90.9090909090909,4,1,0,60,0,8
108347,-100,4,1,0,70,0,8
108688,-92.5925925925926,4,1,0,80,0,8
108859,-86.2068965517241,4,1,0,80,0,8
109029,-80.6451612903226,4,1,0,80,0,8
109455,-90.9090909090909,4,1,0,80,0,9
152495,-91.9540229885057,4,1,0,80,0,9
152580,-93.0232558139535,4,1,0,80,0,9
152666,-94.1176470588235,4,1,0,80,0,9
152751,-95.2380952380952,4,1,0,80,0,9
152836,-96.3855421686747,4,1,0,80,0,9
152921,-97.5609756097561,4,1,0,80,0,9
153007,-98.7654320987654,4,1,0,80,0,9
153092,-100,4,1,0,80,0,8
196813,-133.333333333333,4,1,0,60,0,8
207637,-100,4,1,0,80,0,8
212751,-95.2380952380952,4,1,0,80,0,8
213092,-90.9090909090909,4,1,0,80,0,8
217438,-100,4,1,0,70,0,8
217779,-92.5925925925926,4,1,0,80,0,8
217950,-86.2068965517241,4,1,0,80,0,8
218120,-80.6451612903226,4,1,0,80,0,8
218546,-100,4,1,0,80,0,8
219058,-110.344827586207,4,1,0,60,0,8
219228,-114.285714285714,4,1,0,60,0,8
219399,-118.518518518519,4,1,0,60,0,8
219569,-123.076923076923,4,1,0,60,0,8
219740,-128,4,1,0,60,0,8
219910,-133.333333333333,4,1,0,60,0,8
229115,-114.285714285714,4,1,0,60,0,8
229285,-106.666666666667,4,1,0,60,0,8
229455,-100,4,1,0,80,0,8
245478,-95.2380952380952,4,1,0,80,0,8
245649,-93.0232558139535,4,1,0,80,0,8
245819,-90.9090909090909,4,1,0,80,0,8
250166,-100,4,1,0,70,0,8
250507,-92.5925925925926,4,1,0,80,0,8
250678,-86.2068965517241,4,1,0,80,0,8
250848,-80.6451612903226,4,1,0,80,0,8
251274,-90.9090909090909,4,1,0,80,0,9
294271,-91.9540229885057,4,1,0,80,0,9
294356,-93.0232558139535,4,1,0,80,0,9
294442,-94.1176470588235,4,1,0,80,0,9
294527,-95.2380952380952,4,1,0,80,0,9
294612,-96.3855421686747,4,1,0,80,0,9
294697,-97.5609756097561,4,1,0,80,0,9
294910,-100,4,1,0,80,0,8
332751,-95.2380952380952,4,1,0,80,0,8
332921,-93.0232558139535,4,1,0,80,0,8
333092,-90.9090909090909,4,1,0,80,0,8
337524,-100,4,1,0,80,0,8
337865,-90.9090909090909,4,1,0,80,0,8
338035,-83.3333333333333,4,1,0,80,0,8
338205,-76.9230769230769,4,1,0,80,0,8
338546,-90.9090909090909,4,1,0,80,0,8
338887,-99.9999999999999,4,1,0,60,0,8
339228,-111.111111111111,4,1,0,40,0,8
339569,-125,4,1,0,20,0,8
339757,472.44094488189,4,1,0,30,1,8
339757,-90.1988975890737,4,1,0,30,0,8

[HitObjects]
256,192,365,5,4,0:0:0:0:
256,192,535,8,0,5819,0:0:0:0:
224,160,11274,5,0,0:0:0:0:
224,160,14001,1,0,0:0:0:0:
224,160,16728,1,0,0:0:0:0:
224,160,19455,1,0,0:0:0:0:
256,192,20819,8,0,22012,0:0:0:0:
224,224,22183,5,4,0:0:0:0:
224,160,22694,1,0,0:0:0:0:
224,160,23205,1,0,0:0:0:0:
224,160,23717,1,0,0:0:0:0:
224,160,24228,1,0,0:0:0:0:
224,160,24569,1,0,0:0:0:0:
224,160,24740,1,0,0:0:0:0:
288,160,24910,1,8,0:0:0:0:
288,160,25421,1,8,0:0:0:0:
288,160,25933,1,8,0:0:0:0:
288,160,26444,1,8,0:0:0:0:
288,160,26955,1,8,0:0:0:0:
288,160,27296,1,8,0:0:0:0:
288,160,27467,1,8,0:0:0:0:
224,160,27637,1,0,0:0:0:0:
224,160,27978,1,0,0:0:0:0:
224,160,28149,1,0,0:0:0:0:
288,160,28490,1,8,0:0:0:0:
288,160,28660,1,8,0:0:0:0:
224,160,29001,1,0,0:0:0:0:
288,160,29171,1,8,0:0:0:0:
288,160,29512,1,8,0:0:0:0:
224,160,29683,1,0,0:0:0:0:
224,160,30024,1,0,0:0:0:0:
224,160,30194,1,0,0:0:0:0:
288,160,30365,1,8,0:0:0:0:
288,160,30705,1,8,0:0:0:0:
288,160,30876,1,8,0:0:0:0:
224,160,31217,1,0,0:0:0:0:
224,160,31387,1,0,0:0:0:0:
288,160,31728,1,8,0:0:0:0:
224,160,31899,1,0,0:0:0:0:
224,160,32240,1,0,0:0:0:0:
288,160,32410,1,8,0:0:0:0:
288,160,32751,1,8,0:0:0:0:
288,160,32921,1,8,0:0:0:0:
224,224,33092,1,4,0:0:0:0:
224,160,33433,1,0,0:0:0:0:
224,224,33774,1,4,0:0:0:0:
224,160,34115,1,0,0:0:0:0:
224,224,34455,1,4,0:0:0:0:
224,160,34796,1,0,0:0:0:0:
224,224,35137,1,4,0:0:0:0:
224,160,35478,1,0,0:0:0:0:
224,160,35649,1,0,0:0:0:0:
288,224,35819,1,12,0:0:0:0:
288,160,36160,1,8,0:0:0:0:
288,224,36501,1,12,0:0:0:0:
288,160,36842,1,8,0:0:0:0:
288,224,37183,1,12,0:0:0:0:
288,160,37524,1,8,0:0:0:0:
288,224,37865,1,12,0:0:0:0:
288,160,38205,1,8,0:0:0:0:
288,160,38376,1,8,0:0:0:0:
224,224,38546,1,4,0:0:0:0:
288,160,38717,1,8,0:0:0:0:
224,160,38887,1,0,0:0:0:0:
224,160,38972,1,0,0:0:0:0:
224,160,39058,1,8,0:0:0:0:
224,224,39228,1,4,0:0:0:0:
288,160,39399,1,8,0:0:0:0:
288,160,39484,1,8,0:0:0:0:
224,160,39569,1,0,0:0:0:0:
288,160,39740,1,8,0:0:0:0:
224,224,39910,1,4,0:0:0:0:
288,160,40080,1,8,0:0:0:0:
224,160,40251,1,0,0:0:0:0:
224,160,40336,1,0,0:0:0:0:
288,160,40421,1,8,0:0:0:0:
224,160,40592,1,4,0:0:0:0:
288,160,40762,1,8,0:0:0:0:
288,160,40847,1,8,0:0:0:0:
224,160,40933,1,0,0:0:0:0:
224,160,41018,1,0,0:0:0:0:
288,160,41103,1,8,0:0:0:0:
288,160,41274,1,8,0:0:0:0:
288,160,41359,1,8,0:0:0:0:
224,160,41444,1,0,0:0:0:0:
224,160,41529,1,0,0:0:0:0:
288,160,41615,1,8,0:0:0:0:
224,160,41700,1,0,0:0:0:0:
288,160,41785,1,8,0:0:0:0:
288,160,41870,1,8,0:0:0:0:
224,160,41955,1,0,0:0:0:0:
224,160,42041,1,0,0:0:0:0:
288,160,42126,1,8,0:0:0:0:
224,160,42211,1,0,0:0:0:0:
288,160,42296,1,8,0:0:0:0:
288,160,42382,1,8,0:0:0:0:
288,160,42467,1,8,0:0:0:0:
288,160,42552,1,8,0:0:0:0:
224,160,42637,1,0,0:0:0:0:
288,160,42978,1,8,0:0:0:0:
288,160,43149,1,8,0:0:0:0:
224,224,43319,1,4,0:0:0:0:
224,160,43490,1,0,0:0:0:0:
288,224,43660,1,12,0:0:0:0:
256,192,44001,1,4,0:0:0:0:
256,192,44171,1,0,0:0:0:0:
256,192,44257,1,0,0:0:0:0:
256,192,44342,1,0,0:0:0:0:
256,192,44512,1,8,0:0:0:0:
256,192,44683,1,0,0:0:0:0:
256,192,44768,1,0,0:0:0:0:
256,192,44853,1,0,0:0:0:0:
256,192,45024,1,8,0:0:0:0:
256,192,45194,1,0,0:0:0:0:
256,192,45279,1,0,0:0:0:0:
256,192,45365,1,0,0:0:0:0:
256,192,45535,1,8,0:0:0:0:
256,192,45705,1,0,0:0:0:0:
256,192,45876,1,0,0:0:0:0:
256,192,46046,1,8,0:0:0:0:
256,192,46217,1,0,0:0:0:0:
256,192,46302,1,0,0:0:0:0:
256,192,46387,1,8,0:0:0:0:
256,192,46558,1,0,0:0:0:0:
256,192,46728,1,8,0:0:0:0:
256,192,47069,1,0,0:0:0:0:
256,192,47240,1,8,0:0:0:0:
256,192,47410,1,0,0:0:0:0:
256,192,47580,1,0,0:0:0:0:
256,192,47666,1,0,0:0:0:0:
256,192,47751,1,8,0:0:0:0:
256,192,47921,1,0,0:0:0:0:
256,192,48007,1,0,0:0:0:0:
256,192,48092,1,0,0:0:0:0:
256,192,48262,1,8,0:0:0:0:
256,192,48433,1,0,0:0:0:0:
256,192,48603,1,0,0:0:0:0:
256,192,48774,1,8,0:0:0:0:
256,192,48859,1,8,0:0:0:0:
256,192,48944,1,0,0:0:0:0:
256,192,49029,1,0,0:0:0:0:
256,192,49115,1,8,0:0:0:0:
256,192,49285,1,0,0:0:0:0:
256,192,49455,1,8,0:0:0:0:
256,192,49796,1,0,0:0:0:0:
256,192,49967,1,8,0:0:0:0:
256,192,50137,1,0,0:0:0:0:
256,192,50222,1,0,0:0:0:0:
256,192,50308,1,0,0:0:0:0:
256,192,50478,1,8,0:0:0:0:
256,192,50649,1,0,0:0:0:0:
256,192,50819,1,0,0:0:0:0:
256,192,50990,1,8,0:0:0:0:
256,192,51160,1,8,0:0:0:0:
256,192,51330,1,0,0:0:0:0:
256,192,51416,1,0,0:0:0:0:
256,192,51501,1,8,0:0:0:0:
256,192,51671,1,0,0:0:0:0:
256,192,51757,1,0,0:0:0:0:
256,192,51842,1,8,0:0:0:0:
256,192,52012,1,0,0:0:0:0:
256,192,52183,1,8,0:0:0:0:
256,192,52524,1,8,0:0:0:0:
256,192,52694,1,8,0:0:0:0:
256,192,52865,1,0,0:0:0:0:
256,192,52950,1,0,0:0:0:0:
256,192,53035,1,0,0:0:0:0:
256,192,53205,1,8,0:0:0:0:
256,192,53376,1,0,0:0:0:0:
256,192,53461,1,0,0:0:0:0:
256,192,53546,1,0,0:0:0:0:
256,192,53717,1,8,0:0:0:0:
256,192,53887,1,8,0:0:0:0:
256,192,54058,1,0,0:0:0:0:
256,192,54143,1,0,0:0:0:0:
256,192,54228,1,8,0:0:0:0:
256,192,54399,1,0,0:0:0:0:
256,192,54484,1,0,0:0:0:0:
256,192,54569,1,8,0:0:0:0:
256,192,54740,1,8,0:0:0:0:
256,192,54910,1,4,0:0:0:0:
256,192,55251,1,0,0:0:0:0:
256,192,55421,1,8,0:0:0:0:
256,192,55592,1,0,0:0:0:0:
256,192,55677,1,0,0:0:0:0:
256,192,55762,1,0,0:0:0:0:
256,192,55933,1,8,0:0:0:0:
256,192,56103,1,0,0:0:0:0:
256,192,56274,1,0,0:0:0:0:
256,192,56444,1,8,0:0:0:0:
256,192,56529,1,8,0:0:0:0:
256,192,56615,1,0,0:0:0:0:
256,192,56785,1,0,0:0:0:0:
256,192,56955,1,8,0:0:0:0:
256,192,57126,1,0,0:0:0:0:
256,192,57211,1,0,0:0:0:0:
256,192,57296,1,8,0:0:0:0:
256,192,57382,1,8,0:0:0:0:
256,192,57467,1,0,0:0:0:0:
256,192,57637,1,8,0:0:0:0:
256,192,57978,1,0,0:0:0:0:
256,192,58149,1,8,0:0:0:0:
256,192,58319,1,0,0:0:0:0:
256,192,58404,1,0,0:0:0:0:
256,192,58490,1,0,0:0:0:0:
256,192,58660,1,8,0:0:0:0:
256,192,58830,1,0,0:0:0:0:
256,192,58916,1,0,0:0:0:0:
256,192,59001,1,0,0:0:0:0:
256,192,59171,1,8,0:0:0:0:
256,192,59342,1,0,0:0:0:0:
256,192,59512,1,0,0:0:0:0:
256,192,59683,1,8,0:0:0:0:
256,192,59768,1,8,0:0:0:0:
256,192,59853,1,0,0:0:0:0:
256,192,60024,1,8,0:0:0:0:
256,192,60109,1,8,0:0:0:0:
256,192,60194,1,0,0:0:0:0:
256,192,60365,1,8,0:0:0:0:
256,192,60705,1,8,0:0:0:0:
256,192,60876,1,8,0:0:0:0:
256,192,61046,1,0,0:0:0:0:
256,192,61132,1,0,0:0:0:0:
256,192,61217,1,0,0:0:0:0:
256,192,61387,1,8,0:0:0:0:
256,192,61558,1,0,0:0:0:0:
256,192,61728,1,0,0:0:0:0:
256,192,61899,1,8,0:0:0:0:
256,192,61984,1,8,0:0:0:0:
256,192,62069,1,0,0:0:0:0:
256,192,62240,1,0,0:0:0:0:
256,192,62410,1,8,0:0:0:0:
256,192,62495,1,8,0:0:0:0:
256,192,62580,1,0,0:0:0:0:
256,192,62666,1,0,0:0:0:0:
256,192,62751,1,8,0:0:0:0:
256,192,62921,1,0,0:0:0:0:
256,192,63092,1,8,0:0:0:0:
256,192,63433,1,0,0:0:0:0:
256,192,63603,1,8,0:0:0:0:
256,192,63774,1,8,0:0:0:0:
256,192,63944,1,0,0:0:0:0:
256,192,64029,1,0,0:0:0:0:
256,192,64115,1,8,0:0:0:0:
256,192,64285,1,0,0:0:0:0:
256,192,64455,1,0,0:0:0:0:
256,192,64626,1,8,0:0:0:0:
256,192,64796,1,0,0:0:0:0:
256,192,64882,1,0,0:0:0:0:
256,192,64967,1,0,0:0:0:0:
256,192,65052,1,0,0:0:0:0:
256,192,65137,1,8,0:0:0:0:
256,192,65308,1,0,0:0:0:0:
256,192,65478,1,8,0:0:0:0:
256,192,65563,1,8,0:0:0:0:
256,192,65649,1,8,0:0:0:0:
256,192,65819,1,4,0:0:0:0:
256,192,66160,1,8,0:0:0:0:
256,192,66501,1,0,0:0:0:0:
256,192,66671,1,0,0:0:0:0:
256,192,66842,1,8,0:0:0:0:
256,192,67012,1,8,0:0:0:0:
256,192,67183,1,0,0:0:0:0:
256,192,67524,1,8,0:0:0:0:
256,192,67865,1,8,0:0:0:0:
256,192,68035,1,0,0:0:0:0:
256,192,68205,1,8,0:0:0:0:
256,192,68376,1,8,0:0:0:0:
256,192,68546,1,0,0:0:0:0:
256,192,68887,1,8,0:0:0:0:
256,192,69228,1,0,0:0:0:0:
256,192,69569,1,8,0:0:0:0:
256,192,69740,1,8,0:0:0:0:
256,192,69910,1,0,0:0:0:0:
256,192,70251,1,8,0:0:0:0:
256,192,70592,1,0,0:0:0:0:
256,192,70762,1,0,0:0:0:0:
256,192,70933,1,8,0:0:0:0:
256,192,71103,1,0,0:0:0:0:
256,192,71274,1,8,0:0:0:0:
256,192,71615,1,0,0:0:0:0:
256,192,71785,1,8,0:0:0:0:
256,192,72126,1,8,0:0:0:0:
256,192,72296,1,8,0:0:0:0:
256,192,72637,1,0,0:0:0:0:
256,192,72978,1,8,0:0:0:0:
256,192,73149,1,8,0:0:0:0:
256,192,73490,1,0,0:0:0:0:
256,192,73660,1,8,0:0:0:0:
256,192,73830,1,8,0:0:0:0:
256,192,74001,1,0,0:0:0:0:
256,192,74342,1,8,0:0:0:0:
256,192,74512,1,8,0:0:0:0:
256,192,74853,1,8,0:0:0:0:
256,192,75024,1,8,0:0:0:0:
256,192,75194,1,8,0:0:0:0:
256,192,75365,1,0,0:0:0:0:
256,192,75705,1,8,0:0:0:0:
256,192,75876,1,0,0:0:0:0:
256,192,76046,1,8,0:0:0:0:
256,192,76217,1,8,0:0:0:0:
256,192,76387,1,0,0:0:0:0:
256,192,76728,1,4,0:0:0:0:
256,192,77069,1,8,0:0:0:0:
256,192,77240,1,8,0:0:0:0:
256,192,77410,1,0,0:0:0:0:
256,192,77495,1,0,0:0:0:0:
256,192,77580,1,0,0:0:0:0:
256,192,77751,1,8,0:0:0:0:
256,192,77921,1,8,0:0:0:0:
256,192,78092,1,0,0:0:0:0:
256,192,78433,1,8,0:0:0:0:
256,192,78603,1,0,0:0:0:0:
256,192,78774,1,8,0:0:0:0:
256,192,78944,1,8,0:0:0:0:
256,192,79115,1,0,0:0:0:0:
256,192,79455,1,0,0:0:0:0:
256,192,79626,1,0,0:0:0:0:
256,192,79796,1,8,0:0:0:0:
256,192,79967,1,0,0:0:0:0:
256,192,80052,1,0,0:0:0:0:
256,192,80137,1,8,0:0:0:0:
256,192,80308,1,0,0:0:0:0:
256,192,80478,1,8,0:0:0:0:
256,192,80649,1,8,0:0:0:0:
256,192,80819,1,0,0:0:0:0:
256,192,81160,1,8,0:0:0:0:
256,192,81330,1,8,0:0:0:0:
256,192,81501,1,0,0:0:0:0:
256,192,81586,1,0,0:0:0:0:
256,192,81671,1,0,0:0:0:0:
256,192,81842,1,8,0:0:0:0:
256,192,82012,1,0,0:0:0:0:
256,192,82183,1,8,0:0:0:0:
256,192,82524,1,8,0:0:0:0:
256,192,82694,1,8,0:0:0:0:
256,192,83035,1,0,0:0:0:0:
256,192,83205,1,8,0:0:0:0:
256,192,83376,1,8,0:0:0:0:
256,192,83546,1,0,0:0:0:0:
256,192,83887,1,8,0:0:0:0:
256,192,84058,1,8,0:0:0:0:
256,192,84399,1,0,0:0:0:0:
256,192,84569,1,8,0:0:0:0:
256,192,84740,1,8,0:0:0:0:
256,192,84910,1,0,0:0:0:0:
256,192,85251,1,8,0:0:0:0:
256,192,85421,1,8,0:0:0:0:
256,192,85592,1,0,0:0:0:0:
256,192,85677,1,0,0:0:0:0:
256,192,85762,1,0,0:0:0:0:
256,192,85933,1,8,0:0:0:0:
256,192,86103,1,8,0:0:0:0:
256,192,86274,1,0,0:0:0:0:
256,192,86615,1,8,0:0:0:0:
256,192,86785,1,0,0:0:0:0:
256,192,86955,1,8,0:0:0:0:
256,192,87126,1,0,0:0:0:0:
256,192,87211,1,0,0:0:0:0:
256,192,87296,1,8,0:0:0:0:
256,192,87466,1,8,0:0:0:0:
256,192,87637,1,4,0:0:0:0:
256,192,90024,1,8,0:0:0:0:
256,192,90194,1,0,0:0:0:0:
256,192,92410,1,8,0:0:0:0:
256,192,92751,1,8,0:0:0:0:
256,192,93092,1,0,0:0:0:0:
256,192,95478,1,8,0:0:0:0:
256,192,95649,1,8,0:0:0:0:
256,192,96842,1,8,0:0:0:0:
256,192,97012,1,0,0:0:0:0:
256,192,97865,1,8,0:0:0:0:
256,192,98546,1,4,0:0:0:0:
256,192,98887,1,8,0:0:0:0:
256,192,99228,1,4,0:0:0:0:
256,192,99569,1,8,0:0:0:0:
256,192,99740,1,8,0:0:0:0:
256,192,99910,1,4,0:0:0:0:
256,192,100080,1,8,0:0:0:0:
256,192,100421,1,8,0:0:0:0:
256,192,100592,1,4,0:0:0:0:
256,192,100933,1,8,0:0:0:0:
256,192,101274,1,4,0:0:0:0:
256,192,101615,1,8,0:0:0:0:
256,192,101955,1,4,0:0:0:0:
256,192,102296,1,8,0:0:0:0:
256,192,102467,1,8,0:0:0:0:
256,192,102637,1,4,0:0:0:0:
256,192,102808,1,8,0:0:0:0:
256,192,103149,1,8,0:0:0:0:
256,192,103319,1,4,0:0:0:0:
256,192,103660,1,8,0:0:0:0:
256,192,104001,1,4,0:0:0:0:
256,192,104171,1,8,0:0:0:0:
256,192,104342,1,4,0:0:0:0:
256,192,104683,1,4,0:0:0:0:
256,192,104853,1,8,0:0:0:0:
256,192,105024,1,4,0:0:0:0:
256,192,105194,1,8,0:0:0:0:
256,192,105365,1,0,0:0:0:0:
256,192,105450,1,0,0:0:0:0:
256,192,105535,1,8,0:0:0:0:
256,192,105705,1,0,0:0:0:0:
256,192,105876,1,8,0:0:0:0:
256,192,105961,1,8,0:0:0:0:
256,192,106046,1,0,0:0:0:0:
256,192,106132,1,0,0:0:0:0:
256,192,106217,1,8,0:0:0:0:
256,192,106387,1,0,0:0:0:0:
256,192,106558,1,8,0:0:0:0:
256,192,106728,1,0,0:0:0:0:
256,192,106813,1,0,0:0:0:0:
256,192,106899,1,0,0:0:0:0:
256,192,106984,1,0,0:0:0:0:
256,192,107069,1,8,0:0:0:0:
256,192,107154,1,8,0:0:0:0:
256,192,107240,1,0,0:0:0:0:
256,192,107325,1,0,0:0:0:0:
256,192,107410,1,8,0:0:0:0:
256,192,107495,1,0,0:0:0:0:
256,192,107580,1,0,0:0:0:0:
256,192,107666,1,0,0:0:0:0:
256,192,107751,1,8,0:0:0:0:
256,192,107836,1,0,0:0:0:0:
256,192,107921,1,8,0:0:0:0:
256,192,108007,1,8,0:0:0:0:
256,192,108092,1,0,0:0:0:0:
256,192,108433,1,8,0:0:0:0:
256,192,108603,1,8,0:0:0:0:
256,192,108774,1,4,0:0:0:0:
256,192,108944,1,0,0:0:0:0:
256,192,109115,1,14,0:0:0:0:
224,224,109455,1,4,0:0:0:0:
288,160,109796,1,8,0:0:0:0:
224,160,109967,1,0,0:0:0:0:
224,160,110052,1,0,0:0:0:0:
288,160,110137,1,8,0:0:0:0:
224,160,110308,1,0,0:0:0:0:
288,160,110478,1,8,0:0:0:0:
288,160,110649,1,8,0:0:0:0:
224,160,110819,1,0,0:0:0:0:
224,160,110904,1,0,0:0:0:0:
224,160,110990,1,0,0:0:0:0:
224,160,111075,1,0,0:0:0:0:
288,160,111160,1,8,0:0:0:0:
224,160,111330,1,0,0:0:0:0:
224,160,111416,1,0,0:0:0:0:
288,160,111501,1,8,0:0:0:0:
224,160,111671,1,0,0:0:0:0:
288,160,111842,1,8,0:0:0:0:
288,160,112012,1,8,0:0:0:0:
288,160,112097,1,8,0:0:0:0:
224,160,112183,1,0,0:0:0:0:
288,160,112524,1,8,0:0:0:0:
288,160,112694,1,8,0:0:0:0:
288,160,112779,1,8,0:0:0:0:
224,160,112865,1,0,0:0:0:0:
224,160,113035,1,0,0:0:0:0:
224,160,113120,1,0,0:0:0:0:
288,160,113205,1,8,0:0:0:0:
224,160,113376,1,0,0:0:0:0:
288,160,113546,1,8,0:0:0:0:
224,160,113632,1,0,0:0:0:0:
224,160,113717,1,0,0:0:0:0:
224,160,113802,1,0,0:0:0:0:
288,160,113887,1,8,0:0:0:0:
288,160,114058,1,8,0:0:0:0:
288,160,114143,1,8,0:0:0:0:
224,160,114228,1,0,0:0:0:0:
288,160,114399,1,8,0:0:0:0:
288,160,114569,1,8,0:0:0:0:
224,160,114740,1,0,0:0:0:0:
288,160,114910,1,8,0:0:0:0:
224,160,115080,1,0,0:0:0:0:
224,160,115166,1,0,0:0:0:0:
224,160,115251,1,0,0:0:0:0:
288,160,115421,1,8,0:0:0:0:
224,160,115592,1,0,0:0:0:0:
288,160,115677,1,8,0:0:0:0:
224,160,115762,1,0,0:0:0:0:
288,160,115933,1,8,0:0:0:0:
224,160,116103,1,0,0:0:0:0:
224,160,116188,1,0,0:0:0:0:
224,160,116274,1,0,0:0:0:0:
288,160,116444,1,8,0:0:0:0:
224,160,116615,1,0,0:0:0:0:
288,160,116700,1,8,0:0:0:0:
224,160,116785,1,0,0:0:0:0:
288,160,116955,1,8,0:0:0:0:
224,160,117126,1,0,0:0:0:0:
224,160,117211,1,0,0:0:0:0:
288,160,117296,1,8,0:0:0:0:
288,160,117637,1,8,0:0:0:0:
288,160,117808,1,8,0:0:0:0:
288,160,117893,1,8,0:0:0:0:
224,160,117978,1,0,0:0:0:0:
288,160,118149,1,8,0:0:0:0:
288,160,118319,1,8,0:0:0:0:
224,160,118404,1,0,0:0:0:0:
224,160,118490,1,0,0:0:0:0:
288,160,118660,1,8,0:0:0:0:
288,160,118830,1,8,0:0:0:0:
288,160,118916,1,8,0:0:0:0:
224,160,119001,1,0,0:0:0:0:
288,160,119171,1,8,0:0:0:0:
288,160,119342,1,8,0:0:0:0:
224,160,119427,1,0,0:0:0:0:
224,160,119512,1,0,0:0:0:0:
288,160,119683,1,8,0:0:0:0:
224,160,119768,1,0,0:0:0:0:
224,160,119853,1,0,0:0:0:0:
224,160,119938,1,0,0:0:0:0:
288,160,120024,1,8,0:0:0:0:
224,224,120365,1,4,0:0:0:0:
288,160,120705,1,8,0:0:0:0:
224,160,120876,1,0,0:0:0:0:
224,160,120961,1,0,0:0:0:0:
288,160,121046,1,8,0:0:0:0:
224,160,121217,1,0,0:0:0:0:
288,160,121387,1,8,0:0:0:0:
288,160,121558,1,8,0:0:0:0:
288,160,121643,1,8,0:0:0:0:
224,160,121728,1,0,0:0:0:0:
224,160,121813,1,0,0:0:0:0:
224,160,121899,1,0,0:0:0:0:
288,160,122069,1,8,0:0:0:0:
224,160,122240,1,0,0:0:0:0:
288,160,122410,1,8,0:0:0:0:
224,160,122580,1,0,0:0:0:0:
224,160,122666,1,0,0:0:0:0:
288,160,122751,1,8,0:0:0:0:
288,160,122921,1,8,0:0:0:0:
288,160,123007,1,8,0:0:0:0:
224,160,123092,1,0,0:0:0:0:
288,160,123433,1,8,0:0:0:0:
288,160,123603,1,8,0:0:0:0:
288,160,123688,1,8,0:0:0:0:
224,160,123774,1,0,0:0:0:0:
224,160,123859,1,0,0:0:0:0:
288,160,123944,1,8,0:0:0:0:
288,160,124115,1,8,0:0:0:0:
224,160,124285,1,0,0:0:0:0:
224,160,124370,1,0,0:0:0:0:
288,160,124455,1,8,0:0:0:0:
224,160,124541,1,0,0:0:0:0:
224,160,124626,1,0,0:0:0:0:
288,160,124796,1,8,0:0:0:0:
288,160,124967,1,8,0:0:0:0:
288,160,125052,1,8,0:0:0:0:
224,160,125137,1,0,0:0:0:0:
288,160,125308,1,8,0:0:0:0:
288,160,125478,1,8,0:0:0:0:
224,160,125649,1,0,0:0:0:0:
288,160,125819,1,8,0:0:0:0:
288,160,125904,1,8,0:0:0:0:
224,160,125990,1,0,0:0:0:0:
224,160,126160,1,0,0:0:0:0:
288,160,126330,1,8,0:0:0:0:
224,160,126416,1,0,0:0:0:0:
224,160,126501,1,0,0:0:0:0:
224,160,126671,1,0,0:0:0:0:
288,160,126842,1,8,0:0:0:0:
288,160,126927,1,8,0:0:0:0:
224,160,127012,1,0,0:0:0:0:
224,160,127183,1,0,0:0:0:0:
288,160,127353,1,8,0:0:0:0:
224,160,127438,1,0,0:0:0:0:
224,160,127524,1,0,0:0:0:0:
224,160,127694,1,0,0:0:0:0:
288,160,127865,1,8,0:0:0:0:
224,160,128035,1,0,0:0:0:0:
224,160,128120,1,0,0:0:0:0:
288,160,128205,1,8,0:0:0:0:
288,160,128546,1,8,0:0:0:0:
288,160,128632,1,8,0:0:0:0:
288,160,128717,1,8,0:0:0:0:
224,160,128887,1,0,0:0:0:0:
288,160,129058,1,8,0:0:0:0:
288,160,129143,1,8,0:0:0:0:
224,160,129228,1,0,0:0:0:0:
224,160,129399,1,0,0:0:0:0:
288,160,129569,1,8,0:0:0:0:
288,160,129654,1,8,0:0:0:0:
288,160,129740,1,8,0:0:0:0:
224,160,129910,1,0,0:0:0:0:
288,160,130080,1,8,0:0:0:0:
288,160,130166,1,8,0:0:0:0:
224,160,130251,1,0,0:0:0:0:
224,160,130421,1,0,0:0:0:0:
288,160,130592,1,8,0:0:0:0:
224,160,130677,1,8,0:0:0:0:
224,160,130762,1,0,0:0:0:0:
224,160,130847,1,0,0:0:0:0:
288,160,130933,1,8,0:0:0:0:
224,224,131274,1,4,0:0:0:0:
224,160,131615,1,0,0:0:0:0:
288,160,131785,1,8,0:0:0:0:
288,160,131870,1,8,0:0:0:0:
224,160,131955,1,0,0:0:0:0:
224,160,132126,1,0,0:0:0:0:
288,160,132296,1,8,0:0:0:0:
224,160,132467,1,0,0:0:0:0:
224,160,132552,1,0,0:0:0:0:
224,160,132637,1,0,0:0:0:0:
288,160,132808,1,8,0:0:0:0:
224,160,132978,1,0,0:0:0:0:
224,160,133063,1,0,0:0:0:0:
224,160,133149,1,0,0:0:0:0:
224,160,133234,1,0,0:0:0:0:
288,160,133319,1,8,0:0:0:0:
224,160,133490,1,0,0:0:0:0:
224,160,133575,1,0,0:0:0:0:
288,160,133660,1,8,0:0:0:0:
288,160,133830,1,8,0:0:0:0:
288,160,133916,1,8,0:0:0:0:
224,160,134001,1,0,0:0:0:0:
224,160,134342,1,0,0:0:0:0:
288,160,134512,1,8,0:0:0:0:
224,160,134683,1,0,0:0:0:0:
224,160,134768,1,0,0:0:0:0:
224,160,134853,1,0,0:0:0:0:
288,160,135024,1,8,0:0:0:0:
288,160,135194,1,8,0:0:0:0:
288,160,135279,1,8,0:0:0:0:
224,160,135365,1,0,0:0:0:0:
288,160,135535,1,8,0:0:0:0:
224,160,135705,1,0,0:0:0:0:
224,160,135791,1,0,0:0:0:0:
224,160,135876,1,0,0:0:0:0:
288,160,136046,1,8,0:0:0:0:
224,160,136132,1,0,0:0:0:0:
224,160,136217,1,0,0:0:0:0:
224,160,136302,1,0,0:0:0:0:
288,160,136387,1,8,0:0:0:0:
224,160,136558,1,0,0:0:0:0:
224,160,136643,1,0,0:0:0:0:
288,160,136728,1,8,0:0:0:0:
224,160,137069,1,0,0:0:0:0:
288,160,137240,1,8,0:0:0:0:
288,160,137325,1,8,0:0:0:0:
224,160,137410,1,0,0:0:0:0:
224,160,137580,1,0,0:0:0:0:
288,160,137751,1,8,0:0:0:0:
224,160,137921,1,0,0:0:0:0:
224,160,138007,1,0,0:0:0:0:
224,160,138092,1,0,0:0:0:0:
288,160,138262,1,8,0:0:0:0:
224,160,138433,1,0,0:0:0:0:
224,160,138518,1,0,0:0:0:0:
224,160,138603,1,0,0:0:0:0:
224,160,138688,1,0,0:0:0:0:
288,160,138774,1,8,0:0:0:0:
224,160,138944,1,0,0:0:0:0:
288,160,139115,1,8,0:0:0:0:
224,160,139200,1,0,0:0:0:0:
288,160,139285,1,8,0:0:0:0:
288,160,139370,1,8,0:0:0:0:
224,160,139455,1,0,0:0:0:0:
224,160,139796,1,0,0:0:0:0:
288,160,139967,1,8,0:0:0:0:
288,160,140052,1,8,0:0:0:0:
224,160,140137,1,0,0:0:0:0:
224,160,140222,1,0,0:0:0:0:
224,160,140308,1,0,0:0:0:0:
288,160,140478,1,8,0:0:0:0:
288,160,140649,1,8,0:0:0:0:
288,160,140734,1,8,0:0:0:0:
224,160,140819,1,0,0:0:0:0:
288,160,140990,1,8,0:0:0:0:
224,160,141160,1,0,0:0:0:0:
224,160,141245,1,0,0:0:0:0:
224,160,141330,1,0,0:0:0:0:
224,160,141416,1,0,0:0:0:0:
288,160,141501,1,8,0:0:0:0:
224,160,141671,1,0,0:0:0:0:
224,160,141757,1,0,0:0:0:0:
288,160,141842,1,8,0:0:0:0:
224,224,142183,1,4,0:0:0:0:
288,160,142524,1,8,0:0:0:0:
224,224,142865,1,4,0:0:0:0:
288,160,143205,1,8,0:0:0:0:
288,160,143376,1,8,0:0:0:0:
224,224,143546,1,4,0:0:0:0:
288,160,143717,1,8,0:0:0:0:
224,160,143887,1,0,0:0:0:0:
288,160,144058,1,8,0:0:0:0:
224,224,144228,1,4,0:0:0:0:
288,160,144569,1,0,0:0:0:0:
288,224,144910,1,12,0:0:0:0:
288,160,145251,1,8,0:0:0:0:
288,224,145592,1,12,0:0:0:0:
288,160,145933,1,8,0:0:0:0:
224,160,146103,1,0,0:0:0:0:
288,224,146274,1,12,0:0:0:0:
224,160,146444,1,0,0:0:0:0:
288,160,146615,1,8,0:0:0:0:
224,160,146785,1,0,0:0:0:0:
288,224,146955,1,12,0:0:0:0:
288,160,147296,1,8,0:0:0:0:
224,224,147637,1,4,0:0:0:0:
288,160,147808,1,8,0:0:0:0:
224,160,147978,1,0,0:0:0:0:
224,224,148149,1,4,0:0:0:0:
288,160,148319,1,8,0:0:0:0:
288,160,148404,1,8,0:0:0:0:
224,160,148490,1,0,0:0:0:0:
224,224,148660,1,4,0:0:0:0:
288,160,148830,1,8,0:0:0:0:
288,160,148916,1,8,0:0:0:0:
288,160,149001,1,8,0:0:0:0:
224,224,149171,1,4,0:0:0:0:
288,160,149342,1,8,0:0:0:0:
288,160,149427,1,8,0:0:0:0:
224,160,149512,1,0,0:0:0:0:
224,160,149597,1,0,0:0:0:0:
288,160,149683,1,8,0:0:0:0:
224,160,149853,1,0,0:0:0:0:
224,160,149938,1,0,0:0:0:0:
288,160,150024,1,8,0:0:0:0:
224,160,150194,1,0,0:0:0:0:
288,224,150365,1,12,0:0:0:0:
224,160,150535,1,0,0:0:0:0:
288,160,150705,1,8,0:0:0:0:
288,224,150876,1,12,0:0:0:0:
224,160,151046,1,0,0:0:0:0:
224,160,151132,1,0,0:0:0:0:
288,160,151217,1,8,0:0:0:0:
288,224,151387,1,12,0:0:0:0:
224,160,151558,1,0,0:0:0:0:
224,160,151643,1,0,0:0:0:0:
224,160,151728,1,0,0:0:0:0:
288,160,151899,1,12,0:0:0:0:
224,160,152069,1,0,0:0:0:0:
224,160,152154,1,0,0:0:0:0:
288,160,152240,1,8,0:0:0:0:
288,160,152410,1,8,0:0:0:0:
288,160,152495,1,8,0:0:0:0:
224,160,152580,1,0,0:0:0:0:
224,160,152666,1,0,0:0:0:0:
288,160,152751,1,8,0:0:0:0:
288,160,152836,1,8,0:0:0:0:
288,160,152921,1,8,0:0:0:0:
288,160,153007,1,8,0:0:0:0:
224,160,153092,1,0,0:0:0:0:
224,160,153433,1,0,0:0:0:0:
288,160,153603,1,8,0:0:0:0:
224,160,153774,1,0,0:0:0:0:
224,160,153859,1,0,0:0:0:0:
224,160,153944,1,0,0:0:0:0:
288,160,154115,1,8,0:0:0:0:
224,160,154285,1,0,0:0:0:0:
224,160,154370,1,0,0:0:0:0:
224,160,154455,1,0,0:0:0:0:
288,160,154626,1,8,0:0:0:0:
224,160,154796,1,0,0:0:0:0:
224,160,154967,1,0,0:0:0:0:
224,160,155052,1,0,0:0:0:0:
288,160,155137,1,8,0:0:0:0:
224,160,155308,1,0,0:0:0:0:
288,160,155478,1,8,0:0:0:0:
288,160,155649,1,8,0:0:0:0:
288,160,155734,1,8,0:0:0:0:
224,160,155819,1,0,0:0:0:0:
224,160,156160,1,0,0:0:0:0:
288,160,156330,1,8,0:0:0:0:
288,160,156416,1,8,0:0:0:0:
224,160,156501,1,0,0:0:0:0:
224,160,156671,1,0,0:0:0:0:
288,160,156842,1,8,0:0:0:0:
224,160,157012,1,0,0:0:0:0:
224,160,157097,1,0,0:0:0:0:
224,160,157183,1,0,0:0:0:0:
288,160,157353,1,8,0:0:0:0:
224,160,157524,1,0,0:0:0:0:
224,160,157694,1,0,0:0:0:0:
224,160,157779,1,0,0:0:0:0:
288,160,157865,1,8,0:0:0:0:
224,160,158035,1,0,0:0:0:0:
288,160,158205,1,8,0:0:0:0:
224,160,158291,1,0,0:0:0:0:
224,160,158376,1,0,0:0:0:0:
224,160,158461,1,0,0:0:0:0:
288,160,158546,1,8,0:0:0:0:
224,160,158887,1,0,0:0:0:0:
288,160,159058,1,8,0:0:0:0:
224,160,159228,1,0,0:0:0:0:
224,160,159313,1,0,0:0:0:0:
224,160,159399,1,0,0:0:0:0:
224,160,159484,1,0,0:0:0:0:
288,160,159569,1,8,0:0:0:0:
224,160,159740,1,0,0:0:0:0:
224,160,159910,1,0,0:0:0:0:
288,160,160080,1,8,0:0:0:0:
224,160,160166,1,0,0:0:0:0:
224,160,160251,1,0,0:0:0:0:
224,160,160421,1,0,0:0:0:0:
288,160,160592,1,8,0:0:0:0:
288,160,160677,1,8,0:0:0:0:
224,160,160762,1,0,0:0:0:0:
288,160,160933,1,8,0:0:0:0:
288,160,161103,1,8,0:0:0:0:
288,160,161188,1,8,0:0:0:0:
224,160,161274,1,0,0:0:0:0:
224,160,161615,1,0,0:0:0:0:
288,160,161785,1,8,0:0:0:0:
288,160,161870,1,8,0:0:0:0:
224,160,161955,1,0,0:0:0:0:
224,160,162041,1,0,0:0:0:0:
224,160,162126,1,0,0:0:0:0:
288,160,162296,1,8,0:0:0:0:
224,160,162467,1,0,0:0:0:0:
224,160,162552,1,0,0:0:0:0:
224,160,162637,1,0,0:0:0:0:
288,160,162808,1,8,0:0:0:0:
288,160,162978,1,8,0:0:0:0:
224,160,163149,1,0,0:0:0:0:
288,160,163319,1,8,0:0:0:0:
288,160,163404,1,8,0:0:0:0:
224,160,163489,1,0,0:0:0:0:
224,160,163575,1,0,0:0:0:0:
288,160,163659,1,8,0:0:0:0:
224,160,163745,1,0,0:0:0:0:
288,160,163830,1,8,0:0:0:0:
224,224,164001,1,4,0:0:0:0:
224,160,164342,1,0,0:0:0:0:
288,160,164512,1,8,0:0:0:0:
288,160,164597,1,8,0:0:0:0:
224,160,164683,1,0,0:0:0:0:
224,160,164853,1,0,0:0:0:0:
288,160,165024,1,8,0:0:0:0:
224,160,165194,1,0,0:0:0:0:
224,160,165279,1,0,0:0:0:0:
224,160,165365,1,0,0:0:0:0:
288,160,165535,1,8,0:0:0:0:
224,160,165705,1,0,0:0:0:0:
224,160,165876,1,0,0:0:0:0:
224,160,165961,1,0,0:0:0:0:
288,160,166046,1,8,0:0:0:0:
288,160,166132,1,8,0:0:0:0:
224,160,166217,1,0,0:0:0:0:
288,160,166387,1,8,0:0:0:0:
288,160,166558,1,8,0:0:0:0:
288,160,166643,1,8,0:0:0:0:
224,160,166728,1,0,0:0:0:0:
224,160,167069,1,0,0:0:0:0:
288,160,167240,1,8,0:0:0:0:
288,160,167325,1,8,0:0:0:0:
224,160,167410,1,0,0:0:0:0:
224,160,167495,1,0,0:0:0:0:
224,160,167580,1,0,0:0:0:0:
288,160,167751,1,8,0:0:0:0:
224,160,167921,1,0,0:0:0:0:
224,160,168007,1,0,0:0:0:0:
224,160,168092,1,0,0:0:0:0:
288,160,168262,1,8,0:0:0:0:
224,160,168432,1,0,0:0:0:0:
224,160,168603,1,0,0:0:0:0:
224,160,168688,1,0,0:0:0:0:
288,160,168774,1,8,0:0:0:0:
224,160,168944,1,0,0:0:0:0:
288,160,169115,1,8,0:0:0:0:
288,160,169200,1,8,0:0:0:0:
224,160,169285,1,0,0:0:0:0:
224,160,169370,1,0,0:0:0:0:
288,160,169455,1,8,0:0:0:0:
224,160,169796,1,0,0:0:0:0:
288,160,169967,1,8,0:0:0:0:
224,160,170137,1,0,0:0:0:0:
224,160,170222,1,0,0:0:0:0:
224,160,170308,1,0,0:0:0:0:
224,160,170393,1,0,0:0:0:0:
288,160,170478,1,8,0:0:0:0:
224,160,170649,1,0,0:0:0:0:
224,160,170819,1,0,0:0:0:0:
224,160,170904,1,0,0:0:0:0:
288,160,170990,1,8,0:0:0:0:
288,160,171160,1,8,0:0:0:0:
224,160,171330,1,0,0:0:0:0:
224,160,171416,1,0,0:0:0:0:
288,160,171501,1,8,0:0:0:0:
224,160,171671,1,0,0:0:0:0:
288,160,171842,1,8,0:0:0:0:
224,160,171927,1,0,0:0:0:0:
288,160,172012,1,8,0:0:0:0:
288,160,172097,1,8,0:0:0:0:
224,160,172183,1,0,0:0:0:0:
224,160,172524,1,0,0:0:0:0:
288,160,172694,1,8,0:0:0:0:
288,160,172779,1,8,0:0:0:0:
224,160,172865,1,0,0:0:0:0:
224,160,172950,1,0,0:0:0:0:
224,160,173035,1,0,0:0:0:0:
288,160,173205,1,8,0:0:0:0:
224,160,173376,1,0,0:0:0:0:
224,160,173461,1,0,0:0:0:0:
224,160,173546,1,0,0:0:0:0:
288,160,173717,1,8,0:0:0:0:
288,160,173887,1,8,0:0:0:0:
224,160,174058,1,0,0:0:0:0:
224,160,174143,1,0,0:0:0:0:
288,160,174228,1,8,0:0:0:0:
288,160,174313,1,8,0:0:0:0:
224,160,174399,1,0,0:0:0:0:
224,160,174484,1,0,0:0:0:0:
288,160,174569,1,8,0:0:0:0:
224,160,174654,1,0,0:0:0:0:
288,160,174740,1,8,0:0:0:0:
224,224,174910,1,4,0:0:0:0:
288,160,175251,1,8,0:0:0:0:
224,160,175592,1,0,0:0:0:0:
224,160,175762,1,0,0:0:0:0:
288,160,175933,1,8,0:0:0:0:
288,160,176103,1,8,0:0:0:0:
224,160,176274,1,0,0:0:0:0:
288,160,176615,1,8,0:0:0:0:
288,160,176785,1,8,0:0:0:0:
224,160,176955,1,0,0:0:0:0:
288,160,177126,1,8,0:0:0:0:
224,160,177296,1,0,0:0:0:0:
224,160,177637,1,0,0:0:0:0:
288,160,177978,1,8,0:0:0:0:
224,160,178319,1,0,0:0:0:0:
224,160,178490,1,0,0:0:0:0:
288,160,178660,1,8,0:0:0:0:
224,160,178830,1,0,0:0:0:0:
288,160,179001,1,8,0:0:0:0:
288,160,179342,1,8,0:0:0:0:
288,160,179683,1,8,0:0:0:0:
288,160,179853,1,8,0:0:0:0:
224,160,180024,1,0,0:0:0:0:
224,160,180194,1,0,0:0:0:0:
288,160,180365,1,8,0:0:0:0:
224,160,180705,1,0,0:0:0:0:
288,160,180876,1,8,0:0:0:0:
288,160,181217,1,8,0:0:0:0:
224,160,181387,1,0,0:0:0:0:
224,160,181558,1,0,0:0:0:0:
288,160,181728,1,8,0:0:0:0:
288,160,182069,1,8,0:0:0:0:
224,160,182240,1,0,0:0:0:0:
224,160,182580,1,0,0:0:0:0:
288,160,182751,1,8,0:0:0:0:
288,160,182921,1,8,0:0:0:0:
224,160,183092,1,0,0:0:0:0:
224,160,183433,1,0,0:0:0:0:
288,160,183603,1,8,0:0:0:0:
288,160,183944,1,8,0:0:0:0:
224,160,184115,1,0,0:0:0:0:
224,160,184285,1,0,0:0:0:0:
288,160,184455,1,8,0:0:0:0:
288,160,184796,1,8,0:0:0:0:
224,160,184967,1,0,0:0:0:0:
224,160,185308,1,0,0:0:0:0:
288,160,185478,1,8,0:0:0:0:
288,160,185649,1,0,0:0:0:0:
224,160,185819,1,14,0:0:0:0:
288,160,186160,1,8,0:0:0:0:
224,160,186330,1,0,0:0:0:0:
224,160,186416,1,0,0:0:0:0:
224,160,186501,1,0,0:0:0:0:
224,160,186671,1,0,0:0:0:0:
288,160,186842,1,8,0:0:0:0:
288,160,187012,1,8,0:0:0:0:
224,160,187183,1,0,0:0:0:0:
288,160,187524,1,8,0:0:0:0:
288,160,187694,1,8,0:0:0:0:
224,160,187865,1,0,0:0:0:0:
224,160,187950,1,0,0:0:0:0:
288,160,188035,1,8,0:0:0:0:
224,160,188205,1,0,0:0:0:0:
224,160,188546,1,0,0:0:0:0:
224,160,188717,1,0,0:0:0:0:
224,160,188802,1,0,0:0:0:0:
288,160,188887,1,8,0:0:0:0:
288,160,189058,1,8,0:0:0:0:
224,160,189228,1,0,0:0:0:0:
224,160,189399,1,0,0:0:0:0:
288,160,189569,1,8,0:0:0:0:
224,160,189740,1,0,0:0:0:0:
288,160,189910,1,8,0:0:0:0:
224,160,190251,1,0,0:0:0:0:
224,160,190421,1,0,0:0:0:0:
224,160,190507,1,0,0:0:0:0:
288,160,190592,1,8,0:0:0:0:
288,160,190762,1,8,0:0:0:0:
224,160,190933,1,0,0:0:0:0:
224,160,191103,1,0,0:0:0:0:
288,160,191274,1,8,0:0:0:0:
288,160,191615,1,8,0:0:0:0:
224,160,191785,1,0,0:0:0:0:
224,160,192126,1,0,0:0:0:0:
288,160,192296,1,8,0:0:0:0:
288,160,192467,1,8,0:0:0:0:
224,160,192637,1,0,0:0:0:0:
224,160,192978,1,0,0:0:0:0:
288,160,193149,1,8,0:0:0:0:
288,160,193490,1,8,0:0:0:0:
224,160,193660,1,0,0:0:0:0:
224,160,193830,1,0,0:0:0:0:
288,160,194001,1,8,0:0:0:0:
224,160,194342,1,0,0:0:0:0:
288,160,194512,1,8,0:0:0:0:
288,160,194683,1,8,0:0:0:0:
288,160,194768,1,8,0:0:0:0:
224,160,194853,1,0,0:0:0:0:
224,160,195024,1,0,0:0:0:0:
288,160,195194,1,8,0:0:0:0:
224,160,195365,1,0,0:0:0:0:
288,160,195705,1,8,0:0:0:0:
288,160,195876,1,8,0:0:0:0:
224,160,196046,1,0,0:0:0:0:
224,160,196217,1,0,0:0:0:0:
224,160,196302,1,0,0:0:0:0:
288,160,196387,1,8,0:0:0:0:
224,160,196558,1,0,0:0:0:0:
256,192,196728,1,4,0:0:0:0:
256,192,199115,1,8,0:0:0:0:
256,192,199285,1,8,0:0:0:0:
256,192,201501,1,0,0:0:0:0:
256,192,201842,1,0,0:0:0:0:
256,192,202183,1,8,0:0:0:0:
256,192,204569,1,8,0:0:0:0:
256,192,204740,1,0,0:0:0:0:
256,192,205933,1,8,0:0:0:0:
256,192,206103,1,8,0:0:0:0:
256,192,206955,1,8,0:0:0:0:
256,192,207637,1,4,0:0:0:0:
256,192,207978,1,8,0:0:0:0:
256,192,208319,1,4,0:0:0:0:
256,192,208660,1,8,0:0:0:0:
256,192,208830,1,8,0:0:0:0:
256,192,209001,1,4,0:0:0:0:
256,192,209171,1,8,0:0:0:0:
256,192,209512,1,8,0:0:0:0:
256,192,209683,1,4,0:0:0:0:
256,192,210024,1,8,0:0:0:0:
256,192,210365,1,4,0:0:0:0:
256,192,210705,1,8,0:0:0:0:
256,192,211046,1,4,0:0:0:0:
256,192,211387,1,8,0:0:0:0:
256,192,211558,1,8,0:0:0:0:
256,192,211728,1,4,0:0:0:0:
256,192,211899,1,8,0:0:0:0:
256,192,212240,1,8,0:0:0:0:
256,192,212410,1,4,0:0:0:0:
256,192,212751,1,8,0:0:0:0:
256,192,213092,1,4,0:0:0:0:
256,192,213262,1,8,0:0:0:0:
256,192,213433,1,4,0:0:0:0:
256,192,213774,1,4,0:0:0:0:
256,192,213944,1,8,0:0:0:0:
256,192,214115,1,4,0:0:0:0:
256,192,214285,1,8,0:0:0:0:
256,192,214455,1,0,0:0:0:0:
256,192,214626,1,8,0:0:0:0:
256,192,214711,1,8,0:0:0:0:
256,192,214796,1,0,0:0:0:0:
256,192,214882,1,0,0:0:0:0:
256,192,214967,1,8,0:0:0:0:
256,192,215137,1,0,0:0:0:0:
256,192,215308,1,8,0:0:0:0:
256,192,215393,1,8,0:0:0:0:
256,192,215478,1,0,0:0:0:0:
256,192,215649,1,8,0:0:0:0:
256,192,215819,1,0,0:0:0:0:
256,192,215904,1,0,0:0:0:0:
256,192,215990,1,0,0:0:0:0:
256,192,216075,1,0,0:0:0:0:
256,192,216160,1,8,0:0:0:0:
256,192,216245,1,0,0:0:0:0:
256,192,216330,1,0,0:0:0:0:
256,192,216416,1,0,0:0:0:0:
256,192,216501,1,8,0:0:0:0:
256,192,216586,1,8,0:0:0:0:
256,192,216671,1,0,0:0:0:0:
256,192,216757,1,0,0:0:0:0:
256,192,216842,1,8,0:0:0:0:
256,192,216927,1,0,0:0:0:0:
256,192,217012,1,8,0:0:0:0:
256,192,217097,1,8,0:0:0:0:
256,192,217183,1,0,0:0:0:0:
256,192,217524,1,8,0:0:0:0:
256,192,217694,1,8,0:0:0:0:
256,192,217865,1,4,0:0:0:0:
256,192,218035,1,0,0:0:0:0:
256,192,218205,1,14,0:0:0:0:
224,160,218546,1,0,0:0:0:0:
224,160,219058,1,0,0:0:0:0:
288,160,219229,1,8,0:0:0:0:
288,160,219399,1,8,0:0:0:0:
224,160,219570,1,0,0:0:0:0:
224,160,219740,1,0,0:0:0:0:
288,160,219911,1,8,0:0:0:0:
288,160,220251,1,8,0:0:0:0:
224,160,220421,1,0,0:0:0:0:
224,160,221103,1,0,0:0:0:0:
288,160,221274,1,8,0:0:0:0:
288,160,221785,1,8,0:0:0:0:
224,160,221955,1,0,0:0:0:0:
224,160,222126,1,0,0:0:0:0:
288,160,222296,1,8,0:0:0:0:
288,160,222467,1,8,0:0:0:0:
224,160,222637,1,0,0:0:0:0:
224,160,222978,1,0,0:0:0:0:
288,160,223149,1,8,0:0:0:0:
224,160,223660,1,0,0:0:0:0:
288,160,224001,1,8,0:0:0:0:
224,160,224512,1,0,0:0:0:0:
288,160,225024,1,8,0:0:0:0:
224,160,225535,1,0,0:0:0:0:
224,160,226046,1,0,0:0:0:0:
224,160,226387,1,0,0:0:0:0:
224,160,226558,1,0,0:0:0:0:
288,160,226728,1,8,0:0:0:0:
224,160,227240,1,0,0:0:0:0:
288,160,227751,1,8,0:0:0:0:
224,160,228262,1,0,0:0:0:0:
224,160,228774,1,0,0:0:0:0:
288,160,229115,1,8,0:0:0:0:
288,160,229285,1,8,0:0:0:0:
224,224,229455,1,4,0:0:0:0:
288,160,229796,1,8,0:0:0:0:
224,160,230137,1,0,0:0:0:0:
224,160,230308,1,0,0:0:0:0:
224,160,230478,1,0,0:0:0:0:
288,160,230649,1,8,0:0:0:0:
224,160,230819,1,0,0:0:0:0:
288,160,231160,1,8,0:0:0:0:
224,160,231330,1,0,0:0:0:0:
224,160,231671,1,0,0:0:0:0:
288,160,231842,1,8,0:0:0:0:
224,160,232012,1,0,0:0:0:0:
288,160,232183,1,8,0:0:0:0:
224,160,232524,1,0,0:0:0:0:
288,160,232865,1,8,0:0:0:0:
288,160,233035,1,8,0:0:0:0:
288,160,233205,1,8,0:0:0:0:
224,160,233376,1,0,0:0:0:0:
288,160,233546,1,8,0:0:0:0:
288,160,233887,1,8,0:0:0:0:
288,160,234058,1,8,0:0:0:0:
224,160,234399,1,0,0:0:0:0:
288,160,234569,1,8,0:0:0:0:
288,160,234910,1,8,0:0:0:0:
224,160,235251,1,0,0:0:0:0:
288,160,235421,1,8,0:0:0:0:
224,160,235762,1,0,0:0:0:0:
288,160,235933,1,8,0:0:0:0:
224,160,236274,1,0,0:0:0:0:
288,160,236444,1,8,0:0:0:0:
224,160,236615,1,0,0:0:0:0:
288,160,236955,1,8,0:0:0:0:
224,160,237126,1,0,0:0:0:0:
288,160,237296,1,8,0:0:0:0:
224,160,237637,1,0,0:0:0:0:
288,160,237978,1,8,0:0:0:0:
224,160,238148,1,0,0:0:0:0:
224,160,238490,1,0,0:0:0:0:
288,160,238660,1,8,0:0:0:0:
224,160,239001,1,0,0:0:0:0:
288,160,239171,1,8,0:0:0:0:
224,160,239342,1,0,0:0:0:0:
288,160,239683,1,8,0:0:0:0:
224,160,239853,1,0,0:0:0:0:
288,160,240024,1,8,0:0:0:0:
224,224,240365,1,4,0:0:0:0:
224,160,240705,1,0,0:0:0:0:
224,224,241046,1,4,0:0:0:0:
224,160,241387,1,0,0:0:0:0:
224,224,241728,1,4,0:0:0:0:
224,160,242069,1,0,0:0:0:0:
224,224,242410,1,4,0:0:0:0:
224,160,242751,1,0,0:0:0:0:
224,160,242921,1,0,0:0:0:0:
288,224,243092,1,12,0:0:0:0:
288,160,243433,1,8,0:0:0:0:
288,224,243774,1,12,0:0:0:0:
288,160,244115,1,8,0:0:0:0:
288,224,244455,1,12,0:0:0:0:
288,160,244796,1,8,0:0:0:0:
288,224,245137,1,12,0:0:0:0:
288,160,245478,1,8,0:0:0:0:
288,160,245649,1,8,0:0:0:0:
224,224,245819,1,4,0:0:0:0:
288,160,245990,1,8,0:0:0:0:
224,160,246160,1,0,0:0:0:0:
224,160,246245,1,0,0:0:0:0:
288,160,246330,1,8,0:0:0:0:
224,224,246501,1,4,0:0:0:0:
288,160,246671,1,8,0:0:0:0:
288,160,246757,1,8,0:0:0:0:
224,160,246842,1,0,0:0:0:0:
288,160,247012,1,8,0:0:0:0:
224,224,247182,1,4,0:0:0:0:
288,160,247352,1,8,0:0:0:0:
224,160,247523,1,0,0:0:0:0:
224,160,247608,1,0,0:0:0:0:
288,160,247693,1,8,0:0:0:0:
224,224,247864,1,4,0:0:0:0:
288,160,248034,1,8,0:0:0:0:
288,160,248119,1,8,0:0:0:0:
224,160,248205,1,0,0:0:0:0:
224,160,248290,1,0,0:0:0:0:
288,160,248375,1,8,0:0:0:0:
288,160,248546,1,8,0:0:0:0:
288,160,248631,1,8,0:0:0:0:
224,160,248716,1,0,0:0:0:0:
224,160,248801,1,0,0:0:0:0:
288,160,248887,1,8,0:0:0:0:
224,160,248972,1,0,0:0:0:0:
288,160,249057,1,8,0:0:0:0:
288,160,249142,1,8,0:0:0:0:
224,160,249227,1,0,0:0:0:0:
224,160,249313,1,0,0:0:0:0:
288,160,249398,1,8,0:0:0:0:
224,160,249483,1,0,0:0:0:0:
288,160,249568,1,8,0:0:0:0:
288,160,249654,1,8,0:0:0:0:
288,160,249739,1,8,0:0:0:0:
288,160,249824,1,8,0:0:0:0:
224,160,249909,1,0,0:0:0:0:
288,160,250251,1,8,0:0:0:0:
288,160,250421,1,8,0:0:0:0:
224,224,250592,1,4,0:0:0:0:
224,160,250762,1,0,0:0:0:0:
288,224,250933,1,12,0:0:0:0:
256,192,251274,1,4,0:0:0:0:
256,192,251444,1,8,0:0:0:0:
256,192,251615,1,0,0:0:0:0:
256,192,251785,1,8,0:0:0:0:
256,192,251870,1,8,0:0:0:0:
256,192,251955,1,0,0:0:0:0:
256,192,252041,1,0,0:0:0:0:
256,192,252126,1,8,0:0:0:0:
256,192,252211,1,0,0:0:0:0:
256,192,252296,1,8,0:0:0:0:
256,192,252467,1,0,0:0:0:0:
256,192,252637,1,8,0:0:0:0:
256,192,252808,1,0,0:0:0:0:
256,192,252893,1,0,0:0:0:0:
256,192,252978,1,8,0:0:0:0:
256,192,253063,1,0,0:0:0:0:
256,192,253149,1,8,0:0:0:0:
256,192,253319,1,0,0:0:0:0:
256,192,253660,1,8,0:0:0:0:
256,192,253830,1,8,0:0:0:0:
256,192,253916,1,8,0:0:0:0:
256,192,254001,1,0,0:0:0:0:
256,192,254171,1,8,0:0:0:0:
256,192,254342,1,0,0:0:0:0:
256,192,254512,1,8,0:0:0:0:
256,192,254683,1,8,0:0:0:0:
256,192,254853,1,0,0:0:0:0:
256,192,254938,1,0,0:0:0:0:
256,192,255024,1,8,0:0:0:0:
256,192,255194,1,8,0:0:0:0:
256,192,255365,1,0,0:0:0:0:
256,192,255535,1,0,0:0:0:0:
256,192,255620,1,0,0:0:0:0:
256,192,255705,1,8,0:0:0:0:
256,192,255791,1,0,0:0:0:0:
256,192,255876,1,8,0:0:0:0:
256,192,256046,1,0,0:0:0:0:
256,192,256132,1,0,0:0:0:0:
256,192,256217,1,0,0:0:0:0:
256,192,256387,1,8,0:0:0:0:
256,192,256728,1,0,0:0:0:0:
256,192,256899,1,8,0:0:0:0:
256,192,256984,1,8,0:0:0:0:
256,192,257069,1,0,0:0:0:0:
256,192,257240,1,8,0:0:0:0:
256,192,257410,1,0,0:0:0:0:
256,192,257495,1,0,0:0:0:0:
256,192,257580,1,0,0:0:0:0:
256,192,257751,1,8,0:0:0:0:
256,192,257921,1,0,0:0:0:0:
256,192,258007,1,0,0:0:0:0:
256,192,258092,1,0,0:0:0:0:
256,192,258262,1,8,0:0:0:0:
256,192,258433,1,0,0:0:0:0:
256,192,258518,1,0,0:0:0:0:
256,192,258603,1,0,0:0:0:0:
256,192,258774,1,8,0:0:0:0:
256,192,258944,1,0,0:0:0:0:
256,192,259029,1,0,0:0:0:0:
256,192,259115,1,8,0:0:0:0:
256,192,259285,1,0,0:0:0:0:
256,192,259370,1,0,0:0:0:0:
256,192,259455,1,8,0:0:0:0:
256,192,259796,1,0,0:0:0:0:
256,192,259967,1,8,0:0:0:0:
256,192,260137,1,0,0:0:0:0:
256,192,260222,1,0,0:0:0:0:
256,192,260308,1,0,0:0:0:0:
256,192,260478,1,8,0:0:0:0:
256,192,260649,1,0,0:0:0:0:
256,192,260734,1,0,0:0:0:0:
256,192,260819,1,0,0:0:0:0:
256,192,260990,1,8,0:0:0:0:
256,192,261160,1,0,0:0:0:0:
256,192,261245,1,0,0:0:0:0:
256,192,261330,1,0,0:0:0:0:
256,192,261501,1,8,0:0:0:0:
256,192,261671,1,0,0:0:0:0:
256,192,261757,1,0,0:0:0:0:
256,192,261842,1,8,0:0:0:0:
256,192,261927,1,0,0:0:0:0:
256,192,262012,1,8,0:0:0:0:
256,192,262183,1,4,0:0:0:0:
256,192,262524,1,0,0:0:0:0:
256,192,262694,1,8,0:0:0:0:
256,192,262779,1,8,0:0:0:0:
256,192,262865,1,0,0:0:0:0:
256,192,262950,1,0,0:0:0:0:
256,192,263035,1,8,0:0:0:0:
256,192,263120,1,0,0:0:0:0:
256,192,263205,1,8,0:0:0:0:
256,192,263376,1,0,0:0:0:0:
256,192,263546,1,8,0:0:0:0:
256,192,263717,1,0,0:0:0:0:
256,192,263802,1,0,0:0:0:0:
256,192,263887,1,8,0:0:0:0:
256,192,263972,1,8,0:0:0:0:
256,192,264058,1,0,0:0:0:0:
256,192,264228,1,0,0:0:0:0:
256,192,264569,1,8,0:0:0:0:
256,192,264740,1,8,0:0:0:0:
256,192,264825,1,8,0:0:0:0:
256,192,264910,1,0,0:0:0:0:
256,192,265080,1,8,0:0:0:0:
256,192,265251,1,0,0:0:0:0:
256,192,265421,1,8,0:0:0:0:
256,192,265592,1,8,0:0:0:0:
256,192,265762,1,0,0:0:0:0:
256,192,265847,1,0,0:0:0:0:
256,192,265933,1,8,0:0:0:0:
256,192,266103,1,8,0:0:0:0:
256,192,266274,1,0,0:0:0:0:
256,192,266444,1,0,0:0:0:0:
256,192,266529,1,0,0:0:0:0:
256,192,266615,1,8,0:0:0:0:
256,192,266700,1,0,0:0:0:0:
256,192,266785,1,8,0:0:0:0:
256,192,266955,1,0,0:0:0:0:
256,192,267041,1,0,0:0:0:0:
256,192,267126,1,0,0:0:0:0:
256,192,267296,1,8,0:0:0:0:
256,192,267637,1,0,0:0:0:0:
256,192,267808,1,8,0:0:0:0:
256,192,267893,1,8,0:0:0:0:
256,192,267978,1,0,0:0:0:0:
256,192,268149,1,8,0:0:0:0:
256,192,268319,1,0,0:0:0:0:
256,192,268404,1,0,0:0:0:0:
256,192,268490,1,0,0:0:0:0:
256,192,268660,1,8,0:0:0:0:
256,192,268830,1,0,0:0:0:0:
256,192,268916,1,0,0:0:0:0:
256,192,269001,1,0,0:0:0:0:
256,192,269171,1,8,0:0:0:0:
256,192,269342,1,0,0:0:0:0:
256,192,269427,1,0,0:0:0:0:
256,192,269512,1,0,0:0:0:0:
256,192,269683,1,8,0:0:0:0:
256,192,269853,1,0,0:0:0:0:
256,192,269938,1,0,0:0:0:0:
256,192,270024,1,8,0:0:0:0:
256,192,270194,1,0,0:0:0:0:
256,192,270365,1,8,0:0:0:0:
256,192,270705,1,0,0:0:0:0:
256,192,270876,1,8,0:0:0:0:
256,192,271046,1,0,0:0:0:0:
256,192,271132,1,0,0:0:0:0:
256,192,271217,1,0,0:0:0:0:
256,192,271387,1,8,0:0:0:0:
256,192,271558,1,0,0:0:0:0:
256,192,271643,1,0,0:0:0:0:
256,192,271728,1,0,0:0:0:0:
256,192,271899,1,8,0:0:0:0:
256,192,272069,1,0,0:0:0:0:
256,192,272154,1,0,0:0:0:0:
256,192,272240,1,0,0:0:0:0:
256,192,272410,1,8,0:0:0:0:
256,192,272580,1,0,0:0:0:0:
256,192,272666,1,0,0:0:0:0:
256,192,272751,1,8,0:0:0:0:
256,192,272836,1,0,0:0:0:0:
256,192,272921,1,8,0:0:0:0:
256,192,273092,1,4,0:0:0:0:
256,192,273433,1,0,0:0:0:0:
256,192,273603,1,8,0:0:0:0:
256,192,273774,1,0,0:0:0:0:
256,192,273944,1,0,0:0:0:0:
256,192,274029,1,0,0:0:0:0:
256,192,274115,1,8,0:0:0:0:
256,192,274285,1,0,0:0:0:0:
256,192,274455,1,0,0:0:0:0:
256,192,274626,1,8,0:0:0:0:
256,192,274796,1,8,0:0:0:0:
256,192,274967,1,0,0:0:0:0:
256,192,275052,1,0,0:0:0:0:
256,192,275137,1,8,0:0:0:0:
256,192,275222,1,8,0:0:0:0:
256,192,275308,1,0,0:0:0:0:
256,192,275478,1,8,0:0:0:0:
256,192,275649,1,8,0:0:0:0:
256,192,275819,1,0,0:0:0:0:
256,192,276160,1,8,0:0:0:0:
256,192,276330,1,8,0:0:0:0:
256,192,276501,1,0,0:0:0:0:
256,192,276586,1,0,0:0:0:0:
256,192,276671,1,0,0:0:0:0:
256,192,276757,1,0,0:0:0:0:
256,192,276842,1,8,0:0:0:0:
256,192,277012,1,0,0:0:0:0:
256,192,277097,1,0,0:0:0:0:
256,192,277183,1,8,0:0:0:0:
256,192,277353,1,8,0:0:0:0:
256,192,277524,1,0,0:0:0:0:
256,192,277609,1,0,0:0:0:0:
256,192,277694,1,0,0:0:0:0:
256,192,277865,1,8,0:0:0:0:
256,192,278035,1,0,0:0:0:0:
256,192,278120,1,0,0:0:0:0:
256,192,278205,1,8,0:0:0:0:
256,192,278291,1,0,0:0:0:0:
256,192,278376,1,8,0:0:0:0:
256,192,278546,1,0,0:0:0:0:
256,192,278887,1,8,0:0:0:0:
256,192,279058,1,8,0:0:0:0:
256,192,279228,1,0,0:0:0:0:
256,192,279313,1,0,0:0:0:0:
256,192,279399,1,0,0:0:0:0:
256,192,279569,1,8,0:0:0:0:
256,192,279740,1,0,0:0:0:0:
256,192,279825,1,0,0:0:0:0:
256,192,279910,1,8,0:0:0:0:
256,192,280080,1,0,0:0:0:0:
256,192,280251,1,8,0:0:0:0:
256,192,280421,1,8,0:0:0:0:
256,192,280592,1,0,0:0:0:0:
256,192,280677,1,0,0:0:0:0:
256,192,280762,1,0,0:0:0:0:
256,192,280847,1,0,0:0:0:0:
256,192,280933,1,8,0:0:0:0:
256,192,281103,1,8,0:0:0:0:
256,192,281274,1,0,0:0:0:0:
256,192,281615,1,8,0:0:0:0:
256,192,281785,1,0,0:0:0:0:
256,192,281870,1,0,0:0:0:0:
256,192,281955,1,0,0:0:0:0:
256,192,282126,1,0,0:0:0:0:
256,192,282296,1,8,0:0:0:0:
256,192,282467,1,8,0:0:0:0:
256,192,282637,1,0,0:0:0:0:
256,192,282808,1,0,0:0:0:0:
256,192,282893,1,0,0:0:0:0:
256,192,282978,1,8,0:0:0:0:
256,192,283149,1,0,0:0:0:0:
256,192,283319,1,8,0:0:0:0:
256,192,283404,1,8,0:0:0:0:
256,192,283490,1,0,0:0:0:0:
256,192,283575,1,0,0:0:0:0:
256,192,283660,1,8,0:0:0:0:
256,192,283830,1,8,0:0:0:0:
256,192,284001,1,4,0:0:0:0:
256,192,284342,1,0,0:0:0:0:
256,192,284683,1,14,0:0:0:0:
256,192,285024,1,0,0:0:0:0:
256,192,285194,1,8,0:0:0:0:
256,192,285365,1,4,0:0:0:0:
256,192,285535,1,8,0:0:0:0:
256,192,285705,1,8,0:0:0:0:
256,192,285876,1,8,0:0:0:0:
256,192,286046,1,4,0:0:0:0:
256,192,286387,1,8,0:0:0:0:
256,192,286728,1,4,0:0:0:0:
256,192,287069,1,0,0:0:0:0:
256,192,287410,1,14,0:0:0:0:
256,192,287751,1,8,0:0:0:0:
256,192,287921,1,8,0:0:0:0:
256,192,288092,1,4,0:0:0:0:
256,192,288262,1,8,0:0:0:0:
256,192,288433,1,0,0:0:0:0:
256,192,288603,1,0,0:0:0:0:
256,192,288774,1,14,0:0:0:0:
256,192,289115,1,8,0:0:0:0:
256,192,289455,1,4,0:0:0:0:
256,192,289626,1,0,0:0:0:0:
256,192,289711,1,0,0:0:0:0:
256,192,289796,1,0,0:0:0:0:
256,192,289967,1,14,0:0:0:0:
256,192,290137,1,0,0:0:0:0:
256,192,290222,1,0,0:0:0:0:
256,192,290308,1,0,0:0:0:0:
256,192,290478,1,14,0:0:0:0:
256,192,290649,1,8,0:0:0:0:
256,192,290734,1,8,0:0:0:0:
256,192,290819,1,8,0:0:0:0:
256,192,290990,1,4,0:0:0:0:
256,192,291160,1,8,0:0:0:0:
256,192,291330,1,8,0:0:0:0:
256,192,291501,1,4,0:0:0:0:
256,192,291671,1,0,0:0:0:0:
256,192,291757,1,0,0:0:0:0:
256,192,291842,1,8,0:0:0:0:
256,192,292012,1,8,0:0:0:0:
256,192,292183,1,4,0:0:0:0:
256,192,292524,1,0,0:0:0:0:
256,192,292694,1,14,0:0:0:0:
256,192,292865,1,0,0:0:0:0:
256,192,292950,1,0,0:0:0:0:
256,192,293035,1,0,0:0:0:0:
256,192,293205,1,14,0:0:0:0:
256,192,293376,1,0,0:0:0:0:
256,192,293461,1,0,0:0:0:0:
256,192,293546,1,8,0:0:0:0:
256,192,293717,1,4,0:0:0:0:
256,192,293887,1,8,0:0:0:0:
256,192,294058,1,8,0:0:0:0:
256,192,294228,1,0,0:0:0:0:
256,192,294313,1,0,0:0:0:0:
256,192,294399,1,8,0:0:0:0:
256,192,294484,1,0,0:0:0:0:
256,192,294569,1,8,0:0:0:0:
256,192,294654,1,8,0:0:0:0:
256,192,294740,1,0,0:0:0:0:
224,160,294910,1,4,0:0:0:0:
224,160,295251,1,0,0:0:0:0:
288,160,295421,1,8,0:0:0:0:
288,160,295507,1,8,0:0:0:0:
224,160,295592,1,0,0:0:0:0:
224,160,295677,1,0,0:0:0:0:
288,160,295762,1,8,0:0:0:0:
224,160,295933,1,0,0:0:0:0:
288,160,296103,1,8,0:0:0:0:
288,160,296188,1,8,0:0:0:0:
288,160,296274,1,8,0:0:0:0:
288,160,296359,1,8,0:0:0:0:
224,160,296444,1,0,0:0:0:0:
288,160,296615,1,8,0:0:0:0:
224,160,296785,1,0,0:0:0:0:
224,160,296870,1,0,0:0:0:0:
288,160,296955,1,8,0:0:0:0:
224,160,297126,1,0,0:0:0:0:
288,160,297296,1,8,0:0:0:0:
224,160,297637,1,0,0:0:0:0:
224,160,297808,1,0,0:0:0:0:
224,160,297893,1,0,0:0:0:0:
288,160,297978,1,8,0:0:0:0:
288,160,298149,1,8,0:0:0:0:
224,160,298319,1,0,0:0:0:0:
288,160,298490,1,8,0:0:0:0:
288,160,298575,1,8,0:0:0:0:
224,160,298660,1,0,0:0:0:0:
224,160,298745,1,0,0:0:0:0:
288,160,298830,1,8,0:0:0:0:
224,160,299001,1,0,0:0:0:0:
288,160,299171,1,8,0:0:0:0:
288,160,299342,1,8,0:0:0:0:
224,160,299512,1,0,0:0:0:0:
288,160,299597,1,8,0:0:0:0:
224,160,299683,1,0,0:0:0:0:
288,160,299853,1,8,0:0:0:0:
224,160,300024,1,0,0:0:0:0:
224,160,300109,1,0,0:0:0:0:
288,160,300194,1,8,0:0:0:0:
224,160,300279,1,0,0:0:0:0:
288,160,300365,1,8,0:0:0:0:
224,160,300705,1,0,0:0:0:0:
288,160,300876,1,8,0:0:0:0:
288,160,300961,1,8,0:0:0:0:
224,160,301046,1,0,0:0:0:0:
288,160,301217,1,8,0:0:0:0:
224,160,301302,1,0,0:0:0:0:
288,160,301387,1,8,0:0:0:0:
224,160,301558,1,0,0:0:0:0:
288,160,301728,1,8,0:0:0:0:
224,160,301813,1,0,0:0:0:0:
224,160,301899,1,0,0:0:0:0:
224,160,301984,1,0,0:0:0:0:
288,160,302069,1,8,0:0:0:0:
224,160,302240,1,0,0:0:0:0:
224,160,302580,1,0,0:0:0:0:
288,160,302751,1,8,0:0:0:0:
288,160,302921,1,8,0:0:0:0:
224,160,303092,1,0,0:0:0:0:
224,160,303433,1,0,0:0:0:0:
288,160,303603,1,8,0:0:0:0:
288,160,303688,1,8,0:0:0:0:
224,160,303774,1,0,0:0:0:0:
224,160,303859,1,0,0:0:0:0:
288,160,303944,1,8,0:0:0:0:
224,160,304115,1,0,0:0:0:0:
224,160,304285,1,0,0:0:0:0:
224,160,304370,1,0,0:0:0:0:
288,160,304455,1,8,0:0:0:0:
288,160,304626,1,8,0:0:0:0:
288,160,304711,1,8,0:0:0:0:
224,160,304796,1,0,0:0:0:0:
224,160,304967,1,0,0:0:0:0:
288,160,305137,1,8,0:0:0:0:
288,160,305222,1,8,0:0:0:0:
224,160,305308,1,0,0:0:0:0:
224,160,305393,1,0,0:0:0:0:
288,160,305478,1,8,0:0:0:0:
224,160,305563,1,0,0:0:0:0:
288,160,305649,1,8,0:0:0:0:
224,224,305819,1,4,0:0:0:0:
288,160,305990,1,8,0:0:0:0:
288,160,306075,1,8,0:0:0:0:
224,160,306160,1,0,0:0:0:0:
288,160,306330,1,8,0:0:0:0:
224,160,306501,1,0,0:0:0:0:
224,160,306586,1,0,0:0:0:0:
288,160,306671,1,8,0:0:0:0:
288,160,306757,1,8,0:0:0:0:
224,160,306842,1,0,0:0:0:0:
288,160,307012,1,8,0:0:0:0:
288,160,307097,1,8,0:0:0:0:
288,160,307183,1,8,0:0:0:0:
288,160,307268,1,8,0:0:0:0:
224,160,307353,1,0,0:0:0:0:
288,160,307524,1,8,0:0:0:0:
224,160,307694,1,0,0:0:0:0:
224,160,307779,1,0,0:0:0:0:
288,160,307865,1,8,0:0:0:0:
224,160,308035,1,0,0:0:0:0:
288,160,308205,1,8,0:0:0:0:
224,160,308546,1,0,0:0:0:0:
224,160,308717,1,0,0:0:0:0:
224,160,308802,1,0,0:0:0:0:
288,160,308887,1,8,0:0:0:0:
224,160,308972,1,0,0:0:0:0:
288,160,309058,1,8,0:0:0:0:
224,160,309228,1,0,0:0:0:0:
288,160,309399,1,8,0:0:0:0:
288,160,309484,1,8,0:0:0:0:
224,160,309569,1,0,0:0:0:0:
224,160,309654,1,0,0:0:0:0:
288,160,309740,1,8,0:0:0:0:
224,160,309910,1,0,0:0:0:0:
288,160,310080,1,8,0:0:0:0:
288,160,310251,1,8,0:0:0:0:
224,160,310421,1,0,0:0:0:0:
288,160,310507,1,8,0:0:0:0:
224,160,310592,1,0,0:0:0:0:
288,160,310762,1,8,0:0:0:0:
288,160,310847,1,8,0:0:0:0:
224,160,310933,1,0,0:0:0:0:
224,160,311018,1,0,0:0:0:0:
288,160,311103,1,8,0:0:0:0:
224,160,311188,1,0,0:0:0:0:
288,160,311274,1,8,0:0:0:0:
224,160,311615,1,0,0:0:0:0:
288,160,311785,1,8,0:0:0:0:
288,160,311870,1,8,0:0:0:0:
224,160,311955,1,0,0:0:0:0:
224,160,312041,1,0,0:0:0:0:
288,160,312126,1,8,0:0:0:0:
256,160,312296,1,8,0:0:0:0:
224,160,312467,1,0,0:0:0:0:
288,160,312637,1,8,0:0:0:0:
224,160,312722,1,0,0:0:0:0:
224,160,312808,1,0,0:0:0:0:
224,160,312893,1,0,0:0:0:0:
288,160,312978,1,8,0:0:0:0:
224,160,313149,1,0,0:0:0:0:
224,160,313490,1,0,0:0:0:0:
288,160,313660,1,8,0:0:0:0:
288,160,313830,1,8,0:0:0:0:
224,160,314001,1,0,0:0:0:0:
288,160,314342,1,8,0:0:0:0:
224,160,314512,1,0,0:0:0:0:
224,160,314597,1,0,0:0:0:0:
288,160,314683,1,8,0:0:0:0:
224,160,314768,1,0,0:0:0:0:
288,160,314853,1,8,0:0:0:0:
288,160,315024,1,8,0:0:0:0:
224,160,315194,1,0,0:0:0:0:
288,160,315365,1,8,0:0:0:0:
288,160,315535,1,8,0:0:0:0:
288,160,315620,1,8,0:0:0:0:
224,160,315705,1,0,0:0:0:0:
224,160,315876,1,0,0:0:0:0:
224,160,315961,1,0,0:0:0:0:
288,160,316046,1,8,0:0:0:0:
288,160,316132,1,8,0:0:0:0:
224,160,316217,1,0,0:0:0:0:
224,160,316302,1,0,0:0:0:0:
288,160,316387,1,8,0:0:0:0:
224,160,316472,1,0,0:0:0:0:
288,160,316558,1,8,0:0:0:0:
256,192,316728,1,4,0:0:0:0:
256,192,317069,1,8,0:0:0:0:
256,192,317240,1,0,0:0:0:0:
256,192,317325,1,0,0:0:0:0:
256,192,317410,1,0,0:0:0:0:
256,192,317580,1,0,0:0:0:0:
256,192,317751,1,8,0:0:0:0:
256,192,317921,1,0,0:0:0:0:
256,192,318092,1,8,0:0:0:0:
256,192,318262,1,8,0:0:0:0:
256,192,318347,1,8,0:0:0:0:
256,192,318433,1,8,0:0:0:0:
256,192,318603,1,0,0:0:0:0:
256,192,318774,1,8,0:0:0:0:
256,192,318944,1,8,0:0:0:0:
256,192,319029,1,8,0:0:0:0:
256,192,319115,1,8,0:0:0:0:
256,192,319285,1,8,0:0:0:0:
256,192,319455,1,0,0:0:0:0:
256,192,319796,1,8,0:0:0:0:
256,192,319967,1,0,0:0:0:0:
256,192,320052,1,0,0:0:0:0:
256,192,320137,1,0,0:0:0:0:
256,192,320308,1,0,0:0:0:0:
256,192,320478,1,8,0:0:0:0:
256,192,320563,1,0,0:0:0:0:
256,192,320649,1,0,0:0:0:0:
256,192,320819,1,8,0:0:0:0:
256,192,320990,1,8,0:0:0:0:
256,192,321075,1,8,0:0:0:0:
256,192,321160,1,8,0:0:0:0:
256,192,321330,1,0,0:0:0:0:
256,192,321501,1,8,0:0:0:0:
256,192,321586,1,8,0:0:0:0:
256,192,321671,1,0,0:0:0:0:
256,192,321842,1,8,0:0:0:0:
256,192,322183,1,0,0:0:0:0:
256,192,322268,1,0,0:0:0:0:
256,192,322353,1,0,0:0:0:0:
256,192,322524,1,8,0:0:0:0:
256,192,322694,1,0,0:0:0:0:
256,192,322779,1,0,0:0:0:0:
256,192,322865,1,0,0:0:0:0:
256,192,322950,1,0,0:0:0:0:
256,192,323035,1,0,0:0:0:0:
256,192,323205,1,8,0:0:0:0:
256,192,323376,1,0,0:0:0:0:
256,192,323546,1,8,0:0:0:0:
256,192,323717,1,0,0:0:0:0:
256,192,323887,1,8,0:0:0:0:
256,192,324058,1,8,0:0:0:0:
256,192,324143,1,8,0:0:0:0:
256,192,324228,1,8,0:0:0:0:
256,192,324313,1,8,0:0:0:0:
256,192,324399,1,0,0:0:0:0:
256,192,324569,1,8,0:0:0:0:
256,192,324910,1,0,0:0:0:0:
256,192,325080,1,0,0:0:0:0:
256,192,325166,1,0,0:0:0:0:
256,192,325251,1,8,0:0:0:0:
256,192,325421,1,0,0:0:0:0:
256,192,325592,1,0,0:0:0:0:
256,192,325762,1,0,0:0:0:0:
256,192,325847,1,0,0:0:0:0:
256,192,325933,1,8,0:0:0:0:
256,192,326018,1,8,0:0:0:0:
256,192,326103,1,0,0:0:0:0:
256,192,326274,1,8,0:0:0:0:
256,192,326444,1,8,0:0:0:0:
256,192,326529,1,8,0:0:0:0:
256,192,326615,1,8,0:0:0:0:
256,192,326785,1,8,0:0:0:0:
256,192,326955,1,0,0:0:0:0:
256,192,327126,1,0,0:0:0:0:
256,192,327211,1,0,0:0:0:0:
256,192,327296,1,8,0:0:0:0:
256,192,327467,1,8,0:0:0:0:
256,192,327637,1,4,0:0:0:0:
256,192,327978,1,0,0:0:0:0:
256,192,328149,1,8,0:0:0:0:
256,192,328319,1,4,0:0:0:0:
256,192,328660,1,0,0:0:0:0:
256,192,329001,1,4,0:0:0:0:
256,192,329342,1,0,0:0:0:0:
256,192,329512,1,8,0:0:0:0:
256,192,329683,1,4,0:0:0:0:
256,192,330024,1,0,0:0:0:0:
256,192,330365,1,4,0:0:0:0:
256,192,330705,1,8,0:0:0:0:
256,192,330876,1,8,0:0:0:0:
256,192,331046,1,4,0:0:0:0:
256,192,331217,1,8,0:0:0:0:
256,192,331387,1,0,0:0:0:0:
256,192,331728,1,4,0:0:0:0:
256,192,332069,1,8,0:0:0:0:
256,192,332240,1,8,0:0:0:0:
256,192,332410,1,4,0:0:0:0:
256,192,332751,1,8,0:0:0:0:
256,192,332921,1,8,0:0:0:0:
256,192,333092,1,4,0:0:0:0:
256,192,333262,1,8,0:0:0:0:
256,192,333347,1,8,0:0:0:0:
256,192,333433,1,0,0:0:0:0:
256,192,333603,1,8,0:0:0:0:
256,192,333774,1,0,0:0:0:0:
256,192,333859,1,0,0:0:0:0:
256,192,333944,1,8,0:0:0:0:
256,192,334115,1,0,0:0:0:0:
256,192,334285,1,8,0:0:0:0:
256,192,334455,1,0,0:0:0:0:
256,192,334541,1,0,0:0:0:0:
256,192,334626,1,8,0:0:0:0:
256,192,334711,1,8,0:0:0:0:
256,192,334796,1,0,0:0:0:0:
256,192,334967,1,8,0:0:0:0:
256,192,335137,1,0,0:0:0:0:
256,192,335222,1,0,0:0:0:0:
256,192,335308,1,8,0:0:0:0:
256,192,335393,1,0,0:0:0:0:
256,192,335478,1,8,0:0:0:0:
256,192,335649,1,0,0:0:0:0:
256,192,335819,1,8,0:0:0:0:
256,192,335904,1,8,0:0:0:0:
256,192,335990,1,0,0:0:0:0:
256,192,336075,1,0,0:0:0:0:
256,192,336160,1,8,0:0:0:0:
256,192,336245,1,0,0:0:0:0:
256,192,336330,1,8,0:0:0:0:
256,192,336416,1,8,0:0:0:0:
256,192,336501,1,0,0:0:0:0:
256,192,336586,1,0,0:0:0:0:
256,192,336671,1,8,0:0:0:0:
256,192,336757,1,0,0:0:0:0:
256,192,336842,1,8,0:0:0:0:
256,192,336927,1,8,0:0:0:0:
256,192,337012,1,8,0:0:0:0:
256,192,337097,1,8,0:0:0:0:
256,192,337183,1,0,0:0:0:0:
256,192,337524,1,0,0:0:0:0:
256,192,337865,1,14,0:0:0:0:
256,192,338035,1,0,0:0:0:0:
256,192,338205,1,14,0:0:0:0:
256,192,338546,1,4,0:0:0:0:
256,192,338887,1,0,0:0:0:0:
256,192,339228,1,0,0:0:0:0:
256,192,339569,1,0,0:0:0:0:
256,192,339757,1,8,0:0:0:0:
256,192,339816,1,8,0:0:0:0:
256,192,339875,1,8,0:0:0:0:
256,192,339934,1,0,0:0:0:0:
