osu file format v14

[General]
AudioFilename: Paranoid Lost.mp3
AudioLeadIn: 0
PreviewTime: 108988
Countdown: 0
SampleSet: Normal
StackLeniency: 0.7
Mode: 1
LetterboxInBreaks: 0
WidescreenStoryboard: 0

[Editor]
Bookmarks: 43619,65437,109073,119983,130892,152710,174528,218164,250892,261801,272710,294528,305437,316346
DistanceSpacing: 1.5
BeatDivisor: 4
GridSize: 32
TimelineZoom: 1

[Metadata]
Title:Paranoid Lost
TitleUnicode:Paranoid Lost
Artist:Halozy
ArtistUnicode:Halozy
Creator:Greenshell
Version:Oni
Source:東方風神録 ~ Mountain of Faith.
Tags:Fuujinroku 東方Project Shizuha 秋静葉 秋穣子 Minoriko Aki Tonic Triangle HLZY-0011 Touhou th10 Stage 1 Boss 稲田姫様に叱られるから Because Princess Inada is Scolding Me 美里 Misato Misty ZUN Team Shanghai Alice 上海アリス幻樂団 C81 すみじゅん sumijun DnB Drum and Bass
BeatmapID:1227861
BeatmapSetID:579951

[Difficulty]
HPDrainRate:5
CircleSize:2
OverallDifficulty:6
ApproachRate:10
SliderMultiplier:1.4
SliderTickRate:1

[Events]
//Background and Video events
0,0,"new_rescaled_cute.png",0,115
//Break Periods
//Storyboard Layer 0 (Background)
//Storyboard Layer 1 (Fail)
//Storyboard Layer 2 (Pass)
//Storyboard Layer 3 (Foreground)
//Storyboard Sound Samples

[TimingPoints]
-17,340.909090909091,4,1,0,60,1,0
21715,-111.111111111111,4,1,0,60,0,0
25977,-111.111111111111,4,1,0,55,0,0
26488,-111.111111111111,4,1,0,50,0,0
26829,-111.111111111111,4,1,0,45,0,0
27170,-111.111111111111,4,1,0,40,0,0
29897,-111.111111111111,4,1,0,35,0,0
30920,-109.89010989011,4,1,0,30,0,0
31431,-108.695652173913,4,1,0,30,0,0
31943,-107.52688172043,4,1,0,30,0,0
32284,-106.382978723404,4,1,0,30,0,0
32625,-105.263157894737,4,1,0,60,0,0
36715,-104.166666666667,4,1,0,60,0,0
37056,-103.092783505155,4,1,0,60,0,0
37397,-102.040816326531,4,1,0,60,0,0
37738,-101.010101010101,4,1,0,60,0,0
38079,-100,4,1,0,70,0,0
43619,-100,4,1,0,80,0,0
65437,-100,4,1,0,70,0,0
76346,-100,4,1,0,75,0,0
87255,-100,4,1,0,55,0,0
98164,-100,4,1,0,80,0,0
109073,-100,4,1,0,90,0,1
152710,-100,4,1,0,80,0,0
174528,-100,4,1,0,70,0,0
185437,-100,4,1,0,75,0,0
196346,-100,4,1,0,55,0,0
207255,-100,4,1,0,80,0,0
217142,-102.040816326531,4,1,0,80,0,0
217312,-104.166666666667,4,1,0,80,0,0
217483,-106.382978723404,4,1,0,80,0,0
217653,-108.695652173913,4,1,0,80,0,0
217823,-111.111111111111,4,1,0,80,0,0
217994,-113.636363636364,4,1,0,80,0,0
218164,-117.647058823529,4,1,0,60,0,0
228392,-113.636363636364,4,1,0,60,0,0
228733,-112.359550561798,4,1,0,60,0,0
229073,-111.111111111111,4,1,0,75,0,0
239812,-100,4,1,0,75,0,0
250892,-100,4,1,0,90,0,1
294528,-100,4,1,0,80,0,0
305437,-100,4,1,0,90,0,1
316346,-100,4,1,0,80,0,0

[HitObjects]
288,160,21801,5,8,0:0:0:0:
224,160,22312,1,0,0:0:0:0:
288,160,22823,1,8,0:0:0:0:
224,160,23335,1,0,0:0:0:0:
224,160,23846,1,0,0:0:0:0:
224,160,24187,1,0,0:0:0:0:
288,160,24528,1,8,0:0:0:0:
224,160,25039,1,0,0:0:0:0:
288,160,25551,1,8,0:0:0:0:
224,160,26062,1,0,0:0:0:0:
224,160,26573,1,0,0:0:0:0:
224,160,26914,1,0,0:0:0:0:
288,160,27255,1,8,0:0:0:0:
288,160,27767,1,8,0:0:0:0:
288,160,28278,1,8,0:0:0:0:
288,160,28789,1,8,0:0:0:0:
288,160,29301,1,8,0:0:0:0:
288,160,29642,1,8,0:0:0:0:
224,160,29983,1,0,0:0:0:0:
224,160,30494,1,0,0:0:0:0:
224,160,31005,1,0,0:0:0:0:
288,160,31517,1,8,0:0:0:0:
288,160,32028,1,8,0:0:0:0:
224,160,32369,1,0,0:0:0:0:
288,224,32710,1,12,0:0:0:0:
224,160,33051,1,0,0:0:0:0:
288,224,33392,1,12,0:0:0:0:
224,160,33733,1,0,0:0:0:0:
288,224,34073,1,12,0:0:0:0:
224,160,34414,1,0,0:0:0:0:
288,224,34755,1,12,0:0:0:0:
224,160,35096,1,0,0:0:0:0:
288,224,35437,1,12,0:0:0:0:
288,160,35778,1,8,0:0:0:0:
288,224,36119,1,12,0:0:0:0:
288,160,36460,1,8,0:0:0:0:
288,224,36801,1,12,0:0:0:0:
288,160,37142,1,8,0:0:0:0:
288,224,37483,1,12,0:0:0:0:
288,160,37823,1,8,0:0:0:0:
288,224,38164,1,12,0:0:0:0:
224,160,38335,1,0,0:0:0:0:
288,224,38505,1,12,0:0:0:0:
224,160,38676,1,0,0:0:0:0:
288,224,38846,1,12,0:0:0:0:
224,160,39017,1,0,0:0:0:0:
288,224,39187,1,12,0:0:0:0:
224,160,39358,1,0,0:0:0:0:
288,224,39528,1,12,0:0:0:0:
224,160,39699,1,0,0:0:0:0:
288,224,39869,1,12,0:0:0:0:
224,160,40040,1,0,0:0:0:0:
288,224,40210,1,12,0:0:0:0:
224,160,40381,1,0,0:0:0:0:
288,224,40551,1,12,0:0:0:0:
224,160,40722,1,0,0:0:0:0:
288,160,40892,1,8,0:0:0:0:
288,160,40977,1,8,0:0:0:0:
224,160,41062,1,0,0:0:0:0:
224,160,41147,1,0,0:0:0:0:
288,160,41233,1,8,0:0:0:0:
224,160,41318,1,0,0:0:0:0:
288,160,41403,1,8,0:0:0:0:
288,160,41488,1,8,0:0:0:0:
224,160,41573,1,0,0:0:0:0:
224,160,41659,1,0,0:0:0:0:
288,160,41744,1,8,0:0:0:0:
224,160,41829,1,0,0:0:0:0:
288,160,41914,1,8,0:0:0:0:
288,160,42000,1,8,0:0:0:0:
224,160,42085,1,0,0:0:0:0:
224,160,42170,1,0,0:0:0:0:
288,160,42255,1,8,0:0:0:0:
224,160,42426,1,0,0:0:0:0:
288,224,42596,1,8,0:0:0:0:
288,160,42767,1,8,0:0:0:0:
288,224,42937,1,12,0:0:0:0:
224,160,43108,1,0,0:0:0:0:
288,224,43278,1,12,0:0:0:0:
224,224,43619,1,4,0:0:0:0:
288,160,43960,1,8,0:0:0:0:
224,160,44130,1,0,0:0:0:0:
224,160,44215,1,0,0:0:0:0:
224,160,44301,1,0,0:0:0:0:
224,160,44471,1,0,0:0:0:0:
288,160,44642,1,8,0:0:0:0:
288,160,44812,1,8,0:0:0:0:
224,160,44983,1,0,0:0:0:0:
224,160,45153,1,0,0:0:0:0:
224,160,45238,1,0,0:0:0:0:
288,160,45323,1,8,0:0:0:0:
288,160,45494,1,8,0:0:0:0:
288,160,45579,1,8,0:0:0:0:
224,160,45664,1,8,0:0:0:0:
224,160,45835,1,0,0:0:0:0:
288,160,46005,1,8,0:0:0:0:
224,160,46346,1,0,0:0:0:0:
224,160,46517,1,0,0:0:0:0:
288,160,46687,1,8,0:0:0:0:
224,160,46858,1,0,0:0:0:0:
224,160,47028,1,0,0:0:0:0:
224,160,47198,1,0,0:0:0:0:
224,160,47284,1,0,0:0:0:0:
288,160,47369,1,8,0:0:0:0:
288,160,47539,1,8,0:0:0:0:
224,160,47710,1,0,0:0:0:0:
224,160,47880,1,8,0:0:0:0:
224,160,47965,1,0,0:0:0:0:
288,160,48051,1,8,0:0:0:0:
224,160,48221,1,0,0:0:0:0:
224,160,48306,1,0,0:0:0:0:
288,160,48392,1,8,0:0:0:0:
288,160,48477,1,8,0:0:0:0:
224,160,48562,1,0,0:0:0:0:
288,160,48733,1,8,0:0:0:0:
288,160,48903,1,8,0:0:0:0:
224,160,49073,1,0,0:0:0:0:
288,160,49414,1,8,0:0:0:0:
224,160,49585,1,0,0:0:0:0:
224,160,49670,1,0,0:0:0:0:
224,160,49755,1,0,0:0:0:0:
224,160,49926,1,0,0:0:0:0:
288,160,50096,1,8,0:0:0:0:
288,160,50267,1,8,0:0:0:0:
224,160,50437,1,0,0:0:0:0:
224,160,50608,1,0,0:0:0:0:
224,160,50693,1,0,0:0:0:0:
288,160,50778,1,8,0:0:0:0:
288,160,50948,1,8,0:0:0:0:
288,160,51034,1,8,0:0:0:0:
288,160,51119,1,8,0:0:0:0:
224,160,51289,1,0,0:0:0:0:
288,160,51460,1,8,0:0:0:0:
224,160,51801,1,0,0:0:0:0:
224,160,51971,1,0,0:0:0:0:
288,160,52142,1,8,0:0:0:0:
224,160,52312,1,0,0:0:0:0:
224,160,52397,1,0,0:0:0:0:
224,160,52483,1,0,0:0:0:0:
224,160,52653,1,0,0:0:0:0:
288,160,52823,1,8,0:0:0:0:
288,160,52994,1,8,0:0:0:0:
224,160,53079,1,8,0:0:0:0:
224,160,53164,1,0,0:0:0:0:
224,160,53335,1,0,0:0:0:0:
288,160,53505,1,8,0:0:0:0:
288,160,53676,1,8,0:0:0:0:
224,160,53761,1,0,0:0:0:0:
288,160,53846,1,8,0:0:0:0:
288,160,53931,1,8,0:0:0:0:
224,160,54017,1,0,0:0:0:0:
288,160,54102,1,0,0:0:0:0:
288,160,54187,1,8,0:0:0:0:
288,160,54358,1,8,0:0:0:0:
224,224,54528,1,4,0:0:0:0:
288,160,54869,1,8,0:0:0:0:
224,160,55039,1,0,0:0:0:0:
224,160,55125,1,0,0:0:0:0:
224,160,55210,1,0,0:0:0:0:
224,160,55380,1,0,0:0:0:0:
224,160,55465,1,0,0:0:0:0:
288,160,55551,1,8,0:0:0:0:
288,160,55721,1,8,0:0:0:0:
224,160,55892,1,0,0:0:0:0:
224,160,56062,1,0,0:0:0:0:
224,160,56147,1,0,0:0:0:0:
288,160,56233,1,8,0:0:0:0:
288,160,56403,1,8,0:0:0:0:
288,160,56488,1,8,0:0:0:0:
288,160,56573,1,8,0:0:0:0:
224,160,56744,1,0,0:0:0:0:
288,160,56914,1,8,0:0:0:0:
224,160,57255,1,0,0:0:0:0:
224,160,57426,1,0,0:0:0:0:
288,160,57596,1,8,0:0:0:0:
224,160,57767,1,0,0:0:0:0:
224,160,57852,1,0,0:0:0:0:
224,160,57937,1,0,0:0:0:0:
224,160,58108,1,0,0:0:0:0:
288,160,58278,1,8,0:0:0:0:
288,160,58448,1,8,0:0:0:0:
288,160,58534,1,8,0:0:0:0:
224,160,58619,1,0,0:0:0:0:
288,160,58789,1,0,0:0:0:0:
224,160,58875,1,0,0:0:0:0:
288,160,58960,1,8,0:0:0:0:
224,160,59130,1,0,0:0:0:0:
288,160,59301,1,8,0:0:0:0:
288,160,59386,1,8,0:0:0:0:
224,160,59471,1,0,0:0:0:0:
224,160,59556,1,0,0:0:0:0:
288,160,59642,1,8,0:0:0:0:
288,160,59812,1,8,0:0:0:0:
224,160,59983,1,0,0:0:0:0:
288,160,60323,1,8,0:0:0:0:
224,160,60494,1,0,0:0:0:0:
224,160,60579,1,0,0:0:0:0:
224,160,60664,1,0,0:0:0:0:
224,160,60835,1,0,0:0:0:0:
224,160,60920,1,0,0:0:0:0:
288,160,61005,1,8,0:0:0:0:
288,160,61176,1,8,0:0:0:0:
224,160,61346,1,0,0:0:0:0:
288,160,61517,1,8,0:0:0:0:
288,160,61602,1,8,0:0:0:0:
288,160,61687,1,8,0:0:0:0:
224,160,61858,1,0,0:0:0:0:
224,160,61943,1,0,0:0:0:0:
288,160,62028,1,8,0:0:0:0:
288,160,62113,1,8,0:0:0:0:
224,160,62198,1,0,0:0:0:0:
288,160,62369,1,8,0:0:0:0:
224,160,62710,1,0,0:0:0:0:
224,160,62880,1,0,0:0:0:0:
288,160,63051,1,8,0:0:0:0:
224,160,63221,1,0,0:0:0:0:
224,160,63306,1,0,0:0:0:0:
224,160,63392,1,0,0:0:0:0:
224,160,63562,1,0,0:0:0:0:
288,160,63733,1,8,0:0:0:0:
288,160,63903,1,8,0:0:0:0:
288,160,63988,1,8,0:0:0:0:
224,160,64073,1,0,0:0:0:0:
224,160,64244,1,0,0:0:0:0:
224,160,64329,1,0,0:0:0:0:
288,160,64414,1,8,0:0:0:0:
224,160,64585,1,0,0:0:0:0:
288,160,64755,1,8,0:0:0:0:
288,160,64840,1,8,0:0:0:0:
224,160,64926,1,0,0:0:0:0:
224,160,65011,1,0,0:0:0:0:
288,160,65096,1,8,0:0:0:0:
224,160,65181,1,0,0:0:0:0:
288,160,65267,1,8,0:0:0:0:
224,224,65437,1,4,0:0:0:0:
288,160,65778,1,8,0:0:0:0:
224,160,65948,1,0,0:0:0:0:
224,160,66119,1,0,0:0:0:0:
224,160,66289,1,0,0:0:0:0:
288,160,66460,1,8,0:0:0:0:
224,160,66630,1,0,0:0:0:0:
224,160,66801,1,0,0:0:0:0:
288,160,67142,1,8,0:0:0:0:
224,160,67312,1,0,0:0:0:0:
224,160,67397,1,0,0:0:0:0:
224,160,67483,1,0,0:0:0:0:
224,160,67653,1,0,0:0:0:0:
288,160,67823,1,8,0:0:0:0:
224,160,68164,1,0,0:0:0:0:
288,160,68505,1,8,0:0:0:0:
224,160,68676,1,0,0:0:0:0:
224,160,68846,1,0,0:0:0:0:
224,160,69017,1,0,0:0:0:0:
288,160,69187,1,8,0:0:0:0:
224,160,69358,1,0,0:0:0:0:
224,160,69528,1,0,0:0:0:0:
288,160,69869,1,8,0:0:0:0:
288,160,70039,1,8,0:0:0:0:
224,160,70125,1,0,0:0:0:0:
224,160,70210,1,0,0:0:0:0:
224,160,70380,1,0,0:0:0:0:
288,160,70551,1,8,0:0:0:0:
224,160,70892,1,0,0:0:0:0:
288,160,71233,1,8,0:0:0:0:
224,160,71403,1,0,0:0:0:0:
224,160,71744,1,0,0:0:0:0:
288,160,71914,1,8,0:0:0:0:
224,160,72085,1,0,0:0:0:0:
224,160,72255,1,0,0:0:0:0:
288,160,72596,1,8,0:0:0:0:
224,160,72767,1,0,0:0:0:0:
224,160,73108,1,0,0:0:0:0:
288,160,73278,1,8,0:0:0:0:
224,160,73448,1,0,0:0:0:0:
224,160,73619,1,0,0:0:0:0:
288,160,73960,1,8,0:0:0:0:
224,160,74130,1,0,0:0:0:0:
224,160,74471,1,0,0:0:0:0:
288,160,74642,1,8,0:0:0:0:
288,160,74812,1,8,0:0:0:0:
224,160,74983,1,0,0:0:0:0:
288,160,75323,1,8,0:0:0:0:
224,160,75494,1,0,0:0:0:0:
224,160,75835,1,0,0:0:0:0:
288,160,76005,1,8,0:0:0:0:
224,160,76176,1,0,0:0:0:0:
224,160,76233,1,0,0:0:0:0:
224,160,76289,1,0,0:0:0:0:
288,160,76346,1,8,0:0:0:0:
288,160,76687,1,8,0:0:0:0:
224,160,76858,1,0,0:0:0:0:
224,160,76943,1,0,0:0:0:0:
224,160,77028,1,0,0:0:0:0:
224,160,77198,1,0,0:0:0:0:
288,160,77369,1,8,0:0:0:0:
224,160,77539,1,0,0:0:0:0:
224,160,77710,1,0,0:0:0:0:
288,160,78051,1,8,0:0:0:0:
288,160,78221,1,8,0:0:0:0:
288,160,78306,1,8,0:0:0:0:
224,160,78392,1,0,0:0:0:0:
224,160,78562,1,0,0:0:0:0:
288,160,78733,1,8,0:0:0:0:
224,160,79073,1,0,0:0:0:0:
288,160,79414,1,8,0:0:0:0:
224,160,79585,1,0,0:0:0:0:
224,160,79670,1,0,0:0:0:0:
224,160,79755,1,0,0:0:0:0:
224,160,79926,1,0,0:0:0:0:
288,160,80096,1,8,0:0:0:0:
224,160,80267,1,0,0:0:0:0:
224,160,80437,1,0,0:0:0:0:
288,160,80778,1,8,0:0:0:0:
224,160,80948,1,0,0:0:0:0:
288,160,81034,1,8,0:0:0:0:
224,160,81119,1,0,0:0:0:0:
224,160,81289,1,0,0:0:0:0:
288,160,81460,1,8,0:0:0:0:
288,160,81630,1,8,0:0:0:0:
288,160,81715,1,8,0:0:0:0:
224,160,81801,1,0,0:0:0:0:
288,160,82142,1,8,0:0:0:0:
224,160,82312,1,0,0:0:0:0:
224,160,82653,1,0,0:0:0:0:
288,160,82823,1,8,0:0:0:0:
224,160,82994,1,0,0:0:0:0:
288,160,83164,1,8,0:0:0:0:
288,160,83505,1,8,0:0:0:0:
224,160,83676,1,0,0:0:0:0:
224,160,84017,1,0,0:0:0:0:
288,160,84187,1,8,0:0:0:0:
288,160,84358,1,8,0:0:0:0:
288,160,84443,1,8,0:0:0:0:
224,160,84528,1,0,0:0:0:0:
288,160,84869,1,8,0:0:0:0:
224,160,85039,1,0,0:0:0:0:
224,160,85380,1,0,0:0:0:0:
288,160,85551,1,8,0:0:0:0:
288,160,85721,1,0,0:0:0:0:
224,160,85892,1,0,0:0:0:0:
288,160,86233,1,8,0:0:0:0:
224,160,86573,1,0,0:0:0:0:
288,160,86744,1,8,0:0:0:0:
288,160,86914,1,8,0:0:0:0:
224,160,87085,1,0,0:0:0:0:
288,160,87255,1,8,0:0:0:0:
256,192,87426,12,0,89301,0:0:0:0:
288,160,89642,5,8,0:0:0:0:
288,160,89812,1,8,0:0:0:0:
256,192,89983,12,0,91346,0:0:0:0:
288,160,92028,5,8,0:0:0:0:
224,160,92369,1,0,0:0:0:0:
288,160,92710,1,8,0:0:0:0:
256,192,92880,12,0,94755,0:0:0:0:
288,160,95096,5,8,0:0:0:0:
224,160,95267,1,0,0:0:0:0:
256,192,95437,12,0,96119,0:0:0:0:
224,160,96460,5,0,0:0:0:0:
224,160,96630,1,0,0:0:0:0:
288,160,97482,1,8,0:0:0:0:
288,224,98164,1,12,0:0:0:0:
224,160,98505,1,0,0:0:0:0:
288,224,98846,1,12,0:0:0:0:
224,160,99187,1,0,0:0:0:0:
288,224,99528,1,12,0:0:0:0:
224,160,99869,1,0,0:0:0:0:
288,224,100210,1,12,0:0:0:0:
224,160,100551,1,0,0:0:0:0:
288,224,100892,1,12,0:0:0:0:
288,160,101233,1,8,0:0:0:0:
288,224,101573,1,12,0:0:0:0:
288,160,101914,1,8,0:0:0:0:
288,224,102255,1,12,0:0:0:0:
288,160,102596,1,8,0:0:0:0:
288,224,102937,1,12,0:0:0:0:
288,160,103278,1,8,0:0:0:0:
288,224,103619,1,12,0:0:0:0:
224,160,103789,1,0,0:0:0:0:
288,224,103960,1,12,0:0:0:0:
224,160,104130,1,0,0:0:0:0:
288,224,104301,1,12,0:0:0:0:
224,160,104471,1,0,0:0:0:0:
288,224,104642,1,12,0:0:0:0:
224,160,104812,1,0,0:0:0:0:
288,224,104983,1,12,0:0:0:0:
224,160,105153,1,0,0:0:0:0:
288,224,105323,1,12,0:0:0:0:
224,160,105493,1,0,0:0:0:0:
288,224,105664,1,12,0:0:0:0:
224,160,105834,1,0,0:0:0:0:
288,224,106005,1,12,0:0:0:0:
224,160,106175,1,0,0:0:0:0:
288,160,106346,1,8,0:0:0:0:
288,160,106431,1,0,0:0:0:0:
224,160,106517,1,0,0:0:0:0:
224,160,106602,1,0,0:0:0:0:
288,160,106687,1,8,0:0:0:0:
224,160,106772,1,0,0:0:0:0:
224,160,106858,1,0,0:0:0:0:
224,160,106943,1,0,0:0:0:0:
288,160,107028,1,8,0:0:0:0:
224,160,107113,1,8,0:0:0:0:
224,160,107198,1,0,0:0:0:0:
224,160,107284,1,0,0:0:0:0:
288,160,107369,1,8,0:0:0:0:
224,160,107454,1,0,0:0:0:0:
288,160,107539,1,8,0:0:0:0:
288,160,107625,1,8,0:0:0:0:
288,160,107710,1,8,0:0:0:0:
224,160,107880,1,0,0:0:0:0:
288,160,108051,1,8,0:0:0:0:
288,160,108221,1,8,0:0:0:0:
288,160,108392,1,12,0:0:0:0:
224,160,108562,1,0,0:0:0:0:
288,160,108733,1,12,0:0:0:0:
224,224,109073,1,4,0:0:0:0:
288,160,109414,1,8,0:0:0:0:
224,160,109585,1,0,0:0:0:0:
224,160,109670,1,0,0:0:0:0:
224,160,109755,1,0,0:0:0:0:
224,160,109926,1,0,0:0:0:0:
224,160,110011,1,0,0:0:0:0:
288,160,110096,1,8,0:0:0:0:
288,160,110267,1,8,0:0:0:0:
224,160,110437,1,0,0:0:0:0:
224,160,110522,1,0,0:0:0:0:
224,160,110608,1,0,0:0:0:0:
224,160,110693,1,0,0:0:0:0:
288,160,110778,1,8,0:0:0:0:
224,160,110948,1,0,0:0:0:0:
288,160,111119,1,8,0:0:0:0:
224,160,111289,1,0,0:0:0:0:
288,160,111460,1,8,0:0:0:0:
288,160,111630,1,8,0:0:0:0:
224,160,111715,1,0,0:0:0:0:
224,160,111801,1,0,0:0:0:0:
288,160,112142,1,8,0:0:0:0:
288,160,112312,1,8,0:0:0:0:
288,160,112397,1,8,0:0:0:0:
224,160,112483,1,0,0:0:0:0:
288,160,112653,1,8,0:0:0:0:
224,160,112738,1,0,0:0:0:0:
288,160,112823,1,8,0:0:0:0:
224,160,112994,1,0,0:0:0:0:
288,160,113164,1,8,0:0:0:0:
288,160,113250,1,8,0:0:0:0:
224,160,113335,1,0,0:0:0:0:
224,160,113420,1,0,0:0:0:0:
288,160,113505,1,8,0:0:0:0:
288,160,113676,1,8,0:0:0:0:
224,160,113846,1,0,0:0:0:0:
288,160,114017,1,8,0:0:0:0:
288,160,114187,1,8,0:0:0:0:
224,160,114358,1,0,0:0:0:0:
288,160,114528,1,8,0:0:0:0:
224,160,114698,1,0,0:0:0:0:
224,160,114784,1,0,0:0:0:0:
224,160,114869,1,0,0:0:0:0:
288,160,115039,1,8,0:0:0:0:
224,160,115210,1,0,0:0:0:0:
288,160,115295,1,8,0:0:0:0:
224,160,115380,1,0,0:0:0:0:
288,160,115551,1,8,0:0:0:0:
224,160,115721,1,0,0:0:0:0:
224,160,115806,1,0,0:0:0:0:
224,160,115892,1,0,0:0:0:0:
288,160,116062,1,8,0:0:0:0:
224,160,116233,1,0,0:0:0:0:
288,160,116318,1,8,0:0:0:0:
224,160,116403,1,0,0:0:0:0:
288,160,116573,1,8,0:0:0:0:
224,160,116744,1,0,0:0:0:0:
224,160,116829,1,0,0:0:0:0:
288,160,116914,1,8,0:0:0:0:
224,160,117085,1,0,0:0:0:0:
288,160,117255,1,8,0:0:0:0:
288,160,117426,1,8,0:0:0:0:
288,160,117511,1,8,0:0:0:0:
224,160,117596,1,0,0:0:0:0:
288,160,117767,1,8,0:0:0:0:
288,160,117937,1,8,0:0:0:0:
224,160,118022,1,0,0:0:0:0:
224,160,118108,1,0,0:0:0:0:
288,160,118278,1,8,0:0:0:0:
288,160,118448,1,8,0:0:0:0:
288,160,118534,1,8,0:0:0:0:
224,160,118619,1,0,0:0:0:0:
288,160,118789,1,8,0:0:0:0:
288,160,118960,1,8,0:0:0:0:
224,160,119045,1,0,0:0:0:0:
224,160,119130,1,0,0:0:0:0:
288,160,119301,1,8,0:0:0:0:
288,160,119471,1,8,0:0:0:0:
224,160,119556,1,0,0:0:0:0:
288,160,119642,1,8,0:0:0:0:
224,160,119812,1,0,0:0:0:0:
224,224,119983,1,4,0:0:0:0:
288,160,120323,1,8,0:0:0:0:
224,160,120494,1,0,0:0:0:0:
224,160,120579,1,0,0:0:0:0:
224,160,120664,1,0,0:0:0:0:
224,160,120835,1,0,0:0:0:0:
224,160,120920,1,0,0:0:0:0:
288,160,121005,1,8,0:0:0:0:
288,160,121176,1,8,0:0:0:0:
288,160,121261,1,8,0:0:0:0:
288,160,121346,1,0,0:0:0:0:
224,160,121432,1,0,0:0:0:0:
224,160,121517,1,0,0:0:0:0:
288,160,121687,1,8,0:0:0:0:
224,160,121858,1,0,0:0:0:0:
288,160,122028,1,8,0:0:0:0:
224,160,122198,1,0,0:0:0:0:
288,160,122369,1,8,0:0:0:0:
288,160,122539,1,8,0:0:0:0:
288,160,122625,1,8,0:0:0:0:
224,160,122710,1,0,0:0:0:0:
288,160,123051,1,8,0:0:0:0:
288,160,123221,1,8,0:0:0:0:
224,160,123306,1,0,0:0:0:0:
224,160,123392,1,0,0:0:0:0:
224,160,123562,1,0,0:0:0:0:
224,160,123647,1,0,0:0:0:0:
288,160,123733,1,8,0:0:0:0:
224,160,123903,1,0,0:0:0:0:
224,160,123988,1,0,0:0:0:0:
288,160,124073,1,8,0:0:0:0:
224,160,124159,1,0,0:0:0:0:
224,160,124244,1,0,0:0:0:0:
288,160,124414,1,8,0:0:0:0:
288,160,124585,1,8,0:0:0:0:
224,160,124755,1,0,0:0:0:0:
288,160,124926,1,8,0:0:0:0:
288,160,125096,1,8,0:0:0:0:
224,160,125267,1,0,0:0:0:0:
224,160,125437,1,8,0:0:0:0:
224,160,125522,1,0,0:0:0:0:
224,160,125608,1,0,0:0:0:0:
224,160,125778,1,0,0:0:0:0:
288,160,125948,1,8,0:0:0:0:
224,160,126034,1,8,0:0:0:0:
224,160,126119,1,0,0:0:0:0:
224,160,126289,1,0,0:0:0:0:
288,160,126460,1,8,0:0:0:0:
224,160,126545,1,0,0:0:0:0:
224,160,126630,1,0,0:0:0:0:
224,160,126801,1,0,0:0:0:0:
288,160,126971,1,8,0:0:0:0:
288,160,127056,1,8,0:0:0:0:
224,160,127142,1,0,0:0:0:0:
224,160,127312,1,0,0:0:0:0:
288,160,127483,1,8,0:0:0:0:
224,160,127568,1,0,0:0:0:0:
224,160,127653,1,0,0:0:0:0:
288,160,127823,1,8,0:0:0:0:
224,160,127994,1,0,0:0:0:0:
288,160,128165,1,8,0:0:0:0:
288,160,128250,1,8,0:0:0:0:
288,160,128335,1,8,0:0:0:0:
224,160,128506,1,0,0:0:0:0:
288,160,128675,1,8,0:0:0:0:
224,160,128761,1,0,0:0:0:0:
288,160,128846,1,8,0:0:0:0:
224,160,129016,1,0,0:0:0:0:
288,160,129187,1,8,0:0:0:0:
288,160,129272,1,8,0:0:0:0:
288,160,129357,1,8,0:0:0:0:
224,160,129528,1,0,0:0:0:0:
288,160,129697,1,8,0:0:0:0:
224,160,129784,1,0,0:0:0:0:
288,160,129868,1,8,0:0:0:0:
224,160,130039,1,0,0:0:0:0:
288,160,130210,1,8,0:0:0:0:
288,160,130295,1,8,0:0:0:0:
224,160,130380,1,0,0:0:0:0:
288,160,130551,1,8,0:0:0:0:
288,160,130721,1,8,0:0:0:0:
224,224,130892,1,4,0:0:0:0:
288,160,131233,1,8,0:0:0:0:
224,160,131403,1,0,0:0:0:0:
224,160,131488,1,0,0:0:0:0:
224,160,131573,1,0,0:0:0:0:
224,160,131744,1,0,0:0:0:0:
288,160,131914,1,8,0:0:0:0:
224,160,132000,1,0,0:0:0:0:
288,160,132085,1,8,0:0:0:0:
288,160,132170,1,8,0:0:0:0:
224,160,132255,1,0,0:0:0:0:
224,160,132426,1,0,0:0:0:0:
288,160,132596,1,8,0:0:0:0:
288,160,132767,1,8,0:0:0:0:
288,160,132852,1,8,0:0:0:0:
288,160,132937,1,8,0:0:0:0:
224,160,133108,1,0,0:0:0:0:
288,160,133278,1,8,0:0:0:0:
224,160,133619,1,0,0:0:0:0:
224,160,133789,1,0,0:0:0:0:
288,160,133960,1,8,0:0:0:0:
224,160,134130,1,0,0:0:0:0:
224,160,134215,1,0,0:0:0:0:
224,160,134301,1,0,0:0:0:0:
224,160,134471,1,0,0:0:0:0:
288,160,134642,1,8,0:0:0:0:
288,160,134812,1,8,0:0:0:0:
288,160,134897,1,8,0:0:0:0:
224,160,134983,1,0,0:0:0:0:
288,160,135153,1,8,0:0:0:0:
224,160,135238,1,0,0:0:0:0:
288,160,135323,1,8,0:0:0:0:
224,160,135494,1,0,0:0:0:0:
288,160,135664,1,8,0:0:0:0:
288,160,135750,1,8,0:0:0:0:
224,160,135835,1,0,0:0:0:0:
224,160,135920,1,0,0:0:0:0:
288,160,136005,1,8,0:0:0:0:
288,160,136176,1,8,0:0:0:0:
224,160,136346,1,0,0:0:0:0:
288,160,136687,1,8,0:0:0:0:
224,160,136858,1,0,0:0:0:0:
224,160,136943,1,0,0:0:0:0:
224,160,137028,1,0,0:0:0:0:
224,160,137198,1,0,0:0:0:0:
288,160,137369,1,8,0:0:0:0:
288,160,137539,1,8,0:0:0:0:
288,160,137625,1,8,0:0:0:0:
224,160,137710,1,0,0:0:0:0:
224,160,137880,1,0,0:0:0:0:
224,160,137965,1,0,0:0:0:0:
288,160,138051,1,8,0:0:0:0:
224,160,138221,1,0,0:0:0:0:
224,160,138306,1,0,0:0:0:0:
288,160,138392,1,8,0:0:0:0:
288,160,138477,1,8,0:0:0:0:
224,160,138562,1,0,0:0:0:0:
288,160,138733,1,8,0:0:0:0:
288,160,138903,1,8,0:0:0:0:
224,160,139073,1,0,0:0:0:0:
224,160,139244,1,0,0:0:0:0:
288,160,139414,1,8,0:0:0:0:
224,160,139585,1,0,0:0:0:0:
224,160,139670,1,0,0:0:0:0:
224,160,139755,1,0,0:0:0:0:
224,160,139926,1,0,0:0:0:0:
288,160,140096,1,8,0:0:0:0:
288,160,140267,1,8,0:0:0:0:
288,160,140352,1,8,0:0:0:0:
224,160,140437,1,0,0:0:0:0:
224,160,140608,1,0,0:0:0:0:
224,160,140693,1,0,0:0:0:0:
288,160,140778,1,8,0:0:0:0:
224,160,140948,1,0,0:0:0:0:
224,160,141034,1,0,0:0:0:0:
288,160,141119,1,8,0:0:0:0:
288,160,141204,1,8,0:0:0:0:
224,160,141289,1,0,0:0:0:0:
224,160,141375,1,0,0:0:0:0:
288,160,141460,1,8,0:0:0:0:
288,160,141630,1,8,0:0:0:0:
288,224,141801,1,12,0:0:0:0:
224,160,142142,1,0,0:0:0:0:
288,224,142483,1,12,0:0:0:0:
224,160,142824,1,0,0:0:0:0:
288,224,143164,1,12,0:0:0:0:
224,160,143505,1,0,0:0:0:0:
288,224,143846,1,12,0:0:0:0:
224,160,144187,1,0,0:0:0:0:
288,224,144528,1,12,0:0:0:0:
288,160,144869,1,8,0:0:0:0:
288,224,145210,1,12,0:0:0:0:
288,160,145551,1,8,0:0:0:0:
288,224,145892,1,12,0:0:0:0:
288,160,146233,1,8,0:0:0:0:
288,224,146573,1,12,0:0:0:0:
288,160,146914,1,8,0:0:0:0:
288,224,147255,1,12,0:0:0:0:
224,160,147426,1,0,0:0:0:0:
224,160,147596,1,0,0:0:0:0:
288,224,147767,1,12,0:0:0:0:
224,160,147937,1,0,0:0:0:0:
224,160,148022,1,0,0:0:0:0:
224,160,148108,1,0,0:0:0:0:
288,224,148278,1,12,0:0:0:0:
224,160,148448,1,0,0:0:0:0:
224,160,148619,1,0,0:0:0:0:
288,224,148789,1,12,0:0:0:0:
224,160,148960,1,0,0:0:0:0:
224,160,149045,1,0,0:0:0:0:
224,160,149130,1,0,0:0:0:0:
288,224,149301,1,12,0:0:0:0:
224,160,149471,1,0,0:0:0:0:
288,224,149642,1,12,0:0:0:0:
224,160,149812,1,0,0:0:0:0:
288,224,149983,1,12,0:0:0:0:
224,160,150153,1,0,0:0:0:0:
224,160,150323,1,0,0:0:0:0:
288,224,150494,1,12,0:0:0:0:
224,160,150664,1,0,0:0:0:0:
224,160,150750,1,0,0:0:0:0:
224,160,150835,1,0,0:0:0:0:
288,224,151005,1,12,0:0:0:0:
224,160,151176,1,0,0:0:0:0:
224,160,151346,1,0,0:0:0:0:
288,224,151517,1,12,0:0:0:0:
224,160,151687,1,0,0:0:0:0:
224,160,151772,1,0,0:0:0:0:
224,160,151858,1,0,0:0:0:0:
288,160,152028,1,8,0:0:0:0:
288,160,152113,1,8,0:0:0:0:
224,160,152198,1,0,0:0:0:0:
224,160,152284,1,0,0:0:0:0:
288,160,152369,1,8,0:0:0:0:
288,160,152454,1,8,0:0:0:0:
288,160,152539,1,8,0:0:0:0:
288,160,152625,1,8,0:0:0:0:
224,160,152710,1,0,0:0:0:0:
288,160,153051,1,8,0:0:0:0:
224,160,153221,1,0,0:0:0:0:
224,160,153306,1,0,0:0:0:0:
224,160,153392,1,0,0:0:0:0:
224,160,153562,1,0,0:0:0:0:
224,160,153647,1,0,0:0:0:0:
288,160,153733,1,8,0:0:0:0:
288,160,153903,1,8,0:0:0:0:
224,160,154073,1,0,0:0:0:0:
224,160,154244,1,0,0:0:0:0:
224,160,154329,1,0,0:0:0:0:
288,160,154414,1,8,0:0:0:0:
288,160,154585,1,8,0:0:0:0:
288,160,154670,1,8,0:0:0:0:
288,160,154755,1,8,0:0:0:0:
224,160,154926,1,0,0:0:0:0:
288,160,155096,1,8,0:0:0:0:
224,160,155437,1,0,0:0:0:0:
224,160,155608,1,0,0:0:0:0:
288,160,155778,1,8,0:0:0:0:
224,160,155948,1,0,0:0:0:0:
224,160,156034,1,0,0:0:0:0:
224,160,156119,1,0,0:0:0:0:
224,160,156289,1,0,0:0:0:0:
224,160,156375,1,0,0:0:0:0:
288,160,156460,1,8,0:0:0:0:
288,160,156630,1,8,0:0:0:0:
224,160,156801,1,0,0:0:0:0:
288,160,156971,1,8,0:0:0:0:
224,160,157056,1,0,0:0:0:0:
288,160,157142,1,8,0:0:0:0:
224,160,157312,1,0,0:0:0:0:
224,160,157397,1,0,0:0:0:0:
288,160,157483,1,8,0:0:0:0:
288,160,157568,1,8,0:0:0:0:
288,160,157653,1,8,0:0:0:0:
224,160,157738,1,0,0:0:0:0:
288,160,157823,1,8,0:0:0:0:
288,160,157994,1,8,0:0:0:0:
224,160,158164,1,0,0:0:0:0:
288,160,158505,1,8,0:0:0:0:
224,160,158676,1,0,0:0:0:0:
224,160,158761,1,0,0:0:0:0:
224,160,158846,1,0,0:0:0:0:
224,160,159017,1,0,0:0:0:0:
224,160,159102,1,0,0:0:0:0:
288,160,159187,1,8,0:0:0:0:
288,160,159358,1,8,0:0:0:0:
224,160,159528,1,0,0:0:0:0:
224,160,159698,1,0,0:0:0:0:
224,160,159784,1,0,0:0:0:0:
288,160,159869,1,8,0:0:0:0:
224,160,160039,1,0,0:0:0:0:
224,160,160125,1,0,0:0:0:0:
288,160,160210,1,8,0:0:0:0:
288,160,160295,1,8,0:0:0:0:
224,160,160380,1,0,0:0:0:0:
288,160,160551,1,8,0:0:0:0:
224,160,160892,1,0,0:0:0:0:
224,160,161062,1,0,0:0:0:0:
288,160,161233,1,8,0:0:0:0:
224,160,161403,1,0,0:0:0:0:
224,160,161488,1,0,0:0:0:0:
224,160,161573,1,0,0:0:0:0:
224,160,161744,1,0,0:0:0:0:
288,160,161914,1,8,0:0:0:0:
288,160,162085,1,8,0:0:0:0:
288,160,162170,1,8,0:0:0:0:
224,160,162255,1,0,0:0:0:0:
224,160,162426,1,0,0:0:0:0:
224,160,162511,1,0,0:0:0:0:
288,160,162596,1,8,0:0:0:0:
288,160,162767,1,8,0:0:0:0:
224,160,162852,1,0,0:0:0:0:
288,160,162937,1,8,0:0:0:0:
288,160,163022,1,8,0:0:0:0:
224,160,163108,1,0,0:0:0:0:
224,160,163193,1,0,0:0:0:0:
288,160,163278,1,8,0:0:0:0:
288,160,163448,1,8,0:0:0:0:
224,224,163619,1,4,0:0:0:0:
288,160,163960,1,8,0:0:0:0:
224,160,164130,1,0,0:0:0:0:
224,160,164215,1,0,0:0:0:0:
224,160,164301,1,0,0:0:0:0:
224,160,164471,1,0,0:0:0:0:
288,160,164642,1,8,0:0:0:0:
224,160,164727,1,0,0:0:0:0:
288,160,164812,1,8,0:0:0:0:
224,160,164983,1,0,0:0:0:0:
224,160,165153,1,0,0:0:0:0:
224,160,165238,1,0,0:0:0:0:
288,160,165323,1,8,0:0:0:0:
224,160,165494,1,0,0:0:0:0:
224,160,165580,1,0,0:0:0:0:
288,160,165665,1,8,0:0:0:0:
288,160,165750,1,8,0:0:0:0:
224,160,165835,1,0,0:0:0:0:
288,160,166005,1,8,0:0:0:0:
224,160,166346,1,0,0:0:0:0:
224,160,166517,1,0,0:0:0:0:
288,160,166687,1,8,0:0:0:0:
224,160,166858,1,0,0:0:0:0:
224,160,166943,1,0,0:0:0:0:
224,160,167028,1,0,0:0:0:0:
224,160,167198,1,0,0:0:0:0:
224,160,167284,1,0,0:0:0:0:
288,160,167369,1,8,0:0:0:0:
288,160,167539,1,8,0:0:0:0:
224,160,167710,1,0,0:0:0:0:
288,160,167880,1,8,0:0:0:0:
224,160,167965,1,0,0:0:0:0:
288,160,168051,1,8,0:0:0:0:
224,160,168221,1,0,0:0:0:0:
224,160,168306,1,0,0:0:0:0:
288,160,168392,1,8,0:0:0:0:
288,160,168477,1,8,0:0:0:0:
224,160,168562,1,0,0:0:0:0:
288,160,168647,1,0,0:0:0:0:
288,160,168733,1,8,0:0:0:0:
288,160,168903,1,8,0:0:0:0:
224,160,169073,1,0,0:0:0:0:
288,160,169414,1,8,0:0:0:0:
224,160,169585,1,0,0:0:0:0:
224,160,169670,1,0,0:0:0:0:
224,160,169755,1,0,0:0:0:0:
224,160,169926,1,0,0:0:0:0:
288,160,170096,1,8,0:0:0:0:
224,160,170181,1,0,0:0:0:0:
288,160,170267,1,8,0:0:0:0:
224,160,170437,1,0,0:0:0:0:
224,160,170608,1,0,0:0:0:0:
224,160,170693,1,0,0:0:0:0:
288,160,170778,1,8,0:0:0:0:
224,160,170948,1,0,0:0:0:0:
224,160,171033,1,0,0:0:0:0:
288,160,171118,1,8,0:0:0:0:
288,160,171204,1,8,0:0:0:0:
224,160,171289,1,0,0:0:0:0:
288,160,171460,1,8,0:0:0:0:
224,160,171801,1,0,0:0:0:0:
224,160,171971,1,0,0:0:0:0:
288,160,172142,1,8,0:0:0:0:
224,160,172312,1,0,0:0:0:0:
224,160,172397,1,0,0:0:0:0:
224,160,172483,1,0,0:0:0:0:
224,160,172653,1,0,0:0:0:0:
224,160,172738,1,0,0:0:0:0:
288,160,172823,1,8,0:0:0:0:
224,160,172909,1,0,0:0:0:0:
288,160,172994,1,8,0:0:0:0:
224,160,173164,1,0,0:0:0:0:
288,160,173335,1,8,0:0:0:0:
224,160,173420,1,0,0:0:0:0:
288,160,173505,1,8,0:0:0:0:
224,160,173676,1,0,0:0:0:0:
224,160,173761,1,0,0:0:0:0:
288,160,173846,1,8,0:0:0:0:
224,160,173931,1,0,0:0:0:0:
288,160,174017,1,8,0:0:0:0:
288,160,174102,1,8,0:0:0:0:
224,160,174187,1,0,0:0:0:0:
224,160,174272,1,0,0:0:0:0:
288,160,174358,1,8,0:0:0:0:
224,224,174528,1,4,0:0:0:0:
288,160,174869,1,8,0:0:0:0:
288,160,175039,1,8,0:0:0:0:
224,160,175210,1,0,0:0:0:0:
224,160,175380,1,0,0:0:0:0:
288,160,175551,1,8,0:0:0:0:
224,160,175721,1,0,0:0:0:0:
224,160,175892,1,0,0:0:0:0:
288,160,176233,1,8,0:0:0:0:
224,160,176403,1,0,0:0:0:0:
288,160,176488,1,8,0:0:0:0:
224,160,176574,1,0,0:0:0:0:
224,160,176744,1,0,0:0:0:0:
288,160,176914,1,8,0:0:0:0:
224,160,177255,1,0,0:0:0:0:
288,160,177596,1,8,0:0:0:0:
288,160,177767,1,8,0:0:0:0:
224,160,177937,1,0,0:0:0:0:
224,160,178108,1,0,0:0:0:0:
288,160,178278,1,8,0:0:0:0:
224,160,178449,1,0,0:0:0:0:
224,160,178619,1,0,0:0:0:0:
288,160,178960,1,8,0:0:0:0:
224,160,179130,1,0,0:0:0:0:
224,160,179215,1,0,0:0:0:0:
288,160,179301,1,8,0:0:0:0:
224,160,179471,1,0,0:0:0:0:
288,160,179642,1,8,0:0:0:0:
224,160,179983,1,0,0:0:0:0:
288,160,180324,1,8,0:0:0:0:
224,160,180494,1,0,0:0:0:0:
224,160,180835,1,0,0:0:0:0:
288,160,181005,1,8,0:0:0:0:
224,160,181176,1,0,0:0:0:0:
224,160,181346,1,0,0:0:0:0:
288,160,181687,1,8,0:0:0:0:
224,160,181858,1,0,0:0:0:0:
224,160,182199,1,0,0:0:0:0:
288,160,182369,1,8,0:0:0:0:
224,160,182539,1,0,0:0:0:0:
224,160,182710,1,0,0:0:0:0:
288,160,183051,1,8,0:0:0:0:
224,160,183221,1,0,0:0:0:0:
224,160,183562,1,0,0:0:0:0:
288,160,183733,1,8,0:0:0:0:
224,160,183903,1,0,0:0:0:0:
288,160,184073,1,8,0:0:0:0:
288,160,184414,1,8,0:0:0:0:
224,160,184585,1,0,0:0:0:0:
224,160,184926,1,0,0:0:0:0:
288,160,185096,1,8,0:0:0:0:
224,160,185267,1,0,0:0:0:0:
224,160,185324,1,0,0:0:0:0:
224,160,185380,1,0,0:0:0:0:
288,160,185437,1,8,0:0:0:0:
288,160,185778,1,8,0:0:0:0:
224,160,185949,1,0,0:0:0:0:
224,160,186034,1,0,0:0:0:0:
224,160,186119,1,0,0:0:0:0:
224,160,186289,1,0,0:0:0:0:
288,160,186460,1,8,0:0:0:0:
288,160,186630,1,8,0:0:0:0:
224,160,186801,1,0,0:0:0:0:
288,160,187142,1,8,0:0:0:0:
288,160,187312,1,8,0:0:0:0:
288,160,187397,1,8,0:0:0:0:
288,160,187483,1,8,0:0:0:0:
224,160,187653,1,0,0:0:0:0:
288,160,187824,1,8,0:0:0:0:
224,160,188164,1,0,0:0:0:0:
288,160,188505,1,8,0:0:0:0:
224,160,188676,1,0,0:0:0:0:
224,160,188761,1,0,0:0:0:0:
224,160,188846,1,0,0:0:0:0:
224,160,189017,1,0,0:0:0:0:
288,160,189187,1,8,0:0:0:0:
288,160,189358,1,8,0:0:0:0:
224,160,189528,1,0,0:0:0:0:
288,160,189869,1,8,0:0:0:0:
224,160,190039,1,0,0:0:0:0:
224,160,190125,1,0,0:0:0:0:
288,160,190210,1,8,0:0:0:0:
224,160,190380,1,0,0:0:0:0:
288,160,190551,1,8,0:0:0:0:
288,160,190721,1,8,0:0:0:0:
288,160,190806,1,8,0:0:0:0:
224,160,190892,1,0,0:0:0:0:
288,160,191233,1,8,0:0:0:0:
224,160,191403,1,0,0:0:0:0:
224,160,191744,1,0,0:0:0:0:
288,160,191914,1,8,0:0:0:0:
224,160,192085,1,0,0:0:0:0:
288,160,192255,1,8,0:0:0:0:
288,160,192596,1,8,0:0:0:0:
224,160,192767,1,0,0:0:0:0:
224,160,193108,1,0,0:0:0:0:
288,160,193278,1,8,0:0:0:0:
288,160,193449,1,8,0:0:0:0:
288,160,193534,1,8,0:0:0:0:
224,160,193619,1,0,0:0:0:0:
288,160,193960,1,8,0:0:0:0:
224,160,194130,1,0,0:0:0:0:
224,160,194471,1,0,0:0:0:0:
288,160,194642,1,8,0:0:0:0:
224,160,194812,1,0,0:0:0:0:
288,160,194983,1,8,0:0:0:0:
288,160,195324,1,8,0:0:0:0:
224,160,195664,1,0,0:0:0:0:
288,160,195835,1,8,0:0:0:0:
288,160,196005,1,8,0:0:0:0:
224,160,196176,1,0,0:0:0:0:
288,160,196346,1,8,0:0:0:0:
256,192,196517,12,0,198392,0:0:0:0:
288,160,198733,5,8,0:0:0:0:
288,160,198903,1,8,0:0:0:0:
256,192,199074,12,0,200437,0:0:0:0:
288,160,201119,5,8,0:0:0:0:
224,160,201460,1,0,0:0:0:0:
288,160,201801,1,8,0:0:0:0:
256,192,201971,12,0,203846,0:0:0:0:
288,160,204187,5,8,0:0:0:0:
288,160,204358,1,8,0:0:0:0:
256,192,204528,12,0,205210,0:0:0:0:
288,160,205551,5,8,0:0:0:0:
224,160,205721,1,0,0:0:0:0:
288,160,206573,1,8,0:0:0:0:
288,224,207255,5,12,0:0:0:0:
224,160,207596,1,0,0:0:0:0:
288,224,207937,1,12,0:0:0:0:
224,160,208278,1,0,0:0:0:0:
288,224,208619,1,12,0:0:0:0:
224,160,208960,1,0,0:0:0:0:
288,224,209301,1,12,0:0:0:0:
224,160,209642,1,0,0:0:0:0:
288,224,209983,1,12,0:0:0:0:
288,160,210324,1,8,0:0:0:0:
288,224,210664,1,12,0:0:0:0:
288,160,211005,1,8,0:0:0:0:
288,224,211346,1,12,0:0:0:0:
288,160,211687,1,8,0:0:0:0:
288,224,212028,1,12,0:0:0:0:
288,160,212369,1,8,0:0:0:0:
288,224,212710,1,12,0:0:0:0:
224,160,212880,1,0,0:0:0:0:
288,224,213051,1,12,0:0:0:0:
224,160,213221,1,0,0:0:0:0:
288,224,213392,1,12,0:0:0:0:
224,160,213562,1,0,0:0:0:0:
288,224,213733,1,12,0:0:0:0:
224,160,213903,1,0,0:0:0:0:
288,224,214073,1,12,0:0:0:0:
224,160,214243,1,0,0:0:0:0:
288,224,214414,1,12,0:0:0:0:
224,160,214584,1,0,0:0:0:0:
288,224,214755,1,12,0:0:0:0:
224,160,214925,1,0,0:0:0:0:
288,224,215096,1,12,0:0:0:0:
224,160,215266,1,0,0:0:0:0:
288,160,215437,1,8,0:0:0:0:
288,160,215522,1,8,0:0:0:0:
224,160,215608,1,0,0:0:0:0:
224,160,215693,1,0,0:0:0:0:
288,160,215778,1,8,0:0:0:0:
224,160,215863,1,0,0:0:0:0:
224,160,215948,1,0,0:0:0:0:
224,160,216034,1,0,0:0:0:0:
288,160,216119,1,8,0:0:0:0:
224,160,216204,1,0,0:0:0:0:
224,160,216289,1,0,0:0:0:0:
224,160,216375,1,0,0:0:0:0:
288,160,216460,1,8,0:0:0:0:
224,160,216545,1,0,0:0:0:0:
288,160,216630,1,8,0:0:0:0:
288,160,216715,1,8,0:0:0:0:
288,160,216801,1,8,0:0:0:0:
224,160,216971,1,0,0:0:0:0:
288,160,217142,1,8,0:0:0:0:
288,160,217312,1,8,0:0:0:0:
288,224,217483,1,12,0:0:0:0:
224,160,217653,1,0,0:0:0:0:
288,224,217823,1,12,0:0:0:0:
224,160,217994,1,0,0:0:0:0:
288,160,218164,1,8,0:0:0:0:
288,160,218676,1,8,0:0:0:0:
224,160,218846,1,0,0:0:0:0:
224,160,219017,1,0,0:0:0:0:
288,160,219187,1,8,0:0:0:0:
288,160,219358,1,8,0:0:0:0:
224,160,219528,1,0,0:0:0:0:
288,160,219869,1,8,0:0:0:0:
224,160,220039,1,0,0:0:0:0:
224,160,220721,1,0,0:0:0:0:
288,160,220892,1,8,0:0:0:0:
224,160,221403,1,0,0:0:0:0:
288,160,221573,1,8,0:0:0:0:
224,160,221744,1,0,0:0:0:0:
288,160,221914,1,8,0:0:0:0:
288,160,222085,1,8,0:0:0:0:
224,160,222255,1,0,0:0:0:0:
224,160,222596,1,0,0:0:0:0:
288,160,222767,1,8,0:0:0:0:
224,160,223278,1,0,0:0:0:0:
288,160,223619,1,8,0:0:0:0:
224,160,224130,1,0,0:0:0:0:
288,160,224642,1,8,0:0:0:0:
224,160,225153,1,0,0:0:0:0:
224,160,225664,1,0,0:0:0:0:
224,160,226005,1,0,0:0:0:0:
288,160,226346,1,8,0:0:0:0:
224,160,226858,1,0,0:0:0:0:
288,160,227369,1,8,0:0:0:0:
224,160,227880,1,0,0:0:0:0:
224,160,228392,1,0,0:0:0:0:
288,160,228733,1,8,0:0:0:0:
224,224,229073,1,4,0:0:0:0:
288,160,229414,1,8,0:0:0:0:
224,160,229926,1,0,0:0:0:0:
288,160,230096,1,8,0:0:0:0:
224,160,230437,1,0,0:0:0:0:
288,160,230778,1,8,0:0:0:0:
224,160,230948,1,0,0:0:0:0:
224,160,231289,1,0,0:0:0:0:
288,160,231460,1,8,0:0:0:0:
224,160,231801,1,0,0:0:0:0:
288,160,232142,1,8,0:0:0:0:
224,160,232653,1,0,0:0:0:0:
288,160,232823,1,8,0:0:0:0:
224,160,233164,1,0,0:0:0:0:
288,160,233505,1,8,0:0:0:0:
288,160,233676,1,8,0:0:0:0:
224,160,234017,1,0,0:0:0:0:
288,160,234187,1,8,0:0:0:0:
288,160,234528,1,8,0:0:0:0:
224,160,234869,1,0,0:0:0:0:
288,160,235039,1,8,0:0:0:0:
224,160,235380,1,0,0:0:0:0:
288,160,235551,1,8,0:0:0:0:
224,160,235892,1,0,0:0:0:0:
288,160,236062,1,8,0:0:0:0:
288,160,236403,1,8,0:0:0:0:
224,160,236573,1,0,0:0:0:0:
224,160,236744,1,0,0:0:0:0:
288,160,236914,1,8,0:0:0:0:
288,160,237255,1,8,0:0:0:0:
288,160,237596,1,8,0:0:0:0:
224,160,237767,1,0,0:0:0:0:
224,160,238108,1,0,0:0:0:0:
288,160,238278,1,8,0:0:0:0:
224,160,238619,1,0,0:0:0:0:
288,160,238789,1,8,0:0:0:0:
224,160,239130,1,0,0:0:0:0:
288,160,239301,1,8,0:0:0:0:
224,160,239471,1,0,0:0:0:0:
288,160,239642,1,8,0:0:0:0:
288,224,239983,1,12,0:0:0:0:
224,160,240323,1,0,0:0:0:0:
288,224,240664,1,12,0:0:0:0:
224,160,241004,1,0,0:0:0:0:
288,224,241346,1,12,0:0:0:0:
224,160,241686,1,0,0:0:0:0:
288,224,242028,1,12,0:0:0:0:
224,160,242368,1,0,0:0:0:0:
288,224,242710,1,12,0:0:0:0:
288,160,243050,1,8,0:0:0:0:
288,224,243392,1,12,0:0:0:0:
288,160,243732,1,8,0:0:0:0:
288,224,244073,1,12,0:0:0:0:
288,160,244413,1,8,0:0:0:0:
288,224,244755,1,12,0:0:0:0:
288,160,245095,1,8,0:0:0:0:
288,224,245438,1,12,0:0:0:0:
224,160,245608,1,0,0:0:0:0:
288,224,245778,1,12,0:0:0:0:
224,160,245948,1,0,0:0:0:0:
288,224,246119,1,12,0:0:0:0:
224,160,246289,1,0,0:0:0:0:
288,224,246460,1,12,0:0:0:0:
224,160,246630,1,0,0:0:0:0:
288,224,246801,1,12,0:0:0:0:
224,160,246971,1,0,0:0:0:0:
288,224,247142,1,12,0:0:0:0:
224,160,247312,1,0,0:0:0:0:
288,224,247483,1,12,0:0:0:0:
224,160,247653,1,0,0:0:0:0:
288,224,247823,1,12,0:0:0:0:
224,160,247993,1,0,0:0:0:0:
288,160,248164,1,8,0:0:0:0:
288,160,248250,1,8,0:0:0:0:
224,160,248335,1,0,0:0:0:0:
224,160,248420,1,0,0:0:0:0:
288,160,248505,1,8,0:0:0:0:
288,160,248590,1,8,0:0:0:0:
224,160,248676,1,0,0:0:0:0:
224,160,248761,1,0,0:0:0:0:
288,160,248846,1,8,0:0:0:0:
224,160,248931,1,0,0:0:0:0:
224,160,249017,1,0,0:0:0:0:
224,160,249102,1,0,0:0:0:0:
288,160,249187,1,8,0:0:0:0:
224,160,249272,1,0,0:0:0:0:
288,160,249358,1,8,0:0:0:0:
288,160,249443,1,8,0:0:0:0:
288,160,249528,1,8,0:0:0:0:
224,160,249698,1,0,0:0:0:0:
288,160,249869,1,8,0:0:0:0:
288,160,250039,1,8,0:0:0:0:
288,224,250210,1,12,0:0:0:0:
224,160,250380,1,0,0:0:0:0:
288,224,250551,1,12,0:0:0:0:
224,224,250892,1,4,0:0:0:0:
288,160,251233,1,8,0:0:0:0:
224,160,251403,1,0,0:0:0:0:
224,160,251488,1,0,0:0:0:0:
224,160,251573,1,0,0:0:0:0:
224,160,251744,1,0,0:0:0:0:
224,160,251829,1,0,0:0:0:0:
288,160,251914,1,8,0:0:0:0:
288,160,252085,1,8,0:0:0:0:
288,160,252170,1,8,0:0:0:0:
224,160,252255,1,0,0:0:0:0:
224,160,252340,1,0,0:0:0:0:
224,160,252426,1,0,0:0:0:0:
224,160,252511,1,0,0:0:0:0:
288,160,252596,1,8,0:0:0:0:
224,160,252767,1,0,0:0:0:0:
288,160,252937,1,8,0:0:0:0:
224,160,253108,1,0,0:0:0:0:
288,160,253278,1,8,0:0:0:0:
288,160,253448,1,8,0:0:0:0:
224,160,253534,1,0,0:0:0:0:
224,160,253619,1,0,0:0:0:0:
288,160,253960,1,8,0:0:0:0:
288,160,254130,1,8,0:0:0:0:
288,160,254215,1,8,0:0:0:0:
224,160,254301,1,0,0:0:0:0:
288,160,254471,1,8,0:0:0:0:
224,160,254556,1,0,0:0:0:0:
288,160,254642,1,8,0:0:0:0:
224,160,254812,1,0,0:0:0:0:
224,160,254897,1,0,0:0:0:0:
288,160,254983,1,8,0:0:0:0:
288,160,255068,1,8,0:0:0:0:
224,160,255153,1,0,0:0:0:0:
224,160,255238,1,0,0:0:0:0:
288,160,255323,1,8,0:0:0:0:
224,160,255409,1,0,0:0:0:0:
288,160,255494,1,8,0:0:0:0:
224,160,255664,1,0,0:0:0:0:
288,160,255835,1,8,0:0:0:0:
288,160,256005,1,8,0:0:0:0:
224,160,256176,1,0,0:0:0:0:
288,160,256346,1,8,0:0:0:0:
224,160,256517,1,0,0:0:0:0:
224,160,256602,1,0,0:0:0:0:
224,160,256687,1,0,0:0:0:0:
288,160,256858,1,8,0:0:0:0:
224,192,256943,1,0,0:0:0:0:
224,160,257028,1,0,0:0:0:0:
288,160,257113,1,8,0:0:0:0:
224,160,257198,1,0,0:0:0:0:
288,160,257369,1,8,0:0:0:0:
224,160,257539,1,0,0:0:0:0:
224,160,257625,1,0,0:0:0:0:
224,160,257710,1,0,0:0:0:0:
288,160,257881,1,8,0:0:0:0:
224,160,257965,1,0,0:0:0:0:
224,160,258051,1,0,0:0:0:0:
288,160,258136,1,8,0:0:0:0:
224,160,258221,1,0,0:0:0:0:
288,160,258392,1,8,0:0:0:0:
224,160,258477,1,0,0:0:0:0:
224,160,258562,1,0,0:0:0:0:
224,160,258647,1,0,0:0:0:0:
288,160,258733,1,8,0:0:0:0:
224,160,258903,1,0,0:0:0:0:
288,160,259073,1,8,0:0:0:0:
288,160,259244,1,8,0:0:0:0:
288,160,259329,1,8,0:0:0:0:
224,160,259414,1,0,0:0:0:0:
288,160,259585,1,8,0:0:0:0:
224,160,259670,1,0,0:0:0:0:
288,160,259755,1,8,0:0:0:0:
224,160,259840,1,0,0:0:0:0:
224,160,259926,1,0,0:0:0:0:
288,160,260096,1,8,0:0:0:0:
288,160,260267,1,8,0:0:0:0:
288,160,260352,1,8,0:0:0:0:
224,160,260437,1,0,0:0:0:0:
288,160,260608,1,8,0:0:0:0:
224,160,260693,1,0,0:0:0:0:
288,160,260778,1,8,0:0:0:0:
224,160,260863,1,0,0:0:0:0:
224,160,260949,1,0,0:0:0:0:
288,160,261119,1,8,0:0:0:0:
224,160,261204,1,0,0:0:0:0:
288,160,261289,1,8,0:0:0:0:
224,160,261375,1,0,0:0:0:0:
288,160,261460,1,8,0:0:0:0:
224,160,261630,1,0,0:0:0:0:
224,224,261801,1,4,0:0:0:0:
288,160,262142,1,8,0:0:0:0:
224,160,262312,1,0,0:0:0:0:
224,160,262397,1,0,0:0:0:0:
224,160,262483,1,0,0:0:0:0:
224,160,262653,1,0,0:0:0:0:
224,160,262738,1,0,0:0:0:0:
288,160,262823,1,8,0:0:0:0:
288,160,262994,1,8,0:0:0:0:
288,160,263079,1,8,0:0:0:0:
224,160,263164,1,0,0:0:0:0:
224,160,263250,1,0,0:0:0:0:
224,160,263335,1,0,0:0:0:0:
224,160,263420,1,0,0:0:0:0:
288,160,263505,1,8,0:0:0:0:
224,160,263676,1,0,0:0:0:0:
288,160,263846,1,8,0:0:0:0:
224,160,264017,1,0,0:0:0:0:
288,160,264187,1,8,0:0:0:0:
288,160,264358,1,8,0:0:0:0:
288,160,264443,1,8,0:0:0:0:
224,160,264528,1,0,0:0:0:0:
288,160,264869,1,8,0:0:0:0:
288,160,265039,1,8,0:0:0:0:
288,160,265125,1,8,0:0:0:0:
224,160,265210,1,0,0:0:0:0:
224,160,265380,1,0,0:0:0:0:
224,160,265465,1,0,0:0:0:0:
288,160,265551,1,8,0:0:0:0:
224,160,265721,1,0,0:0:0:0:
224,160,265806,1,0,0:0:0:0:
288,160,265892,1,8,0:0:0:0:
224,160,265977,1,0,0:0:0:0:
224,160,266062,1,0,0:0:0:0:
224,160,266147,1,0,0:0:0:0:
288,160,266233,1,8,0:0:0:0:
224,160,266318,1,0,0:0:0:0:
288,160,266403,1,8,0:0:0:0:
224,160,266573,1,0,0:0:0:0:
288,160,266744,1,8,0:0:0:0:
288,160,266914,1,8,0:0:0:0:
224,160,267085,1,0,0:0:0:0:
288,160,267255,1,8,0:0:0:0:
288,160,267340,1,8,0:0:0:0:
224,160,267426,1,0,0:0:0:0:
224,160,267511,1,0,0:0:0:0:
224,160,267596,1,0,0:0:0:0:
288,160,267767,1,8,0:0:0:0:
224,160,267937,1,0,0:0:0:0:
288,160,268022,1,8,0:0:0:0:
224,160,268108,1,0,0:0:0:0:
288,160,268278,1,8,0:0:0:0:
288,160,268363,1,8,0:0:0:0:
224,160,268449,1,0,0:0:0:0:
224,160,268534,1,0,0:0:0:0:
224,160,268619,1,0,0:0:0:0:
288,160,268789,1,8,0:0:0:0:
224,160,268959,1,0,0:0:0:0:
288,160,269045,1,8,0:0:0:0:
224,160,269130,1,0,0:0:0:0:
288,160,269301,1,8,0:0:0:0:
288,160,269386,1,8,0:0:0:0:
224,160,269471,1,0,0:0:0:0:
224,160,269556,1,0,0:0:0:0:
288,160,269642,1,8,0:0:0:0:
224,160,269812,1,0,0:0:0:0:
288,160,269983,1,8,0:0:0:0:
224,160,270068,1,0,0:0:0:0:
288,160,270153,1,8,0:0:0:0:
288,160,270238,1,8,0:0:0:0:
224,160,270323,1,0,0:0:0:0:
288,160,270494,1,8,0:0:0:0:
288,160,270664,1,8,0:0:0:0:
224,160,270750,1,0,0:0:0:0:
224,160,270835,1,0,0:0:0:0:
288,160,271005,1,8,0:0:0:0:
224,160,271090,1,0,0:0:0:0:
288,160,271175,1,8,0:0:0:0:
288,160,271260,1,8,0:0:0:0:
224,160,271346,1,0,0:0:0:0:
288,160,271517,1,8,0:0:0:0:
288,160,271688,1,8,0:0:0:0:
224,160,271773,1,0,0:0:0:0:
224,160,271858,1,0,0:0:0:0:
288,160,272028,1,8,0:0:0:0:
224,160,272113,1,0,0:0:0:0:
224,160,272198,1,0,0:0:0:0:
224,160,272284,1,0,0:0:0:0:
288,160,272369,1,8,0:0:0:0:
288,160,272539,1,8,0:0:0:0:
224,224,272710,1,4,0:0:0:0:
288,160,273051,1,8,0:0:0:0:
224,160,273221,1,0,0:0:0:0:
224,160,273306,1,0,0:0:0:0:
224,160,273392,1,0,0:0:0:0:
224,160,273562,1,0,0:0:0:0:
224,160,273647,1,0,0:0:0:0:
288,160,273733,1,8,0:0:0:0:
288,160,273903,1,8,0:0:0:0:
224,160,274073,1,0,0:0:0:0:
224,160,274244,1,0,0:0:0:0:
224,160,274329,1,0,0:0:0:0:
288,160,274414,1,8,0:0:0:0:
288,160,274585,1,8,0:0:0:0:
288,160,274670,1,8,0:0:0:0:
224,160,274755,1,0,0:0:0:0:
224,160,274841,1,0,0:0:0:0:
224,160,274926,1,0,0:0:0:0:
288,160,275096,1,8,0:0:0:0:
224,160,275437,1,0,0:0:0:0:
224,160,275608,1,0,0:0:0:0:
288,160,275778,1,8,0:0:0:0:
224,160,275948,1,0,0:0:0:0:
224,160,276034,1,0,0:0:0:0:
224,160,276119,1,0,0:0:0:0:
224,160,276289,1,0,0:0:0:0:
224,160,276375,1,0,0:0:0:0:
288,160,276460,1,8,0:0:0:0:
288,160,276630,1,8,0:0:0:0:
224,160,276801,1,0,0:0:0:0:
288,160,276971,1,8,0:0:0:0:
224,160,277056,1,0,0:0:0:0:
288,160,277142,1,8,0:0:0:0:
224,160,277312,1,0,0:0:0:0:
224,160,277397,1,0,0:0:0:0:
288,160,277483,1,8,0:0:0:0:
224,160,277568,1,0,0:0:0:0:
288,160,277653,1,8,0:0:0:0:
224,160,277738,1,0,0:0:0:0:
288,160,277823,1,8,0:0:0:0:
288,160,277994,1,8,0:0:0:0:
224,160,278164,1,0,0:0:0:0:
288,160,278505,1,8,0:0:0:0:
224,160,278676,1,0,0:0:0:0:
224,160,278761,1,0,0:0:0:0:
224,160,278846,1,0,0:0:0:0:
224,160,279017,1,0,0:0:0:0:
288,160,279187,1,8,0:0:0:0:
224,160,279272,1,0,0:0:0:0:
288,160,279358,1,8,0:0:0:0:
224,160,279443,1,0,0:0:0:0:
224,160,279528,1,0,0:0:0:0:
288,160,279698,1,8,0:0:0:0:
224,160,279784,1,0,0:0:0:0:
288,160,279869,1,8,0:0:0:0:
224,160,280039,1,0,0:0:0:0:
224,160,280124,1,0,0:0:0:0:
288,160,280209,1,8,0:0:0:0:
288,160,280295,1,8,0:0:0:0:
224,160,280380,1,0,0:0:0:0:
288,160,280551,1,8,0:0:0:0:
288,160,280721,1,8,0:0:0:0:
224,160,280892,1,0,0:0:0:0:
224,160,281062,1,0,0:0:0:0:
288,160,281233,1,8,0:0:0:0:
224,160,281403,1,0,0:0:0:0:
224,160,281488,1,0,0:0:0:0:
224,160,281573,1,0,0:0:0:0:
224,160,281744,1,0,0:0:0:0:
288,160,281829,1,0,0:0:0:0:
288,160,281914,1,8,0:0:0:0:
288,160,282085,1,8,0:0:0:0:
224,160,282255,1,0,0:0:0:0:
288,160,282426,1,8,0:0:0:0:
224,160,282511,1,0,0:0:0:0:
288,160,282596,1,8,0:0:0:0:
224,160,282767,1,0,0:0:0:0:
224,160,282852,1,0,0:0:0:0:
288,160,282937,1,8,0:0:0:0:
288,160,283022,1,8,0:0:0:0:
224,160,283108,1,0,0:0:0:0:
224,160,283193,1,0,0:0:0:0:
288,160,283278,1,8,0:0:0:0:
224,160,283363,1,0,0:0:0:0:
288,160,283448,1,8,0:0:0:0:
288,224,283619,1,12,0:0:0:0:
224,160,283960,1,0,0:0:0:0:
288,224,284301,1,12,0:0:0:0:
224,160,284642,1,0,0:0:0:0:
288,224,284983,1,12,0:0:0:0:
224,160,285323,1,0,0:0:0:0:
288,224,285664,1,12,0:0:0:0:
224,160,286005,1,0,0:0:0:0:
288,224,286346,1,12,0:0:0:0:
288,160,286687,1,8,0:0:0:0:
288,224,287028,1,12,0:0:0:0:
288,160,287369,1,8,0:0:0:0:
288,224,287710,1,12,0:0:0:0:
288,160,288051,1,8,0:0:0:0:
288,224,288392,1,12,0:0:0:0:
288,160,288733,1,8,0:0:0:0:
288,224,289073,1,12,0:0:0:0:
224,160,289244,1,0,0:0:0:0:
224,160,289414,1,0,0:0:0:0:
288,224,289585,1,12,0:0:0:0:
224,160,289756,1,0,0:0:0:0:
224,160,289841,1,0,0:0:0:0:
224,160,289926,1,0,0:0:0:0:
288,224,290097,1,12,0:0:0:0:
224,160,290268,1,0,0:0:0:0:
224,160,290437,1,0,0:0:0:0:
288,224,290608,1,12,0:0:0:0:
224,160,290779,1,0,0:0:0:0:
224,160,290864,1,0,0:0:0:0:
224,160,290949,1,0,0:0:0:0:
288,224,291119,1,12,0:0:0:0:
224,160,291289,1,0,0:0:0:0:
288,224,291460,1,12,0:0:0:0:
224,160,291630,1,0,0:0:0:0:
288,224,291801,1,12,0:0:0:0:
224,160,291971,1,0,0:0:0:0:
224,160,292142,1,0,0:0:0:0:
288,224,292312,1,12,0:0:0:0:
224,160,292483,1,0,0:0:0:0:
224,160,292568,1,0,0:0:0:0:
224,160,292653,1,0,0:0:0:0:
288,224,292823,1,12,0:0:0:0:
224,160,292994,1,0,0:0:0:0:
224,160,293164,1,0,0:0:0:0:
288,224,293335,1,12,0:0:0:0:
224,160,293505,1,0,0:0:0:0:
224,160,293590,1,0,0:0:0:0:
224,160,293676,1,0,0:0:0:0:
224,160,293761,1,0,0:0:0:0:
288,160,293846,1,8,0:0:0:0:
288,160,293931,1,8,0:0:0:0:
224,160,294017,1,0,0:0:0:0:
224,160,294102,1,0,0:0:0:0:
288,160,294187,1,8,0:0:0:0:
288,160,294272,1,8,0:0:0:0:
288,160,294358,1,8,0:0:0:0:
288,160,294443,1,8,0:0:0:0:
224,160,294528,1,0,0:0:0:0:
224,160,294698,1,0,0:0:0:0:
288,160,294869,1,8,0:0:0:0:
224,160,295039,1,0,0:0:0:0:
224,160,295125,1,0,0:0:0:0:
224,160,295210,1,0,0:0:0:0:
224,160,295380,1,0,0:0:0:0:
224,160,295465,1,0,0:0:0:0:
288,160,295551,1,8,0:0:0:0:
288,160,295721,1,8,0:0:0:0:
224,160,296062,1,0,0:0:0:0:
288,160,296233,1,8,0:0:0:0:
288,160,296403,1,8,0:0:0:0:
288,160,296488,1,8,0:0:0:0:
224,160,296573,1,0,0:0:0:0:
224,160,296744,1,0,0:0:0:0:
224,160,296829,1,0,0:0:0:0:
288,160,296914,1,8,0:0:0:0:
224,160,297255,1,0,0:0:0:0:
224,160,297426,1,0,0:0:0:0:
288,160,297596,1,8,0:0:0:0:
288,160,297767,1,8,0:0:0:0:
224,160,297852,1,0,0:0:0:0:
224,160,297937,1,0,0:0:0:0:
288,160,298108,1,8,0:0:0:0:
288,160,298193,1,8,0:0:0:0:
224,160,298278,1,0,0:0:0:0:
224,160,298363,1,0,0:0:0:0:
288,160,298448,1,8,0:0:0:0:
288,160,298789,1,8,0:0:0:0:
288,160,298960,1,8,0:0:0:0:
224,160,299130,1,0,0:0:0:0:
288,160,299215,1,8,0:0:0:0:
224,160,299301,1,0,0:0:0:0:
288,160,299471,1,8,0:0:0:0:
224,160,299642,1,0,0:0:0:0:
224,160,299727,1,0,0:0:0:0:
288,160,299813,1,8,0:0:0:0:
224,160,299898,1,0,0:0:0:0:
288,160,299983,1,8,0:0:0:0:
288,160,300323,1,8,0:0:0:0:
288,160,300494,1,8,0:0:0:0:
288,160,300579,1,8,0:0:0:0:
224,160,300664,1,0,0:0:0:0:
288,160,300835,1,8,0:0:0:0:
224,160,300920,1,0,0:0:0:0:
288,160,301005,1,8,0:0:0:0:
224,160,301176,1,0,0:0:0:0:
288,160,301346,1,8,0:0:0:0:
224,160,301431,1,0,0:0:0:0:
224,160,301517,1,0,0:0:0:0:
224,160,301602,1,0,0:0:0:0:
288,160,301687,1,8,0:0:0:0:
224,160,301858,1,0,0:0:0:0:
224,160,302198,1,0,0:0:0:0:
288,160,302369,1,8,0:0:0:0:
288,160,302539,1,8,0:0:0:0:
224,160,302710,1,0,0:0:0:0:
288,160,303051,1,8,0:0:0:0:
288,160,303221,1,8,0:0:0:0:
288,160,303306,1,8,0:0:0:0:
224,160,303392,1,0,0:0:0:0:
288,160,303562,1,8,0:0:0:0:
224,160,303647,1,0,0:0:0:0:
224,160,303733,1,0,0:0:0:0:
224,160,303903,1,0,0:0:0:0:
288,160,304073,1,8,0:0:0:0:
288,160,304244,1,8,0:0:0:0:
288,160,304329,1,8,0:0:0:0:
224,160,304414,1,0,0:0:0:0:
224,160,304585,1,0,0:0:0:0:
288,160,304755,1,8,0:0:0:0:
288,160,304840,1,8,0:0:0:0:
224,160,304926,1,0,0:0:0:0:
224,160,305011,1,0,0:0:0:0:
288,160,305096,1,8,0:0:0:0:
224,160,305181,1,0,0:0:0:0:
288,160,305267,1,8,0:0:0:0:
224,224,305437,1,4,0:0:0:0:
224,160,305608,1,0,0:0:0:0:
288,160,305778,1,8,0:0:0:0:
224,160,305948,1,0,0:0:0:0:
224,160,306034,1,0,0:0:0:0:
224,160,306119,1,0,0:0:0:0:
224,160,306289,1,0,0:0:0:0:
224,160,306375,1,0,0:0:0:0:
288,160,306460,1,8,0:0:0:0:
288,160,306630,1,8,0:0:0:0:
288,160,306971,1,8,0:0:0:0:
224,160,307142,1,0,0:0:0:0:
224,160,307312,1,0,0:0:0:0:
288,160,307397,1,8,0:0:0:0:
288,160,307483,1,8,0:0:0:0:
288,160,307653,1,8,0:0:0:0:
288,160,307738,1,8,0:0:0:0:
224,160,307823,1,0,0:0:0:0:
224,160,308164,1,0,0:0:0:0:
224,160,308335,1,0,0:0:0:0:
224,160,308420,1,0,0:0:0:0:
288,160,308505,1,8,0:0:0:0:
224,160,308676,1,0,0:0:0:0:
224,160,308846,1,0,0:0:0:0:
288,160,309017,1,8,0:0:0:0:
288,160,309102,1,8,0:0:0:0:
224,160,309187,1,0,0:0:0:0:
288,160,309358,1,8,0:0:0:0:
224,160,309528,1,0,0:0:0:0:
224,160,309698,1,0,0:0:0:0:
224,160,309784,1,0,0:0:0:0:
288,160,309869,1,8,0:0:0:0:
224,160,310039,1,0,0:0:0:0:
288,160,310210,1,8,0:0:0:0:
288,160,310380,1,8,0:0:0:0:
288,160,310465,1,8,0:0:0:0:
224,160,310551,1,0,0:0:0:0:
224,160,310636,1,0,0:0:0:0:
288,160,310721,1,8,0:0:0:0:
224,160,310806,1,0,0:0:0:0:
288,160,310892,1,8,0:0:0:0:
288,160,311233,1,8,0:0:0:0:
288,160,311403,1,8,0:0:0:0:
288,160,311488,1,8,0:0:0:0:
224,160,311573,1,0,0:0:0:0:
224,160,311744,1,0,0:0:0:0:
224,160,311829,1,0,0:0:0:0:
288,160,311914,1,8,0:0:0:0:
224,160,312085,1,0,0:0:0:0:
288,160,312255,1,8,0:0:0:0:
224,160,312426,1,0,0:0:0:0:
288,160,312511,1,8,0:0:0:0:
288,160,312596,1,8,0:0:0:0:
224,160,312767,1,0,0:0:0:0:
224,160,313108,1,0,0:0:0:0:
288,160,313278,1,8,0:0:0:0:
288,160,313448,1,8,0:0:0:0:
224,160,313619,1,0,0:0:0:0:
288,160,313960,1,8,0:0:0:0:
224,160,314130,1,0,0:0:0:0:
224,160,314215,1,0,0:0:0:0:
288,160,314301,1,8,0:0:0:0:
288,160,314471,1,8,0:0:0:0:
288,160,314642,1,8,0:0:0:0:
288,160,314983,1,8,0:0:0:0:
224,160,315153,1,0,0:0:0:0:
288,160,315323,1,8,0:0:0:0:
288,160,315494,1,8,0:0:0:0:
288,160,315579,1,8,0:0:0:0:
224,160,315664,1,0,0:0:0:0:
288,160,315750,1,8,0:0:0:0:
224,160,315835,1,0,0:0:0:0:
224,160,315920,1,0,0:0:0:0:
288,160,316005,1,8,0:0:0:0:
288,160,316176,1,8,0:0:0:0:
224,224,316346,1,4,0:0:0:0:
288,160,316687,1,8,0:0:0:0:
224,160,316858,1,0,0:0:0:0:
224,160,316943,1,0,0:0:0:0:
224,160,317028,1,0,0:0:0:0:
224,160,317198,1,0,0:0:0:0:
288,160,317369,1,8,0:0:0:0:
224,160,317710,1,0,0:0:0:0:
224,160,317880,1,0,0:0:0:0:
288,160,318051,1,8,0:0:0:0:
224,160,318221,1,0,0:0:0:0:
288,160,318306,1,8,0:0:0:0:
224,160,318392,1,0,0:0:0:0:
224,160,318562,1,0,0:0:0:0:
288,160,318732,1,8,0:0:0:0:
224,160,319073,1,0,0:0:0:0:
288,160,319414,1,8,0:0:0:0:
288,160,319585,1,8,0:0:0:0:
288,160,319670,1,8,0:0:0:0:
224,160,319755,1,0,0:0:0:0:
224,160,319926,1,0,0:0:0:0:
288,160,320096,1,8,0:0:0:0:
224,160,320437,1,0,0:0:0:0:
288,160,320778,1,8,0:0:0:0:
224,160,320948,1,0,0:0:0:0:
224,160,321034,1,0,0:0:0:0:
288,160,321119,1,8,0:0:0:0:
224,160,321289,1,0,0:0:0:0:
288,160,321460,1,8,0:0:0:0:
224,160,321630,1,0,0:0:0:0:
224,160,321801,1,0,0:0:0:0:
288,160,322142,1,8,0:0:0:0:
224,160,322312,1,0,0:0:0:0:
224,160,322397,1,0,0:0:0:0:
224,160,322483,1,0,0:0:0:0:
224,160,322653,1,0,0:0:0:0:
288,160,322823,1,8,0:0:0:0:
224,160,323164,1,0,0:0:0:0:
224,160,323335,1,0,0:0:0:0:
288,160,323505,1,8,0:0:0:0:
288,160,323676,1,8,0:0:0:0:
288,160,323761,1,8,0:0:0:0:
224,160,323846,1,0,0:0:0:0:
224,160,324017,1,0,0:0:0:0:
288,160,324187,1,8,0:0:0:0:
224,160,324528,1,0,0:0:0:0:
288,160,324869,1,8,0:0:0:0:
224,160,325039,1,0,0:0:0:0:
288,160,325125,1,8,0:0:0:0:
224,160,325210,1,0,0:0:0:0:
224,160,325380,1,0,0:0:0:0:
288,160,325551,1,8,0:0:0:0:
224,160,325892,1,0,0:0:0:0:
288,160,326233,1,8,0:0:0:0:
224,160,326403,1,0,0:0:0:0:
224,160,326488,1,0,0:0:0:0:
288,160,326574,1,8,0:0:0:0:
224,160,326744,1,0,0:0:0:0:
288,160,326915,1,8,0:0:0:0:
224,160,327085,1,0,0:0:0:0:
288,224,327255,1,12,0:0:0:0:
224,160,327596,1,0,0:0:0:0:
288,224,327937,1,12,0:0:0:0:
224,160,328278,1,0,0:0:0:0:
288,224,328619,1,12,0:0:0:0:
224,160,328960,1,0,0:0:0:0:
288,224,329301,1,12,0:0:0:0:
224,160,329642,1,0,0:0:0:0:
288,224,329983,1,12,0:0:0:0:
288,160,330324,1,8,0:0:0:0:
288,224,330664,1,12,0:0:0:0:
288,160,331005,1,8,0:0:0:0:
288,224,331346,1,12,0:0:0:0:
288,160,331687,1,8,0:0:0:0:
288,224,332028,1,12,0:0:0:0:
288,160,332369,1,8,0:0:0:0:
288,224,332710,1,12,0:0:0:0:
224,160,332880,1,0,0:0:0:0:
288,224,333051,1,12,0:0:0:0:
224,160,333221,1,0,0:0:0:0:
288,224,333392,1,12,0:0:0:0:
224,160,333562,1,0,0:0:0:0:
288,224,333733,1,12,0:0:0:0:
224,160,333903,1,0,0:0:0:0:
288,224,334073,1,12,0:0:0:0:
224,160,334243,1,0,0:0:0:0:
288,224,334414,1,12,0:0:0:0:
224,160,334584,1,0,0:0:0:0:
288,224,334755,1,12,0:0:0:0:
224,160,334925,1,0,0:0:0:0:
288,224,335096,1,12,0:0:0:0:
224,160,335266,1,0,0:0:0:0:
288,160,335437,1,8,0:0:0:0:
288,160,335522,1,8,0:0:0:0:
224,160,335608,1,0,0:0:0:0:
224,160,335693,1,0,0:0:0:0:
288,160,335778,1,8,0:0:0:0:
224,160,335863,1,0,0:0:0:0:
224,160,335948,1,0,0:0:0:0:
224,160,336034,1,0,0:0:0:0:
288,160,336119,1,8,0:0:0:0:
224,160,336204,1,0,0:0:0:0:
288,160,336289,1,8,0:0:0:0:
288,160,336375,1,8,0:0:0:0:
224,160,336460,1,0,0:0:0:0:
224,160,336545,1,0,0:0:0:0:
288,160,336630,1,8,0:0:0:0:
224,160,336715,1,0,0:0:0:0:
288,160,336801,1,8,0:0:0:0:
224,160,336971,1,0,0:0:0:0:
288,160,337141,1,8,0:0:0:0:
224,160,337312,1,0,0:0:0:0:
288,160,337483,1,12,0:0:0:0:
224,160,337652,1,0,0:0:0:0:
288,160,337823,1,12,0:0:0:0:
224,224,338164,1,4,0:0:0:0:
