osu file format v14

[General]
AudioFilename: audio.mp3
AudioLeadIn: 0
PreviewTime: 68641
Countdown: 1
SampleSet: None
StackLeniency: 0.7
Mode: 2
LetterboxInBreaks: 0
WidescreenStoryboard: 0

[Editor]
Bookmarks: 68641,111523,113818
DistanceSpacing: 0.8
BeatDivisor: 4
GridSize: 16
TimelineZoom: 2.7

[Metadata]
Title:Masshiro na yuki
TitleUnicode:まっしろな雪
Artist:Halozy
ArtistUnicode:Halozy
Creator:[224]Hyperw7
Version:yuki ga ahuru machi
Source:
Tags:[224]Hyperw7 Hell stream yuki masshiro na yuki
BeatmapID:973987
BeatmapSetID:454276

[Difficulty]
HPDrainRate:4.4
CircleSize:4.4
OverallDifficulty:9.4
ApproachRate:9.4
SliderMultiplier:2.7
SliderTickRate:2

[Events]
//Background and Video events
0,0,"레티4.png",0,0
//Break Periods
//Storyboard Layer 0 (Background)
//Storyboard Layer 1 (Fail)
//Storyboard Layer 2 (Pass)
//Storyboard Layer 3 (Foreground)
//Storyboard Sound Samples

[TimingPoints]
900,705.882352941176,4,3,0,100,1,0
900,-83.3333333333333,4,2,0,5,0,0
3194,-50,4,2,0,5,0,0
3723,-100,4,2,0,5,0,0
6547,-83.3333333333333,4,2,0,5,0,0
12171,352.941176470588,4,3,0,100,1,0
17818,-142.857142857143,4,3,0,100,0,0
20641,-100,4,3,0,100,0,0
22053,-90.9090909090909,4,3,0,100,0,0
22229,-71.4285714285714,4,3,0,100,0,0
22406,-90.9090909090909,4,3,0,100,0,0
22582,-71.4285714285714,4,3,0,100,0,0
22759,-71.4285714285714,4,3,0,100,0,0
22935,-90.9090909090909,4,3,0,100,0,0
23112,-71.4285714285714,4,3,0,100,0,0
23288,-90.9090909090909,4,3,0,100,0,0
40053,-50,4,3,0,100,0,0
41465,-90.9090909090909,4,3,0,100,0,0
45347,-50,4,3,0,100,0,0
45700,-125,4,3,0,100,0,0
56112,-90.9090909090909,4,3,0,100,0,0
91229,-83.3333333333333,4,3,0,100,0,0

[HitObjects]
112,192,900,6,0,L|368:192,1,242.999992584229
32,192,1782,1,0,0:0:0:0:
256,192,2311,6,0,L|-32:192,1,242.999992584229
384,224,3194,2,0,P|512:144|336:48,1,405
272,48,3899,1,0,0:0:0:0:
128,128,4076,2,0,L|208:96,1,67.5
336,112,4429,2,0,L|256:96,1,67.5
16,96,4782,2,0,L|96:64,1,67.5
384,240,5135,2,0,P|320:144|224:96,1,202.5
512,192,6017,1,0,0:0:0:0:
112,192,6547,6,0,L|384:192,1,242.999992584229
0,192,7429,1,0,0:0:0:0:
304,192,7958,2,0,L|48:192,1,242.999992584229
480,288,8841,2,0,L|512:64,1,161.999995056153
224,192,9370,5,0,0:0:0:0:
80,192,9547,1,0,0:0:0:0:
0,112,9723,1,0,0:0:0:0:
256,80,9899,1,0,0:0:0:0:
416,192,10252,1,0,0:0:0:0:
80,192,10605,2,0,B|0:160|-64:96|192:16,1,323.999990112305
480,224,11488,2,0,L|496:128,1,80.9999975280763
32,224,11841,2,0,L|18:144,1,80.9999975280763
400,192,12171,5,0,0:0:0:0:
256,192,12347,1,0,0:0:0:0:
440,192,12523,1,0,0:0:0:0:
304,160,12700,2,0,L|328:96,1,67.5
272,96,12876,2,0,L|304:32,1,67.5
448,32,13053,1,0,0:0:0:0:
128,192,13229,2,0,L|-32:192,1,135
352,192,13582,5,0,0:0:0:0:
80,192,13759,1,0,0:0:0:0:
208,192,13935,1,0,0:0:0:0:
64,192,14112,2,0,L|96:128,1,67.5
160,128,14288,2,0,L|176:48,1,67.5
16,80,14465,2,0,L|160:32,1,135
400,32,14818,1,0,0:0:0:0:
144,192,14994,6,0,L|80:160,1,67.5
0,128,15170,1,0,0:0:0:0:
64,112,15259,1,0,0:0:0:0:
256,96,15347,1,0,0:0:0:0:
400,96,15523,1,0,0:0:0:0:
256,192,15700,2,0,L|416:144,1,135
144,176,16053,2,0,L|288:128,1,135
512,128,16406,5,0,0:0:0:0:
256,192,16582,1,0,0:0:0:0:
208,144,16670,1,0,0:0:0:0:
272,80,16759,1,0,0:0:0:0:
432,48,16935,1,0,0:0:0:0:
80,192,17112,6,0,L|64:112,1,67.5
304,128,17288,2,0,L|256:64,1,67.5
48,80,17465,1,0,0:0:0:0:
416,56,17641,1,0,0:0:0:0:
112,272,17818,6,0,L|160:272,1,47.2499985580445
224,224,17994,2,0,L|176:224,1,47.2499985580445
64,304,18170,2,0,L|128:304,1,47.2499985580445
272,176,18347,2,0,L|208:176,1,47.2499985580445
16,352,18523,2,0,L|80:352,1,47.2499985580445
320,128,18700,2,0,L|256:128,1,47.2499985580445
0,192,18876,2,0,L|80:192,1,47.2499985580445
256,192,19053,2,0,L|320:192,1,47.2499985580445
400,272,19229,6,0,L|352:272,1,47.2499985580445
288,224,19405,2,0,L|336:224,1,47.2499985580445
448,304,19581,2,0,L|384:304,1,47.2499985580445
240,176,19758,2,0,L|304:176,1,47.2499985580445
496,352,19934,2,0,L|432:352,1,47.2499985580445
192,128,20111,2,0,L|256:128,1,47.2499985580445
512,192,20287,2,0,L|432:192,1,47.2499985580445
48,192,20465,2,0,L|-16:192,1,47.2499985580445
352,224,20641,6,0,L|432:224,2,67.5
144,208,20906,2,0,L|64:144,1,67.5
272,144,21082,2,0,L|368:128,1,67.5
80,112,21259,2,0,L|-16:112,2,67.5
256,128,21523,2,0,L|352:112,1,67.5
464,96,21700,2,0,L|496:32,1,67.5
48,96,21876,2,0,L|16:32,1,67.5
432,272,22053,6,0,L|528:224,1,74.2500022659302
288,224,22229,2,0,L|336:128,1,94.4999971160889
144,272,22406,6,0,L|240:224,1,74.2500022659302
0,224,22582,2,0,L|64:112,1,94.4999971160889
496,320,22759,6,0,L|416:256,1,94.4999971160889
512,256,22935,2,0,L|432:256,1,74.2500022659302
16,320,23112,2,0,L|128:224,1,94.4999971160889
0,256,23288,2,0,L|96:256,1,74.2500022659302
336,256,23465,6,0,L|480:208,1,148.50000453186
368,176,23729,1,0,0:0:0:0:
448,128,23818,2,0,L|512:80,1,74.2500022659302
256,80,23994,1,0,0:0:0:0:
0,192,24170,2,0,L|64:144,1,74.2500022659302
224,192,24347,2,0,L|320:192,1,74.2500022659302
512,192,24523,1,0,0:0:0:0:
496,240,24568,1,0,0:0:0:0:
464,288,24612,1,0,0:0:0:0:
256,192,24700,6,0,P|176:128|176:96,1,74.2500022659302
432,320,24876,6,0,P|523:209|432:69,1,297.000009063721
64,192,25406,6,0,P|240:192|260:171,1,148.50000453186
240,192,25626,1,0,0:0:0:0:
272,176,25670,1,0,0:0:0:0:
288,144,25715,1,0,0:0:0:0:
96,128,25803,1,0,0:0:0:0:
112,96,25847,1,0,0:0:0:0:
448,304,25935,6,0,P|496:240|496:224,1,74.2500022659302
240,240,26112,6,0,L|96:208,1,148.50000453186
256,192,26465,1,0,0:0:0:0:
368,192,26641,2,0,L|416:192,2,37.1250011329651
128,240,26818,2,0,P|32:176|16:64,1,222.750006797791
368,128,27170,2,0,L|448:96,1,74.2500022659302
128,240,27347,2,0,P|112:96|176:32,1,222.750006797791
368,128,27700,2,0,L|464:96,1,74.2500022659302
128,240,27876,6,0,L|320:176,1,148.50000453186
160,128,28229,2,0,L|256:96,1,74.2500022659302
432,64,28406,2,0,L|512:32,1,74.2500022659302
416,304,28582,2,0,L|336:288,1,74.2500022659302
96,224,28759,2,0,L|48:160,1,74.2500022659302
0,112,28935,2,0,L|64:32,1,74.2500022659302
384,192,29112,6,0,L|176:192,1,148.50000453186
432,128,29465,2,0,L|512:128,2,74.2500022659302
160,128,29729,1,0,0:0:0:0:
64,80,29818,6,0,L|-16:16,1,74.2500022659302
496,80,29994,2,0,L|432:16,1,74.2500022659302
128,192,30170,1,0,0:0:0:0:
96,176,30215,1,0,0:0:0:0:
128,144,30259,1,0,0:0:0:0:
176,112,30303,1,0,0:0:0:0:
400,192,30347,2,0,L|480:128,1,74.2500022659302
272,144,30523,2,0,L|64:96,1,148.50000453186
432,224,30876,6,0,L|432:160,3,37.1250011329651
208,192,31053,2,0,L|0:144,1,148.50000453186
432,304,31406,1,0,0:0:0:0:
464,272,31450,1,0,0:0:0:0:
464,224,31494,1,0,0:0:0:0:
432,192,31538,1,0,0:0:0:0:
144,240,31582,2,0,L|16:208,1,74.2500022659302
288,160,31759,2,0,L|496:128,1,148.50000453186
256,192,32112,5,0,0:0:0:0:
144,192,32288,2,0,L|96:192,2,37.1250011329651
256,192,32465,2,0,P|352:144|432:80,1,148.50000453186
48,96,32818,1,0,0:0:0:0:
352,192,32994,2,0,P|384:96|336:32,1,148.50000453186
48,96,33347,1,0,0:0:0:0:
448,192,33523,2,0,P|336:80|320:64,2,148.50000453186
0,192,34053,6,0,L|192:192,1,148.50000453186
512,192,34406,1,0,0:0:0:0:
80,192,34759,1,0,0:0:0:0:
240,192,34935,1,0,0:0:0:0:
32,192,35112,1,0,0:0:0:0:
0,160,35200,1,0,0:0:0:0:
32,128,35288,1,0,0:0:0:0:
304,192,35465,5,0,0:0:0:0:
144,192,35641,1,0,0:0:0:0:
432,192,35818,1,0,0:0:0:0:
448,160,35862,1,0,0:0:0:0:
432,128,35906,1,0,0:0:0:0:
448,96,35950,1,0,0:0:0:0:
432,64,35994,1,0,0:0:0:0:
176,192,36170,5,0,0:0:0:0:
336,192,36347,1,0,0:0:0:0:
32,192,36523,1,0,0:0:0:0:
16,160,36568,1,0,0:0:0:0:
16,128,36612,1,0,0:0:0:0:
32,96,36656,1,0,0:0:0:0:
256,96,36700,2,0,L|336:96,1,74.2500022659302
112,96,36876,1,0,0:0:0:0:
96,64,36921,1,0,0:0:0:0:
96,32,36965,1,0,0:0:0:0:
112,0,37009,1,0,0:0:0:0:
320,96,37053,6,0,L|400:96,1,74.2500022659302
480,32,37229,1,0,0:0:0:0:
400,32,37318,1,0,0:0:0:0:
320,32,37406,1,0,0:0:0:0:
400,192,37582,5,0,0:0:0:0:
240,192,37759,1,0,0:0:0:0:
128,192,37935,2,0,L|128:112,1,74.2500022659302
400,112,38112,1,0,0:0:0:0:
272,192,38288,5,0,0:0:0:0:
432,192,38465,1,0,0:0:0:0:
0,192,38641,2,0,L|32:112,1,74.2500022659302
176,80,38818,1,0,0:0:0:0:
496,192,38994,5,0,0:0:0:0:
336,192,39170,1,0,0:0:0:0:
160,192,39347,1,0,0:0:0:0:
144,160,39391,1,0,0:0:0:0:
144,128,39435,1,0,0:0:0:0:
160,96,39479,1,0,0:0:0:0:
496,112,39523,2,0,L|496:32,1,74.2500022659302
240,192,39700,5,0,0:0:0:0:
368,192,39876,1,0,0:0:0:0:
96,112,40053,2,0,L|432:112,1,270
432,192,40406,5,0,0:0:0:0:
256,192,40582,1,0,0:0:0:0:
512,192,40759,1,0,0:0:0:0:
512,144,40847,1,0,0:0:0:0:
512,96,40935,1,0,0:0:0:0:
208,192,41112,5,0,0:0:0:0:
384,192,41288,1,0,0:0:0:0:
96,192,41465,1,0,0:0:0:0:
80,192,41509,1,0,0:0:0:0:
96,192,41553,1,0,0:0:0:0:
80,192,41597,1,0,0:0:0:0:
96,192,41641,1,0,0:0:0:0:
336,192,41818,5,0,0:0:0:0:
160,192,41994,1,0,0:0:0:0:
464,192,42170,1,0,0:0:0:0:
496,160,42215,1,0,0:0:0:0:
496,128,42259,1,0,0:0:0:0:
464,96,42303,1,0,0:0:0:0:
192,96,42347,2,0,L|272:96,1,74.2500022659302
464,96,42523,2,0,L|496:64,1,37.1250011329651
496,48,42612,2,0,L|464:16,1,37.1250011329651
192,96,42700,6,0,L|96:96,1,74.2500022659302
32,32,42876,5,0,0:0:0:0:
112,32,42965,1,0,0:0:0:0:
192,32,43053,1,0,0:0:0:0:
112,192,43229,5,0,0:0:0:0:
288,192,43405,1,0,0:0:0:0:
0,192,43582,2,0,L|32:112,1,74.2500022659302
176,112,43759,1,0,0:0:0:0:
64,192,43935,5,0,0:0:0:0:
240,192,44111,1,0,0:0:0:0:
512,192,44288,6,0,L|432:192,1,74.2500022659302
256,192,44465,2,0,L|160:192,1,74.2500022659302
16,192,44641,5,0,0:0:0:0:
192,192,44817,1,0,0:0:0:0:
496,192,44994,5,0,0:0:0:0:
320,192,45170,1,0,0:0:0:0:
16,128,45347,2,0,L|352:128,1,270
480,240,45700,6,0,P|509:161|496:48,1,162
448,80,46053,1,0,0:0:0:0:
0,128,46406,2,0,L|112:128,1,108
256,128,46759,2,0,L|480:128,1,216
256,128,47465,2,0,L|384:128,1,108
512,128,47818,2,0,L|400:128,1,108
0,192,48170,2,0,L|80:-16,1,216
512,192,48876,6,0,L|368:192,1,108
256,192,49229,1,0,0:0:0:0:
512,192,49406,2,0,L|320:192,1,162
192,192,49759,2,0,L|64:192,1,108
16,192,50112,2,0,L|16:32,1,108
256,192,50641,2,0,L|128:192,1,108
364,192,51170,6,0,L|236:192,1,108
192,192,51435,1,0,0:0:0:0:
128,192,51523,1,0,0:0:0:0:
64,192,51612,1,0,0:0:0:0:
368,192,51700,6,0,L|480:192,1,108
112,192,52053,1,0,0:0:0:0:
368,192,52229,2,0,L|496:192,1,108
304,192,52582,1,0,0:0:0:0:
0,192,52759,1,0,0:0:0:0:
512,192,53112,6,0,L|384:192,1,108
256,192,53465,1,0,0:0:0:0:
512,192,53641,2,0,L|400:192,1,108
112,192,53994,2,0,L|0:192,1,108
368,192,54523,6,0,L|368:64,1,108
256,80,54876,1,0,0:0:0:0:
80,192,55053,2,0,L|80:64,1,108
256,80,55406,1,0,0:0:0:0:
512,192,55582,2,0,L|512:-32,1,216
176,192,56112,2,0,L|96:192,1,74.2500022659302
336,192,56288,2,0,L|432:192,2,74.2500022659302
256,192,56553,1,0,0:0:0:0:
80,192,56641,6,0,L|-16:192,1,74.2500022659302
432,192,56818,2,0,L|512:192,1,74.2500022659302
144,192,56994,6,0,P|80:144|144:32,1,222.750006797791
283,192,57347,2,0,L|443:192,1,148.50000453186
64,80,57700,2,0,L|224:80,1,148.50000453186
352,192,58053,2,0,L|512:192,1,148.50000453186
0,128,58406,2,0,L|336:128,1,297.000009063721
448,80,58935,1,0,0:0:0:0:
272,80,59112,2,0,L|80:80,1,148.50000453186
400,80,59465,5,0,0:0:0:0:
139,80,59641,1,0,0:0:0:0:
512,80,59818,1,0,0:0:0:0:
512,192,60170,6,0,L|288:192,1,222.750006797791
48,192,60523,2,0,L|208:192,1,148.50000453186
352,192,60876,2,0,L|528:192,1,148.50000453186
176,192,61229,2,0,L|0:192,1,148.50000453186
432,192,61582,6,0,L|496:48,1,148.50000453186
256,192,61935,1,0,0:0:0:0:
80,192,62112,2,0,L|16:48,1,148.50000453186
256,192,62465,1,0,0:0:0:0:
512,320,62641,6,0,L|512:16,1,297.000009063721
0,192,63347,2,0,L|176:192,1,148.50000453186
0,128,63875,1,0,0:0:0:0:
416,128,64053,1,0,0:0:0:0:
96,192,64229,1,0,0:0:0:0:
0,192,64406,5,0,0:0:0:0:
512,192,64759,2,0,L|336:192,1,148.50000453186
512,128,65288,1,0,0:0:0:0:
96,128,65466,1,0,0:0:0:0:
416,336,65641,1,0,0:0:0:0:
512,336,65818,5,0,0:0:0:0:
512,272,65906,1,0,0:0:0:0:
480,208,65994,1,0,0:0:0:0:
416,176,66082,1,0,0:0:0:0:
208,192,66170,2,0,L|128:192,1,74.2500022659302
320,128,66347,2,0,L|400:128,1,74.2500022659302
0,336,66523,5,0,0:0:0:0:
0,272,66611,1,0,0:0:0:0:
32,208,66699,1,0,0:0:0:0:
96,176,66787,1,0,0:0:0:0:
304,192,66876,2,0,L|384:192,1,74.2500022659302
192,128,67053,2,0,L|112:128,1,74.2500022659302
272,336,67229,6,0,B|432:304|448:128|448:128|0:112|0:112,1,742.500022659302
512,112,68288,1,0,0:0:0:0:
176,240,68641,5,0,0:0:0:0:
240,224,68729,1,0,0:0:0:0:
288,176,68818,1,0,0:0:0:0:
304,112,68906,1,0,0:0:0:0:
192,112,68994,1,0,0:0:0:0:
144,64,69082,1,0,0:0:0:0:
400,192,69170,5,0,0:0:0:0:
464,160,69259,1,0,0:0:0:0:
432,96,69347,1,0,0:0:0:0:
368,64,69435,1,0,0:0:0:0:
304,48,69523,1,0,0:0:0:0:
240,64,69612,1,0,0:0:0:0:
16,272,69700,1,0,0:0:0:0:
64,224,69788,1,0,0:0:0:0:
128,192,69876,1,0,0:0:0:0:
80,160,69965,1,0,0:0:0:0:
0,192,70053,6,0,L|48:128,1,74.2500022659302
112,96,70229,2,0,L|192:96,1,74.2500022659302
256,96,70406,2,0,L|336:96,1,74.2500022659302
480,256,70582,2,0,L|496:128,1,74.2500022659302
432,160,70759,1,0,0:0:0:0:
368,144,70847,1,0,0:0:0:0:
448,96,70935,1,0,0:0:0:0:
512,64,71023,1,0,0:0:0:0:
160,272,71112,5,0,0:0:0:0:
96,240,71200,1,0,0:0:0:0:
112,176,71288,1,0,0:0:0:0:
160,128,71376,1,0,0:0:0:0:
512,224,71465,6,0,L|464:128,1,74.2500022659302
352,128,71641,2,0,L|272:80,1,74.2500022659302
16,272,71818,1,0,0:0:0:0:
48,224,71906,1,0,0:0:0:0:
112,192,71994,1,0,0:0:0:0:
176,176,72082,1,0,0:0:0:0:
64,160,72170,6,0,L|16:64,1,74.2500022659302
64,64,72346,2,0,L|144:16,1,74.2500022659302
432,160,72523,5,0,0:0:0:0:
512,112,72612,1,0,0:0:0:0:
432,80,72700,1,0,0:0:0:0:
352,48,72788,1,0,0:0:0:0:
144,320,72876,5,0,0:0:0:0:
96,288,72965,1,0,0:0:0:0:
48,240,73053,1,0,0:0:0:0:
32,176,73141,1,0,0:0:0:0:
256,192,73229,2,0,L|352:176,1,74.2500022659302
80,208,73406,5,0,0:0:0:0:
63,152,73495,1,0,0:0:0:0:
57,85,73583,1,0,0:0:0:0:
86,25,73671,1,0,0:0:0:0:
144,16,73759,2,0,L|224:16,1,74.2500022659302
336,16,73935,2,0,L|256:16,1,74.2500022659302
160,16,74112,2,0,L|64:32,1,74.2500022659302
512,256,74288,6,0,L|464:176,1,74.2500022659302
400,144,74465,2,0,L|304:96,1,74.2500022659302
144,288,74641,5,0,0:0:0:0:
80,256,74729,1,0,0:0:0:0:
336,224,74818,1,0,0:0:0:0:
400,192,74906,1,0,0:0:0:0:
448,144,74994,1,0,0:0:0:0:
464,80,75082,1,0,0:0:0:0:
176,224,75170,6,0,L|112:160,1,74.2500022659302
176,176,75347,2,0,L|192:64,1,74.2500022659302
80,128,75523,2,0,L|64:48,1,74.2500022659302
512,320,75700,5,0,0:0:0:0:
448,304,75788,1,0,0:0:0:0:
400,256,75876,1,0,0:0:0:0:
368,192,75965,1,0,0:0:0:0:
480,160,76053,1,0,0:0:0:0:
496,96,76141,1,0,0:0:0:0:
128,320,76229,5,0,0:0:0:0:
96,256,76318,1,0,0:0:0:0:
144,208,76406,1,0,0:0:0:0:
208,176,76494,1,0,0:0:0:0:
288,240,76582,6,0,L|352:176,1,74.2500022659302
208,144,76759,2,0,L|176:64,1,74.2500022659302
400,128,76935,2,0,L|416:48,1,74.2500022659302
0,288,77112,5,0,0:0:0:0:
64,256,77200,1,0,0:0:0:0:
128,224,77288,1,0,0:0:0:0:
192,192,77376,1,0,0:0:0:0:
336,144,77465,2,0,L|432:96,1,74.2500022659302
128,288,77641,5,0,0:0:0:0:
64,256,77729,1,0,0:0:0:0:
16,208,77818,1,0,0:0:0:0:
32,144,77906,1,0,0:0:0:0:
176,160,77994,1,0,0:0:0:0:
240,128,78082,1,0,0:0:0:0:
288,80,78171,1,0,0:0:0:0:
272,16,78259,1,0,0:0:0:0:
64,192,78347,5,0,0:0:0:0:
0,144,78435,1,0,0:0:0:0:
64,96,78523,1,0,0:0:0:0:
208,304,78612,5,0,0:0:0:0:
272,272,78700,1,0,0:0:0:0:
336,240,78788,1,0,0:0:0:0:
272,208,78876,1,0,0:0:0:0:
480,176,78965,1,0,0:0:0:0:
416,144,79053,1,0,0:0:0:0:
352,112,79141,1,0,0:0:0:0:
288,80,79229,1,0,0:0:0:0:
448,80,79318,1,0,0:0:0:0:
512,112,79406,1,0,0:0:0:0:
448,144,79494,1,0,0:0:0:0:
176,192,79582,1,0,0:0:0:0:
240,224,79670,1,0,0:0:0:0:
304,256,79759,1,0,0:0:0:0:
240,288,79847,1,0,0:0:0:0:
16,144,79935,5,0,0:0:0:0:
48,96,80023,1,0,0:0:0:0:
112,80,80112,1,0,0:0:0:0:
176,96,80200,1,0,0:0:0:0:
224,144,80288,1,0,0:0:0:0:
256,208,80376,1,0,0:0:0:0:
512,320,80465,6,0,L|400:320,1,74.2500022659302
256,320,80641,2,0,L|176:320,1,74.2500022659302
384,256,80818,1,0,0:0:0:0:
448,224,80906,1,0,0:0:0:0:
448,160,80994,1,0,0:0:0:0:
384,128,81082,1,0,0:0:0:0:
448,96,81170,1,0,0:0:0:0:
512,64,81259,1,0,0:0:0:0:
208,272,81347,5,0,0:0:0:0:
160,224,81435,1,0,0:0:0:0:
144,176,81523,1,0,0:0:0:0:
176,112,81612,1,0,0:0:0:0:
240,80,81700,1,0,0:0:0:0:
304,64,81788,1,0,0:0:0:0:
128,336,81876,5,0,0:0:0:0:
112,272,81964,1,0,0:0:0:0:
144,208,82052,1,0,0:0:0:0:
208,176,82141,1,0,0:0:0:0:
352,176,82229,1,0,0:0:0:0:
416,160,82318,1,0,0:0:0:0:
464,112,82406,1,0,0:0:0:0:
480,48,82494,1,0,0:0:0:0:
256,64,82582,2,0,L|336:64,1,74.2500022659302
64,336,82759,5,0,0:0:0:0:
16,304,82847,1,0,0:0:0:0:
16,240,82935,1,0,0:0:0:0:
64,192,83023,1,0,0:0:0:0:
160,192,83112,1,0,0:0:0:0:
208,160,83200,1,0,0:0:0:0:
208,96,83288,1,0,0:0:0:0:
160,64,83376,1,0,0:0:0:0:
32,128,83465,1,0,0:0:0:0:
16,64,83553,1,0,0:0:0:0:
80,32,83641,1,0,0:0:0:0:
144,0,83729,1,0,0:0:0:0:
320,224,83818,1,0,0:0:0:0:
336,160,83906,1,0,0:0:0:0:
272,128,83994,1,0,0:0:0:0:
208,96,84082,1,0,0:0:0:0:
448,224,84170,5,0,0:0:0:0:
512,192,84259,1,0,0:0:0:0:
464,144,84347,1,0,0:0:0:0:
400,112,84435,1,0,0:0:0:0:
336,80,84523,1,0,0:0:0:0:
272,64,84612,1,0,0:0:0:0:
0,192,84700,5,0,0:0:0:0:
64,192,84788,1,0,0:0:0:0:
112,160,84876,1,0,0:0:0:0:
160,112,84965,1,0,0:0:0:0:
128,64,85053,1,0,0:0:0:0:
64,48,85141,1,0,0:0:0:0:
240,192,85229,6,0,L|320:160,1,74.2500022659302
464,192,85406,2,0,L|512:128,1,74.2500022659302
336,288,85582,5,0,0:0:0:0:
272,288,85670,1,0,0:0:0:0:
208,256,85759,1,0,0:0:0:0:
160,208,85847,1,0,0:0:0:0:
128,144,85935,1,0,0:0:0:0:
144,80,86023,1,0,0:0:0:0:
384,208,86112,1,0,0:0:0:0:
432,160,86200,1,0,0:0:0:0:
464,96,86288,1,0,0:0:0:0:
448,32,86376,1,0,0:0:0:0:
272,192,86465,1,0,0:0:0:0:
256,128,86553,1,0,0:0:0:0:
272,64,86641,1,0,0:0:0:0:
320,16,86729,1,0,0:0:0:0:
384,0,86818,1,0,0:0:0:0:
448,0,86906,1,0,0:0:0:0:
320,288,86994,5,0,0:0:0:0:
256,288,87082,1,0,0:0:0:0:
192,256,87171,1,0,0:0:0:0:
144,208,87259,1,0,0:0:0:0:
112,144,87347,1,0,0:0:0:0:
128,80,87435,1,0,0:0:0:0:
320,208,87524,1,0,0:0:0:0:
368,160,87612,1,0,0:0:0:0:
400,96,87700,1,0,0:0:0:0:
384,32,87788,1,0,0:0:0:0:
192,32,87877,1,0,0:0:0:0:
128,16,87965,1,0,0:0:0:0:
192,32,88053,1,0,0:0:0:0:
256,48,88141,1,0,0:0:0:0:
304,80,88230,1,0,0:0:0:0:
352,128,88318,1,0,0:0:0:0:
256,256,88406,6,0,L|108:256,1,148.50000453186
256,192,88759,1,0,0:0:0:0:
512,192,88935,1,0,0:0:0:0:
107,256,89112,6,0,L|255:256,1,148.50000453186
0,192,89465,1,0,0:0:0:0:
512,192,89641,1,0,0:0:0:0:
0,192,89818,5,0,0:0:0:0:
304,192,89994,2,0,L|368:144,1,74.2500022659302
272,112,90170,1,0,0:0:0:0:
512,192,90347,5,0,0:0:0:0:
208,192,90523,2,0,L|144:144,1,74.2500022659302
240,112,90699,1,0,0:0:0:0:
0,192,90876,1,0,0:0:0:0:
384,192,91053,1,0,0:0:0:0:
96,304,91229,5,0,0:0:0:0:
48,272,91318,1,0,0:0:0:0:
16,224,91406,1,0,0:0:0:0:
32,160,91494,1,0,0:0:0:0:
64,112,91582,2,0,L|128:64,1,80.9999975280763
368,176,91759,2,0,L|352:96,1,80.9999975280763
288,64,91935,1,0,0:0:0:0:
352,32,92023,1,0,0:0:0:0:
416,64,92112,6,0,L|480:128,1,80.9999975280763
288,176,92288,2,0,L|240:256,1,80.9999975280763
432,192,92465,2,0,L|480:256,1,80.9999975280763
400,208,92641,1,0,0:0:0:0:
384,272,92729,1,0,0:0:0:0:
432,320,92818,1,0,0:0:0:0:
496,304,92906,1,0,0:0:0:0:
512,240,92994,2,0,P|384:208|368:208,1,80.9999975280763
256,192,93170,2,0,P|171:144|157:88,1,80.9999975280763
0,176,93347,5,0,0:0:0:0:
64,160,93435,1,0,0:0:0:0:
128,144,93523,1,0,0:0:0:0:
192,128,93612,1,0,0:0:0:0:
256,112,93700,2,0,L|288:32,1,80.9999975280763
448,112,93876,2,0,L|512:48,1,80.9999975280763
0,272,94053,6,0,L|32:160,1,80.9999975280763
48,160,94229,2,0,L|144:112,1,80.9999975280763
336,240,94406,6,0,L|304:128,1,80.9999975280763
144,240,94582,2,0,L|64:144,1,80.9999975280763
0,160,94759,2,0,L|80:64,1,80.9999975280763
240,128,94935,2,0,L|320:80,1,80.9999975280763
64,96,95112,2,0,L|-16:0,1,80.9999975280763
208,320,95288,5,0,0:0:0:0:
288,288,95376,1,0,0:0:0:0:
336,240,95464,1,0,0:0:0:0:
352,176,95552,1,0,0:0:0:0:
320,112,95641,1,0,0:0:0:0:
240,80,95729,1,0,0:0:0:0:
160,64,95817,1,0,0:0:0:0:
80,64,95905,1,0,0:0:0:0:
0,64,95994,1,0,0:0:0:0:
368,320,96082,5,0,0:0:0:0:
448,288,96170,1,0,0:0:0:0:
512,224,96258,1,0,0:0:0:0:
496,144,96346,1,0,0:0:0:0:
432,96,96435,1,0,0:0:0:0:
272,176,96523,1,0,0:0:0:0:
192,160,96611,1,0,0:0:0:0:
32,128,96699,1,0,0:0:0:0:
0,64,96788,1,0,0:0:0:0:
256,320,96876,5,0,0:0:0:0:
336,304,96965,1,0,0:0:0:0:
400,272,97053,1,0,0:0:0:0:
448,208,97141,1,0,0:0:0:0:
368,176,97229,2,0,L|320:96,1,80.9999975280763
448,112,97406,2,0,L|512:48,1,80.9999975280763
112,320,97582,1,0,0:0:0:0:
80,256,97670,1,0,0:0:0:0:
128,192,97759,1,0,0:0:0:0:
176,144,97847,1,0,0:0:0:0:
384,160,97935,1,0,0:0:0:0:
448,144,98023,1,0,0:0:0:0:
512,128,98112,1,0,0:0:0:0:
496,64,98200,1,0,0:0:0:0:
0,192,98288,6,0,L|48:112,1,80.9999975280763
256,112,98465,2,0,L|352:96,1,80.9999975280763
112,96,98641,2,0,L|32:48,1,80.9999975280763
320,192,98818,2,0,L|432:192,1,80.9999975280763
160,208,98994,2,0,L|80:160,1,80.9999975280763
96,128,99170,2,0,L|176:80,1,80.9999975280763
320,112,99347,2,0,L|400:112,1,80.9999975280763
192,64,99523,2,0,L|96:64,1,80.9999975280763
512,192,99700,6,0,L|448:128,1,80.9999975280763
0,192,99876,2,0,L|0:112,1,80.9999975280763
256,192,100053,2,0,L|320:128,1,80.9999975280763
0,192,100229,6,0,L|64:128,1,80.9999975280763
512,192,100405,2,0,L|512:112,1,80.9999975280763
256,192,100582,2,0,L|192:128,1,80.9999975280763
512,192,100759,2,0,L|512:64,1,80.9999975280763
0,192,100935,2,0,L|0:48,1,80.9999975280763
384,192,101111,5,0,0:0:0:0:
128,192,101288,1,0,0:0:0:0:
512,192,101464,1,0,0:0:0:0:
128,192,101641,5,0,0:0:0:0:
384,192,101818,1,0,0:0:0:0:
0,192,101994,1,0,0:0:0:0:
256,192,102170,5,0,0:0:0:0:
512,192,102347,5,0,0:0:0:0:
0,304,102523,6,0,L|32:224,1,80.9999975280763
240,208,102700,2,0,L|112:176,1,80.9999975280763
96,160,102876,2,0,L|144:64,1,80.9999975280763
192,112,103053,2,0,L|224:32,1,80.9999975280763
80,48,103229,5,0,0:0:0:0:
32,80,103318,1,0,0:0:0:0:
0,128,103406,1,0,0:0:0:0:
16,192,103494,1,0,0:0:0:0:
64,240,103582,1,0,0:0:0:0:
128,256,103670,1,0,0:0:0:0:
192,256,103759,1,0,0:0:0:0:
240,208,103847,1,0,0:0:0:0:
288,160,103935,6,0,L|192:128,1,80.9999975280763
160,112,104112,2,0,L|272:80,1,80.9999975280763
336,208,104288,2,0,L|416:112,1,80.9999975280763
464,96,104465,2,0,L|464:16,1,80.9999975280763
80,304,104641,5,0,0:0:0:0:
48,272,104729,1,0,0:0:0:0:
96,240,104818,1,0,0:0:0:0:
64,208,104906,1,0,0:0:0:0:
224,208,104994,5,0,0:0:0:0:
160,176,105082,1,0,0:0:0:0:
176,112,105171,1,0,0:0:0:0:
224,80,105259,1,0,0:0:0:0:
368,320,105347,5,0,0:0:0:0:
448,288,105435,1,0,0:0:0:0:
496,240,105523,1,0,0:0:0:0:
464,192,105612,1,0,0:0:0:0:
304,224,105700,5,0,0:0:0:0:
336,160,105789,1,0,0:0:0:0:
288,128,105877,1,0,0:0:0:0:
320,64,105965,1,0,0:0:0:0:
144,320,106053,5,0,0:0:0:0:
64,288,106141,1,0,0:0:0:0:
16,240,106229,1,0,0:0:0:0:
48,192,106318,1,0,0:0:0:0:
208,224,106406,5,0,0:0:0:0:
176,160,106495,1,0,0:0:0:0:
224,128,106583,1,0,0:0:0:0:
192,64,106671,1,0,0:0:0:0:
400,256,106759,6,0,L|400:160,1,80.9999975280763
112,256,106935,6,0,L|112:160,1,80.9999975280763
400,256,107112,6,0,L|400:160,1,80.9999975280763
112,256,107288,6,0,L|112:160,1,80.9999975280763
512,256,107465,6,0,L|448:192,1,80.9999975280763
96,256,107641,2,0,L|16:224,1,80.9999975280763
416,256,107818,2,0,L|496:256,1,80.9999975280763
96,256,107994,2,0,L|16:256,1,80.9999975280763
512,192,108170,6,0,L|400:192,1,80.9999975280763
352,192,108347,2,0,L|256:192,1,80.9999975280763
0,192,108523,6,0,L|112:192,1,80.9999975280763
160,192,108700,2,0,L|256:192,1,80.9999975280763
320,192,108876,6,0,L|432:192,1,80.9999975280763
480,144,109053,2,0,L|384:144,1,80.9999975280763
192,192,109229,6,0,L|80:192,1,80.9999975280763
32,144,109406,2,0,L|128:144,1,80.9999975280763
256,192,109582,6,0,L|352:192,1,80.9999975280763
464,192,109759,2,0,L|512:96,1,80.9999975280763
256,192,109935,6,0,L|160:192,1,80.9999975280763
48,192,110112,2,0,L|0:96,1,80.9999975280763
256,192,110288,6,0,L|368:192,1,80.9999975280763
416,144,110465,2,0,L|320:144,1,80.9999975280763
256,192,110641,6,0,L|144:192,1,80.9999975280763
96,144,110818,2,0,L|192:144,1,80.9999975280763
416,192,110994,6,0,L|512:192,1,80.9999975280763
96,192,111170,2,0,L|0:192,1,80.9999975280763
384,192,111347,2,0,L|480:192,1,80.9999975280763
128,192,111523,2,0,L|32:192,1,80.9999975280763
352,192,111700,2,0,L|448:192,1,80.9999975280763
160,192,111876,2,0,L|64:192,1,80.9999975280763
320,192,112053,2,0,L|416:192,1,80.9999975280763
192,192,112229,2,0,L|96:192,1,80.9999975280763
256,192,112406,2,0,B|368:144|512:96|32:32,1,485.999985168458
512,192,113288,5,0,0:0:0:0:
256,192,113465,1,0,0:0:0:0:
0,192,113641,1,0,0:0:0:0:
512,192,113818,1,0,0:0:0:0:
