osu file format v14

[General]
AudioFilename: baba.mp3
AudioLeadIn: 0
PreviewTime: 45527
Countdown: 0
SampleSet: Soft
StackLeniency: 0.2
Mode: 0
LetterboxInBreaks: 0
WidescreenStoryboard: 1

[Editor]
Bookmarks: 12174,45703,91232,136409,181585,226762,271938,295585,317115
DistanceSpacing: 0.85
BeatDivisor: 4
GridSize: 4
TimelineZoom: 3.499999

[Metadata]
Title:Masshiro na Yuki
TitleUnicode:まっしろな雪
Artist:Halozy
ArtistUnicode:Halozy
Creator:WORSTPOLACKEU
Version:MASZYNO MASZYNO
Source:touhou 中日附詞 marathon sumijun すみじゅん amorevole 水瀬ましろ minase
Tags:mashiro higan retour 彼岸帰航 ~ riverside eastern flower viewing mound komachi onozuka Keada Mun
BeatmapID:1640535
BeatmapSetID:602004

[Difficulty]
HPDrainRate:6
CircleSize:4.2
OverallDifficulty:9.5
ApproachRate:9.5
SliderMultiplier:1.8
SliderTickRate:1

[Events]
//Background and Video events
0,0,"Webp.net-resizeimage (2).jpg",0,0
//Break Periods
2,231197,237531
//Storyboard Layer 0 (Background)
//Storyboard Layer 1 (Fail)
//Storyboard Layer 2 (Pass)
//Storyboard Layer 3 (Foreground)
//Storyboard Layer 4 (Overlay)
//Storyboard Sound Samples

[TimingPoints]
880,352.941176470588,4,2,1,60,1,0
17821,-100,4,2,1,70,0,0
19232,-100,4,2,1,80,0,0
20644,-57.1428571428571,4,2,1,80,0,0
20997,-52.6315789473684,4,2,1,80,0,0
21350,-25,4,2,1,80,0,0
22232,-100,4,2,1,70,0,0
23468,-100,4,2,1,70,0,0
26115,-76.9230769230769,4,2,1,70,0,0
26247,-76.9230769230769,4,2,1,5,0,0
26291,-100,4,2,1,70,0,0
31762,-76.9230769230769,4,2,1,70,0,0
31894,-76.9230769230769,4,2,1,5,0,0
31938,-100,4,2,1,70,0,0
34585,-76.9230769230769,4,2,1,70,0,0
34718,-76.9230769230769,4,2,1,5,0,0
34762,-100,4,2,1,70,0,0
37409,-76.9230769230769,4,2,1,70,0,0
37541,-76.9230769230769,4,2,1,5,0,0
37585,-100,4,2,1,70,0,0
40232,-76.9230769230769,4,2,1,70,0,0
40365,-76.9230769230769,4,2,1,5,0,0
40409,-100,4,2,1,70,0,0
44821,-100,4,2,1,70,0,0
44997,-100,4,2,1,70,0,0
45174,-100,4,2,1,70,0,0
45527,-100,4,2,1,70,0,0
45703,-133.333333333333,4,2,1,70,0,0
45968,-133.333333333333,4,2,1,5,0,0
46056,-111.111111111111,4,2,1,70,0,0
51438,-111.111111111111,4,2,1,70,0,0
51703,-111.111111111111,4,2,1,70,0,0
56115,-66.6666666666667,4,2,1,70,0,0
57262,-80,4,2,1,5,0,0
57350,-80,4,2,1,70,0,0
67232,-76.9230769230769,4,2,1,70,0,0
68291,-71.4285714285714,4,2,1,70,0,0
68556,-71.4285714285714,4,2,1,5,0,0
68644,-71.4285714285714,4,2,1,70,0,1
74203,-71.4285714285714,4,2,1,5,0,1
74291,-71.4285714285714,4,2,1,70,0,1
79585,-71.4285714285714,4,2,1,70,0,1
79850,-71.4285714285714,4,2,1,5,0,1
79938,-71.4285714285714,4,2,1,70,0,1
85232,-71.4285714285714,4,2,1,70,0,1
85497,-71.4285714285714,4,2,1,5,0,1
85585,-71.4285714285714,4,2,1,70,0,1
86468,-71.4285714285714,4,2,1,70,0,1
89821,-83.3333333333333,4,2,1,50,0,0
91232,-71.4285714285714,4,2,1,70,0,1
99703,-71.4285714285714,4,2,1,70,0,1
100762,-71.4285714285714,4,2,1,70,0,1
112056,-71.4285714285714,4,2,1,70,0,1
112409,-83.3333333333333,4,2,1,70,0,0
113468,-66.6666666666667,4,2,1,70,0,0
113821,-83.3333333333333,4,2,1,70,0,0
116644,-83.3333333333333,4,2,1,70,0,0
116909,-83.3333333333333,4,2,1,5,0,0
116997,-83.3333333333333,4,2,1,70,0,0
127938,-83.3333333333333,4,2,1,70,0,0
128203,-83.3333333333333,4,2,1,5,0,0
128291,-83.3333333333333,4,2,1,70,0,0
134997,-83.3333333333333,4,2,1,70,0,0
136409,-111.111111111111,4,2,1,70,0,0
141791,-111.111111111111,4,2,1,70,0,0
142056,-111.111111111111,4,2,1,70,0,0
146468,-66.6666666666667,4,2,1,70,0,0
147615,-66.6666666666667,4,2,1,5,0,0
147703,-80,4,2,1,70,0,0
157585,-76.9230769230769,4,2,1,70,0,0
158291,-71.4285714285714,4,2,1,70,0,0
158644,-71.4285714285714,4,2,1,70,0,0
158997,-71.4285714285714,4,2,1,70,0,1
158997,-71.4285714285714,4,2,1,70,0,1
169938,-71.4285714285714,4,2,1,70,0,1
170203,-71.4285714285714,4,2,1,5,0,1
170291,-71.4285714285714,4,2,1,70,0,1
175585,-71.4285714285714,4,2,1,70,0,1
175850,-71.4285714285714,4,2,1,5,0,1
175938,-71.4285714285714,4,2,1,70,0,1
180174,-83.3333333333333,4,2,1,70,0,0
181585,-71.4285714285714,4,2,1,70,0,1
202762,-83.3333333333333,4,2,1,70,0,0
203821,-50,4,2,1,70,0,0
204174,-83.3333333333333,4,2,1,70,0,0
226762,-200,4,2,1,70,0,0
228174,-200,4,2,1,70,0,0
229585,-200,4,2,1,70,0,0
230997,-200,4,2,1,70,0,0
238056,-166.666666666667,4,2,1,70,0,0
243703,-133.333333333333,4,2,1,70,0,0
246527,-100,4,2,1,70,0,0
247938,-100,4,2,1,70,0,0
249350,-71.4285714285714,4,2,1,70,0,1
270527,-83.3333333333333,4,2,1,70,0,0
271585,-83.3333333333333,4,2,1,70,0,0
271938,-71.4285714285714,4,2,1,70,0,1
293115,-83.3333333333333,4,2,1,70,0,0
294174,-50,4,2,1,70,0,0
294527,-83.3333333333333,4,2,1,70,0,0
315703,-83.3333333333333,4,2,1,70,0,0
317115,-133.333333333333,4,2,1,70,0,0
328409,-200,4,2,1,70,0,0
328762,-200,4,2,1,5,0,0
328938,-200,4,2,1,70,0,0
329291,-200,4,2,1,70,0,0
329821,-200,4,2,1,70,0,0
330174,-200,4,2,1,70,0,0
330350,-200,4,2,1,70,0,0
330703,-200,4,2,1,70,0,0
331232,-200,4,2,1,70,0,0
331585,-200,4,2,1,70,0,0
331762,-200,4,2,1,70,0,0
332997,-200,4,2,1,70,0,0
333174,-200,4,2,1,70,0,0
334409,-200,4,2,1,70,0,0
334585,-200,4,2,1,70,0,0
334938,-200,4,2,1,70,0,0
335468,-200,4,2,1,70,0,0
335821,-200,4,2,1,70,0,0
335997,-200,4,2,1,70,0,0
336350,-200,4,2,1,70,0,0
336879,-200,4,2,1,70,0,0
337232,-200,4,2,1,70,0,0
337409,-200,4,2,1,70,0,0
338644,-200,4,2,1,70,0,0
338821,-200,4,2,1,70,0,0

[Colours]
Combo1 : 243,248,188
Combo2 : 30,62,98
Combo3 : 146,198,237
Combo4 : 154,140,210
Combo5 : 244,91,96
Combo6 : 226,166,112

[HitObjects]
41,188,12174,6,0,P|101:195|140:187,1,90,0|0,0:0|0:0,0:0:0:0:
166,173,12438,1,0,0:0:0:0:
166,173,12527,1,8,0:0:0:0:
271,73,12703,2,0,P|264:133|272:172,1,90,0|0,0:0|0:0,0:0:0:0:
423,221,13056,1,0,0:0:0:0:
383,121,13232,1,8,0:0:0:0:
315,273,13409,1,0,0:0:0:0:
315,273,13497,1,0,0:0:0:0:
315,273,13585,6,0,L|309:373,1,90,0|0,0:0|0:0,0:0:0:0:
430,312,13938,1,8,0:0:0:0:
208,232,14115,2,0,B|121:194|121:269|35:232,1,180,0|0,0:0|0:0,0:0:0:0:
81,132,14644,1,8,0:0:0:0:
300,173,14821,1,0,0:0:0:0:
300,173,14909,1,0,0:0:0:0:
300,173,14997,1,0,0:0:0:0:
211,114,15174,5,0,0:0:0:0:
392,176,15350,1,8,0:0:0:0:
320,271,15526,1,0,0:0:0:0:
208,232,15703,1,0,0:0:0:0:
324,78,15879,1,0,0:0:0:0:
208,232,16056,2,0,P|201:288|215:329,1,90,8|0,0:0|0:0,0:0:0:0:
246,342,16321,5,0,0:0:0:0:
246,342,16409,2,0,L|336:334,1,90,0|0,0:0|0:0,0:0:0:0:
96,266,16762,1,8,0:0:0:0:
424,179,16938,1,0,0:0:0:0:
392,176,17027,1,0,0:0:0:0:
360,173,17115,1,0,0:0:0:0:
328,170,17203,1,0,0:0:0:0:
296,167,17291,1,0,0:0:0:0:
376,67,17468,1,8,0:0:0:0:
174,53,17644,1,0,0:0:0:0:
174,53,17732,1,0,0:0:0:0:
174,53,17821,6,0,P|226:68|264:63,1,90,0|0,0:0|0:0,0:0:0:0:
59,20,18174,1,8,0:0:0:0:
15,116,18350,2,0,L|29:212,1,90,0|0,0:0|0:0,0:0:0:0:
221,236,18703,1,0,0:0:0:0:
109,320,18879,1,8,0:0:0:0:
128,141,19056,1,0,0:0:0:0:
135,152,19144,1,0,0:0:0:0:
142,163,19232,5,0,0:0:0:0:
168,145,19321,1,0,0:0:0:0:
197,134,19409,1,0,0:0:0:0:
228,133,19497,1,0,0:0:0:0:
258,139,19585,1,8,0:0:0:0:
287,151,19674,1,0,0:0:0:0:
309,172,19762,5,0,0:0:0:0:
339,145,19850,1,0,0:0:0:0:
379,139,19938,1,0,0:0:0:0:
419,146,20027,1,0,0:0:0:0:
452,168,20115,1,0,0:0:0:0:
465,206,20203,1,0,0:0:0:0:
468,246,20291,1,8,0:0:0:0:
451,282,20379,1,0,0:0:0:0:
417,305,20468,1,0,0:0:0:0:
377,312,20556,1,0,0:0:0:0:
342,294,20644,6,0,P|322:274|290:262,1,39.3750003755093,0|0,0:0|0:0,0:0:0:0:
290,290,20732,2,0,P|265:275|231:272,1,39.3750003755093,0|0,0:0|0:0,0:0:0:0:
242,302,20821,2,0,P|214:294|180:300,1,39.3750003755093,0|0,0:0|0:0,0:0:0:0:
206,326,20909,2,0,P|177:326|146:340,1,39.3750003755093,0|0,0:0|0:0,0:0:0:0:
179,359,20997,6,0,P|189:331|187:306,1,42.7499988584519,0|0,0:0|0:0,0:0:0:0:
165,312,21085,2,0,P|159:282|145:262,1,42.7499988584519,0|0,0:0|0:0,0:0:0:0:
132,278,21174,2,0,P|112:255|90:244,1,42.7499988584519,0|0,0:0|0:0,0:0:0:0:
88,264,21262,2,0,P|60:254|35:256,1,42.7499988584519,0|0,0:0|0:0,0:0:0:0:
36,285,21350,6,0,P|36:256|58:232,2,45,0|0|0,0:0|0:0|0:0,0:0:0:0:
21,233,21438,2,0,P|35:208|66:198,2,45,0|0|0,0:0|0:0|0:0,0:0:0:0:
32,181,21527,2,0,P|57:167|88:173,2,45,0|0|0,0:0|0:0|0:0,0:0:0:0:
67,143,21615,2,0,P|95:143|119:165,2,45,0|0|0,0:0|0:0|0:0,0:0:0:0:
128,173,21703,6,0,P|147:183|170:181,2,45,0|0|0,0:0|0:0|0:0,0:0:0:0:
182,193,21791,2,0,P|204:191|222:179,2,45,0|0|0,0:0|0:0|0:0,0:0:0:0:
239,186,21879,2,0,P|257:173|267:153,2,45,0|0|0,0:0|0:0|0:0,0:0:0:0:
285,157,21968,2,0,P|295:137|293:114,2,45,0|0|0,0:0|0:0|0:0,0:0:0:0:
282,90,22056,1,0,0:0:0:0:
334,302,22232,5,4,0:0:0:0:
340,328,22321,1,4,0:0:0:0:
346,354,22409,1,8,0:0:0:0:
239,186,22585,1,4,0:0:0:0:
247,160,22674,1,4,0:0:0:0:
255,134,22762,1,4,0:0:0:0:
263,108,22850,1,4,0:0:0:0:
271,82,22938,1,4,0:0:0:0:
280,56,23027,1,4,0:0:0:0:
289,30,23115,1,8,0:0:0:0:
160,66,23291,1,0,0:0:0:0:
413,168,23468,6,0,L|423:264,1,90,4|0,0:0|0:0,0:0:0:0:
183,329,23821,2,0,L|193:282,1,45,8|0,0:0|0:0,0:0:0:0:
273,204,23997,1,0,0:0:0:0:
315,337,24174,1,0,0:0:0:0:
422,257,24350,1,4,0:0:0:0:
144,206,24527,2,0,L|137:182,3,22.5,8|0|0|0,0:0|0:0|0:0|0:0,0:0:0:0:
101,285,24703,1,0,0:0:0:0:
207,148,24879,6,0,P|211:97|195:48,1,90,4|0,0:0|0:0,0:0:0:0:
91,113,25232,1,8,0:0:0:0:
212,263,25409,1,0,0:0:0:0:
348,128,25585,2,0,L|356:94,3,22.5,0|0|0|0,0:0|0:0|0:0|0:0,0:0:0:0:
286,181,25762,2,0,L|291:202,3,22.5,4|0|0|0,0:0|0:0|0:0|0:0,0:0:0:0:
363,238,25938,1,8,0:0:0:0:
240,74,26115,6,0,P|214:118|246:124,1,87.749995983124,0|0,0:0|0:0,0:0:0:0:
167,84,26291,6,0,L|136:263,1,180,4|8,0:0|0:0,0:0:0:0:
67,214,26732,1,0,0:0:0:0:
67,214,26821,2,0,P|45:163|22:128,1,90,0|0,0:0|0:0,0:0:0:0:
131,293,27174,1,4,0:0:0:0:
286,181,27350,2,0,P|250:208|219:241,1,90,8|0,0:0|0:0,0:0:0:0:
370,257,27703,5,4,0:0:0:0:
159,164,27879,1,0,0:0:0:0:
331,77,28056,2,0,L|318:109,3,22.5,8|0|0|0,0:0|0:0|0:0|0:0,0:0:0:0:
418,127,28232,1,0,0:0:0:0:
418,127,28321,1,0,0:0:0:0:
418,127,28409,2,0,L|431:217,1,90,0|4,0:0|0:0,0:0:0:0:
509,98,28762,1,8,0:0:0:0:
242,55,28938,1,0,0:0:0:0:
292,284,29115,6,0,P|329:236|340:200,1,90,4|0,0:0|0:0,0:0:0:0:
135,262,29468,1,8,0:0:0:0:
137,293,29556,1,0,0:0:0:0:
139,324,29644,1,0,0:0:0:0:
39,363,29821,1,0,0:0:0:0:
219,283,29997,1,4,0:0:0:0:
30,231,30174,2,0,L|9:213,3,22.5,8|0|0|0,0:0|0:0|0:0|0:0,0:0:0:0:
85,294,30350,1,0,0:0:0:0:
261,159,30527,6,0,P|202:153|166:163,1,90,4|0,0:0|0:0,0:0:0:0:
391,251,30879,2,0,L|421:244,3,22.5,8|0|0|0,0:0|0:0|0:0|0:0,0:0:0:0:
351,171,31056,2,0,L|361:75,1,90,0|0,0:0|0:0,0:0:0:0:
218,260,31409,2,0,L|222:290,3,22.5,4|0|0|0,0:0|0:0|0:0|0:0,0:0:0:0:
296,300,31585,1,8,0:0:0:0:
77,233,31762,6,0,P|66:196|31:212,1,87.749995983124,0|0,0:0|0:0,0:0:0:0:
77,160,31938,6,0,P|160:149|255:184,1,180,4|8,0:0|0:0,0:0:0:0:
340,165,32379,1,0,0:0:0:0:
340,165,32468,2,0,P|363:114|364:75,1,90,0|0,0:0|0:0,0:0:0:0:
249,57,32821,1,4,0:0:0:0:
311,246,32997,2,0,P|343:291|376:311,1,90,8|0,0:0|0:0,0:0:0:0:
458,210,33350,5,4,0:0:0:0:
225,170,33527,1,4,0:0:0:0:
470,88,33703,2,0,L|503:83,3,22.5,8|0|0|0,0:0|0:0|0:0|0:0,0:0:0:0:
398,100,33879,1,0,0:0:0:0:
398,100,33968,1,0,0:0:0:0:
398,100,34056,2,0,L|304:80,1,90,0|4,0:0|0:0,0:0:0:0:
66,206,34409,1,8,0:0:0:0:
146,61,34585,6,0,B|189:73|189:73|140:89,1,87.749995983124,0|0,0:0|0:0,0:0:0:0:
221,74,34762,6,0,P|226:151|244:182,1,90,4|0,0:0|0:0,0:0:0:0:
426,194,35115,2,0,P|349:199|318:217,1,90,8|0,0:0|0:0,0:0:0:0:
262,248,35379,1,0,0:0:0:0:
262,248,35468,2,0,L|247:346,1,90,0|4,0:0|0:0,0:0:0:0:
107,279,35821,2,0,L|81:267,3,22.5,8|0|0|0,0:0|0:0|0:0|0:0,0:0:0:0:
177,307,35997,1,0,0:0:0:0:
14,169,36174,6,0,P|81:183|131:163,1,90,4|0,0:0|0:0,0:0:0:0:
232,83,36527,2,0,L|242:58,3,22.5,8|0|0|0,0:0|0:0|0:0|0:0,0:0:0:0:
265,154,36703,1,0,0:0:0:0:
265,154,36791,1,0,0:0:0:0:
265,154,36879,2,0,L|288:165,3,22.5,0|0|0|0,0:0|0:0|0:0|0:0,0:0:0:0:
358,147,37056,1,4,0:0:0:0:
183,140,37232,1,8,0:0:0:0:
298,248,37409,6,0,B|294:292|294:292|269:247,1,87.749995983124,0|0,0:0|0:0,0:0:0:0:
302,326,37586,6,0,P|220:310|127:344,1,180,4|8,0:0|0:0,0:0:0:0:
102,364,38027,1,0,0:0:0:0:
102,364,38115,1,0,0:0:0:0:
59,203,38291,2,0,P|36:241|23:291,1,90,0|4,0:0|0:0,0:0:0:0:
134,164,38644,2,0,L|129:132,3,22.5,8|0|0|0,0:0|0:0|0:0|0:0,0:0:0:0:
181,224,38821,1,0,0:0:0:0:
328,169,38997,6,0,P|265:160|227:175,1,90,4|0,0:0|0:0,0:0:0:0:
409,267,39350,2,0,L|436:261,3,22.5,8|0|0|0,0:0|0:0|0:0|0:0,0:0:0:0:
337,303,39527,1,0,0:0:0:0:
337,303,39615,1,0,0:0:0:0:
337,303,39703,2,0,L|310:297,3,22.5,0|0|0|0,0:0|0:0|0:0|0:0,0:0:0:0:
402,347,39879,1,4,0:0:0:0:
190,266,40056,1,8,0:0:0:0:
404,189,40232,6,0,P|383:158|364:194,1,87.749995983124,0|0,0:0|0:0,0:0:0:0:
391,113,40409,6,0,P|331:129|219:91,1,180,4|8,0:0|0:0,0:0:0:0:
190,266,40938,1,0,0:0:0:0:
190,266,41027,1,0,0:0:0:0:
190,266,41115,2,0,P|189:317|174:364,1,90,0|4,0:0|0:0,0:0:0:0:
50,158,41468,2,0,L|41:131,3,22.5,8|0|0|0,0:0|0:0|0:0|0:0,0:0:0:0:
71,230,41644,1,0,0:0:0:0:
185,130,41821,6,0,P|246:121|282:128,1,90,4|0,0:0|0:0,0:0:0:0:
446,92,42174,2,0,L|455:57,3,22.5,8|0|0|0,0:0|0:0|0:0|0:0,0:0:0:0:
386,145,42350,1,0,0:0:0:0:
386,145,42438,1,0,0:0:0:0:
386,145,42527,2,0,L|391:166,3,22.5,0|0|0|0,0:0|0:0|0:0|0:0,0:0:0:0:
354,232,42703,1,4,0:0:0:0:
291,38,42879,1,8,0:0:0:0:
220,230,43056,1,0,0:0:0:0:
94,100,43232,6,0,L|188:106,1,90,4|0,0:0|0:0,0:0:0:0:
354,232,43585,2,0,L|320:237,3,22.5,8|0|0|0,0:0|0:0|0:0|0:0,0:0:0:0:
256,243,43762,1,0,0:0:0:0:
456,315,43938,1,0,0:0:0:0:
257,367,44115,1,4,0:0:0:0:
398,159,44291,1,8,0:0:0:0:
372,133,44379,1,0,0:0:0:0:
337,122,44468,1,0,0:0:0:0:
301,123,44556,1,0,0:0:0:0:
267,134,44644,6,0,L|208:128,1,45,4|0,0:0|0:0,0:0:0:0:
106,208,44821,1,0,0:0:0:0:
78,220,44909,1,0,0:0:0:0:
46,216,44997,2,0,L|-22:200,1,45,0|0,0:0|0:0,0:0:0:0:
21,41,45174,1,0,0:0:0:0:
50,29,45262,1,0,0:0:0:0:
82,33,45350,2,0,L|150:49,1,45,0|0,0:0|0:0,0:0:0:0:
304,250,45527,1,0,0:0:0:0:
352,272,45615,1,0,0:0:0:0:
388,256,45703,6,0,B|424:256|440:232|440:232|416:220|368:232,1,101.250003862381,8|8,0:0|0:0,0:0:0:0:
304,250,46056,6,0,L|144:268,1,161.999995056153,4|8,0:0|0:0,0:0:0:0:
48,201,46585,1,4,0:0:0:0:
304,250,46938,5,4,0:0:0:0:
48,201,47115,2,0,L|152:188,1,80.9999975280763,8|0,0:0|0:0,0:0:0:0:
407,118,47468,6,0,L|247:100,1,161.999995056153,4|8,0:0|0:0,0:0:0:0:
503,51,47997,1,4,0:0:0:0:
247,100,48350,1,4,0:0:0:0:
503,51,48527,2,0,L|399:38,1,80.9999975280763,8|0,0:0|0:0,0:0:0:0:
189,38,48879,6,0,P|165:74|173:134,1,80.9999975280763,4|0,0:0|0:0,0:0:0:0:
240,239,49232,1,8,0:0:0:0:
87,194,49409,2,0,L|71:366,1,161.999995056153,4|4,0:0|0:0,0:0:0:0:
19,141,49938,2,0,P|51:113|123:121,1,80.9999975280763,8|0,0:0|0:0,0:0:0:0:
405,77,50291,6,0,P|369:101|309:93,1,80.9999975280763,4|0,0:0|0:0,0:0:0:0:
204,26,50644,1,8,0:0:0:0:
87,194,50821,2,4,L|248:178,1,161.999995056153,4|4,0:0|0:0,0:0:0:0:
404,264,51350,2,0,L|456:268,3,40.4999987640381,8|0|0|0,0:0|0:0|0:0|0:0,0:0:0:0:
334,213,51703,6,0,L|347:51,1,161.999995056153,4|8,0:0|0:0,0:0:0:0:
248,178,52232,1,0,0:0:0:0:
439,186,52409,2,0,L|445:281,1,80.9999975280763,0|4,0:0|0:0,0:0:0:0:
431,21,52762,1,8,0:0:0:0:
347,374,53115,6,0,L|333:212,1,161.999995056153,4|8,0:0|0:0,0:0:0:0:
436,84,53644,1,0,0:0:0:0:
248,178,53821,2,0,L|140:166,1,80.9999975280763,0|4,0:0|0:0,0:0:0:0:
439,186,54174,1,8,0:0:0:0:
90,218,54527,6,0,P|114:242|170:258,1,80.9999975280763,4|0,0:0|0:0,0:0:0:0:
333,212,54879,1,8,0:0:0:0:
155,7,55056,2,0,L|166:168,1,161.999995056153,4|4,0:0|0:0,0:0:0:0:
255,330,55585,1,8,0:0:0:0:
166,168,55938,5,0,0:0:0:0:
462,212,56115,6,0,P|438:181|395:172,1,67.5000025749208,0|0,0:0|0:0,0:0:0:0:
466,277,56291,2,0,P|472:248|461:209,1,67.5000025749208,0|0,0:0|0:0,0:0:0:0:
420,321,56468,2,0,P|450:304|467:276,1,67.5000025749208,0|0,0:0|0:0,0:0:0:0:
321,138,56644,2,0,P|299:111|296:79,1,67.5000025749208,0|0,0:0|0:0,0:0:0:0:
323,20,56821,2,0,P|304:45|296:78,1,67.5000025749208,0|0,0:0|0:0,0:0:0:0:
344,320,56997,6,0,P|297:260|389:256,1,202.500007724762,0|0,0:0|0:0,0:0:0:0:
344,320,57350,6,0,L|228:312,1,112.5,4|0,0:0|0:0,0:0:0:0:
124,228,57703,1,8,0:0:0:0:
88,376,57879,1,0,0:0:0:0:
200,176,58056,2,0,P|168:144|64:160,1,112.5,0|4,0:0|0:0,0:0:0:0:
136,308,58409,1,8,0:0:0:0:
312,228,58585,1,0,0:0:0:0:
26,82,58762,6,0,P|26:188|124:227,1,225,4|8,0:0|0:0,0:0:0:0:
256,96,59291,1,0,0:0:0:0:
386,294,59468,2,0,P|337:324|258:310,1,112.5,0|4,0:0|0:0,0:0:0:0:
376,165,59821,2,0,P|425:135|504:149,1,112.5,8|0,0:0|0:0,0:0:0:0:
192,208,60174,6,0,L|48:192,1,112.5,4|0,0:0|0:0,0:0:0:0:
252,84,60526,1,8,0:0:0:0:
284,322,60703,2,4,L|60:345,1,225,4|4,0:0|0:0,0:0:0:0:
272,168,61232,2,0,L|383:180,1,112.5,8|0,0:0|0:0,0:0:0:0:
284,322,61585,6,0,L|172:334,1,112.5,4|0,0:0|0:0,0:0:0:0:
81,195,61939,1,8,0:0:0:0:
272,168,62115,2,4,L|500:192,1,225,4|4,0:0|0:0,0:0:0:0:
324,56,62644,1,8,0:0:0:0:
432,288,62821,1,4,0:0:0:0:
388,292,62909,1,4,0:0:0:0:
344,296,62997,6,0,L|208:280,1,112.5,4|0,0:0|0:0,0:0:0:0:
52,172,63350,1,8,0:0:0:0:
276,148,63527,2,4,L|52:171,1,225,4|4,0:0|0:0,0:0:0:0:
233,282,64056,1,8,0:0:0:0:
200,56,64409,5,4,0:0:0:0:
233,282,64585,1,0,0:0:0:0:
352,112,64762,1,8,0:0:0:0:
304,340,64938,2,0,L|432:352,1,112.5,4|0,0:0|0:0,0:0:0:0:
158,142,65291,5,4,0:0:0:0:
400,192,65468,1,8,0:0:0:0:
122,222,65644,1,0,0:0:0:0:
428,112,65821,5,4,0:0:0:0:
158,142,65997,1,0,0:0:0:0:
158,142,66085,1,0,0:0:0:0:
158,142,66174,1,8,0:0:0:0:
400,192,66350,1,4,0:0:0:0:
400,192,66438,1,0,0:0:0:0:
400,192,66527,1,0,0:0:0:0:
122,222,66703,1,4,0:0:0:0:
428,112,66879,5,8,0:0:0:0:
70,154,67056,1,4,0:0:0:0:
419,299,67232,6,4,B|360:307|319:261|319:261|312:173|221:140|221:140|214:223|182:247|182:247|141:225|109:243|109:243|108:312|172:329,1,584.999973220826,2|4,0:0|0:0,0:0:0:0:
39,104,68291,2,0,P|88:164|12:172,1,188.999994232178,4|0,0:0|0:0,0:0:0:0:
64,24,68644,5,4,0:3:0:0:
111,46,68732,1,0,0:0:0:0:
149,83,68820,1,0,0:0:0:0:
170,133,68908,1,0,0:0:0:0:
168,184,68996,1,8,0:0:0:0:
140,228,69085,1,0,0:0:0:0:
100,256,69173,1,4,0:0:0:0:
148,236,69263,1,0,0:0:0:0:
196,228,69351,1,0,0:0:0:0:
248,232,69439,1,0,0:0:0:0:
296,248,69527,6,0,P|332:264|368:304,1,62.9999980773926,4|0,0:0|0:0,0:0:0:0:
224,369,69703,2,0,P|188:353|152:313,1,62.9999980773926,8|0,0:0|0:0,0:0:0:0:
394,197,69879,2,0,L|405:132,1,62.9999980773926,0|0,0:0|0:0,0:0:0:0:
292,53,70056,5,4,0:0:0:0:
244,36,70144,1,0,0:0:0:0:
192,36,70232,1,0,0:0:0:0:
148,60,70321,1,0,0:0:0:0:
104,80,70409,1,8,0:0:0:0:
52,80,70497,1,0,0:0:0:0:
4,60,70585,1,4,0:0:0:0:
12,108,70673,1,0,0:0:0:0:
44,148,70762,1,0,0:0:0:0:
92,160,70850,1,0,0:0:0:0:
144,156,70938,6,0,L|232:140,1,62.9999980773926,4|0,0:0|0:0,0:0:0:0:
257,269,71115,1,8,0:0:0:0:
228,310,71203,1,0,0:0:0:0:
180,294,71292,1,0,0:0:0:0:
180,244,71380,1,0,0:0:0:0:
228,228,71468,6,0,B|312:216|312:216|396:244,1,125.999996154785,8|0,0:3|0:0,0:0:0:0:
493,148,71821,2,0,P|512:104|497:56,1,62.9999980773926,8|0,0:0|0:0,0:0:0:0:
262,46,71997,2,0,P|293:48|320:64,1,62.9999980773926,4|0,0:0|0:0,0:0:0:0:
410,159,72175,5,0,0:0:0:0:
432,204,72263,1,0,0:0:0:0:
428,256,72351,1,4,0:0:0:0:
396,296,72439,1,0,0:0:0:0:
348,308,72527,1,8,0:0:0:0:
300,288,72616,1,0,0:0:0:0:
252,276,72704,1,0,0:0:0:0:
200,280,72792,1,0,0:0:0:0:
152,296,72879,6,0,L|136:204,1,62.9999980773926,4|0,0:0|0:3,0:3:0:0:
59,206,73056,2,0,L|67:112,1,62.9999980773926,4|0,0:0|0:0,0:0:0:0:
219,169,73232,2,0,L|224:106,1,62.9999980773926,8|0,0:0|0:0,0:0:0:0:
142,79,73409,2,0,L|132:17,1,62.9999980773926,4|0,0:0|0:0,0:0:0:0:
73,278,73585,2,0,P|39:279|-3:233,1,62.9999980773926,0|0,0:0|0:0,0:0:0:0:
211,36,73762,2,0,P|245:35|284:81,1,62.9999980773926,4|0,0:0|0:0,0:0:0:0:
284,276,73938,2,0,P|248:300|270:230,1,188.999994232178,2|0,0:3|0:0,0:0:0:0:
216,372,74291,5,4,0:0:0:0:
172,347,74379,1,0,0:0:0:0:
142,307,74467,1,0,0:0:0:0:
132,258,74555,1,0,0:0:0:0:
144,209,74643,1,8,0:0:0:0:
175,170,74732,1,0,0:0:0:0:
196,124,74821,1,4,0:0:0:0:
188,76,74909,1,0,0:0:0:0:
152,44,74997,1,0,0:0:0:0:
100,40,75085,1,0,0:0:0:0:
60,72,75174,6,0,L|36:144,1,62.9999980773926,4|0,0:0|0:0,0:0:0:0:
175,170,75350,2,0,L|190:244,1,62.9999980773926,8|0,0:0|0:0,0:0:0:0:
56,264,75527,2,0,L|50:329,1,62.9999980773926,0|0,0:0|0:0,0:0:0:0:
196,312,75703,5,4,0:0:0:0:
243,294,75791,1,0,0:0:0:0:
292,288,75879,1,0,0:0:0:0:
341,298,75968,1,0,0:0:0:0:
386,320,76056,1,8,0:0:0:0:
436,317,76144,1,0,0:0:0:0:
478,290,76232,1,4,0:0:0:0:
499,243,76321,1,0,0:0:0:0:
498,192,76409,1,0,0:0:0:0:
470,149,76497,1,0,0:0:0:0:
423,129,76585,6,0,L|340:113,1,62.9999980773926,4|0,0:0|0:0,0:0:0:0:
192,164,76762,2,0,L|371:194,1,125.999996154785,12|0,0:0|0:0,0:0:0:0:
154,237,77115,5,8,0:3:0:0:
120,200,77203,1,0,0:0:0:0:
114,151,77291,1,0,0:0:0:0:
137,107,77379,1,0,0:0:0:0:
181,84,77468,2,0,L|267:100,1,62.9999980773926,8|0,0:0|0:0,0:0:0:0:
390,165,77644,5,4,0:0:0:0:
423,129,77732,1,0,0:0:0:0:
429,79,77820,1,0,0:0:0:0:
406,36,77908,1,0,0:0:0:0:
362,13,77997,2,0,L|276:28,1,62.9999980773926,4|0,0:0|0:0,0:0:0:0:
324,216,78174,5,8,0:0:0:0:
360,249,78262,1,0,0:0:0:0:
409,255,78350,1,0,0:0:0:0:
453,232,78438,1,0,0:0:0:0:
476,188,78527,6,0,L|491:266,1,62.9999980773926,4|0,0:0|0:0,0:0:0:0:
323,216,78703,2,0,L|312:278,1,62.9999980773926,4|0,0:0|0:0,0:0:0:0:
420,316,78879,2,0,L|408:254,1,62.9999980773926,8|0,0:0|0:0,0:0:0:0:
265,110,79055,2,0,L|253:171,1,62.9999980773926,4|0,0:0|0:0,0:0:0:0:
128,276,79232,2,0,L|66:264,1,62.9999980773926
24,96,79409,2,0,L|85:84,1,62.9999980773926,4|0,0:0|0:0,0:0:0:0:
253,171,79585,2,0,P|327:147|259:113,1,188.999994232178,2|0,0:3|0:0,0:0:0:0:
233,258,79938,5,4,0:3:0:0:
281,270,80026,1,0,0:0:0:0:
330,262,80114,1,0,0:0:0:0:
373,237,80202,1,0,0:0:0:0:
400,194,80290,1,8,0:0:0:0:
412,144,80379,1,0,0:0:0:0:
412,93,80468,1,4,0:0:0:0:
430,139,80556,1,0,0:0:0:0:
444,187,80644,1,0,0:0:0:0:
444,237,80732,1,0,0:0:0:0:
431,286,80821,6,0,L|388:336,1,62.9999980773926,4|0,0:0|0:0,0:0:0:0:
256,347,80997,2,0,L|189:327,1,62.9999980773926,8|0,0:0|0:0,0:0:0:0:
85,247,81174,2,0,L|73:167,1,62.9999980773926,0|0,0:0|0:0,0:0:0:0:
192,40,81350,5,4,0:0:0:0:
144,63,81438,1,0,0:0:0:0:
128,113,81526,1,0,0:0:0:0:
151,160,81614,1,0,0:0:0:0:
201,177,81702,1,8,0:0:0:0:
248,154,81791,1,0,0:0:0:0:
296,132,81879,1,4,0:0:0:0:
343,155,81967,1,0,0:0:0:0:
359,205,82055,1,0,0:0:0:0:
336,252,82143,1,0,0:0:0:0:
286,269,82232,6,0,L|196:256,1,62.9999980773926,4|0,0:0|0:0,0:0:0:0:
94,218,82409,2,0,P|25:242|92:274,1,188.999994232178,8|0,0:0|0:0,0:0:0:0:
124,344,82762,6,0,B|152:324|152:324|264:336,1,125.999996154785,8|0,0:3|0:0,0:0:0:0:
194,91,83115,2,0,L|122:107,1,62.9999980773926,8|0,0:0|0:0,0:0:0:0:
0,166,83291,2,0,L|72:182,1,62.9999980773926,4|0,0:0|0:0,0:0:0:0:
198,11,83468,5,0,0:0:0:0:
247,29,83556,1,0,0:0:0:0:
275,74,83644,1,4,0:0:0:0:
268,127,83732,1,0,0:0:0:0:
231,164,83820,1,8,0:0:0:0:
278,180,83909,1,0,0:0:0:0:
326,194,83997,1,0,0:0:0:0:
374,206,84085,1,0,0:0:0:0:
423,216,84174,6,0,L|415:304,1,62.9999980773926,4|0,0:0|0:0,0:0:0:0:
315,330,84350,2,0,L|321:268,1,62.9999980773926,4|0,0:0|0:0,0:0:0:0:
231,164,84527,2,0,L|223:252,1,62.9999980773926,8|0,0:0|0:0,0:0:0:0:
116,301,84703,2,0,L|122:239,1,62.9999980773926,4|0,0:0|0:0,0:0:0:0:
205,89,84879,2,0,P|241:84|285:114,1,62.9999980773926
141,374,85056,2,0,P|105:379|61:349,1,62.9999980773926,4|0,0:0|0:0,0:0:0:0:
16,128,85232,2,0,P|98:110|74:158,1,188.999994232178,2|0,0:3|0:0,0:0:0:0:
4,224,85585,5,4,3:0:0:0:
47,248,85673,1,0,0:0:0:0:
97,246,85761,1,0,0:0:0:0:
142,223,85849,1,0,0:0:0:0:
173,183,85938,1,8,0:0:0:0:
186,132,86026,1,0,0:0:0:0:
186,81,86115,1,4,0:0:0:0:
227,109,86202,1,0,0:0:0:0:
277,117,86291,1,0,0:0:0:0:
326,106,86379,1,0,0:0:0:0:
373,87,86468,6,0,L|458:77,1,62.9999980773926,4|0,0:0|0:0,0:0:0:0:
320,250,86644,2,0,L|310:165,1,62.9999980773926,8|0,0:0|0:0,0:0:0:0:
487,162,86820,2,0,L|477:247,1,62.9999980773926,0|0,0:0|0:0,0:0:0:0:
336,327,86997,5,4,0:0:0:0:
285,324,87085,1,0,0:0:0:0:
246,291,87174,1,0,0:0:0:0:
199,272,87262,1,0,0:0:0:0:
149,279,87350,1,8,0:0:0:0:
103,301,87438,1,0,0:0:0:0:
76,344,87527,1,4,0:0:0:0:
77,293,87615,1,0,0:0:0:0:
74,242,87703,1,0,0:0:0:0:
61,193,87791,1,0,0:0:0:0:
36,148,87879,6,0,L|111:135,1,62.9999980773926,4|0,0:0|0:0,0:0:0:0:
188,40,88056,2,0,L|250:50,1,62.9999980773926,8|0,0:0|0:0,0:0:0:0:
250,210,88232,2,0,L|312:220,1,62.9999980773926,0|0,0:0|0:0,0:0:0:0:
444,81,88409,5,8,0:3:0:0:
436,134,88497,1,0,0:0:0:0:
428,187,88585,1,0,0:0:0:0:
420,237,88674,1,0,0:0:0:0:
411,286,88762,2,0,L|424:360,1,62.9999980773926,8|0,0:0|0:0,0:0:0:0:
281,140,88938,5,4,0:0:0:0:
228,132,89026,1,0,0:0:0:0:
175,124,89114,1,0,0:0:0:0:
125,116,89203,1,0,0:0:0:0:
75,109,89291,2,0,L|1:122,1,62.9999980773926,4|0,0:0|0:0,0:0:0:0:
111,233,89468,6,0,L|187:246,1,62.9999980773926,2|0,0:3|0:0,0:0:0:0:
300,35,89644,2,0,L|376:48,1,62.9999980773926
376,266,89821,5,6,0:3:0:0:
434,42,89997,2,0,P|437:29|438:15,4,26.9999991760254,4|0|0|0|0,0:0|0:0|0:0|0:0|0:0,0:0:0:0:
310,326,90350,1,6,0:3:0:0:
230,34,90526,2,0,P|226:21|225:7,4,26.9999991760254,4|0|0|0|0,0:0|0:0|0:0|0:0|0:0,0:0:0:0:
389,351,90879,1,8,0:0:0:0:
465,118,91056,1,4,0:0:0:0:
244,340,91232,5,4,0:3:0:0:
194,319,91320,1,0,0:0:0:0:
163,275,91408,1,0,0:0:0:0:
151,222,91496,1,0,0:0:0:0:
164,170,91585,1,8,0:0:0:0:
190,213,91673,1,0,0:0:0:0:
237,238,91762,1,4,0:0:0:0:
204,194,91850,1,0,0:0:0:0:
198,140,91938,1,0,0:0:0:0:
215,88,92026,1,0,0:0:0:0:
258,56,92115,6,0,P|289:60|317:74,1,62.9999980773926,4|0,0:0|0:0,0:0:0:0:
360,252,92291,2,0,P|345:217|344:168,1,62.9999980773926,8|0,0:0|0:0,0:0:0:0:
456,28,92468,2,0,P|470:62|471:111,1,62.9999980773926
466,260,92644,5,4,0:0:0:0:
439,306,92732,1,0,0:0:0:0:
397,339,92820,1,0,0:0:0:0:
344,349,92908,1,0,0:0:0:0:
293,332,92996,1,8,0:0:0:0:
256,291,93085,1,0,0:0:0:0:
237,240,93174,1,4,0:0:0:0:
214,288,93262,1,0,0:0:0:0:
165,310,93350,1,0,0:0:0:0:
112,303,93438,1,0,0:0:0:0:
72,265,93527,6,0,L|56:173,1,62.9999980773926,4|0,0:0|0:0,0:0:0:0:
115,58,93703,2,0,P|147:50|195:54,1,62.9999980773926,8|0,0:0|0:0,0:0:0:0:
256,156,93879,2,0,P|288:164|336:160,1,62.9999980773926
474,79,94056,5,4,0:0:0:0:
458,32,94144,1,0,0:0:0:0:
408,32,94232,1,0,0:0:0:0:
392,80,94320,1,0,0:0:0:0:
435,110,94409,2,0,P|445:141|448:172,1,62.9999980773926,8|0,0:0|0:0,0:0:0:0:
273,316,94585,5,4,0:0:0:0:
226,300,94673,1,0,0:0:0:0:
226,250,94761,1,0,0:0:0:0:
274,234,94849,1,0,0:0:0:0:
304,277,94938,2,0,P|335:287|366:290,1,62.9999980773926,4|0,0:0|0:0,0:0:0:0:
447,171,95115,2,0,P|415:174|385:184,1,62.9999980773926,8|0,0:0|0:0,0:0:0:0:
340,373,95291,2,0,P|371:374|402:369,1,62.9999980773926
335,105,95468,5,4,0:0:0:0:
453,304,95644,1,0,0:0:0:0:
208,42,95821,1,8,0:0:0:0:
73,260,95997,1,4,0:0:0:0:
335,105,96174,5,0,0:0:0:0:
382,121,96262,1,0,0:0:0:0:
382,171,96350,1,4,0:0:0:0:
334,187,96438,1,0,0:0:0:0:
304,144,96527,2,0,P|273:134|242:131,1,62.9999980773926,8|0,0:0|0:0,0:0:0:0:
73,260,96703,2,0,P|104:256|134:246,1,62.9999980773926
208,42,96879,5,4,0:0:0:0:
166,75,96967,1,0,0:0:0:0:
151,126,97055,1,0,0:0:0:0:
164,177,97143,1,0,0:0:0:0:
202,214,97232,1,8,0:0:0:0:
177,166,97320,1,0,0:0:0:0:
128,144,97408,1,4,0:0:0:0:
120,196,97496,1,0,0:0:0:0:
134,246,97585,1,0,0:0:0:0:
169,285,97673,1,0,0:0:0:0:
222,291,97762,6,0,P|249:290|285:274,1,62.9999980773926,4|0,0:0|0:0,0:0:0:0:
350,114,97938,2,0,P|362:142|367:173,1,62.9999980773926,8|0,0:0|0:0,0:0:0:0:
380,342,98115,2,0,P|366:313|361:282,1,62.9999980773926
465,104,98291,5,4,0:0:0:0:
438,58,98379,1,0,0:0:0:0:
396,25,98467,1,0,0:0:0:0:
343,15,98555,1,0,0:0:0:0:
292,32,98643,1,8,0:0:0:0:
255,73,98732,1,0,0:0:0:0:
236,124,98821,1,4,0:0:0:0:
213,76,98909,1,0,0:0:0:0:
164,54,98997,1,0,0:0:0:0:
111,61,99085,1,0,0:0:0:0:
71,99,99174,6,0,L|55:191,1,62.9999980773926,4|0,0:0|0:0,0:0:0:0:
81,307,99350,2,0,L|173:323,1,62.9999980773926,8|0,0:0|0:0,0:0:0:0:
233,212,99527,2,0,L|295:201,1,62.9999980773926
488,287,99703,6,0,P|499:245|485:205,1,62.9999980773926,4|0,0:0|0:0,0:0:0:0:
165,169,99879,2,0,P|154:211|168:251,1,62.9999980773926,4|0,0:0|0:0,0:0:0:0:
361,237,100056,2,0,L|423:247,1,62.9999980773926,12|0,0:0|0:0,0:0:0:0:
470,80,100232,5,4,0:0:0:0:
454,33,100320,1,0,0:0:0:0:
404,33,100408,1,0,0:0:0:0:
388,81,100496,1,0,0:0:0:0:
431,111,100585,2,0,P|441:142|444:173,1,62.9999980773926,4|0,0:0|0:0,0:0:0:0:
282,338,100762,2,0,P|285:306|295:276,1,62.9999980773926,8|0,0:0|0:0,0:0:0:0:
431,111,100938,2,0,P|441:142|444:173,1,62.9999980773926,4|0,0:0|0:0,0:0:0:0:
112,205,101115,5,4,0:3:0:0:
112,198,101203,1,0,0:0:0:0:
112,191,101291,1,0,0:0:0:0:
112,184,101379,1,0,0:0:0:0:
112,177,101468,1,0,0:0:0:0:
112,170,101556,1,0,0:0:0:0:
112,163,101644,1,2,0:0:0:0:
113,156,101732,1,0,0:0:0:0:
113,149,101821,1,0,0:0:0:0:
113,142,101909,1,0,0:0:0:0:
113,135,101997,6,0,L|33:128,1,62.9999980773926,4|0,0:0|0:0,0:0:0:0:
179,242,102174,2,0,L|259:235,1,62.9999980773926,8|0,0:0|0:0,0:0:0:0:
88,54,102350,2,0,L|8:47,1,62.9999980773926,4|0,0:0|0:0,0:0:0:0:
268,340,102527,5,4,0:3:0:0:
318,319,102615,1,0,0:0:0:0:
349,275,102703,1,0,0:0:0:0:
361,222,102791,1,0,0:0:0:0:
348,170,102880,1,8,0:0:0:0:
322,213,102968,1,0,0:0:0:0:
275,238,103057,1,4,0:0:0:0:
308,194,103145,1,0,0:0:0:0:
314,140,103233,1,0,0:0:0:0:
297,88,103321,1,0,0:0:0:0:
254,56,103410,6,0,P|223:60|195:74,1,62.9999980773926,4|0,0:0|0:0,0:0:0:0:
152,252,103586,2,0,P|167:217|168:168,1,62.9999980773926,8|0,0:0|0:0,0:0:0:0:
56,28,103763,2,0,P|42:62|41:111,1,62.9999980773926
46,260,103939,5,4,0:0:0:0:
73,306,104027,1,0,0:0:0:0:
115,339,104115,1,0,0:0:0:0:
168,349,104203,1,0,0:0:0:0:
219,332,104291,1,8,0:0:0:0:
256,291,104380,1,0,0:0:0:0:
275,240,104469,1,4,0:0:0:0:
298,288,104557,1,0,0:0:0:0:
347,310,104645,1,0,0:0:0:0:
400,303,104733,1,0,0:0:0:0:
440,265,104822,6,0,L|456:173,1,62.9999980773926,4|0,0:0|0:0,0:0:0:0:
397,58,104998,2,0,P|365:50|317:54,1,62.9999980773926,8|0,0:0|0:0,0:0:0:0:
256,156,105174,2,0,P|224:164|176:160,1,62.9999980773926
38,79,105351,5,4,0:0:0:0:
54,32,105439,1,0,0:0:0:0:
104,32,105527,1,0,0:0:0:0:
120,80,105615,1,0,0:0:0:0:
77,110,105704,2,0,P|67:141|64:172,1,62.9999980773926,8|0,0:0|0:0,0:0:0:0:
239,316,105880,5,4,0:0:0:0:
286,300,105968,1,0,0:0:0:0:
286,250,106056,1,0,0:0:0:0:
238,234,106144,1,0,0:0:0:0:
208,277,106233,2,0,P|177:287|146:290,1,62.9999980773926,4|0,0:0|0:0,0:0:0:0:
65,171,106410,2,0,P|97:174|127:184,1,62.9999980773926,8|0,0:0|0:0,0:0:0:0:
172,373,106586,2,0,P|141:374|110:369,1,62.9999980773926
177,105,106763,5,4,0:0:0:0:
59,304,106939,1,0,0:0:0:0:
304,42,107116,1,8,0:0:0:0:
439,260,107292,1,4,0:0:0:0:
177,105,107469,5,0,0:0:0:0:
130,121,107557,1,0,0:0:0:0:
130,171,107645,1,4,0:0:0:0:
178,187,107733,1,0,0:0:0:0:
208,144,107822,2,0,P|239:134|270:131,1,62.9999980773926,8|0,0:0|0:0,0:0:0:0:
439,260,107998,2,0,P|408:256|378:246,1,62.9999980773926
304,42,108174,5,4,0:0:0:0:
346,75,108262,1,0,0:0:0:0:
361,126,108350,1,0,0:0:0:0:
348,177,108438,1,0,0:0:0:0:
310,214,108527,1,8,0:0:0:0:
335,166,108615,1,0,0:0:0:0:
384,144,108703,1,4,0:0:0:0:
392,196,108791,1,0,0:0:0:0:
378,246,108880,1,0,0:0:0:0:
343,285,108968,1,0,0:0:0:0:
290,291,109057,6,0,P|263:290|227:274,1,62.9999980773926,4|0,0:0|0:0,0:0:0:0:
162,114,109233,2,0,P|150:142|145:173,1,62.9999980773926,8|0,0:0|0:0,0:0:0:0:
132,342,109410,2,0,P|146:313|151:282,1,62.9999980773926
47,104,109586,5,4,0:0:0:0:
74,58,109674,1,0,0:0:0:0:
116,25,109762,1,0,0:0:0:0:
169,15,109850,1,0,0:0:0:0:
220,32,109938,1,8,0:0:0:0:
257,73,110027,1,0,0:0:0:0:
276,124,110116,1,4,0:0:0:0:
299,76,110204,1,0,0:0:0:0:
348,54,110292,1,0,0:0:0:0:
401,61,110380,1,0,0:0:0:0:
441,99,110469,6,0,L|457:191,1,62.9999980773926,4|0,0:0|0:0,0:0:0:0:
431,307,110645,6,0,L|339:323,1,62.9999980773926,8|0,0:0|0:0,0:0:0:0:
279,212,110822,2,0,L|217:201,1,62.9999980773926
86,265,110997,6,0,L|96:336,1,62.9999980773926,0|0,0:3|0:0,0:0:0:0:
364,164,111174,2,0,L|352:235,1,62.9999980773926,4|0,0:3|0:0,0:0:0:0:
130,109,111350,2,0,L|142:180,1,62.9999980773926,10|0,0:0|0:0,0:0:0:0:
281,362,111527,2,0,L|271:300,1,62.9999980773926,4|0,0:3|0:0,0:0:0:0:
231,38,111704,2,0,L|219:105,1,62.9999980773926
56,19,111880,2,0,L|64:84,1,62.9999980773926,4|0,0:0|0:0,0:0:0:0:
160,344,112056,2,0,L|167:289,7,31.4999990386963
132,241,112409,5,2,0:0:0:0:
358,342,112585,1,2,0:0:0:0:
51,336,112762,1,2,0:0:0:0:
312,276,112938,1,2,0:0:0:0:
332,67,113291,1,4,0:0:0:0:
312,276,113468,6,0,B|324:308|364:320|364:320|360:280|312:224,1,135.000005149842,8|0,0:0|0:0,0:0:0:0:
272,204,113821,5,6,0:0:0:0:
240,232,113909,1,0,0:0:0:0:
228,272,113997,1,0,0:0:0:0:
232,316,114085,1,0,0:0:0:0:
256,352,114174,1,8,0:0:0:0:
216,336,114262,1,0,0:0:0:0:
172,332,114350,1,6,0:0:0:0:
128,336,114438,1,0,0:0:0:0:
92,356,114527,1,0,0:0:0:0:
52,344,114615,1,0,0:0:0:0:
28,308,114703,6,0,L|20:240,1,53.9999983520508,6|0,0:0|0:0,0:0:0:0:
51,104,114879,2,0,P|76:95|103:96,1,53.9999983520508,10|0,0:0|0:0,0:0:0:0:
171,201,115056,2,0,P|216:196|244:172,1,53.9999983520508,0|0,0:0|0:0,0:0:0:0:
288,80,115232,5,6,0:0:0:0:
316,48,115320,1,0,0:0:0:0:
355,31,115408,1,0,0:0:0:0:
398,32,115496,1,0,0:0:0:0:
436,52,115586,1,8,0:0:0:0:
462,86,115673,1,0,0:0:0:0:
471,128,115761,1,6,0:0:0:0:
462,170,115849,1,0,0:0:0:0:
448,212,115938,1,0,0:0:0:0:
452,256,116027,1,0,0:0:0:0:
468,296,116115,6,0,L|408:304,1,53.9999983520508,6|0,0:0|0:0,0:0:0:0:
328,200,116291,2,0,P|296:196|244:168,1,53.9999983520508,10|0,0:0|0:0,0:0:0:0:
264,312,116468,2,0,P|232:328|184:328,1,53.9999983520508,0|0,0:0|0:0,0:0:0:0:
108,236,116644,6,0,P|48:240|96:296,1,161.999995056153,4|0,0:0|0:0,0:0:0:0:
200,244,116997,1,10,0:0:0:0:
189,202,117085,1,0,0:0:0:0:
164,167,117173,1,4,0:0:0:0:
128,143,117261,1,0,0:0:0:0:
86,134,117349,1,0,0:0:0:0:
44,140,117438,1,0,0:0:0:0:
8,164,117527,6,0,L|-4:96,1,53.9999983520508,4|0,0:0|0:0,0:0:0:0:
128,68,117703,2,0,L|140:0,1,53.9999983520508,10|0,0:0|0:0,0:0:0:0:
320,212,117879,2,0,L|308:144,1,53.9999983520508,2|0,0:0|0:0,0:0:0:0:
416,40,118056,5,6,0:0:0:0:
407,82,118144,1,0,0:0:0:0:
403,125,118232,1,0,0:0:0:0:
403,168,118320,1,0,0:0:0:0:
408,211,118409,2,0,L|424:288,1,53.9999983520508,8|0,0:0|0:0,0:0:0:0:
224,355,118585,5,6,0:0:0:0:
232,312,118673,1,0,0:0:0:0:
236,269,118761,1,0,0:0:0:0:
236,226,118849,1,0,0:0:0:0:
232,184,118938,2,0,L|216:107,1,53.9999983520508,6|0,0:0|0:0,0:0:0:0:
84,40,119115,6,0,P|40:32|0:44,1,53.9999983520508,10|0,0:0|0:0,0:0:0:0:
88,232,119291,2,0,L|104:155,1,53.9999983520508,0|0,0:0|0:0,0:0:0:0:
184,44,119468,5,6,0:0:0:0:
216,12,119557,1,0,0:0:0:0:
259,4,119645,1,0,0:0:0:0:
298,20,119733,1,0,0:0:0:0:
329,48,119821,1,8,0:0:0:0:
337,90,119910,1,0,0:0:0:0:
326,131,119998,1,6,0:0:0:0:
310,171,120086,1,0,0:0:0:0:
314,213,120174,1,0,0:0:0:0:
332,252,120263,1,0,0:0:0:0:
358,285,120350,6,0,L|413:273,1,53.9999983520508,6|0,0:0|0:0,0:0:0:0:
310,171,120527,2,0,P|284:165|253:165,1,53.9999983520508,10|0,0:0|0:0,0:0:0:0:
212,336,120703,2,0,P|185:335|158:329,1,53.9999983520508,0|0,0:0|0:0,0:0:0:0:
45,243,120879,5,6,0:0:0:0:
21,206,120967,1,0,0:0:0:0:
18,161,121055,1,0,0:0:0:0:
32,120,121143,1,0,0:0:0:0:
64,92,121233,1,8,0:0:0:0:
101,115,121321,1,0,0:0:0:0:
143,122,121409,1,6,0:0:0:0:
185,118,121497,1,0,0:0:0:0:
224,101,121585,1,0,0:0:0:0:
256,72,121674,1,0,0:0:0:0:
271,31,121762,6,0,L|350:22,1,53.9999983520508,6|0,0:0|0:0,0:0:0:0:
311,230,121938,2,0,P|304:204|301:177,1,53.9999983520508,2|0,0:0|0:0,0:0:0:0:
449,84,122115,2,0,P|456:110|459:137,1,53.9999983520508
232,332,122291,5,6,0:0:0:0:
190,318,122379,1,0,0:0:0:0:
190,275,122468,1,0,0:0:0:0:
232,262,122556,1,0,0:0:0:0:
257,297,122644,2,0,P|281:309|315:316,1,53.9999983520508,8|0,0:0|0:0,0:0:0:0:
468,272,122821,5,6,0:0:0:0:
510,258,122909,1,0,0:0:0:0:
510,215,122998,1,0,0:0:0:0:
468,202,123086,1,0,0:0:0:0:
443,237,123174,6,0,P|419:249|385:256,1,53.9999983520508,6|0,0:0|0:0,0:0:0:0:
268,172,123350,2,0,P|263:139|260:103,1,53.9999983520508,10|0,0:0|0:0,0:0:0:0:
484,72,123527,2,0,P|469:99|452:120,1,53.9999983520508,4|0,0:0|0:0,0:0:0:0:
332,40,123703,5,6,0:0:0:0:
293,21,123791,1,0,0:0:0:0:
249,18,123879,1,0,0:0:0:0:
207,28,123967,1,0,0:0:0:0:
174,56,124055,1,8,0:0:0:0:
136,34,124144,1,0,0:0:0:0:
94,44,124232,1,6,0:0:0:0:
67,78,124321,1,0,0:0:0:0:
60,121,124409,1,0,0:0:0:0:
74,161,124497,1,0,0:0:0:0:
90,201,124585,6,0,L|76:276,1,53.9999983520508,6|0,0:0|0:0,0:0:0:0:
171,324,124762,2,0,P|203:312|223:312,1,53.9999983520508,10|0,0:0|0:0,0:0:0:0:
256,152,124938,2,0,P|283:154|308:165,1,53.9999983520508,0|0,0:0|0:0,0:0:0:0:
432,308,125115,5,6,0:0:0:0:
400,339,125203,1,0,0:0:0:0:
358,326,125291,1,0,0:0:0:0:
347,286,125379,1,0,0:0:0:0:
378,255,125468,1,8,0:0:0:0:
419,266,125556,1,0,0:0:0:0:
461,256,125644,1,6,0:0:0:0:
481,218,125732,1,0,0:0:0:0:
477,174,125821,1,0,0:0:0:0:
444,145,125909,1,0,0:0:0:0:
400,143,125997,6,0,L|325:139,1,53.9999983520508,6|0,0:0|0:0,0:0:0:0:
232,252,126174,2,0,P|204:241|169:216,1,53.9999983520508,10|0,0:0|0:0,0:0:0:0:
40,172,126350,2,0,P|40:143|68:99,1,53.9999983520508,0|0,0:0|0:0,0:0:0:0:
174,33,126527,5,6,0:0:0:0:
214,19,126615,1,0,0:0:0:0:
257,13,126703,1,0,0:0:0:0:
300,17,126791,1,0,0:0:0:0:
342,28,126879,1,8,0:0:0:0:
377,53,126968,1,0,0:0:0:0:
406,84,127056,1,6,0:0:0:0:
367,103,127144,1,0,0:0:0:0:
346,140,127232,1,0,0:0:0:0:
344,183,127321,1,0,0:0:0:0:
360,223,127409,6,0,L|447:241,1,53.9999983520508,6|0,0:0|0:0,0:0:0:0:
280,328,127585,2,0,P|243:315|206:317,1,53.9999983520508,10|0,0:0|0:0,0:0:0:0:
100,284,127762,2,0,P|129:258|146:225,1,53.9999983520508,0|0,0:0|0:0,0:0:0:0:
146,95,127938,6,0,P|114:66|120:138,1,161.999995056153,0|0,0:0|0:0,0:0:0:0:
199,171,128291,1,8,0:0:0:0:
238,153,128379,1,0,0:0:0:0:
280,145,128468,1,4,0:0:0:0:
324,148,128556,1,0,0:0:0:0:
365,158,128644,1,0,0:0:0:0:
355,116,128732,1,0,0:0:0:0:
354,72,128821,6,0,P|355:43|368:12,1,53.9999983520508,4|0,0:0|0:0,0:0:0:0:
472,176,128997,2,0,P|471:147|458:116,1,53.9999983520508,8|0,0:0|0:0,0:0:0:0:
272,288,129174,2,0,P|273:259|286:228,1,53.9999983520508,0|0,0:0|0:0,0:0:0:0:
441,357,129350,5,4,0:0:0:0:
397,360,129438,1,0,0:0:0:0:
354,364,129526,1,0,0:0:0:0:
311,368,129614,1,0,0:0:0:0:
268,374,129703,2,0,L|204:360,1,53.9999983520508,8|0,0:0|0:0,0:0:0:0:
56,240,129879,5,4,0:0:0:0:
70,198,129967,1,0,0:0:0:0:
113,198,130056,1,0,0:0:0:0:
126,240,130144,1,0,0:0:0:0:
91,265,130232,2,0,P|79:289|72:323,1,53.9999983520508,4|0,0:0|0:0,0:0:0:0:
216,144,130409,6,0,P|200:120|168:104,1,53.9999983520508,8|0,0:0|0:0,0:0:0:0:
284,268,130585,2,0,L|355:259,1,53.9999983520508,0|0,0:0|0:0,0:0:0:0:
488,88,130762,5,4,0:0:0:0:
458,56,130850,1,0,0:0:0:0:
423,28,130939,1,0,0:0:0:0:
379,27,131027,1,0,0:0:0:0:
338,41,131115,1,8,0:0:0:0:
307,72,131203,1,0,0:0:0:0:
287,111,131291,1,4,0:0:0:0:
254,81,131379,1,0,0:0:0:0:
216,58,131467,1,0,0:0:0:0:
172,55,131555,1,0,0:0:0:0:
130,70,131644,6,0,L|52:95,1,53.9999983520508,4|0,0:0|0:0,0:0:0:0:
208,208,131821,2,0,P|234:205|260:196,1,53.9999983520508,8|0,0:0|0:0,0:0:0:0:
44,208,131997,2,0,P|47:234|57:259,1,53.9999983520508,0|0,0:0|0:0,0:0:0:0:
192,354,132174,5,4,0:0:0:0:
231,337,132262,1,0,0:0:0:0:
273,328,132350,1,0,0:0:0:0:
315,332,132438,1,0,0:0:0:0:
357,342,132527,1,8,0:0:0:0:
396,358,132615,1,0,0:0:0:0:
437,346,132703,1,4,0:0:0:0:
461,310,132791,1,0,0:0:0:0:
464,267,132879,1,0,0:0:0:0:
444,227,132968,1,0,0:0:0:0:
417,193,133056,6,0,L|434:135,1,53.9999983520508,4|0,0:0|0:0,0:0:0:0:
344,48,133232,2,0,P|323:61|279:66,1,53.9999983520508,8|0,0:0|0:0,0:0:0:0:
244,192,133409,2,0,P|214:184|182:149,1,53.9999983520508,0|0,0:0|0:0,0:0:0:0:
40,108,133585,5,4,0:0:0:0:
56,67,133674,1,0,0:0:0:0:
74,27,133762,1,0,0:0:0:0:
100,61,133850,1,0,0:0:0:0:
122,97,133938,2,0,L|97:186,1,53.9999983520508,8|0,0:0|0:0,0:0:0:0:
96,292,134115,5,4,0:0:0:0:
112,333,134204,1,0,0:0:0:0:
130,373,134292,1,0,0:0:0:0:
156,339,134380,1,0,0:0:0:0:
178,303,134468,2,0,L|153:214,1,53.9999983520508,4|0,0:0|0:0,0:0:0:0:
248,64,134644,6,0,L|223:153,1,53.9999983520508,8|0,0:0|0:0,0:0:0:0:
308,328,134821,2,0,L|283:239,1,53.9999983520508,4|0,0:0|0:0,0:0:0:0:
396,124,134997,6,0,P|422:125|458:146,1,53.9999983520508,8|0,0:0|0:0,0:0:0:0:
451,308,135174,1,4,0:0:0:0:
493,294,135262,1,4,0:0:0:0:
493,251,135351,1,8,0:0:0:0:
451,238,135439,1,0,0:0:0:0:
426,273,135527,6,0,P|402:285|368:292,1,53.9999983520508,4|0,0:0|0:0,0:0:0:0:
312,164,135703,2,0,P|285:169|251:167,1,53.9999983520508,0|0,0:0|0:0,0:0:0:0:
184,284,135879,2,0,P|157:282|124:271,1,53.9999983520508,4|0,0:0|0:0,0:0:0:0:
137,60,136055,2,0,P|112:52|83:33,1,53.9999983520508,8|0,0:0|0:0,0:0:0:0:
300,277,136232,1,0,0:0:0:0:
424,40,136409,6,0,L|440:236,1,161.999995056153,4|8,0:0|0:0,0:0:0:0:
300,277,136938,1,4,0:0:0:0:
424,40,137291,5,4,0:0:0:0:
299,276,137468,2,0,L|310:161,1,80.9999975280763,8|0,0:0|0:0,0:0:0:0:
83,101,137821,6,0,L|67:297,1,161.999995056153,4|8,0:0|0:0,0:0:0:0:
207,338,138350,1,4,0:0:0:0:
83,101,138703,5,4,0:0:0:0:
208,337,138880,2,0,L|196:222,1,80.9999975280763,8|0,0:0|0:0,0:0:0:0:
387,105,139232,6,0,P|424:120|449:152,1,80.9999975280763,4|0,0:0|0:0,0:0:0:0:
419,299,139585,1,8,0:0:0:0:
213,175,139762,2,4,B|374:188,1,161.999995056153,4|4,0:0|0:0,0:0:0:0:
197,257,140291,2,0,P|159:242|135:210,1,80.9999975280763,8|0,0:0|0:0,0:0:0:0:
449,152,140644,6,0,P|424:120|387:105,1,80.9999975280763,4|0,0:0|0:0,0:0:0:0:
213,175,140997,1,8,0:0:0:0:
361,350,141174,2,0,B|374:188,1,161.999995056153,4|0,0:0|0:0,0:0:0:0:
196,92,141703,2,0,P|175:98|155:114,3,40.4999987640381,8|0|0|0,0:0|0:0|0:0|0:0,0:0:0:0:
213,175,142056,6,0,B|374:188,1,161.999995056153,4|8,0:0|0:0,0:0:0:0:
350,85,142585,1,4,0:0:0:0:
264,276,142762,2,0,L|183:282,1,80.9999975280763,0|4,0:0|0:0,0:0:0:0:
350,85,143115,1,8,0:0:0:0:
374,188,143468,6,4,B|361:349,1,161.999995056153,4|8,0:0|0:0,0:0:0:0:
464,325,143997,1,4,0:0:0:0:
273,239,144174,2,0,L|266:158,1,80.9999975280763,0|4,0:0|0:0,0:0:0:0:
464,325,144527,1,8,0:0:0:0:
207,99,144879,6,0,P|246:74|299:83,1,80.9999975280763,4|0,0:0|0:0,0:0:0:0:
374,188,145232,1,8,0:0:0:0:
279,319,145409,2,4,B|266:158,1,161.999995056153,4|4,0:0|0:0,0:0:0:0:
206,357,145938,1,8,0:0:0:0:
374,188,146291,5,4,0:0:0:0:
50,212,146468,6,0,P|74:181|117:172,1,67.5000025749208,0|0,0:0|0:0,0:0:0:0:
46,277,146644,2,0,P|40:248|51:209,1,67.5000025749208,0|0,0:0|0:0,0:0:0:0:
92,321,146821,2,0,P|62:304|45:276,1,67.5000025749208,0|0,0:0|0:0,0:0:0:0:
191,138,146997,2,0,P|213:111|216:79,1,67.5000025749208,0|0,0:0|0:0,0:0:0:0:
189,20,147174,2,0,P|208:45|216:78,1,67.5000025749208,0|0,0:0|0:0,0:0:0:0:
168,320,147350,6,0,P|215:260|123:256,1,202.500007724762,0|0,0:0|0:0,0:0:0:0:
168,320,147703,6,0,L|284:312,1,112.5,4|0,0:0|0:0,0:0:0:0:
388,228,148056,1,8,0:0:0:0:
424,376,148232,1,4,0:0:0:0:
312,176,148409,2,0,P|344:144|448:160,1,112.5,0|4,0:0|0:0,0:0:0:0:
376,308,148762,1,8,0:0:0:0:
200,228,148938,1,0,0:0:0:0:
485,82,149115,6,0,P|485:188|387:227,1,225,4|8,0:0|0:0,0:0:0:0:
256,96,149644,1,4,0:0:0:0:
126,294,149821,2,0,P|175:324|254:310,1,112.5,0|4,0:0|0:0,0:0:0:0:
136,165,150174,2,0,P|87:135|8:149,1,112.5,8|0,0:0|0:0,0:0:0:0:
320,208,150527,6,0,L|464:192,1,112.5,4|0,0:0|0:0,0:0:0:0:
260,84,150879,1,8,0:0:0:0:
228,322,151056,2,4,L|456:346,1,225,4|4,0:0|0:0,0:0:0:0:
240,168,151585,2,0,L|96:184,1,112.5,8|0,0:0|0:0,0:0:0:0:
228,322,151938,6,0,L|339:334,1,112.5,4|0,0:0|0:0,0:0:0:0:
431,195,152290,1,8,0:0:0:0:
240,168,152468,2,0,L|12:192,1,225,4|4,0:0|0:0,0:0:0:0:
188,56,152997,1,8,0:0:0:0:
80,288,153174,1,4,0:0:0:0:
124,292,153262,1,4,0:0:0:0:
168,296,153350,6,0,L|304:280,1,112.5,4|0,0:0|0:0,0:0:0:0:
460,172,153703,1,8,0:0:0:0:
236,148,153880,2,4,L|459:171,1,225,4|4,0:0|0:0,0:0:0:0:
279,282,154409,1,8,0:0:0:0:
312,56,154762,5,4,0:0:0:0:
279,282,154938,1,0,0:0:0:0:
160,112,155115,1,8,0:0:0:0:
208,340,155291,2,0,L|80:352,1,112.5,4|0,0:0|0:0,0:0:0:0:
354,142,155644,5,4,0:0:0:0:
112,192,155821,1,8,0:0:0:0:
390,222,155997,1,0,0:0:0:0:
84,112,156174,5,4,0:0:0:0:
354,142,156350,1,0,0:0:0:0:
354,142,156438,1,0,0:0:0:0:
354,142,156527,1,8,0:0:0:0:
112,192,156703,1,4,0:0:0:0:
112,192,156791,1,0,0:0:0:0:
112,192,156880,1,0,0:0:0:0:
390,222,157056,1,4,0:0:0:0:
98,290,157232,5,8,0:0:0:0:
442,154,157409,1,4,0:0:0:0:
31,43,157585,6,4,B|93:40|123:18|123:18|153:31|164:76|164:76|203:38|240:40|240:40|269:84|325:84|325:84|354:37|418:37|418:37|434:57|462:74|462:74|430:65|390:81|358:105,1,584.999973220826,2|4,0:0|0:0,0:0:0:0:
208,248,158644,2,0,P|192:216|244:256,1,188.999994232178,4|0,0:0|0:0,0:0:0:0:
185,334,158997,5,4,0:0:0:0:
148,300,159085,1,0,0:0:0:0:
120,256,159174,1,0,0:0:0:0:
108,208,159262,1,0,0:0:0:0:
120,160,159350,1,12,0:0:0:0:
152,120,159438,1,0,0:0:0:0:
180,80,159527,1,4,0:0:0:0:
160,32,159615,1,0,0:0:0:0:
112,12,159703,1,0,0:0:0:0:
64,28,159791,1,0,0:0:0:0:
36,72,159879,6,0,L|42:155,1,62.9999980773926,4|0,0:0|0:0,0:0:0:0:
120,256,160056,2,0,P|151:258|181:250,1,62.9999980773926,8|0,0:0|0:0,0:0:0:0:
247,87,160232,2,0,P|278:84|308:92,1,62.9999980773926,0|0,0:0|0:0,0:0:0:0:
426,314,160409,5,4,0:0:0:0:
456,272,160497,1,0,0:0:0:0:
464,220,160585,1,0,0:0:0:0:
472,168,160674,1,0,0:0:0:0:
464,116,160762,1,8,0:0:0:0:
444,72,160850,1,0,0:0:0:0:
412,32,160938,1,4,0:0:0:0:
402,82,161027,1,0,0:0:0:0:
375,125,161115,1,0,0:0:0:0:
325,137,161203,1,0,0:0:0:0:
277,117,161291,6,0,L|197:109,1,62.9999980773926,4|0,0:0|0:0,0:0:0:0:
256,304,161468,1,8,0:0:0:0:
285,345,161556,1,0,0:0:0:0:
333,329,161645,1,0,0:0:0:0:
333,279,161733,1,0,0:0:0:0:
285,263,161821,6,0,B|201:251|201:251|117:279,1,125.999996154785,4|0,0:0|0:0,0:0:0:0:
333,329,162174,2,0,L|413:318,1,62.9999980773926,8|0,0:0|0:0,0:0:0:0:
295,169,162350,2,0,L|215:158,1,62.9999980773926,4|0,0:0|0:0,0:0:0:0:
199,340,162527,1,0,0:0:0:0:
149,350,162615,1,0,0:0:0:0:
104,326,162703,1,4,0:0:0:0:
53,325,162791,1,0,0:0:0:0:
11,353,162879,1,8,0:0:0:0:
30,306,162968,1,0,0:0:0:0:
43,257,163056,1,0,0:0:0:0:
46,206,163144,1,0,0:0:0:0:
38,156,163232,6,0,L|24:77,1,62.9999980773926,4|0,0:0|0:0,0:0:0:0:
254,148,163409,2,0,L|243:85,1,62.9999980773926,0|0,0:0|0:0,0:0:0:0:
140,216,163585,2,0,L|150:153,1,62.9999980773926,8|0,0:0|0:0,0:0:0:0:
356,88,163762,2,0,L|366:25,1,62.9999980773926,4|0,0:0|0:0,0:0:0:0:
174,294,163938,2,0,P|135:302|91:288,1,62.9999980773926,0|0,0:0|0:0,0:0:0:0:
207,12,164115,2,4,P|246:4|290:18,1,62.9999980773926,4|0,0:0|0:0,0:0:0:0:
392,232,164291,6,0,P|340:224|406:200,1,188.999994232178,8|0,0:0|0:0,0:0:0:0:
341,313,164644,5,4,0:0:0:0:
292,324,164732,1,0,0:0:0:0:
240,320,164820,1,0,0:0:0:0:
192,300,164908,1,0,0:0:0:0:
144,280,164996,1,8,0:0:0:0:
92,284,165085,1,0,0:0:0:0:
64,328,165174,1,4,0:0:0:0:
72,276,165262,1,0,0:0:0:0:
68,224,165350,1,0,0:0:0:0:
56,176,165438,1,0,0:0:0:0:
44,124,165527,6,0,L|124:100,1,62.9999980773926,4|0,0:0|0:0,0:0:0:0:
245,217,165703,2,0,P|213:218|184:208,1,62.9999980773926,8|0,0:0|0:0,0:0:0:0:
87,23,165879,2,0,P|119:23|149:33,1,62.9999980773926,0|0,0:0|0:0,0:0:0:0:
264,138,166056,5,4,0:0:0:0:
304,168,166144,1,0,0:0:0:0:
352,180,166232,1,0,0:0:0:0:
404,172,166321,1,0,0:0:0:0:
448,144,166409,1,8,0:0:0:0:
448,196,166497,1,0,0:0:0:0:
472,240,166585,1,4,0:0:0:0:
424,228,166674,1,0,0:0:0:0:
372,232,166762,1,0,0:0:0:0:
328,256,166850,1,0,0:0:0:0:
300,296,166938,6,0,L|220:308,1,62.9999980773926,4|0,0:0|0:0,0:0:0:0:
79,196,167115,2,0,L|227:212,1,125.999996154785,8|0,0:0|0:0,0:0:0:0:
50,270,167468,5,4,0:0:0:0:
11,236,167556,1,0,0:0:0:0:
3,185,167644,1,0,0:0:0:0:
22,141,167732,1,0,0:0:0:0:
66,116,167821,2,0,L|152:125,1,62.9999980773926,8|0,0:0|0:0,0:0:0:0:
237,305,167997,5,4,0:0:0:0:
271,344,168085,1,0,0:0:0:0:
322,352,168173,1,0,0:0:0:0:
366,333,168261,1,0,0:0:0:0:
391,289,168350,2,0,L|381:202,1,62.9999980773926,4|0,0:0|0:0,0:0:0:0:
320,16,168527,5,8,0:0:0:0:
367,32,168615,1,0,0:0:0:0:
367,82,168703,1,0,0:0:0:0:
319,98,168791,1,0,0:0:0:0:
289,55,168880,6,0,P|258:45|227:42,1,62.9999980773926,4|0,0:0|0:0,0:0:0:0:
45,131,169056,2,0,P|76:132|107:127,1,62.9999980773926,4|0,0:0|0:0,0:0:0:0:
311,204,169232,2,0,P|279:202|248:207,1,62.9999980773926,8|0,0:0|0:0,0:0:0:0:
67,280,169408,2,0,P|97:289|128:292,1,62.9999980773926,4|0,0:0|0:0,0:0:0:0:
369,322,169585,2,0,P|378:291|381:260,1,62.9999980773926,0|0,0:0|0:0,0:0:0:0:
289,55,169761,2,0,P|287:86|292:117,1,62.9999980773926,4|0,0:0|0:0,0:0:0:0:
491,162,169938,2,0,P|493:110|455:170,1,188.999994232178,8|0,0:0|0:0,0:0:0:0:
485,240,170291,5,4,0:0:0:0:
498,288,170379,1,0,0:0:0:0:
466,328,170468,1,0,0:0:0:0:
418,340,170556,1,0,0:0:0:0:
372,324,170644,1,8,0:0:0:0:
320,324,170732,1,0,0:0:0:0:
276,352,170821,1,4,0:0:0:0:
260,304,170909,1,0,0:0:0:0:
220,272,170997,1,0,0:0:0:0:
168,272,171085,1,0,0:0:0:0:
128,304,171174,6,0,L|136:216,1,62.9999980773926,4|0,0:0|0:0,0:0:0:0:
244,60,171350,2,0,L|181:54,1,62.9999980773926,8|0,0:0|0:0,0:0:0:0:
64,148,171527,2,0,L|126:142,1,62.9999980773926,0|0,0:0|0:0,0:0:0:0:
330,84,171703,5,4,0:0:0:0:
383,80,171791,1,0,0:0:0:0:
422,116,171879,1,0,0:0:0:0:
425,169,171967,1,0,0:0:0:0:
390,208,172055,1,8,0:0:0:0:
339,206,172144,1,0,0:0:0:0:
299,174,172232,1,4,0:0:0:0:
247,182,172320,1,0,0:0:0:0:
219,226,172408,1,0,0:0:0:0:
228,276,172496,1,0,0:0:0:0:
272,304,172585,6,0,L|374:298,1,62.9999980773926,4|0,0:0|0:0,0:0:0:0:
264,96,172762,2,0,L|80:84,1,125.999996154785,8|0,0:0|0:0,0:0:0:0:
272,304,173115,2,0,L|456:292,1,125.999996154785,4|0,0:0|0:0,0:0:0:0:
200,208,173468,2,0,L|132:212,1,62.9999980773926,8|0,0:0|0:0,0:0:0:0:
32,350,173644,2,0,L|100:346,1,62.9999980773926,4|0,0:0|0:0,0:0:0:0:
272,304,173821,5,0,0:0:0:0:
311,271,173909,1,0,0:0:0:0:
331,224,173997,1,4,0:0:0:0:
330,173,174085,1,0,0:0:0:0:
307,127,174173,1,8,0:0:0:0:
266,94,174262,1,0,0:0:0:0:
217,78,174350,1,0,0:0:0:0:
166,85,174438,1,0,0:0:0:0:
120,109,174527,6,0,L|52:113,1,62.9999980773926,4|0,0:0|0:0,0:0:0:0:
0,287,174703,2,0,L|62:284,1,62.9999980773926,4|0,0:0|0:0,0:0:0:0:
200,208,174879,2,0,L|137:211,1,62.9999980773926,8|0,0:0|0:0,0:0:0:0:
193,343,175056,2,0,L|255:339,1,62.9999980773926,4|0,0:0|0:0,0:0:0:0:
292,129,175232,6,0,L|295:66,1,62.9999980773926,0|0,0:0|0:0,0:0:0:0:
350,291,175408,2,0,L|353:353,1,62.9999980773926,4|0,0:0|0:0,0:0:0:0:
467,89,175585,2,0,P|400:53|417:126,1,188.999994232178,8|0,0:0|0:0,0:0:0:0:
421,246,175938,5,4,0:0:0:0:
380,216,176027,1,0,0:0:0:0:
328,212,176115,1,0,0:0:0:0:
288,240,176203,1,0,0:0:0:0:
264,284,176291,1,8,0:0:0:0:
220,312,176379,1,0,0:0:0:0:
168,308,176468,1,4,0:0:0:0:
132,272,176556,1,0,0:0:0:0:
120,224,176644,1,0,0:0:0:0:
132,176,176732,1,0,0:0:0:0:
172,144,176821,6,0,L|162:81,1,62.9999980773926,4|0,0:0|0:0,0:0:0:0:
5,111,176997,2,0,L|67:120,1,62.9999980773926,8|0,0:0|0:0,0:0:0:0:
205,229,177174,2,0,L|268:220,1,62.9999980773926,0|0,0:0|0:0,0:0:0:0:
413,33,177350,5,4,0:0:0:0:
407,83,177438,1,0,0:0:0:0:
414,131,177526,1,0,0:0:0:0:
437,176,177615,1,0,0:0:0:0:
469,214,177703,1,8,0:0:0:0:
479,263,177791,1,0,0:0:0:0:
464,311,177879,1,4,0:0:0:0:
424,343,177968,1,0,0:0:0:0:
375,355,178056,1,0,0:0:0:0:
326,339,178144,1,0,0:0:0:0:
288,308,178232,6,0,L|204:324,1,62.9999980773926,4|0,0:0|0:0,0:0:0:0:
1,213,178409,2,0,L|141:225,1,125.999996154785,8|0,0:0|0:0,0:0:0:0:
323,51,178762,5,4,0:0:0:0:
363,83,178851,1,0,0:0:0:0:
403,115,178939,1,0,0:0:0:0:
371,155,179027,1,0,0:0:0:0:
335,191,179115,2,0,L|272:256,1,62.9999980773926,8|0,0:0|0:0,0:0:0:0:
139,364,179291,5,4,0:0:0:0:
99,332,179380,1,0,0:0:0:0:
59,300,179468,1,0,0:0:0:0:
91,260,179556,1,0,0:0:0:0:
127,224,179644,2,0,L|190:159,1,62.9999980773926,4|0,0:0|0:0,0:0:0:0:
350,213,179821,2,0,L|245:252,1,62.9999980773926,8|0,0:0|0:0,0:0:0:0:
111,201,179997,2,0,L|215:161,1,62.9999980773926,4|0,0:0|0:0,0:0:0:0:
368,296,180174,5,8,0:0:0:0:
139,364,180350,2,0,L|104:356,4,26.9999991760254,4|0|0|0|0,0:0|0:0|0:0|0:0|0:0,0:0:0:0:
396,192,180703,5,8,0:0:0:0:
57,123,180879,2,0,L|32:132,4,26.9999991760254,4|0|0|0|0,0:0|0:0|0:0|0:0|0:0,0:0:0:0:
264,364,181232,5,8,0:0:0:0:
296,96,181409,1,2,0:0:0:0:
51,208,181585,5,4,0:0:0:0:
85,247,181673,1,0,0:0:0:0:
137,254,181761,1,0,0:0:0:0:
180,225,181849,1,0,0:0:0:0:
191,172,181938,1,8,0:0:0:0:
201,118,182027,1,0,0:0:0:0:
244,89,182115,1,4,0:0:0:0:
296,96,182203,1,0,0:0:0:0:
331,136,182291,1,0,0:0:0:0:
322,190,182379,1,0,0:0:0:0:
278,219,182467,1,4,0:0:0:0:
226,212,182555,1,0,0:0:0:0:
191,172,182643,1,8,0:0:0:0:
201,118,182732,1,0,0:0:0:0:
244,89,182821,1,0,0:0:0:0:
296,96,182909,1,0,0:0:0:0:
331,136,182997,6,0,L|395:144,1,62.9999980773926,4|0,0:0|0:0,0:0:0:0:
191,172,183174,2,0,L|127:180,1,62.9999980773926,0|0,0:0|0:0,0:0:0:0:
356,108,183350,2,0,L|420:116,1,62.9999980773926,8|0,0:0|0:0,0:0:0:0:
172,144,183527,2,0,L|108:152,1,62.9999980773926,4|0,0:0|0:0,0:0:0:0:
234,37,183703,5,0,0:0:0:0:
244,89,183791,1,0,0:0:0:0:
254,142,183879,1,4,0:0:0:0:
264,194,183967,1,0,0:0:0:0:
274,247,184056,2,0,P|276:284|264:324,1,62.9999980773926,8|0,0:0|0:0,0:0:0:0:
172,144,184232,2,0,P|165:113|168:81,1,62.9999980773926,0|0,0:0|0:0,0:0:0:0:
417,255,184409,5,4,0:0:0:0:
370,280,184497,1,0,0:0:0:0:
317,277,184585,1,0,0:0:0:0:
274,247,184673,1,0,0:0:0:0:
264,196,184762,2,0,P|264:160|280:120,1,62.9999980773926,8|0,0:0|0:0,0:0:0:0:
476,102,184938,5,4,0:0:0:0:
501,149,185026,1,0,0:0:0:0:
498,202,185114,1,0,0:0:0:0:
468,245,185202,1,0,0:0:0:0:
417,255,185291,2,0,P|381:255|341:239,1,62.9999980773926,4|0,0:0|0:0,0:0:0:0:
324,44,185468,5,8,0:0:0:0:
371,19,185556,1,0,0:0:0:0:
424,22,185644,1,0,0:0:0:0:
467,52,185732,1,0,0:0:0:0:
476,102,185821,6,0,P|476:133|468:163,1,62.9999980773926,4|0,0:0|0:0,0:0:0:0:
252,92,185997,2,0,P|243:61|243:30,1,62.9999980773926,4|0,0:0|0:0,0:0:0:0:
363,185,186174,2,0,P|363:216|355:246,1,62.9999980773926,8|0,0:0|0:0,0:0:0:0:
160,140,186350,2,0,P|151:109|151:78,1,62.9999980773926,4|0,0:0|0:0,0:0:0:0:
274,247,186527,5,0,0:0:0:0:
285,297,186615,1,0,0:0:0:0:
249,334,186703,1,4,0:0:0:0:
199,325,186791,1,0,0:0:0:0:
178,278,186879,2,0,P|172:232|184:200,1,62.9999980773926,8|0,0:0|0:0,0:0:0:0:
365,123,187056,2,0,P|369:153|362:184,1,62.9999980773926,0|0,0:0|0:0,0:0:0:0:
320,213,187232,5,4,0:0:0:0:
52,340,187320,1,0,0:0:0:0:
35,290,187408,1,0,0:0:0:0:
46,238,187496,1,0,0:0:0:0:
76,192,187585,1,8,0:0:0:0:
106,146,187674,1,0,0:0:0:0:
117,94,187762,1,4,0:0:0:0:
100,44,187850,1,0,0:0:0:0:
60,8,187938,1,0,0:0:0:0:
72,60,188027,1,0,0:0:0:0:
116,92,188115,1,4,0:0:0:0:
168,92,188203,1,0,0:0:0:0:
220,80,188291,6,0,L|288:76,1,62.9999980773926,8|0,0:0|0:0,0:0:0:0:
416,56,188468,2,0,P|453:74|468:96,1,62.9999980773926,0|0,0:0|0:0,0:0:0:0:
480,260,188644,5,4,0:0:0:0:
436,288,188732,1,0,0:0:0:0:
384,292,188821,1,0,0:0:0:0:
336,272,188909,1,0,0:0:0:0:
304,228,188997,2,0,P|280:213|236:200,1,62.9999980773926,8|0,0:0|0:0,0:0:0:0:
72,192,189174,2,0,P|42:201|15:218,1,62.9999980773926,4|0,0:0|0:0,0:0:0:0:
184,316,189350,2,0,P|213:306|240:289,1,62.9999980773926,0|0,0:0|0:0,0:0:0:0:
316,140,189527,1,4,0:0:0:0:
324,120,189615,1,0,0:0:0:0:
332,100,189703,5,8,0:0:0:0:
280,108,189791,1,0,0:0:0:0:
228,104,189879,1,0,0:0:0:0:
180,80,189968,1,0,0:0:0:0:
156,32,190056,2,0,P|192:20|240:24,1,62.9999980773926,4|0,0:0|0:0,0:0:0:0:
368,24,190232,2,0,P|405:31|444:59,1,62.9999980773926,0|0,0:0|0:0,0:0:0:0:
501,178,190409,5,8,0:0:0:0:
509,230,190497,1,0,0:0:0:0:
497,282,190585,2,0,P|461:290|409:278,1,62.9999980773926,4|0,0:0|0:0,0:0:0:0:
304,228,190762,2,0,P|268:220|216:232,1,62.9999980773926,0|0,0:0|0:0,0:0:0:0:
80,345,190938,2,0,P|111:346|141:339,1,62.9999980773926,4|0,0:0|0:0,0:0:0:0:
321,313,191115,2,0,L|316:384,1,62.9999980773926,8|0,0:0|0:0,0:0:0:0:
104,152,191291,5,0,0:0:0:0:
104,152,191379,1,0,0:0:0:0:
104,152,191468,2,0,L|104:228,1,62.9999980773926,4|0,0:0|0:0,0:0:0:0:
264,128,191644,5,4,0:0:0:0:
268,124,191732,1,0,0:0:0:0:
272,120,191821,1,8,0:0:0:0:
276,116,191909,1,0,0:0:0:0:
280,112,191997,1,4,0:0:0:0:
284,112,192085,1,0,0:0:0:0:
288,108,192174,1,0,0:0:0:0:
292,104,192262,1,0,0:0:0:0:
296,100,192350,6,0,P|332:88|388:88,1,62.9999980773926,4|0,0:0|0:0,0:0:0:0:
508,180,192527,2,0,P|472:168|416:168,1,62.9999980773926,8|0,0:0|0:0,0:0:0:0:
300,240,192703,5,0,0:0:0:0:
300,240,192791,1,0,0:0:0:0:
300,240,192879,2,0,P|248:248|216:248,1,62.9999980773926,4|0,0:0|0:0,0:0:0:0:
52,224,193056,2,0,P|104:232|136:232,1,62.9999980773926,4|0,0:0|0:0,0:0:0:0:
316,324,193232,2,0,P|264:332|232:332,1,62.9999980773926,8|0,0:0|0:0,0:0:0:0:
48,312,193409,2,0,P|100:320|132:320,1,62.9999980773926,4|0,0:0|0:0,0:0:0:0:
380,272,193585,5,0,0:0:0:0:
382,219,193673,1,0,0:0:0:0:
357,172,193761,1,4,0:0:0:0:
312,146,193849,1,0,0:0:0:0:
259,147,193938,2,0,L|192:156,1,62.9999980773926,8|0,0:0|0:0,0:0:0:0:
52,224,194115,5,0,0:0:0:0:
52,224,194203,1,0,0:0:0:0:
52,224,194291,2,0,P|60:204|48:148,1,62.9999980773926,4|0,0:0|0:0,0:0:0:0:
120,32,194468,2,0,P|115:62|124:92,1,62.9999980773926,4|0,0:0|0:0,0:0:0:0:
128,288,194644,2,0,P|136:268|124:212,1,62.9999980773926,8|0,0:0|0:0,0:0:0:0:
20,20,194821,2,0,P|15:50|24:80,1,62.9999980773926,4|0,0:0|0:0,0:0:0:0:
48,316,194997,1,0,0:0:0:0:
227,163,195174,5,4,0:0:0:0:
227,163,195262,1,0,0:0:0:0:
227,163,195350,2,0,P|197:153|166:158,1,62.9999980773926,8|0,0:0|0:0,0:0:0:0:
360,216,195527,2,0,P|369:186|364:155,1,62.9999980773926,0|0,0:0|0:0,0:0:0:0:
280,296,195703,5,4,0:0:0:0:
319,330,195791,1,0,0:0:0:0:
371,339,195879,1,0,0:0:0:0:
420,320,195967,1,0,0:0:0:0:
452,277,196056,2,0,L|448:196,1,62.9999980773926,8|0,0:0|0:0,0:0:0:0:
261,124,196232,5,4,0:0:0:0:
228,160,196320,1,0,0:0:0:0:
216,208,196408,1,0,0:0:0:0:
228,256,196496,1,0,0:0:0:0:
260,292,196585,2,0,L|341:288,1,62.9999980773926,4|0,0:0|0:0,0:0:0:0:
512,216,196762,2,0,L|431:212,1,62.9999980773926,8|0,0:0|0:0,0:0:0:0:
132,212,196938,5,0,0:0:0:0:
132,212,197027,1,0,0:0:0:0:
132,212,197115,1,4,0:0:0:0:
368,128,197291,1,0,0:0:0:0:
320,376,197468,1,8,0:0:0:0:
224,136,197644,5,4,0:0:0:0:
512,56,197821,1,0,0:0:0:0:
348,352,197997,1,4,0:0:0:0:
164,64,198174,1,8,0:0:0:0:
472,232,198350,5,0,0:0:0:0:
472,232,198438,1,0,0:0:0:0:
472,232,198527,2,0,P|432:240|392:224,1,62.9999980773926,4|0,0:0|0:0,0:0:0:0:
192,212,198703,2,0,P|222:217|253:208,1,62.9999980773926,4|0,0:0|0:0,0:0:0:0:
448,152,198879,2,0,P|414:129|397:89,1,62.9999980773926,8|0,0:0|0:0,0:0:0:0:
224,132,199056,2,0,P|249:113|265:86,1,62.9999980773926,4|0,0:0|0:0,0:0:0:0:
402,30,199232,5,0,0:0:0:0:
449,44,199321,1,0,0:0:0:0:
450,95,199409,1,4,0:0:0:0:
402,110,199497,1,0,0:0:0:0:
372,69,199585,2,0,B|364:40|364:40|368:0,1,62.9999980773926,8|0,0:0|0:0,0:0:0:0:
488,168,199762,2,0,B|491:200|491:200|483:229,1,62.9999980773926,0|0,0:0|0:0,0:0:0:0:
232,128,199938,5,4,0:0:0:0:
198,89,200026,1,0,0:0:0:0:
213,40,200114,1,0,0:0:0:0:
262,28,200202,1,0,0:0:0:0:
298,64,200291,2,0,P|308:100|304:144,1,62.9999980773926,8|0,0:0|0:0,0:0:0:0:
159,282,200468,2,0,P|159:250|167:220,1,62.9999980773926,4|0,0:0|0:0,0:0:0:0:
336,208,200644,5,0,0:0:0:0:
305,251,200732,1,0,0:0:0:0:
256,270,200820,1,4,0:0:0:0:
205,259,200908,1,0,0:0:0:0:
168,221,200996,1,8,0:0:0:0:
131,182,201085,1,0,0:0:0:0:
79,171,201173,1,0,0:0:0:0:
30,190,201261,1,0,0:0:0:0:
0,234,201350,6,0,P|0:288|4:312,1,62.9999980773926,4|0,0:0|0:0,0:0:0:0:
131,182,201527,2,0,P|133:150|132:119,1,62.9999980773926,4|0,0:0|0:0,0:0:0:0:
224,281,201703,2,0,P|224:335|220:359,1,62.9999980773926,8|0,0:0|0:0,0:0:0:0:
336,208,201879,2,0,P|333:176|334:145,1,62.9999980773926,4|0,0:0|0:0,0:0:0:0:
456,288,202056,2,0,P|457:319|454:350,1,62.9999980773926,0|0,0:0|0:0,0:0:0:0:
256,184,202232,2,0,P|253:152|254:121,1,62.9999980773926,4|0,0:0|0:0,0:0:0:0:
376,296,202409,2,0,P|377:327|374:358,1,62.9999980773926,8|0,0:0|0:0,0:0:0:0:
176,160,202585,2,0,P|173:128|174:97,1,62.9999980773926,4|0,0:0|0:0,0:0:0:0:
424,196,202762,5,4,0:0:0:0:
336,208,202938,1,0,0:0:0:0:
368,124,203115,1,8,0:0:0:0:
390,281,203291,1,4,0:0:0:0:
390,281,203644,2,0,L|320:272,1,53.9999983520508,4|0,0:0|0:0,0:0:0:0:
240,276,203821,6,0,P|192:300|256:296,1,180,8|0,0:0|0:0,0:0:0:0:
430,98,204174,5,4,0:0:0:0:
405,63,204262,1,0,0:0:0:0:
364,51,204350,1,0,0:0:0:0:
325,66,204438,1,0,0:0:0:0:
303,103,204526,1,8,0:0:0:0:
281,140,204615,1,0,0:0:0:0:
242,155,204703,1,4,0:0:0:0:
201,143,204791,1,0,0:0:0:0:
176,108,204879,1,0,0:0:0:0:
140,84,204968,1,0,0:0:0:0:
100,64,205056,6,0,P|74:54|47:51,1,53.9999983520508,4|0,0:0|0:0,0:0:0:0:
119,245,205232,2,0,P|145:241|171:232,1,53.9999983520508,8|0,0:0|0:0,0:0:0:0:
52,131,205409,2,0,P|26:140|0:144,1,53.9999983520508,0|0,0:0|0:0,0:0:0:0:
32,320,205585,5,4,0:0:0:0:
73,332,205673,1,0,0:0:0:0:
116,335,205761,1,0,0:0:0:0:
158,329,205849,1,0,0:0:0:0:
198,312,205937,1,8,0:0:0:0:
237,328,206027,1,0,0:0:0:0:
280,335,206115,1,4,0:0:0:0:
323,332,206203,1,0,0:0:0:0:
364,319,206291,1,0,0:0:0:0:
388,284,206379,1,0,0:0:0:0:
388,240,206468,6,0,L|376:168,1,53.9999983520508,4|0,0:0|0:0,0:0:0:0:
240,116,206644,2,0,L|231:169,1,53.9999983520508,8|0,0:0|0:0,0:0:0:0:
456,192,206821,2,0,L|444:120,1,53.9999983520508,0|0,0:0|0:0,0:0:0:0:
166,270,206997,5,4,0:0:0:0:
190,305,207085,1,0,0:0:0:0:
229,322,207173,1,0,0:0:0:0:
271,315,207261,1,0,0:0:0:0:
303,287,207349,1,8,0:0:0:0:
315,246,207438,1,0,0:0:0:0:
304,205,207526,1,4,0:0:0:0:
273,176,207614,1,0,0:0:0:0:
231,169,207703,6,0,L|160:168,1,53.9999983520508,0|0,0:0|0:0,0:0:0:0:
298,73,207879,2,0,P|322:93|325:135,1,53.9999983520508,4|0,0:0|0:0,0:0:0:0:
301,356,208056,2,0,P|277:336|274:294,1,53.9999983520508,8|0,0:0|0:0,0:0:0:0:
368,184,208232,5,0,0:0:0:0:
368,184,208321,1,0,0:0:0:0:
368,184,208409,2,0,P|399:185|436:200,1,53.9999983520508,4|0,0:0|0:0,0:0:0:0:
496,248,208585,2,0,P|502:278|498:317,1,53.9999983520508,4|0,0:0|0:0,0:0:0:0:
280,208,208762,2,0,P|279:181|286:154,1,53.9999983520508,8|0,0:0|0:0,0:0:0:0:
408,284,208938,2,0,P|376:282|340:268,1,53.9999983520508,4|0,0:0|0:0,0:0:0:0:
223,105,209115,5,0,0:0:0:0:
255,77,209203,1,0,0:0:0:0:
297,72,209291,2,0,P|336:80|364:108,1,53.9999983520508,4|0,0:0|0:0,0:0:0:0:
192,176,209468,2,0,P|153:168|125:140,1,53.9999983520508,8|0,0:0|0:0,0:0:0:0:
331,229,209644,2,0,P|352:261|352:301,1,53.9999983520508,0|0,0:0|0:0,0:0:0:0:
196,90,209821,5,4,0:0:0:0:
194,133,209909,1,0,0:0:0:0:
192,176,209997,1,0,0:0:0:0:
190,219,210085,1,0,0:0:0:0:
189,262,210174,1,8,0:0:0:0:
148,247,210262,1,0,0:0:0:0:
106,256,210350,1,4,0:0:0:0:
84,292,210438,1,0,0:0:0:0:
92,336,210527,1,0,0:0:0:0:
128,360,210615,1,0,0:0:0:0:
172,364,210703,6,0,L|232:360,1,53.9999983520508,4|0,0:0|0:0,0:0:0:0:
103,203,210879,2,0,P|102:240|106:260,1,53.9999983520508,8|0,0:0|0:0,0:0:0:0:
312,176,211056,2,0,P|315:149|314:122,1,53.9999983520508,0|0,0:0|0:0,0:0:0:0:
120,44,211232,5,4,0:0:0:0:
77,39,211320,1,0,0:0:0:0:
38,57,211408,1,0,0:0:0:0:
13,91,211496,1,0,0:0:0:0:
8,133,211584,1,8,0:0:0:0:
25,173,211673,1,0,0:0:0:0:
59,198,211761,1,4,0:0:0:0:
101,204,211849,1,0,0:0:0:0:
140,188,211937,1,0,0:0:0:0:
167,154,212026,1,0,0:0:0:0:
173,112,212115,6,0,L|176:36,1,53.9999983520508,4|0,0:0|0:0,0:0:0:0:
260,220,212291,2,0,L|256:304,1,53.9999983520508,8|0,0:0|0:0,0:0:0:0:
356,120,212468,2,0,L|358:43,1,53.9999983520508,0|0,0:0|0:0,0:0:0:0:
464,220,212644,5,4,2:0:0:0:
451,261,212732,1,0,2:0:0:0:
408,261,212821,1,0,2:0:0:0:
394,220,212909,1,0,2:0:0:0:
430,194,212997,2,0,P|448:188|496:192,1,53.9999983520508,8|0,0:0|0:0,0:0:0:0:
298,329,213174,5,4,2:0:0:0:
257,316,213262,1,0,2:0:0:0:
257,273,213351,1,0,2:0:0:0:
298,259,213439,1,0,2:0:0:0:
324,295,213527,2,0,P|330:313|326:361,1,53.9999983520508,4|0,0:0|0:0,0:0:0:0:
104,240,213703,5,8,2:0:0:0:
117,199,213791,1,0,2:0:0:0:
160,199,213880,1,0,2:0:0:0:
174,240,213968,1,0,2:0:0:0:
138,266,214056,2,0,P|120:272|72:268,1,53.9999983520508,4|0,0:0|0:0,0:0:0:0:
240,192,214232,2,0,P|258:186|306:190,1,53.9999983520508,4|0,0:0|0:0,0:0:0:0:
112,296,214409,2,0,P|93:297|47:280,1,53.9999983520508,8|0,0:0|0:0,0:0:0:0:
260,168,214585,2,0,P|278:166|324:183,1,53.9999983520508,4|0,0:0|0:0,0:0:0:0:
200,316,214762,5,4,0:0:0:0:
192,273,214850,1,0,0:0:0:0:
184,230,214938,1,0,0:0:0:0:
177,188,215026,1,0,0:0:0:0:
169,145,215115,1,8,0:0:0:0:
150,108,215203,1,0,0:0:0:0:
163,68,215291,1,0,0:0:0:0:
201,50,215379,1,0,0:0:0:0:
241,65,215468,6,0,P|284:80|312:76,1,53.9999983520508,4|0,0:0|0:0,0:0:0:0:
456,56,215644,2,0,P|413:70|385:66,1,53.9999983520508,0|0,0:0|0:0,0:0:0:0:
260,168,215821,1,8,0:0:0:0:
252,210,215909,1,0,0:0:0:0:
266,250,215997,1,4,0:0:0:0:
298,279,216085,1,0,0:0:0:0:
339,289,216174,6,0,P|388:288|416:284,1,53.9999983520508,0|0,0:0|0:0,0:0:0:0:
512,224,216350,2,0,P|463:223|435:219,1,53.9999983520508,4|0,0:0|0:0,0:0:0:0:
260,168,216527,1,8,0:0:0:0:
218,159,216615,1,0,0:0:0:0:
178,173,216703,1,0,0:0:0:0:
152,207,216791,1,0,0:0:0:0:
148,249,216879,6,0,L|148:316,1,53.9999983520508,4|0,0:0|0:0,0:0:0:0:
298,332,217056,2,0,L|297:278,1,53.9999983520508,0|0,0:0|0:0,0:0:0:0:
72,232,217232,1,8,0:0:0:0:
72,232,217321,1,0,0:0:0:0:
72,232,217409,2,0,L|68:332,1,53.9999983520508,4|0,0:0|0:0,0:0:0:0:
226,343,217585,2,0,L|223:289,1,53.9999983520508,0|0,0:0|0:0,0:0:0:0:
300,176,217762,1,4,0:0:0:0:
300,176,217850,1,0,0:0:0:0:
300,176,217938,2,0,P|264:172|216:172,1,53.9999983520508,8|0,0:0|0:0,0:0:0:0:
376,244,218115,2,0,P|402:242|429:239,1,53.9999983520508,0|0,0:0|0:0,0:0:0:0:
172,132,218291,6,0,B|157:158|155:188|155:188|173:218|173:218|147:244|148:308,1,161.999995056153,4|0,0:0|0:0,0:0:0:0:
63,321,218644,2,0,P|36:327|9:330,1,53.9999983520508,8|0,0:0|0:0,0:0:0:0:
242,283,218821,2,0,P|269:285|296:292,1,53.9999983520508,0|0,0:0|0:0,0:0:0:0:
33,149,218997,1,0,0:0:0:0:
18,189,219085,1,0,0:0:0:0:
30,228,219174,2,0,L|93:221,1,53.9999983520508,4|0,0:0|0:0,0:0:0:0:
243,181,219350,2,0,P|266:168|280:145,1,53.9999983520508,4|0,0:0|0:0,0:0:0:0:
90,30,219527,2,0,P|119:49|129:79,1,53.9999983520508,0|0,0:0|0:0,0:0:0:0:
242,283,219703,5,4,0:0:0:0:
254,323,219791,1,0,0:0:0:0:
287,350,219879,1,0,0:0:0:0:
320,325,219967,1,0,0:0:0:0:
330,283,220056,2,0,P|332:248|328:216,1,53.9999983520508,8|0,0:0|0:0,0:0:0:0:
319,66,220232,5,4,0:0:0:0:
279,78,220320,1,0,0:0:0:0:
252,111,220408,1,0,0:0:0:0:
277,144,220496,1,0,0:0:0:0:
319,154,220585,2,0,P|354:156|386:152,1,53.9999983520508,4|0,0:0|0:0,0:0:0:0:
200,44,220762,6,0,B|159:43|136:64|136:64|100:48|100:48|68:64|8:56,1,161.999995056153,8|0,0:0|0:0,0:0:0:0:
24,28,221115,5,4,0:0:0:0:
65,36,221203,1,0,0:0:0:0:
93,68,221291,1,0,0:0:0:0:
95,111,221379,1,0,0:0:0:0:
70,145,221467,1,8,0:0:0:0:
45,179,221556,1,0,0:0:0:0:
47,221,221644,1,4,0:0:0:0:
75,254,221732,1,0,0:0:0:0:
116,262,221821,6,0,P|160:264|192:256,1,53.9999983520508,0|0,0:0|0:0,0:0:0:0:
70,145,221997,2,0,P|26:143|-6:151,1,53.9999983520508,4|0,0:0|0:0,0:0:0:0:
248,264,222174,2,0,P|292:266|324:258,1,53.9999983520508,8|0,0:0|0:0,0:0:0:0:
253,97,222350,1,0,0:0:0:0:
253,97,222438,1,0,0:0:0:0:
253,97,222527,5,4,0:0:0:0:
238,137,222615,1,0,0:0:0:0:
232,180,222703,1,0,0:0:0:0:
235,223,222791,1,0,0:0:0:0:
248,264,222879,1,8,0:0:0:0:
208,249,222968,1,0,0:0:0:0:
165,243,223056,1,4,0:0:0:0:
121,246,223144,1,0,0:0:0:0:
81,259,223232,6,0,P|72:300|72:336,1,53.9999983520508,0|0,0:0|0:0,0:0:0:0:
257,316,223409,2,0,P|254:289|247:263,1,53.9999983520508,4|0,0:0|0:0,0:0:0:0:
178,90,223585,2,0,B|174:118|190:146|190:146|166:190|166:190|174:226|158:258,1,161.999995056153,8|0,0:0|0:0,0:0:0:0:
160,292,223938,5,4,0:0:0:0:
141,253,224026,1,0,0:0:0:0:
108,226,224114,1,0,0:0:0:0:
66,217,224202,1,0,0:0:0:0:
24,228,224291,2,0,L|12:288,1,53.9999983520508,8|0,0:0|0:0,0:0:0:0:
160,292,224468,5,4,0:0:0:0:
199,273,224556,1,0,0:0:0:0:
226,240,224644,1,0,0:0:0:0:
235,198,224732,1,0,0:0:0:0:
224,156,224821,2,0,L|164:144,1,53.9999983520508,4|0,0:0|0:0,0:0:0:0:
20,68,224997,2,0,B|52:52|52:52|136:56,1,107.999996704102,8|0,0:0|0:0,0:0:0:0:
400,152,225350,5,4,0:0:0:0:
304,164,225527,1,4,0:0:0:0:
340,72,225703,1,8,0:0:0:0:
324,168,225879,1,4,0:0:0:0:
248,108,226056,1,4,0:0:0:0:
428,40,226232,6,0,L|432:124,1,53.9999983520508,0|0,0:0|0:0,0:0:0:0:
248,108,226409,2,0,P|286:73|352:76,1,107.999996704102,8|0,0:0|0:0,0:0:0:0:
488,164,226762,5,0,0:0:0:0:
256,192,226850,12,0,230997,0:0:0:0:
176,152,238056,6,0,L|252:144,1,53.9999983520508,0|0,0:0|0:0,0:0:0:0:
316,136,238409,1,8,0:0:0:0:
92,164,238585,1,0,0:0:0:0:
88,156,238674,1,0,0:0:0:0:
84,148,238762,1,0,0:0:0:0:
80,140,238850,1,0,0:0:0:0:
76,132,238938,1,0,0:0:0:0:
316,136,239115,2,0,B|324:162|324:162|320:208,1,53.9999983520508,8|0,0:0|0:0,0:0:0:0:
204,308,239468,5,0,0:0:0:0:
272,264,239644,1,0,0:0:0:0:
272,344,239821,1,8,0:0:0:0:
200,236,239997,1,0,0:0:0:0:
214,213,240085,1,0,0:0:0:0:
234,195,240173,1,0,0:0:0:0:
259,186,240261,1,0,0:0:0:0:
286,185,240349,1,0,0:0:0:0:
204,384,240527,2,0,L|140:376,1,53.9999983520508,8|0,0:0|0:0,0:0:0:0:
64,192,240879,6,0,B|92:184|92:184|124:188,1,53.9999983520508,0|0,0:0|0:0,0:0:0:0:
272,264,241232,2,0,B|300:272|300:272|332:268,1,53.9999983520508,8|0,0:0|0:0,0:0:0:0:
332,264,241497,1,0,0:0:0:0:
340,260,241585,1,0,0:0:0:0:
348,256,241674,1,0,0:0:0:0:
356,252,241762,1,0,0:0:0:0:
384,120,241938,6,0,P|360:116|320:120,1,53.9999983520508,8|0,0:0|0:0,0:0:0:0:
184,188,242291,5,0,0:0:0:0:
264,184,242468,1,0,0:0:0:0:
220,116,242644,1,8,0:0:0:0:
242,276,242821,1,0,0:0:0:0:
242,276,242909,1,0,0:0:0:0:
242,276,242997,1,0,0:0:0:0:
242,276,243085,1,0,0:0:0:0:
242,276,243174,1,0,0:0:0:0:
220,116,243350,2,0,P|172:108|144:108,1,53.9999983520508,8|0,0:0|0:0,0:0:0:0:
356,304,243703,6,0,L|360:264,1,33.7500012874604,0|0,0:0|0:0,0:0:0:0:
440,248,243879,2,0,L|444:208,1,33.7500012874604,0|0,0:0|0:0,0:0:0:0:
284,232,244056,2,0,L|288:192,1,33.7500012874604,8|0,0:0|0:0,0:0:0:0:
368,184,244232,2,0,L|372:144,1,33.7500012874604,0|0,0:0|0:0,0:0:0:0:
194,135,244409,1,0,0:0:0:0:
165,132,244497,1,0,0:0:0:0:
144,112,244585,1,0,0:0:0:0:
141,83,244673,1,0,0:0:0:0:
156,59,244761,1,8,0:0:0:0:
184,50,244850,1,0,0:0:0:0:
211,61,244938,1,0,0:0:0:0:
225,87,245026,1,0,0:0:0:0:
219,115,245115,6,0,L|215:155,1,33.7500012874604,0|0,0:0|0:0,0:0:0:0:
108,192,245291,2,0,L|104:232,1,33.7500012874604,0|0,0:0|0:0,0:0:0:0:
312,204,245468,2,0,L|308:244,1,33.7500012874604,8|0,0:0|0:0,0:0:0:0:
200,276,245644,2,0,L|196:316,1,33.7500012874604,0|0,0:0|0:0,0:0:0:0:
432,248,245821,1,0,0:0:0:0:
455,264,245909,1,0,0:0:0:0:
466,291,245997,1,0,0:0:0:0:
458,319,246085,1,0,0:0:0:0:
436,338,246173,1,8,0:0:0:0:
407,340,246262,1,0,0:0:0:0:
382,325,246350,1,0,0:0:0:0:
370,298,246438,1,0,0:0:0:0:
377,270,246527,6,0,L|384:224,5,30,4|0|0|0|0|0,0:0|0:0|0:0|0:0|0:0|0:0,0:0:0:0:
336,228,246879,2,0,L|343:182,5,30,4|0|0|0|0|0,0:0|0:0|0:0|0:0|0:0|0:0,0:0:0:0:
300,192,247232,2,0,L|307:146,5,30,4|0|0|0|0|0,0:0|0:0|0:0|0:0|0:0|0:0,0:0:0:0:
264,152,247585,2,0,L|271:106,5,30,4|0|0|0|0|0,0:0|0:0|0:0|0:0|0:0|0:0,0:0:0:0:
232,224,247938,6,0,P|200:224|172:216,1,45,4|0,0:0|0:0,0:0:0:0:
84,168,248115,2,4,P|64:144|56:120,1,45,4|4,0:0|0:0,0:0:0:0:
192,80,248291,1,8,0:0:0:0:
192,80,248379,1,0,0:0:0:0:
192,80,248468,2,4,P|182:100|166:116,1,45,4|4,0:0|0:0,0:0:0:0:
0,52,248644,2,4,P|32:40|48:40,1,45,4|4,0:0|0:0,0:0:0:0:
81,254,248821,2,0,P|58:251|38:241,1,45,4|0,0:0|0:0,0:0:0:0:
148,0,248997,1,8,0:0:0:0:
193,330,249174,1,4,0:0:0:0:
396,196,249350,6,0,L|460:208,1,62.9999980773926,4|0,0:0|0:0,0:0:0:0:
308,248,249527,2,0,L|244:260,1,62.9999980773926,0|0,0:0|0:0,0:0:0:0:
404,120,249703,2,0,L|468:132,1,62.9999980773926,8|0,0:0|0:0,0:0:0:0:
288,172,249879,2,0,L|224:184,1,62.9999980773926,4|0,0:0|0:0,0:0:0:0:
412,44,250056,1,2,0:0:0:0:
388,276,250232,1,4,0:0:0:0:
272,88,250409,1,8,0:0:0:0:
396,312,250585,1,4,0:0:0:0:
192,72,250762,5,4,0:0:0:0:
88,300,250938,1,0,0:0:0:0:
144,304,251027,1,0,0:0:0:0:
200,308,251115,1,8,0:0:0:0:
352,128,251291,1,4,0:0:0:0:
296,132,251380,1,0,0:0:0:0:
240,136,251468,1,0,0:0:0:0:
416,316,251644,1,4,0:0:0:0:
412,64,251821,1,8,0:0:0:0:
204,204,251997,1,0,0:0:0:0:
480,236,252174,6,0,B|508:200|480:140|480:140|472:180,1,125.999996154785,4|0,0:0|0:0,0:0:0:0:
408,200,252438,1,0,0:0:0:0:
408,200,252527,2,0,P|356:208|308:188,1,62.9999980773926,8|0,0:0|0:0,0:0:0:0:
142,197,252703,2,0,P|194:205|242:185,1,62.9999980773926,0|0,0:0|0:0,0:0:0:0:
368,96,252879,1,0,0:0:0:0:
196,280,253056,1,4,0:0:0:0:
112,92,253232,1,8,0:0:0:0:
373,312,253409,1,0,0:0:0:0:
389,78,253585,5,4,0:0:0:0:
203,203,253762,1,0,0:0:0:0:
400,0,253938,2,0,P|456:36|461:109,1,125.999996154785,8|0,0:0|0:0,0:0:0:0:
324,224,254291,1,0,0:0:0:0:
100,138,254468,1,4,0:0:0:0:
356,88,254644,1,8,0:0:0:0:
206,270,254821,1,0,0:0:0:0:
188,44,254997,6,0,L|256:36,1,62.9999980773926,4|0,0:0|0:0,0:0:0:0:
372,188,255174,2,0,L|304:180,1,62.9999980773926,0|0,0:0|0:0,0:0:0:0:
124,100,255350,1,8,0:0:0:0:
328,0,255527,1,4,0:0:0:0:
336,56,255615,1,0,0:0:0:0:
344,112,255703,1,0,0:0:0:0:
168,176,255879,1,4,0:0:0:0:
443,140,256056,2,0,B|452:188|452:188|436:276,1,125.999996154785,8|0,0:0|0:0,0:0:0:0:
120,256,256409,5,4,0:0:0:0:
328,116,256585,1,0,0:0:0:0:
336,172,256674,1,0,0:0:0:0:
344,228,256762,1,8,0:0:0:0:
112,312,256938,1,4,0:0:0:0:
120,256,257026,1,0,0:0:0:0:
128,200,257115,2,0,P|160:184|216:192,1,62.9999980773926,0|0,0:0|0:0,0:0:0:0:
328,316,257291,2,0,P|294:304|260:259,1,62.9999980773926,4|0,0:0|0:0,0:0:0:0:
308,96,257468,2,0,P|323:127|315:184,1,62.9999980773926,8|0,0:0|0:0,0:0:0:0:
196,292,257644,1,0,0:0:0:0:
72,56,257821,5,4,0:0:0:0:
100,356,257997,1,0,0:0:0:0:
152,32,258174,5,8,0:0:0:0:
179,332,258350,1,0,0:0:0:0:
179,332,258438,1,0,0:0:0:0:
179,332,258527,2,0,P|216:336|256:328,1,62.9999980773926,0|0,0:0|0:0,0:0:0:0:
440,288,258703,2,0,P|403:292|363:284,1,62.9999980773926,4|0,0:0|0:0,0:0:0:0:
264,184,258879,1,8,0:0:0:0:
384,368,259056,1,0,0:0:0:0:
484,180,259232,5,4,0:0:0:0:
176,188,259409,1,0,0:0:0:0:
456,108,259585,1,8,0:0:0:0:
212,260,259762,1,4,0:0:0:0:
400,52,259938,1,0,0:0:0:0:
272,312,260115,1,4,0:0:0:0:
324,32,260291,1,8,0:0:0:0:
352,328,260468,1,0,0:0:0:0:
115,202,260644,6,0,P|147:190|195:190,1,62.9999980773926,4|0,0:0|0:0,0:0:0:0:
332,216,260821,1,0,0:0:0:0:
60,273,260997,2,0,P|92:285|140:285,1,62.9999980773926,8|0,0:0|0:0,0:0:0:0:
332,216,261174,1,0,0:0:0:0:
316,164,261262,1,0,0:0:0:0:
300,112,261350,1,0,0:0:0:0:
40,180,261527,1,4,0:0:0:0:
276,16,261703,2,0,B|320:4|320:4|412:24,1,125.999996154785,8|0,0:0|0:0,0:0:0:0:
380,288,262056,6,0,B|336:300|336:300|244:280,1,125.999996154785,4|0,0:0|0:0,0:0:0:0:
172,200,262321,1,0,0:0:0:0:
172,200,262409,2,0,B|189:243|189:243|180:344,1,125.999996154785,8|0,0:0|0:0,0:0:0:0:
68,364,262674,1,0,0:0:0:0:
68,364,262762,2,0,B|112:352|112:352|204:372,1,125.999996154785,0|4,0:0|0:0,0:0:0:0:
392,364,263115,1,8,0:0:0:0:
108,260,263291,1,0,0:0:0:0:
344,72,263468,6,0,P|352:108|348:148,1,62.9999980773926,4|0,0:0|0:0,0:0:0:0:
152,180,263644,1,0,0:0:0:0:
372,98,263821,2,0,P|370:135|356:173,1,62.9999980773926,8|0,0:0|0:0,0:0:0:0:
164,200,263997,1,0,0:0:0:0:
392,132,264174,2,0,P|381:167|357:199,1,62.9999980773926,0|0,0:0|0:0,0:0:0:0:
176,220,264350,1,4,0:0:0:0:
265,2,264527,1,8,0:0:0:0:
290,310,264703,1,0,0:0:0:0:
60,136,264879,5,4,0:0:0:0:
248,156,265056,1,0,0:0:0:0:
136,308,265232,1,8,0:0:0:0:
106,318,265320,1,0,0:0:0:0:
75,317,265408,1,4,0:0:0:0:
47,304,265496,1,0,0:0:0:0:
26,281,265585,2,0,P|24:252|32:204,1,62.9999980773926,0|0,0:0|0:0,0:0:0:0:
246,93,265762,2,0,P|249:124|247:155,1,62.9999980773926,4|0,0:0|0:0,0:0:0:0:
60,136,265938,2,0,P|120:108|191:150,1,125.999996154785,8|0,0:0|0:0,0:0:0:0:
288,356,266291,6,0,L|284:220,1,125.999996154785,4|0,0:0|0:0,0:0:0:0:
368,32,266644,1,8,0:0:0:0:
391,52,266732,1,0,0:0:0:0:
405,80,266820,1,0,0:0:0:0:
409,111,266908,1,0,0:0:0:0:
400,141,266997,1,0,0:0:0:0:
212,128,267174,1,4,0:0:0:0:
484,64,267350,2,0,L|504:212,1,125.999996154785,8|0,0:0|0:0,0:0:0:0:
284,230,267703,6,0,P|252:234|196:226,1,62.9999980773926,4|0,0:0|0:0,0:0:0:0:
64,180,267879,2,0,P|96:176|152:184,1,62.9999980773926,0|0,0:0|0:0,0:0:0:0:
272,264,268056,2,0,P|240:259|188:237,1,62.9999980773926,8|0,0:0|0:0,0:0:0:0:
76,148,268232,2,0,P|107:152|159:174,1,62.9999980773926,0|0,0:0|0:0,0:0:0:0:
324,324,268409,1,0,0:0:0:0:
80,260,268585,1,4,0:0:0:0:
252,76,268762,1,8,0:0:0:0:
196,320,268938,1,0,0:0:0:0:
16,140,269115,6,0,B|60:132|60:132|92:144|92:144|166:135,1,125.999996154785,4|0,0:0|0:0,0:0:0:0:
388,104,269468,1,8,0:0:0:0:
422,135,269556,1,0,0:0:0:0:
431,180,269644,1,0,0:0:0:0:
412,223,269732,1,0,0:0:0:0:
372,246,269821,2,0,P|320:248|288:234,1,62.9999980773926,0|0,0:0|0:0,0:0:0:0:
232,92,269997,2,0,P|257:109|276:135,1,62.9999980773926,4|0,0:0|0:0,0:0:0:0:
160,264,270174,2,0,P|177:238|203:219,1,62.9999980773926,8|0,0:0|0:0,0:0:0:0:
344,172,270350,1,0,0:0:0:0:
128,180,270527,5,8,0:0:0:0:
304,60,270703,2,0,L|364:48,2,35.9999989013672,4|0|0,0:0|0:0|0:0,0:0:0:0:
252,0,270879,1,4,0:0:0:0:
340,200,271056,5,8,0:0:0:0:
148,100,271232,2,0,L|128:56,2,35.9999989013672,4|0|0,0:0|0:0|0:0,0:0:0:0:
232,96,271409,1,4,0:0:0:0:
164,300,271585,1,8,0:0:0:0:
421,264,271762,1,0,0:0:0:0:
201,333,271938,5,4,0:0:0:0:
164,300,272026,1,0,0:0:0:0:
151,252,272114,1,0,0:0:0:0:
167,204,272202,1,0,0:0:0:0:
206,174,272290,1,8,0:0:0:0:
243,141,272379,1,0,0:0:0:0:
256,93,272467,1,4,0:0:0:0:
240,45,272555,1,0,0:0:0:0:
201,15,272643,1,0,0:0:0:0:
153,8,272732,1,0,0:0:0:0:
107,31,272820,1,4,0:0:0:0:
83,74,272908,1,0,0:0:0:0:
86,124,272996,1,8,0:0:0:0:
114,162,273085,1,0,0:0:0:0:
163,179,273173,1,0,0:0:0:0:
211,165,273261,1,0,0:0:0:0:
244,128,273350,6,0,P|288:116|336:116,1,62.9999980773926,4|0,0:0|0:0,0:0:0:0:
472,228,273527,2,0,P|428:216|380:216,1,62.9999980773926,4|0,0:0|0:0,0:0:0:0:
216,260,273703,2,0,P|247:255|277:246,1,62.9999980773926,8|0,0:0|0:0,0:0:0:0:
452,368,273879,2,0,P|408:356|360:356,1,62.9999980773926,4|0,0:0|0:0,0:0:0:0:
198,346,274056,5,0,0:0:0:0:
154,322,274144,1,0,0:0:0:0:
130,278,274232,1,4,0:0:0:0:
135,228,274320,1,0,0:0:0:0:
165,189,274409,2,0,L|244:176,1,62.9999980773926,8|0,0:0|0:0,0:0:0:0:
410,214,274585,2,0,L|331:200,1,62.9999980773926,0|0,0:0|0:0,0:0:0:0:
145,79,274762,5,4,0:0:0:0:
100,99,274850,1,0,0:0:0:0:
88,146,274938,1,0,0:0:0:0:
117,186,275026,1,0,0:0:0:0:
165,189,275115,2,0,L|244:176,1,62.9999980773926,8|0,0:0|0:0,0:0:0:0:
431,104,275291,5,4,0:0:0:0:
476,124,275379,1,0,0:0:0:0:
488,171,275467,1,0,0:0:0:0:
459,211,275555,1,0,0:0:0:0:
410,214,275644,2,0,L|331:200,1,62.9999980773926,4|0,0:0|0:0,0:0:0:0:
236,89,275821,5,8,0:0:0:0:
213,133,275909,1,0,0:0:0:0:
227,178,275997,1,0,0:0:0:0:
212,228,276085,1,0,0:0:0:0:
232,276,276174,2,0,P|192:284|132:264,1,62.9999980773926,4|0,0:0|0:0,0:0:0:0:
344,328,276350,2,0,P|375:325|405:333,1,62.9999980773926,4|0,0:0|0:0,0:0:0:0:
236,352,276527,2,0,P|196:360|136:340,1,62.9999980773926,8|0,0:0|0:0,0:0:0:0:
352,248,276703,2,0,P|383:245|413:253,1,62.9999980773926,4|0,0:0|0:0,0:0:0:0:
101,327,276879,5,0,0:0:0:0:
87,279,276967,1,0,0:0:0:0:
103,231,277055,1,4,0:0:0:0:
141,200,277143,1,0,0:0:0:0:
191,196,277231,1,8,0:0:0:0:
240,191,277321,1,0,0:0:0:0:
279,160,277409,1,0,0:0:0:0:
294,113,277497,1,0,0:0:0:0:
281,65,277585,6,0,P|252:60|208:76,1,62.9999980773926,4|0,0:0|0:0,0:0:0:0:
432,80,277762,2,0,P|456:63|475:20,1,62.9999980773926,0|0,0:0|0:0,0:0:0:0:
340,204,277938,2,0,P|355:231|380:249,1,62.9999980773926,8|0,0:0|0:0,0:0:0:0:
360,32,278115,1,4,0:0:0:0:
360,32,278203,1,0,0:0:0:0:
360,32,278291,2,0,L|352:108,1,62.9999980773926,4|0,0:0|0:0,0:0:0:0:
476,256,278468,2,0,L|469:193,1,62.9999980773926,0|0,0:0|0:0,0:0:0:0:
279,160,278644,2,0,L|271:236,1,62.9999980773926,8|0,0:0|0:0,0:0:0:0:
412,368,278821,2,0,L|405:305,1,62.9999980773926,0|0,0:0|0:0,0:0:0:0:
280,68,278997,5,4,0:0:0:0:
232,52,279085,1,0,0:0:0:0:
184,64,279173,1,0,0:0:0:0:
151,101,279261,1,0,0:0:0:0:
143,150,279349,1,8,0:0:0:0:
135,199,279438,1,0,0:0:0:0:
102,236,279526,1,4,0:0:0:0:
54,248,279614,1,0,0:0:0:0:
6,232,279702,1,0,0:0:0:0:
14,183,279791,1,0,0:0:0:0:
47,146,279879,1,4,0:0:0:0:
95,134,279967,1,0,0:0:0:0:
143,150,280055,1,8,0:0:0:0:
188,176,280144,1,0,0:0:0:0:
240,180,280232,1,0,0:0:0:0:
288,164,280321,1,0,0:0:0:0:
324,128,280409,6,0,P|326:98|324:64,1,62.9999980773926,4|0,0:0|0:0,0:0:0:0:
196,12,280585,2,0,P|193:43|196:74,1,62.9999980773926,0|0,0:0|0:0,0:0:0:0:
468,140,280761,1,8,0:0:0:0:
468,140,280850,1,0,0:0:0:0:
468,140,280938,2,0,P|428:136|376:144,1,62.9999980773926,4|0,0:0|0:0,0:0:0:0:
284,276,281115,5,0,0:0:0:0:
240,300,281203,1,0,0:0:0:0:
188,296,281291,1,4,0:0:0:0:
152,260,281379,1,0,0:0:0:0:
152,208,281468,1,8,0:0:0:0:
126,162,281556,1,0,0:0:0:0:
76,149,281644,1,0,0:0:0:0:
29,172,281732,1,0,0:0:0:0:
3,215,281820,5,12,0:0:0:0:
4,204,281909,1,0,0:0:0:0:
4,192,281997,1,0,0:0:0:0:
4,180,282085,1,0,0:0:0:0:
4,168,282174,1,0,0:0:0:0:
4,156,282262,1,0,0:0:0:0:
4,144,282350,1,0,0:0:0:0:
4,132,282438,1,0,0:0:0:0:
4,120,282527,6,0,P|24:104|76:96,1,62.9999980773926,0|0,0:0|0:0,0:0:0:0:
206,209,282703,2,0,P|181:228|150:235,1,62.9999980773926,4|0,0:0|0:0,0:0:0:0:
252,26,282879,2,0,P|277:28|319:59,1,62.9999980773926,8|0,0:0|0:0,0:0:0:0:
344,279,283056,2,0,P|313:274|286:257,1,62.9999980773926,0|0,0:0|0:0,0:0:0:0:
460,88,283232,5,4,0:0:0:0:
487,129,283320,1,0,0:0:0:0:
490,179,283408,1,0,0:0:0:0:
468,224,283496,1,0,0:0:0:0:
426,252,283585,1,8,0:0:0:0:
380,231,283673,1,0,0:0:0:0:
330,234,283761,1,4,0:0:0:0:
287,258,283849,1,0,0:0:0:0:
259,300,283938,1,0,0:0:0:0:
223,265,284026,1,0,0:0:0:0:
175,250,284114,1,4,0:0:0:0:
126,257,284202,1,0,0:0:0:0:
85,285,284291,6,0,L|72:368,1,62.9999980773926,8|0,0:0|0:0,0:0:0:0:
248,192,284468,2,0,L|237:129,1,62.9999980773926,0|0,0:0|0:0,0:0:0:0:
65,130,284644,5,4,0:0:0:0:
102,162,284732,1,0,0:0:0:0:
151,174,284820,1,0,0:0:0:0:
199,162,284908,1,0,0:0:0:0:
237,129,284996,1,8,0:0:0:0:
274,96,285085,1,0,0:0:0:0:
323,84,285173,1,4,0:0:0:0:
371,96,285261,1,0,0:0:0:0:
409,128,285350,6,0,P|416:176|416:216,1,62.9999980773926,0|0,0:0|0:0,0:0:0:0:
259,300,285527,2,0,P|287:261|316:232,1,62.9999980773926,4|0,0:0|0:0,0:0:0:0:
480,316,285703,1,8,0:0:0:0:
480,316,285791,1,0,0:0:0:0:
480,316,285879,2,0,P|432:323|392:323,1,62.9999980773926,0|0,0:0|0:0,0:0:0:0:
191,354,286056,5,4,0:0:0:0:
141,359,286144,1,0,0:0:0:0:
100,333,286232,1,0,0:0:0:0:
85,285,286320,1,0,0:0:0:0:
104,240,286409,2,0,P|122:217|184:206,1,62.9999980773926,8|0,0:0|0:0,0:0:0:0:
392,187,286585,5,4,0:0:0:0:
397,137,286673,1,0,0:0:0:0:
371,96,286761,1,0,0:0:0:0:
323,81,286849,1,0,0:0:0:0:
278,100,286938,2,0,P|255:118|244:180,1,62.9999980773926,4|0,0:0|0:0,0:0:0:0:
353,337,287115,5,8,0:0:0:0:
403,342,287203,1,0,0:0:0:0:
444,316,287291,1,0,0:0:0:0:
459,268,287379,1,0,0:0:0:0:
440,223,287468,2,0,P|422:200|360:189,1,62.9999980773926,4|0,0:0|0:0,0:0:0:0:
220,264,287644,2,0,P|249:275|280:272,1,62.9999980773926,4|0,0:0|0:0,0:0:0:0:
431,87,287821,2,0,P|399:83|370:95,1,62.9999980773926,8|0,0:0|0:0,0:0:0:0:
260,196,287997,2,0,P|284:176|296:147,1,62.9999980773926,4|0,0:0|0:0,0:0:0:0:
221,17,288174,5,0,0:0:0:0:
172,6,288262,1,0,0:0:0:0:
127,27,288350,1,4,0:0:0:0:
104,71,288438,1,0,0:0:0:0:
112,120,288526,1,8,0:0:0:0:
119,168,288615,1,0,0:0:0:0:
96,212,288703,1,0,0:0:0:0:
51,233,288791,1,0,0:0:0:0:
3,223,288879,6,0,L|120:204,1,62.9999980773926,4|0,0:0|0:0,0:0:0:0:
220,264,289056,2,0,L|103:283,1,62.9999980773926,4|0,0:0|0:0,0:0:0:0:
49,130,289232,2,0,L|166:111,1,62.9999980773926,8|0,0:0|0:0,0:0:0:0:
268,176,289409,2,0,L|151:195,1,62.9999980773926,4|0,0:0|0:0,0:0:0:0:
28,42,289585,5,0,0:0:0:0:
77,34,289673,1,0,0:0:0:0:
127,27,289761,1,4,0:0:0:0:
177,19,289849,1,0,0:0:0:0:
228,12,289938,1,8,0:0:0:0:
246,57,290026,1,0,0:0:0:0:
286,87,290114,1,0,0:0:0:0:
335,91,290202,1,0,0:0:0:0:
380,69,290291,6,0,L|380:-8,1,62.9999980773926,4|0,0:0|0:0,0:0:0:0:
456,208,290468,2,0,L|455:130,1,62.9999980773926,4|0,0:0|0:0,0:0:0:0:
286,150,290644,2,0,L|285:72,1,62.9999980773926,8|0,0:0|0:0,0:0:0:0:
364,268,290821,2,0,L|363:190,1,62.9999980773926,4|0,0:0|0:0,0:0:0:0:
192,228,290997,5,0,0:0:0:0:
192,228,291085,1,0,0:0:0:0:
192,228,291174,2,0,P|226:237|272:228,1,62.9999980773926,4|0,0:0|0:0,0:0:0:0:
72,204,291350,1,8,0:0:0:0:
72,204,291438,1,0,0:0:0:0:
72,204,291527,2,0,P|70:250|82:282,1,62.9999980773926,0|0,0:0|0:0,0:0:0:0:
168,76,291703,5,4,0:0:0:0:
139,35,291791,1,0,0:0:0:0:
91,51,291880,1,0,0:0:0:0:
91,101,291968,1,0,0:0:0:0:
139,117,292056,2,0,L|212:116,1,62.9999980773926,8|0,0:0|0:0,0:0:0:0:
396,116,292232,5,4,0:0:0:0:
437,145,292320,1,0,0:0:0:0:
421,193,292409,1,0,0:0:0:0:
371,193,292497,1,0,0:0:0:0:
355,145,292585,2,0,L|356:72,1,62.9999980773926,4|0,0:0|0:0,0:0:0:0:
496,200,292762,2,0,L|496:262,1,62.9999980773926,8|0,0:0|0:0,0:0:0:0:
280,132,292938,2,0,L|281:59,1,62.9999980773926,4|0,0:0|0:0,0:0:0:0:
512,124,293115,5,4,0:0:0:0:
421,193,293291,1,0,0:0:0:0:
500,112,293468,1,8,0:0:0:0:
424,272,293644,1,4,0:0:0:0:
424,272,293997,6,0,L|352:268,1,53.9999983520508,0|0,0:0|0:0,0:0:0:0:
256,294,294174,6,0,B|213:320|213:366|213:366|259:354|276:304,1,180,8|0,0:0|0:0,0:0:0:0:
280,132,294527,5,4,0:0:0:0:
251,100,294615,1,0,0:0:0:0:
209,92,294703,1,0,0:0:0:0:
171,110,294791,1,0,0:0:0:0:
152,148,294879,1,8,0:0:0:0:
132,185,294968,1,0,0:0:0:0:
94,204,295056,1,4,0:0:0:0:
52,196,295144,1,0,0:0:0:0:
24,164,295232,1,0,0:0:0:0:
24,120,295321,1,0,0:0:0:0:
48,84,295409,6,0,P|56:60|56:20,1,53.9999983520508,4|0,0:0|0:0,0:0:0:0:
176,261,295585,2,0,P|150:269|123:270,1,53.9999983520508,8|0,0:0|0:0,0:0:0:0:
182,68,295762,2,0,P|207:59|234:58,1,53.9999983520508,0|0,0:0|0:0,0:0:0:0:
400,80,295938,5,4,0:0:0:0:
433,106,296026,1,0,0:0:0:0:
440,147,296114,1,0,0:0:0:0:
417,183,296202,1,0,0:0:0:0:
376,194,296290,1,8,0:0:0:0:
360,156,296379,1,0,0:0:0:0:
325,134,296467,1,4,0:0:0:0:
283,140,296555,1,0,0:0:0:0:
257,173,296643,1,0,0:0:0:0:
260,216,296732,1,0,0:0:0:0:
284,252,296821,6,0,L|344:260,1,53.9999983520508,4|0,0:0|0:0,0:0:0:0:
192,351,296997,2,0,L|132:359,1,53.9999983520508,8|0,0:0|0:0,0:0:0:0:
308,228,297174,2,0,L|368:236,1,53.9999983520508,0|0,0:0|0:0,0:0:0:0:
84,288,297350,5,4,0:0:0:0:
45,269,297438,1,0,0:0:0:0:
21,233,297526,1,0,0:0:0:0:
18,191,297614,1,0,0:0:0:0:
36,152,297702,1,8,0:0:0:0:
71,128,297791,1,0,0:0:0:0:
114,124,297879,1,0,0:0:0:0:
153,142,297967,1,0,0:0:0:0:
177,177,298056,6,0,L|176:252,1,53.9999983520508,0|0,0:0|0:0,0:0:0:0:
24,140,298232,2,0,L|22:86,1,53.9999983520508,4|0,0:0|0:0,0:0:0:0:
260,140,298409,2,0,L|258:193,1,53.9999983520508,8|0,0:0|0:0,0:0:0:0:
100,88,298585,2,0,L|98:34,1,53.9999983520508,0|0,0:0|0:0,0:0:0:0:
340,92,298762,5,4,0:0:0:0:
340,92,298850,1,0,0:0:0:0:
340,92,298938,2,0,L|338:145,1,53.9999983520508,0|0,0:0|0:0,0:0:0:0:
143,342,299115,1,8,0:0:0:0:
143,342,299203,1,0,0:0:0:0:
143,342,299291,2,0,L|145:289,1,53.9999983520508,4|0,0:0|0:0,0:0:0:0:
252,296,299468,2,0,L|254:243,1,53.9999983520508,0|0,0:0|0:0,0:0:0:0:
51,272,299644,2,0,L|53:219,1,53.9999983520508,4|0,0:0|0:0,0:0:0:0:
351,361,299821,1,8,0:0:0:0:
351,361,299909,1,0,0:0:0:0:
351,361,299997,2,0,L|351:289,1,53.9999983520508,0|0,0:0|0:0,0:0:0:0:
260,140,300174,5,4,0:0:0:0:
289,170,300262,1,0,0:0:0:0:
330,183,300350,1,0,0:0:0:0:
371,177,300438,1,0,0:0:0:0:
407,152,300526,1,8,0:0:0:0:
378,122,300615,1,0,0:0:0:0:
337,109,300703,1,4,0:0:0:0:
296,115,300791,1,0,0:0:0:0:
260,140,300879,1,0,0:0:0:0:
224,165,300968,1,0,0:0:0:0:
183,171,301056,6,0,P|136:168|104:156,1,53.9999983520508,4|0,0:0|0:0,0:0:0:0:
17,39,301232,2,0,P|43:34|70:34,1,53.9999983520508,8|0,0:0|0:0,0:0:0:0:
144,244,301409,2,0,P|97:241|65:229,1,53.9999983520508,0|0,0:0|0:0,0:0:0:0:
161,70,301585,5,4,0:0:0:0:
199,51,301673,1,0,0:0:0:0:
242,54,301761,1,0,0:0:0:0:
277,77,301849,1,0,0:0:0:0:
296,115,301938,2,0,L|300:176,1,53.9999983520508,8|0,0:0|0:0,0:0:0:0:
204,324,302115,1,4,0:0:0:0:
230,357,302203,1,0,0:0:0:0:
270,371,302291,1,0,0:0:0:0:
312,362,302379,1,0,0:0:0:0:
343,333,302468,2,0,L|352:272,1,53.9999983520508,4|0,0:0|0:0,0:0:0:0:
467,204,302644,2,0,L|463:150,1,53.9999983520508,8|0,0:0|0:0,0:0:0:0:
348,72,302821,2,0,P|312:64|264:64,1,53.9999983520508,0|0,0:0|0:0,0:0:0:0:
95,227,302997,5,4,0:0:0:0:
53,213,303085,1,0,0:0:0:0:
53,170,303174,1,0,0:0:0:0:
95,157,303262,1,0,0:0:0:0:
120,192,303350,2,0,P|144:204|178:211,1,53.9999983520508,8|0,0:0|0:0,0:0:0:0:
405,152,303527,5,4,0:0:0:0:
447,138,303615,1,0,0:0:0:0:
447,95,303704,1,0,0:0:0:0:
405,82,303792,1,0,0:0:0:0:
380,117,303880,6,0,P|356:129|322:136,1,53.9999983520508,4|0,0:0|0:0,0:0:0:0:
170,64,304056,2,0,P|194:52|228:45,1,53.9999983520508,8|0,0:0|0:0,0:0:0:0:
297,247,304232,2,0,L|276:332,1,53.9999983520508,0|0,0:0|0:0,0:0:0:0:
122,358,304409,6,0,P|96:352|72:340,1,53.9999983520508,4|0,0:0|0:0,0:0:0:0:
220,144,304585,1,0,0:0:0:0:
220,144,304674,1,0,0:0:0:0:
220,144,304762,2,0,P|232:184|232:216,1,53.9999983520508,8|0,0:0|0:0,0:0:0:0:
24,252,304938,2,0,P|27:225|36:199,1,53.9999983520508,0|0,0:0|0:0,0:0:0:0:
297,247,305115,5,4,0:0:0:0:
263,273,305203,1,0,0:0:0:0:
220,278,305291,1,4,0:0:0:0:
181,262,305379,1,0,0:0:0:0:
155,228,305468,2,0,P|144:200|144:168,1,53.9999983520508,8|0,0:0|0:0,0:0:0:0:
309,195,305644,2,0,P|306:221|296:246,1,53.9999983520508,0|0,0:0|0:0,0:0:0:0:
54,131,305821,5,4,0:0:0:0:
82,98,305909,1,0,0:0:0:0:
121,80,305997,1,0,0:0:0:0:
163,81,306085,1,0,0:0:0:0:
202,99,306173,1,8,0:0:0:0:
240,117,306262,1,0,0:0:0:0:
283,117,306350,1,4,0:0:0:0:
322,99,306438,1,0,0:0:0:0:
350,67,306527,1,0,0:0:0:0:
364,106,306615,1,0,0:0:0:0:
394,137,306703,6,0,P|424:148|464:144,1,53.9999983520508,4|0,0:0|0:0,0:0:0:0:
288,16,306879,2,0,P|261:17|236:27,1,53.9999983520508,8|0,0:0|0:0,0:0:0:0:
436,68,307056,2,0,P|454:48|464:23,1,53.9999983520508,0|0,0:0|0:0,0:0:0:0:
283,117,307232,5,4,0:0:0:0:
280,160,307320,1,0,0:0:0:0:
277,203,307408,1,0,0:0:0:0:
275,246,307496,1,0,0:0:0:0:
272,289,307585,1,8,0:0:0:0:
234,268,307673,1,0,0:0:0:0:
191,264,307761,1,4,0:0:0:0:
151,279,307849,1,0,0:0:0:0:
120,308,307937,1,0,0:0:0:0:
78,296,308027,1,0,0:0:0:0:
46,269,308115,6,0,P|36:256|24:212,1,53.9999983520508,4|0,0:0|0:0,0:0:0:0:
172,144,308291,2,0,P|165:170|150:192,1,53.9999983520508,8|0,0:0|0:0,0:0:0:0:
24,112,308468,2,0,P|14:99|2:55,1,53.9999983520508,0|0,0:0|0:0,0:0:0:0:
283,117,308644,5,4,0:0:0:0:
96,136,308821,1,0,0:0:0:0:
316,44,308997,1,8,0:0:0:0:
350,69,309085,1,0,0:0:0:0:
366,108,309173,1,0,0:0:0:0:
360,150,309261,1,0,0:0:0:0:
332,183,309350,6,0,P|287:199|257:196,1,53.9999983520508,4|0,0:0|0:0,0:0:0:0:
161,91,309527,2,0,P|168:115|171:143,1,53.9999983520508,4|0,0:0|0:0,0:0:0:0:
120,308,309703,2,0,P|131:285|149:263,1,53.9999983520508,8|0,0:0|0:0,0:0:0:0:
328,336,309879,2,0,P|301:333|275:325,1,53.9999983520508,0|0,0:0|0:0,0:0:0:0:
161,91,310056,5,4,0:0:0:0:
175,48,310144,1,0,0:0:0:0:
218,47,310232,1,0,0:0:0:0:
231,90,310321,1,0,0:0:0:0:
196,115,310409,2,0,P|168:124|136:116,1,53.9999983520508,8|0,0:0|0:0,0:0:0:0:
71,258,310585,5,4,0:0:0:0:
51,298,310673,1,0,0:0:0:0:
81,329,310761,1,0,0:0:0:0:
120,308,310850,1,0,0:0:0:0:
113,265,310938,2,0,P|93:245|52:240,1,53.9999983520508,4|0,0:0|0:0,0:0:0:0:
204,332,311115,2,0,P|229:324|248:305,1,53.9999983520508,8|0,0:0|0:0,0:0:0:0:
72,168,311291,2,0,P|44:168|11:193,1,53.9999983520508,0|0,0:0|0:0,0:0:0:0:
196,248,311468,5,4,0:0:0:0:
233,231,311556,1,0,0:0:0:0:
240,190,311644,1,0,0:0:0:0:
210,162,311732,1,0,0:0:0:0:
170,172,311820,1,8,0:0:0:0:
129,182,311909,1,0,0:0:0:0:
99,154,311997,1,4,0:0:0:0:
106,113,312085,1,0,0:0:0:0:
144,96,312174,2,0,L|216:84,1,53.9999983520508,0|0,0:0|0:0,0:0:0:0:
372,192,312350,2,0,L|300:180,1,53.9999983520508,4|0,0:0|0:0,0:0:0:0:
112,16,312527,1,8,0:0:0:0:
112,16,312615,1,0,0:0:0:0:
112,16,312703,2,0,L|184:4,1,53.9999983520508,0|0,0:0|0:0,0:0:0:0:
396,88,312879,5,4,0:0:0:0:
362,114,312967,1,0,0:0:0:0:
320,116,313055,1,0,0:0:0:0:
283,95,313143,1,0,0:0:0:0:
265,56,313232,2,0,P|264:24|272:-16,1,53.9999983520508,8|0,0:0|0:0,0:0:0:0:
476,72,313409,5,4,0:0:0:0:
478,115,313497,1,0,0:0:0:0:
481,158,313585,1,0,0:0:0:0:
484,201,313673,1,0,0:0:0:0:
487,244,313762,2,0,P|460:256|405:250,1,53.9999983520508,4|0,0:0|0:0,0:0:0:0:
280,196,313938,2,0,P|306:198|331:209,1,53.9999983520508,8|0,0:0|0:0,0:0:0:0:
352,372,314115,2,0,P|341:347|338:320,1,53.9999983520508,0|0,0:0|0:0,0:0:0:0:
388,81,314291,5,4,0:0:0:0:
429,93,314379,1,0,0:0:0:0:
429,136,314468,1,0,0:0:0:0:
388,150,314556,1,0,0:0:0:0:
362,114,314644,2,0,P|328:96|280:96,1,53.9999983520508,8|0,0:0|0:0,0:0:0:0:
120,208,314821,5,4,0:0:0:0:
79,196,314909,1,0,0:0:0:0:
79,153,314998,1,0,0:0:0:0:
120,139,315086,1,0,0:0:0:0:
145,174,315174,2,0,P|168:187|193:196,1,53.9999983520508,4|0,0:0|0:0,0:0:0:0:
416,280,315350,2,0,B|368:260|368:260|304:268,1,107.999996704102,8|0,0:0|0:0,0:0:0:0:
56,352,315703,5,8,0:0:0:0:
82,99,315879,1,4,0:0:0:0:
82,99,315968,1,4,0:0:0:0:
82,99,316056,2,0,L|78:159,1,53.9999983520508,8|0,0:0|0:0,0:0:0:0:
176,20,316232,2,4,L|172:80,1,53.9999983520508,4|4,0:0|0:0,0:0:0:0:
160,320,316409,1,4,0:0:0:0:
160,320,316497,1,0,0:0:0:0:
160,320,316585,2,4,L|160:252,1,53.9999983520508,4|0,0:0|0:0,0:0:0:0:
388,176,316762,6,0,B|332:168|332:168|292:184|292:184|222:175,1,161.999995056153,8|0,0:0|0:0,0:0:0:0:
156,192,317115,6,0,B|155:159|155:159|173:118,1,67.5000025749208,4|0,0:0|0:0,0:0:0:0:
328,72,317468,1,8,0:0:0:0:
248,68,317644,1,0,0:0:0:0:
408,76,317821,1,0,0:0:0:0:
328,72,317997,1,4,0:0:0:0:
488,80,318174,1,8,0:0:0:0:
488,80,318527,6,0,L|496:152,1,67.5000025749208,4|0,0:0|0:0,0:0:0:0:
504,228,318879,1,8,0:0:0:0:
380,176,319056,2,0,P|308:160|240:212,1,135.000005149842,0|4,0:0|0:0,0:0:0:0:
156,316,319585,1,8,0:0:0:0:
156,316,319938,6,0,B|144:268|144:268|152:232|152:232|140:184,1,135.000005149842,4|8,0:0|0:0,0:0:0:0:
8,240,320468,2,0,B|46:244|46:244|92:228,1,67.5000025749208,0|0,0:0|0:0,0:0:0:0:
172,40,320821,1,4,0:0:0:0:
120,100,320997,1,8,0:0:0:0:
198,119,321174,1,0,0:0:0:0:
92,24,321350,6,0,L|80:172,1,135.000005149842,4|8,0:0|0:0,0:0:0:0:
288,216,321879,2,0,P|224:192|160:220,1,135.000005149842,4|4,0:0|0:0,0:0:0:0:
360,280,322409,2,0,L|372:196,1,67.5000025749208,8|0,0:0|0:0,0:0:0:0:
328,52,322762,5,4,0:0:0:0:
408,64,322938,1,0,0:0:0:0:
328,76,323115,1,8,0:0:0:0:
400,40,323291,1,0,0:0:0:0:
348,152,323468,2,0,P|308:152|276:136,1,67.5000025749208,0|4,0:0|0:0,0:0:0:0:
444,136,323821,1,8,0:0:0:0:
444,136,324174,6,0,P|452:176|444:216,1,67.5000025749208,4|0,0:0|0:0,0:0:0:0:
404,276,324527,1,8,0:0:0:0:
172,240,324703,2,4,L|336:240,1,135.000005149842,4|4,0:0|0:0,0:0:0:0:
486,284,325232,1,8,0:0:0:0:
486,284,325585,6,0,P|461:336|376:359,1,135.000005149842,4|8,0:0|0:0,0:0:0:0:
156,352,326115,2,0,B|216:332|216:332|296:344,1,135.000005149842,4|4,0:0|0:0,0:0:0:0:
407,280,326644,1,8,0:0:0:0:
328,276,326821,1,0,0:0:0:0:
492,204,326997,6,0,B|496:164|480:144|480:144|432:124|420:68,1,135.000005149842,4|8,0:0|0:0,0:0:0:0:
512,56,327527,2,4,B|468:68|468:68|372:56,1,135.000005149842,4|4,0:0|0:0,0:0:0:0:
252,32,328056,1,8,0:0:0:0:
252,32,328409,6,0,L|156:40,1,90,0|0,0:0|0:0,0:0:0:0:
12,148,328938,2,0,L|108:156,1,90,0|0,0:0|0:0,0:0:0:0:
388,228,329821,6,0,P|392:180|376:136,1,90,0|0,0:0|0:0,0:0:0:0:
189,140,330350,2,0,P|175:182|179:227,1,90,0|0,0:0|0:0,0:0:0:0:
356,44,331232,6,0,B|323:44|323:44|296:56|296:56|258:56,1,90,0|0,0:0|0:0,0:0:0:0:
101,128,331762,2,0,B|128:128|128:128|155:140|155:140|188:140,1,90,0|0,0:0|0:0,0:0:0:0:
328,144,332291,1,0,0:0:0:0:
340,220,332468,1,0,0:0:0:0:
268,196,332644,6,0,L|376:188,1,90,0|0,0:0|0:0,0:0:0:0:
232,288,333174,2,0,L|142:281,1,90,0|0,0:0|0:0,0:0:0:0:
68,192,333703,1,0,0:0:0:0:
68,192,334056,6,0,B|56:148|56:148|64:96,1,90,0|0,0:0|0:0,0:0:0:0:
273,108,334585,2,0,B|279:151|279:151|267:195,1,90,0|0,0:0|0:0,0:0:0:0:
72,320,335468,6,0,B|104:304|104:304|172:304,1,90,0|0,0:0|0:0,0:0:0:0:
364,328,335997,2,0,B|332:344|332:344|277:344,1,90,0|0,0:0|0:0,0:0:0:0:
273,108,336879,6,0,L|301:212,1,90,0|0,0:0|0:0,0:0:0:0:
196,32,337409,2,0,L|168:136,1,90,0|0,0:0|0:0,0:0:0:0:
168,280,337938,1,0,0:0:0:0:
168,280,338115,1,0,0:0:0:0:
296,194,338291,6,0,L|392:182,1,90,0|0,0:0|0:0,0:0:0:0:
196,32,338821,2,0,L|100:20,1,90,0|0,0:0|0:0,0:0:0:0:
168,280,339350,5,0,0:0:0:0:
