osu file format v14

[General]
AudioFilename: Halozy.mp3
AudioLeadIn: 0
PreviewTime: 68726
Countdown: 0
SampleSet: Soft
StackLeniency: 0.7
Mode: 0
LetterboxInBreaks: 0
WidescreenStoryboard: 0

[Editor]
Bookmarks: 139491
DistanceSpacing: 0.7
BeatDivisor: 4
GridSize: 32
TimelineZoom: 2.3

[Metadata]
Title:Masshiro na Yuki
TitleUnicode:まっしろな雪
Artist:Halozy
ArtistUnicode:Halozy
Creator:MrSergio
Version:Everlasting Snow
Source:東方花映塚 ~ Phantasmagoria of Flower View.
Tags:Touhou 中日附詞 Marathon sumijun すみじゅん Amorevole 水瀬ましろ Minase Mashiro Higan Retour 彼岸帰航 ~ Riverside Eastern Flower Viewing Mound Komachi Onozuka 幻奏響 UROBOROS ~fAIRYtAILoVERdRIVE~ Toho Arrange Album Bayside Beat Comiket89 Project
BeatmapID:848143
BeatmapSetID:388887

[Difficulty]
HPDrainRate:6.5
CircleSize:4.5
OverallDifficulty:8.5
ApproachRate:9.2
SliderMultiplier:1
SliderTickRate:1

[Events]
//Background and Video events
0,0,"BG.jpg",0,0
//Break Periods
2,227043,237568
//Storyboard Layer 0 (Background)
//Storyboard Layer 1 (Fail)
//Storyboard Layer 2 (Pass)
//Storyboard Layer 3 (Foreground)
//Storyboard Sound Samples

[TimingPoints]
962,352.941176470588,4,2,1,50,1,0
4756,-100,4,2,1,5,0,0
4844,-100,4,2,1,50,0,0
5109,-100,4,2,1,5,0,0
5197,-100,4,2,1,50,0,0
11814,-100,4,2,1,5,0,0
11903,-100,4,2,1,50,0,0
12167,-100,4,2,1,5,0,0
12256,-66.6666666666667,4,2,1,60,0,0
17903,-66.6666666666667,4,2,1,40,0,0
18609,-66.6666666666667,4,2,1,50,0,0
19314,-66.6666666666667,4,2,1,60,0,0
20020,-66.6666666666667,4,2,1,70,0,0
20726,-66.6666666666667,4,2,1,40,0,0
21079,-66.6666666666667,4,2,1,50,0,0
21432,-66.6666666666667,4,2,1,60,0,0
21785,-66.6666666666667,4,2,1,70,0,0
22138,-66.6666666666667,4,2,1,65,0,0
23550,-66.6666666666667,4,2,1,75,0,1
34491,-33.3333333333334,4,2,1,80,0,1
34844,-50,4,2,1,75,0,1
37314,-33.3333333333334,4,2,1,80,0,1
37667,-50.0000000000002,4,2,1,75,0,1
39079,-33.3333333333334,4,2,1,80,0,1
39432,-50.0000000000002,4,2,1,75,0,1
40138,-33.3333333333334,4,2,1,80,0,1
40491,-50.0000000000002,4,2,1,75,0,1
46138,-66.6666666666667,4,2,1,60,0,0
56726,-50,4,2,1,80,0,0
57432,-66.6666666666667,4,2,1,60,0,0
67314,-200,4,2,1,50,0,0
68109,-200,4,2,1,5,0,0
68197,-66.6666666666667,4,2,1,70,0,0
89903,-66.6666666666667,4,2,1,85,0,0
91314,-66.6666666666667,4,2,1,80,0,1
101197,-66.6666666666667,4,2,1,60,0,0
102609,-66.6666666666667,4,2,1,80,0,1
112491,-100,4,2,1,55,0,0
113903,-66.6666666666667,4,2,1,70,0,0
135785,-50,4,2,1,80,0,0
136138,-66.6666666666667,4,2,1,65,0,0
147079,-50,4,2,1,80,0,0
147432,-66.6666666666667,4,2,1,70,0,0
157667,-200,4,2,1,50,0,0
158461,-200,4,2,1,5,0,0
158550,-66.6666666666667,4,2,1,70,0,0
180256,-66.6666666666667,4,2,1,85,0,0
181667,-66.6666666666667,4,2,1,80,0,1
191550,-66.6666666666667,4,2,1,60,0,0
192961,-66.6666666666667,4,2,1,80,0,1
202844,-66.6666666666667,4,2,1,60,0,0
204256,-66.6666666666667,4,2,1,70,0,0
238138,-66.6666666666667,4,2,1,60,0,0
243785,-66.6666666666667,4,2,1,40,0,0
244491,-66.6666666666667,4,2,1,50,0,0
245197,-66.6666666666667,4,2,1,60,0,0
245903,-66.6666666666667,4,2,1,70,0,0
246609,-66.6666666666667,4,2,1,40,0,0
246961,-66.6666666666667,4,2,1,50,0,0
247314,-66.6666666666667,4,2,1,60,0,0
247667,-66.6666666666667,4,2,1,70,0,0
248020,-66.6666666666667,4,2,1,65,0,0
249432,-66.6666666666667,4,2,1,75,0,0
270609,-66.6666666666667,4,2,1,85,0,0
272020,-66.6666666666667,4,2,1,80,0,1
281903,-66.6666666666667,4,2,1,60,0,0
283314,-66.6666666666667,4,2,1,80,0,1
293197,-66.6666666666667,4,2,1,60,0,0
294609,-66.6666666666667,4,2,1,75,0,0
317197,-83.3333333333333,4,2,1,60,0,0
328491,-83.3333333333333,4,2,1,50,0,0

[Colours]
Combo1 : 98,176,255
Combo2 : 255,128,128
Combo3 : 232,60,72
Combo4 : 255,147,201
Combo5 : 231,67,182
Combo6 : 199,130,244
Combo7 : 213,74,242
Combo8 : 167,86,233

[HitObjects]
188,205,961,5,2,0:0:0:0:
259,228,1138,1,0,0:0:0:0:
328,200,1314,1,0,0:0:0:0:
371,138,1491,2,0,B|395:98|395:98|407:170,1,100,2|0,0:0|0:0,0:0:0:0:
403,150,2373,5,2,0:0:0:0:
445,87,2550,1,0,0:0:0:0:
482,22,2726,1,0,0:0:0:0:
406,24,2903,2,0,B|375:28|344:15|344:15|368:59,1,100,2|0,0:0|0:0,0:0:0:0:
361,47,3785,6,0,P|352:74|327:103,1,50,0|0,0:0|0:0,0:0:0:0:
276,37,4138,1,2,0:0:0:0:
276,37,4314,1,0,0:0:0:0:
233,195,4491,6,0,L|268:270,1,75
248,290,4844,2,0,L|279:362,1,75,0|0,0:0|0:0,0:0:0:0:
167,246,5197,5,2,0:0:0:0:
215,189,5373,2,0,P|220:161|214:125,1,50
243,260,5726,2,0,P|290:272|348:272,1,100
83,109,6609,5,2,0:0:0:0:
141,165,6785,1,0,0:0:0:0:
203,221,6961,1,0,0:0:0:0:
83,109,7138,2,0,B|17:90|17:90|15:113|33:125,1,100
429,109,8020,5,2,0:0:0:0:
372,167,8197,1,0,0:0:0:0:
314,221,8372,1,0,0:0:0:0:
429,109,8550,2,0,B|447:43|447:43|469:54|469:76,1,100
256,343,9432,6,0,B|243:323|256:299|271:274|258:245,1,100,2|0,0:0|0:0,0:0:0:0:
335,333,9961,1,0,0:0:0:0:
177,291,10314,1,0,0:0:0:0:
423,205,10667,2,0,P|375:191|329:206,1,100,2|0,0:0|0:0,0:0:0:0:
268,276,11197,2,0,L|279:325,1,50,0|0,0:0|0:0,0:0:0:0:
155,129,11550,6,0,P|111:122|70:136,1,75,0|0,0:0|0:0,0:0:0:0:
77,112,11903,2,0,P|35:128|7:161,1,75
236,210,12256,5,4,0:1:0:0:
122,214,12432,1,0,0:0:0:0:
289,271,12609,2,0,P|315:228|308:188,1,75.0000028610231,8|0,0:0|0:0,0:0:0:0:
305,183,12873,1,0,0:0:0:0:
292,164,12961,1,0,0:0:0:0:
280,144,13050,1,0,0:0:0:0:
267,125,13138,1,0,0:0:0:0:
324,343,13314,2,0,P|365:356|414:341,1,75.0000028610231,8|0,0:0|0:0,0:0:0:0:
235,344,13667,5,0,0:0:0:0:
368,272,13844,1,0,0:0:0:0:
184,273,14020,1,8,0:0:0:0:
355,358,14196,1,0,0:0:0:0:
378,357,14285,1,0,0:0:0:0:
401,357,14373,1,0,0:0:0:0:
424,357,14461,1,0,0:0:0:0:
447,357,14549,1,0,0:0:0:0:
235,344,14726,2,0,P|197:347|138:343,1,75.0000028610231,8|0,0:0|0:0,0:0:0:0:
295,194,15079,5,0,0:0:0:0:
403,222,15256,1,0,0:0:0:0:
230,117,15432,1,8,0:0:0:0:
338,46,15609,1,0,0:0:0:0:
355,62,15697,1,0,0:0:0:0:
372,76,15785,1,0,0:0:0:0:
389,90,15873,1,0,0:0:0:0:
406,104,15961,1,0,0:0:0:0:
294,193,16138,2,0,P|259:201|202:202,1,75.0000028610231,8|0,0:0|0:0,0:0:0:0:
68,64,16491,5,0,0:0:0:0:
43,170,16667,1,0,0:0:0:0:
145,43,16844,1,8,0:0:0:0:
143,203,17020,1,0,0:0:0:0:
165,203,17109,1,0,0:0:0:0:
187,199,17197,1,0,0:0:0:0:
206,187,17285,1,0,0:0:0:0:
222,171,17373,1,0,0:0:0:0:
43,170,17550,2,0,P|43:212|52:245,1,75.0000028610231,8|0,0:0|0:0,0:0:0:0:
222,171,17903,5,0,1:0:0:0:
176,255,18080,1,0,1:0:0:0:
287,194,18256,5,0,1:0:0:0:
249,302,18432,1,0,1:0:0:0:
356,202,18609,5,0,1:0:0:0:
339,342,18785,1,0,1:0:0:0:
429,196,18961,5,0,1:0:0:0:
455,355,19138,1,0,1:0:0:0:
497,163,19314,5,0,1:0:0:0:
356,202,19491,1,0,1:0:0:0:
400,59,19667,5,0,1:0:0:0:
302,156,19844,1,0,1:0:0:0:
254,23,20020,5,0,1:0:0:0:
230,152,20197,1,0,1:0:0:0:
114,65,20373,5,0,1:0:0:0:
161,179,20550,1,0,1:0:0:0:
42,173,20726,6,0,L|16:163,7,18.7500007152558,0|0|0|0|0|0|0|0,0:0|0:0|0:0|0:0|0:0|0:0|0:0|0:0,0:0:0:0:
56,139,21079,2,0,L|42:114,7,18.7500007152558,0|0|0|0|0|0|0|0,0:0|0:0|0:0|0:0|0:0|0:0|0:0|0:0,0:0:0:0:
89,117,21432,6,0,L|94:89,7,18.7500007152558,0|0|0|0|0|0|0|0,0:0|0:0|0:0|0:0|0:0|0:0|0:0|0:0,0:0:0:0:
126,120,21785,2,0,L|147:102,7,18.7500007152558
147,148,22138,6,0,P|155:187|157:225,1,75.0000028610231,0|0,1:0|0:0,0:0:0:0:
137,244,22403,1,0,0:0:0:0:
115,264,22491,2,0,P|164:266|200:274,1,75.0000028610231,0|0,1:0|0:0,0:0:0:0:
217,282,22756,1,0,0:0:0:0:
243,296,22844,1,0,1:0:0:0:
407,207,23020,1,0,1:0:0:0:
407,207,23109,1,0,0:0:0:0:
407,207,23197,2,0,P|411:158|408:125,1,75.0000028610231,8|0,0:0|0:0,0:1:0:0:
379,324,23550,5,4,0:1:0:0:
379,324,23726,1,0,0:0:0:0:
314,194,23903,2,0,L|325:148,1,37.5000014305115,8|0,0:0|0:0,0:0:0:0:
243,296,24079,1,0,0:0:0:0:
227,154,24256,1,2,0:0:0:0:
339,344,24432,1,0,3:3:0:0:
314,194,24609,2,0,L|296:174,2,18.7500007152558,8|0|0,0:0|0:0|0:0,0:0:0:0:
243,296,24785,1,2,3:2:0:0:
343,180,24961,6,0,P|347:139|346:88,1,75.0000028610231,0|0,1:0|0:0,0:0:0:0:
145,277,25314,2,0,L|99:271,1,37.5000014305115,0|0,1:0|0:0,0:0:0:0:
277,242,25491,2,0,L|314:246,1,37.5000014305115,8|0,0:0|0:0,0:0:0:0:
119,161,25667,2,0,L|87:153,3,18.7500007152558,0|0|0|0,0:0|0:0|0:0|0:0,0:0:0:0:
85,122,25844,2,0,L|53:114,2,18.7500007152558,0|0|0,1:0|0:0|0:0,0:0:0:0:
273,163,26020,5,8,0:0:0:0:
111,240,26197,1,0,3:0:0:0:
369,71,26373,6,0,P|410:62|449:74,1,75.0000028610231,4|0,0:0|0:0,0:0:0:0:
259,255,26726,2,0,L|250:284,2,18.7500007152558,8|0|0,0:0|0:0|0:0,0:0:0:0:
256,128,26903,2,0,P|215:119|176:131,1,75.0000028610231,4|0,0:0|0:0,0:0:0:0:
306,330,27256,1,0,1:0:0:0:
348,166,27432,2,0,P|389:157|428:169,1,75.0000028610231,12|0,0:0|0:0,0:0:0:0:
208,294,27785,5,0,1:0:0:0:
352,240,27961,1,0,3:0:0:0:
112,274,28138,2,0,L|80:267,2,18.7500007152558,8|0|0,0:0|0:0|0:0,0:0:0:0:
238,369,28314,1,0,1:0:0:0:
112,274,28491,5,2,0:0:0:0:
352,240,28667,1,0,3:0:0:0:
208,294,28844,1,8,0:0:0:0:
328,154,29020,1,0,1:0:0:0:
124,284,29197,5,4,1:1:0:0:
124,284,29373,1,0,0:0:0:0:
193,177,29550,2,0,L|206:123,1,37.5000014305115,8|0,0:0|0:0,0:0:0:0:
216,365,29726,1,0,0:0:0:0:
193,177,29903,1,2,0:0:0:0:
98,373,30079,1,0,3:3:0:0:
261,270,30256,2,0,L|285:254,2,18.7500007152558,8|0|0,0:0|0:0|0:0,0:0:0:0:
106,197,30432,1,2,3:2:0:0:
322,327,30609,6,0,P|366:332|413:322,1,75.0000028610231,0|0,1:0|0:0,0:0:0:0:
178,135,30961,2,0,L|169:107,2,18.7500007152558,0|0|0,1:0|0:0|0:0,0:0:0:0:
318,208,31138,2,0,P|350:194|380:164,1,75.0000028610231,8|0,0:0|0:0,0:0:0:0:
145,118,31491,2,0,L|127:100,2,18.7500007152558,0|0|0,1:0|0:0|0:0,0:0:0:0:
128,269,31667,1,8,0:0:0:0:
307,128,31844,1,0,3:0:0:0:
128,269,32020,6,0,P|91:252|52:246,1,75.0000028610231,4|0,0:0|0:0,0:0:0:0:
207,359,32373,2,0,L|213:382,2,18.7500007152558,8|0|0,0:0|0:0|0:0,0:0:0:0:
192,198,32550,2,0,P|223:172|259:156,1,75.0000028610231,4|0,0:0|0:0,0:0:0:0:
207,337,32903,1,0,1:0:0:0:
112,131,33079,2,0,P|75:114|36:108,1,75.0000028610231,12|0,0:0|0:0,0:0:0:0:
208,314,33432,5,0,1:0:0:0:
209,178,33609,1,0,3:0:0:0:
301,355,33785,2,0,L|329:359,2,18.7500007152558,8|0|0,0:0|0:0|0:0,0:0:0:0:
208,314,33961,1,0,1:0:0:0:
356,252,34138,1,2,0:0:0:0:
209,178,34314,1,0,3:0:0:0:
426,141,34491,6,0,P|447:110|386:126,1,150.000005722046,8|0,0:0|0:0,0:0:0:0:
355,296,34844,5,4,1:1:0:0:
355,296,35020,1,0,0:0:0:0:
241,74,35197,6,0,L|242:40,2,25,8|0|0,0:0|0:0|0:0,0:0:0:0:
167,213,35373,2,0,P|151:230|120:246,1,50,0|0,1:0|0:0,0:0:0:0:
268,97,35550,2,0,L|279:64,2,25,0|0|0,3:0|0:0|0:0,0:0:0:0:
169,242,35726,1,2,0:0:0:0:
387,83,35903,2,0,L|403:63,3,25,8|0|0|0,0:0|0:0|0:0|0:0,0:0:0:0:
429,67,36079,2,0,L|445:47,2,25
479,170,36256,5,0,1:0:0:0:
479,170,36432,1,0,0:0:0:0:
293,49,36609,6,0,L|259:41,3,25,8|0|0|0,0:0|0:0|0:0|0:0,0:0:0:0:
322,75,36785,2,0,L|380:48,1,50,0|0,3:0|3:0,0:0:0:0:
169,101,36961,2,0,L|145:107,2,25,0|0|0,1:0|0:0|0:0,0:0:0:0:
322,75,37138,1,0,1:0:0:0:
320,284,37314,6,0,P|360:292|425:283,2,75.0000028610231,8|0|0,0:0|0:0|3:0,0:0:0:0:
222,330,37667,5,0,1:0:0:0:
222,330,37844,1,0,0:0:0:0:
310,153,38020,6,0,L|312:115,2,25,8|0|0,0:0|0:0|0:0,0:0:0:0:
301,292,38197,1,0,1:0:0:0:
394,112,38373,1,0,3:0:0:0:
380,254,38550,1,2,0:0:0:0:
472,64,38726,2,0,L|474:26,2,25,8|0|0,0:0|0:0|0:0,0:0:0:0:
477,223,38903,1,0,3:0:0:0:
383,94,39079,6,0,B|291:89|291:89|346:122,1,150.000005722046,0|0,1:0|0:0,0:0:0:0:
477,223,39432,6,0,L|502:235,2,25,8|0|0,0:0|0:0|0:0,0:0:0:0:
355,164,39609,2,0,L|316:158,2,25,0|0|0,3:0|0:0|0:0,0:0:0:0:
456,310,39785,1,0,1:0:0:0:
370,203,39961,1,2,0:0:0:0:
375,368,40138,6,0,P|335:376|270:367,2,75.0000028610231,8|0|0,0:0|0:0|3:0,0:0:0:0:
200,327,40491,5,0,1:0:0:0:
200,327,40667,1,0,3:0:0:0:
262,192,40844,6,0,L|289:171,2,25,8|0|0,0:0|0:0|0:0,0:0:0:0:
214,350,41020,1,0,3:0:0:0:
181,158,41197,1,0,1:0:0:0:
228,372,41373,1,2,0:0:0:0:
90,147,41550,2,0,L|78:112,3,25,8|0|0|0,0:0|0:0|0:0|0:0,0:0:0:0:
52,105,41726,2,0,L|41:73,2,25,0|0|0,3:0|0:0|0:0,0:0:0:0:
135,263,41903,6,0,P|181:271|235:261,1,100,0|0,1:0|0:0,0:0:0:0:
353,133,42256,6,0,L|357:103,3,25,8|0|0|0,0:0|0:0|0:0|0:0,0:0:0:0:
336,170,42432,2,0,L|339:203,2,25,0|0|0,3:0|3:0|0:0,0:0:0:0:
271,84,42609,2,0,L|261:52,2,25,0|0|0,1:0|0:0|0:0,0:0:0:0:
184,176,42785,1,2,0:0:0:0:
402,31,42961,2,0,P|447:24|518:42,1,100,8|0,0:0|3:0,0:0:0:0:
146,45,43314,5,0,1:0:0:0:
271,84,43491,1,2,0:0:0:0:
59,72,43667,2,0,L|27:49,2,25,8|0|0,0:0|0:0|0:0,0:0:0:0:
172,29,43844,1,0,3:0:0:0:
145,232,44020,1,0,1:0:0:0:
146,45,44197,1,2,0:0:0:0:
224,280,44373,5,10,0:0:0:0:
224,280,44461,1,2,0:0:0:0:
224,280,44550,1,2,0:0:0:0:
224,280,44638,1,2,0:0:0:0:
224,280,44726,5,0,1:0:0:0:
242,272,44814,1,0,0:0:0:0:
258,259,44903,1,0,3:0:0:0:
270,243,44991,1,0,3:0:0:0:
277,224,45079,1,0,3:0:0:0:
277,204,45167,1,0,0:0:0:0:
272,184,45256,2,0,L|221:176,1,50,2|0,3:1|3:0,0:0:0:0:
354,95,45432,6,0,P|382:97|411:111,1,50,0|0,3:0|0:0,0:0:0:0:
380,184,45609,2,0,P|411:197|430:222,1,50,0|0,1:0|0:0,0:0:0:0:
278,39,45785,1,8,0:0:0:0:
329,328,46138,6,0,P|386:343|478:316,1,150.000005722046,4|0,1:2|1:0,0:0:0:0:
472,319,46667,1,0,3:0:0:0:
310,306,46844,2,0,P|269:300|217:313,1,75.0000028610231,0|0,0:0|3:0,0:0:0:0:
483,330,47197,1,8,0:0:0:0:
483,330,47550,6,0,L|459:169,1,150.000005722046,0|0,1:0|1:0,0:0:0:0:
478,67,48079,1,0,3:0:0:0:
371,220,48256,1,0,0:0:0:0:
460,181,48432,1,0,3:0:0:0:
264,155,48609,1,8,0:0:0:0:
264,155,48961,6,0,P|251:112|260:65,2,75.0000028610231,0|2|0,1:0|0:0|1:0,0:0:0:0:
331,42,49491,2,0,P|270:5|184:35,1,150.000005722046,0|0,3:0|3:0,0:0:0:0:
264,155,50020,1,8,0:0:0:0:
331,42,50197,1,0,0:0:0:0:
312,216,50373,6,0,P|349:222|387:220,1,75.0000028610231,0|2,1:0|0:0,0:0:0:0:
461,156,50726,1,0,1:0:0:0:
271,284,50903,2,0,P|235:219|293:139,1,150.000005722046,0|0,3:0|3:0,0:0:0:0:
426,299,51432,1,2,1:2:0:0:
434,323,51520,1,2,3:2:0:0:
427,348,51609,2,0,L|372:367,1,37.5000014305115,2|0,0:0|0:0,0:0:0:0:
489,253,51785,6,0,B|497:212|497:212|483:104,1,150.000005722046,0|0,1:0|1:0,0:0:0:0:
338,85,52314,1,0,3:0:0:0:
340,192,52491,1,0,0:0:0:0:
359,57,52667,1,2,0:0:0:0:
489,253,52844,1,8,0:0:0:0:
489,253,53197,6,0,L|390:269,1,75.0000028610231,0|0,1:0|0:0,0:0:0:0:
381,151,53550,1,0,1:0:0:0:
286,218,53726,1,0,3:0:0:0:
392,284,53903,1,0,0:0:0:0:
308,87,54079,1,2,3:2:0:0:
325,360,54256,1,8,0:0:0:0:
325,360,54609,6,0,L|224:347,1,75.0000028610231,0|2,1:0|0:0,0:0:0:0:
406,314,54961,1,0,1:0:0:0:
224,365,55138,2,0,L|73:344,1,150.000005722046,0|0,0:0|3:0,0:0:0:0:
301,293,55667,1,8,0:0:0:0:
176,62,56020,5,0,3:0:0:0:
158,95,56109,1,0,0:0:0:0:
158,132,56197,1,2,0:0:0:0:
178,163,56285,1,0,0:0:0:0:
209,182,56373,2,0,L|262:179,1,37.5000014305115,0|0,1:0|0:0,0:0:0:0:
72,159,56550,2,0,L|19:162,1,37.5000014305115,0|0,3:0|0:0,0:0:0:0:
225,254,56726,6,0,P|244:257|276:256,1,50,2|0,1:2|0:0,0:0:0:0:
278,110,56903,2,0,P|259:106|226:110,1,50,0|0,1:2|3:0,0:0:0:0:
341,305,57079,1,8,0:0:0:0:
341,305,57432,5,4,1:0:0:0:
394,200,57608,1,0,1:0:0:0:
327,324,57785,2,0,P|291:333|236:322,1,75.0000028610231,8|0,0:0|0:0,0:0:0:0:
406,178,58138,1,0,3:0:0:0:
341,305,58314,1,0,1:0:0:0:
421,156,58491,2,0,P|457:147|512:158,1,75.0000028610231,8|0,0:0|0:0,0:0:0:0:
319,198,58844,5,0,1:0:0:0:
212,157,59020,1,0,3:0:0:0:
340,222,59197,2,0,L|426:237,1,75.0000028610231,8|0,0:0|0:0,0:0:0:0:
305,97,59550,1,0,3:0:0:0:
340,222,59726,1,0,1:0:0:0:
197,180,59903,2,0,L|111:172,1,75.0000028610231,8|0,0:0|0:0,0:0:0:0:
340,222,60256,6,0,P|356:183|356:143,1,75.0000028610231,0|0,1:0|1:0,0:0:0:0:
283,69,60609,1,8,0:0:0:0:
340,222,60785,2,0,P|368:252|471:277,1,150.000005722046,2|0,0:0|1:0,0:0:0:0:
241,190,61314,1,8,0:0:0:0:
436,173,61491,1,0,0:0:0:0:
355,348,61667,5,0,1:0:0:0:
355,348,61844,1,0,0:0:0:0:
345,242,62020,1,8,0:0:0:0:
253,373,62197,2,0,B|226:377|226:377|161:368,1,75.0000028610231,0|0,0:0|3:0,0:0:0:0:
355,348,62550,1,0,1:0:0:0:
168,345,62726,2,0,B|141:341|141:341|69:351,1,75.0000028610231,8|0,0:0|0:0,0:0:0:0:
295,288,63079,5,0,3:0:0:0:
168,251,63256,1,0,0:0:0:0:
326,278,63432,2,0,B|426:285|426:285|476:268,1,150.000005722046,8|0,0:0|3:0,0:0:0:0:
473,268,63961,1,0,0:0:0:0:
303,297,64138,2,0,L|217:292,1,75.0000028610231,8|0,0:0|0:0,0:0:0:0:
374,148,64491,5,0,3:0:0:0:
373,233,64667,1,0,0:0:0:0:
268,192,64844,1,8,0:0:0:0:
479,170,65020,2,0,B|489:83|489:83|447:129,1,150.000005722046,0|0,3:0|3:0,0:0:0:0:
229,315,65550,1,8,0:0:0:0:
177,139,65726,1,0,0:0:0:0:
262,205,65903,5,0,3:0:0:0:
262,205,65991,1,0,0:0:0:0:
262,205,66079,2,0,L|295:187,1,37.5000014305115,0|0,3:0|0:0,0:0:0:0:
168,212,66256,2,0,L|154:246,1,37.5000014305115,8|0,0:0|0:0,0:0:0:0:
247,292,66432,1,0,3:0:0:0:
284,294,66520,1,0,0:0:0:0:
320,285,66609,1,0,3:0:0:0:
351,264,66697,1,0,0:0:0:0:
372,233,66785,2,0,L|378:189,1,37.5000014305115,0|0,3:0|0:0,0:0:0:0:
257,119,66961,2,0,L|182:126,1,75.0000028610231,8|0,0:0|0:0,0:0:0:0:
81,324,67314,6,0,B|113:320|113:320|151:346|151:346|187:341,1,112.5,2|0,3:2|0:0,0:0:0:0:
214,317,68197,5,8,3:0:0:0:
18,153,68373,1,12,1:2:0:0:
436,148,68726,5,0,1:0:0:0:
407,257,68903,1,0,3:0:0:0:
374,94,69079,1,8,0:0:0:0:
407,257,69256,1,2,3:1:0:0:
425,275,69344,1,2,0:1:0:0:
448,286,69432,2,0,L|490:279,1,37.5000014305115,2|2,0:1|0:1,0:0:0:0:
351,339,69609,1,2,3:1:0:0:
476,204,69785,2,0,P|484:163|471:116,1,75.0000028610231,8|0,0:0|0:0,0:0:0:0:
281,233,70138,5,0,1:0:0:0:
203,145,70314,1,0,3:0:0:0:
230,351,70491,1,8,0:0:0:0:
293,244,70667,1,2,3:1:0:0:
293,244,70756,1,2,0:1:0:0:
293,244,70844,1,2,0:1:0:0:
155,258,71020,1,2,3:1:0:0:
314,131,71197,2,0,P|318:92|300:39,1,75.0000028610231,8|0,0:0|0:0,0:0:0:0:
293,244,71550,6,0,L|377:252,1,75.0000028610231,0|0,1:0|0:0,0:0:0:0:
391,240,71814,1,0,0:0:0:0:
415,229,71903,1,8,0:0:0:0:
411,332,72079,1,2,3:1:0:0:
387,343,72167,1,2,0:1:0:0:
362,354,72256,1,2,0:1:0:0:
337,363,72344,1,2,0:1:0:0:
312,371,72432,2,0,L|263:358,1,37.5000014305115,2|2,3:1|0:1,0:0:0:0:
491,286,72609,1,8,0:0:0:0:
311,226,72785,2,0,L|260:240,1,37.5000014305115
400,249,72961,6,0,P|423:213|416:152,1,75.0000028610231,0|0,1:0|0:0,0:0:0:0:
367,349,73314,1,8,0:0:0:0:
167,258,73491,2,0,L|146:295,1,37.5000014305115,2|2,3:1|0:1,0:0:0:0:
292,287,73667,2,0,L|270:250,1,37.5000014305115,2|2,0:1|0:1,0:0:0:0:
211,369,73844,2,0,L|253:368,1,37.5000014305115,2|2,3:1|0:1,0:0:0:0:
219,183,74020,2,0,L|133:184,1,75.0000028610231,8|0,0:0|0:0,0:0:0:0:
358,128,74373,5,0,1:0:0:0:
219,183,74550,1,0,3:0:0:0:
412,276,74726,2,0,P|417:228|401:190,1,75.0000028610231,8|2,0:0|3:1,0:0:0:0:
408,203,74991,1,2,0:1:0:0:
408,203,75079,1,2,0:1:0:0:
276,278,75256,1,2,3:1:0:0:
491,163,75432,2,0,P|470:124|445:102,1,75.0000028610231,8|0,0:0|0:0,0:0:0:0:
356,342,75785,5,0,1:0:0:0:
356,342,75961,1,0,3:0:0:0:
306,182,76138,1,8,0:0:0:0:
270,323,76314,1,2,3:1:0:0:
270,323,76403,1,2,0:1:0:0:
270,323,76491,1,2,0:1:0:0:
439,243,76667,1,2,3:1:0:0:
246,293,76844,2,0,L|165:302,1,75.0000028610231,8|0,0:0|0:0,0:0:0:0:
439,243,77197,6,0,P|448:207|442:160,1,75.0000028610231,0|0,1:0|0:0,0:0:0:0:
362,338,77550,1,8,0:0:0:0:
359,195,77726,2,0,P|348:153|308:117,1,75.0000028610231,0|0,1:1|0:0,0:0:0:0:
369,354,78079,1,0,3:0:0:0:
298,294,78256,1,8,0:0:0:0:
460,254,78432,1,0,3:0:0:0:
284,316,78609,6,0,L|244:299,1,37.5000014305115,0|0,1:0|0:0,0:0:0:0:
286,224,78785,2,0,L|258:188,1,37.5000014305115,0|0,0:0|0:0,0:0:0:0:
292,106,78961,1,8,0:0:0:0:
370,275,79138,1,2,3:1:0:0:
370,275,79226,1,2,0:1:0:0:
370,275,79314,2,0,L|407:300,1,37.5000014305115,2|2,0:1|0:1,0:0:0:0:
286,224,79491,1,2,3:1:0:0:
463,201,79667,1,8,0:0:0:0:
370,275,79844,1,0,0:0:0:0:
486,171,80020,5,0,1:0:0:0:
486,171,80197,1,0,3:0:0:0:
292,326,80373,2,0,P|277:279|289:231,1,75.0000028610231,8|2,0:0|3:1,0:0:0:0:
260,272,80638,1,2,0:1:0:0:
236,283,80726,2,0,P|214:289|190:282,1,37.5000014305115,2|2,0:1|0:1,0:0:0:0:
108,210,80903,2,0,P|130:204|154:211,1,37.5000014305115,2|2,3:1|0:1,0:0:0:0:
46,352,81079,2,0,L|35:251,1,75.0000028610231,8|0,0:0|0:0,0:0:0:0:
175,117,81432,5,0,1:0:0:0:
108,210,81609,1,0,3:0:0:0:
269,109,81785,1,8,0:0:0:0:
106,58,81961,1,2,3:1:0:0:
79,59,82050,1,2,0:1:0:0:
53,62,82138,2,0,L|17:78,1,37.5000014305115,2|2,0:1|0:1,0:0:0:0:
163,138,82314,2,0,L|195:156,1,37.5000014305115,2|2,3:1|0:1,0:0:0:0:
76,192,82491,1,8,0:0:0:0:
176,23,82667,1,0,0:0:0:0:
283,122,82844,6,0,B|328:122|328:122|358:107,1,75.0000028610231,0|0,1:0|0:0,0:0:0:0:
384,0,83197,1,8,0:0:0:0:
478,61,83373,1,2,3:1:0:0:
478,61,83461,1,2,0:1:0:0:
478,61,83550,2,0,L|472:121,1,37.5000014305115,2|2,0:1|0:1,0:0:0:0:
411,215,83726,2,0,L|397:181,1,37.5000014305115,2|2,3:1|0:1,0:0:0:0:
504,260,83903,2,0,B|507:308|507:308|493:343,1,75.0000028610231,8|0,0:0|0:0,0:0:0:0:
364,324,84256,5,0,1:0:0:0:
430,207,84432,1,0,0:0:0:0:
346,343,84609,1,8,0:0:0:0:
287,206,84785,1,2,3:1:0:0:
287,206,84873,1,2,0:1:0:0:
287,206,84961,1,2,0:1:0:0:
414,40,85138,1,2,3:1:0:0:
280,116,85314,2,0,P|239:121|187:110,1,75.0000028610231,8|0,0:0|0:0,0:0:0:0:
5,114,85667,6,0,P|65:98|128:31,1,150.000005722046,0|8,1:0|0:0,0:0:0:0:
294,225,86197,1,2,3:1:0:0:
290,250,86285,1,2,0:1:0:0:
284,275,86373,2,0,L|240:293,1,37.5000014305115,2|2,0:1|0:1,0:0:0:0:
330,354,86550,2,0,L|374:372,1,37.5000014305115,2|2,3:1|0:1,0:0:0:0:
170,338,86726,2,0,L|142:256,1,75.0000028610231,8|0,0:0|0:0,0:0:0:0:
368,269,87079,6,0,P|420:235|459:152,1,150.000005722046,0|8,1:0|0:0,0:0:0:0:
268,294,87609,1,2,3:1:0:0:
264,268,87697,1,2,0:1:0:0:
268,242,87785,2,0,P|274:220|288:201,1,37.5000014305115,2|2,0:1|0:1,0:0:0:0:
325,355,87961,1,2,3:1:0:0:
197,200,88138,2,0,P|222:155|264:126,1,75.0000028610231,8|0,0:0|0:0,0:0:0:0:
169,319,88491,6,0,L|73:339,1,75.0000028610231,0|0,1:2|0:0,0:0:0:0:
197,200,88844,1,8,0:0:0:0:
80,361,89020,2,0,L|-16:381,1,75.0000028610231,0|0,1:1|0:0,0:0:0:0:
262,367,89373,1,0,3:0:0:0:
32,289,89550,2,0,P|29:243|49:199,1,75.0000028610231,8|0,0:0|3:0,0:0:0:0:
231,283,89903,5,8,1:2:0:0:
239,133,90079,2,0,L|257:100,2,25.0000009536744,2|2|2,0:1|0:1|0:1,0:0:0:0:
305,336,90256,1,0,1:0:0:0:
145,233,90432,1,8,1:2:0:0:
350,159,90608,2,0,L|372:147,2,25.0000009536744,2|2|2,0:1|0:1|0:1,0:0:0:0:
228,274,90785,5,0,1:0:0:0:
276,31,90961,1,8,1:2:0:0:
102,136,91138,1,0,1:0:0:0:
354,76,91314,5,4,1:0:0:0:
419,195,91491,1,0,3:0:0:0:
281,197,91667,1,8,0:0:0:0:
444,195,91844,1,2,3:1:0:0:
444,195,91932,1,2,0:1:0:0:
444,195,92020,1,2,0:1:0:0:
380,84,92197,5,2,3:1:0:0:
384,310,92373,1,8,0:0:0:0:
476,111,92550,1,0,0:0:0:0:
369,330,92726,5,0,1:0:0:0:
205,253,92903,1,0,3:0:0:0:
386,344,93079,1,8,0:0:0:0:
160,333,93256,2,0,P|141:347|116:354,1,37.5000014305115,2|2,3:1|0:1,0:0:0:0:
101,259,93432,2,0,P|79:254|53:237,1,37.5000014305115,2|2,0:1|0:1,0:0:0:0:
103,156,93609,5,2,3:1:0:0:
295,332,93785,1,8,0:0:0:0:
101,259,93961,1,0,0:0:0:0:
295,332,94138,6,0,P|327:301|342:252,1,75.0000028610231,0|0,1:0|0:0,0:0:0:0:
254,258,94491,1,8,0:0:0:0:
477,284,94667,2,0,P|484:240|469:195,1,75.0000028610231,0|0,1:0|0:1,0:0:0:0:
338,273,95020,1,0,3:1:0:0:
371,139,95197,1,8,0:0:0:0:
244,259,95373,1,0,0:0:0:0:
387,123,95550,6,0,P|398:87|387:41,1,75.0000028610231,0|0,1:0|0:0,0:0:0:0:
338,273,95903,1,8,0:0:0:0:
310,71,96079,2,0,P|304:56|287:37,1,37.5000014305115,2|2,3:1|0:1,0:0:0:0:
216,87,96256,2,0,P|196:79|176:78,1,37.5000014305115,2|2,3:1|0:1,0:0:0:0:
157,168,96432,5,2,3:1:0:0:
310,71,96609,1,8,0:0:0:0:
345,270,96785,1,0,0:0:0:0:
115,53,96961,5,0,1:0:0:0:
164,222,97138,1,0,3:0:0:0:
227,113,97314,1,8,0:0:0:0:
47,167,97491,1,2,3:1:0:0:
47,167,97579,1,2,0:1:0:0:
47,167,97667,1,2,0:1:0:0:
115,53,97844,5,2,3:1:0:0:
90,240,98020,1,8,0:0:0:0:
184,108,98197,1,0,0:0:0:0:
296,239,98373,5,0,1:0:0:0:
265,75,98550,1,0,3:0:0:0:
423,150,98726,1,8,0:0:0:0:
276,264,98903,2,0,P|257:274|217:282,1,37.5000014305115,2|2,3:1|0:1,0:0:0:0:
222,181,99079,2,0,P|202:177|178:160,1,37.5000014305115,2|2,0:1|0:1,0:0:0:0:
247,77,99256,5,2,3:1:0:0:
276,264,99432,1,8,0:0:0:0:
423,150,99609,1,0,0:0:0:0:
223,181,99785,6,0,B|130:189,1,75.0000028610231,0|0,1:0|0:0,0:0:0:0:
289,108,100138,1,8,0:0:0:0:
129,216,100314,2,0,B|36:224,1,75.0000028610231,0|0,1:1|0:0,0:0:0:0:
68,112,100667,1,0,3:0:0:0:
204,281,100844,1,8,0:0:0:0:
84,328,101020,5,0,3:0:0:0:
282,315,101197,1,4,1:0:0:0:
242,175,101373,1,0,0:0:0:0:
428,328,101550,2,0,L|456:173,1,150.000005722046,2|0,3:2|0:0,0:0:0:0:
272,54,102079,5,0,3:0:0:0:
218,183,102256,1,8,0:0:0:0:
289,40,102432,1,0,0:0:0:0:
285,262,102609,5,0,1:0:0:0:
385,233,102785,1,0,3:0:0:0:
262,358,102961,1,8,0:0:0:0:
218,183,103138,1,2,3:1:0:0:
218,183,103226,1,2,0:1:0:0:
218,183,103314,1,2,0:1:0:0:
285,262,103491,5,2,3:1:0:0:
126,270,103667,1,8,0:0:0:0:
305,250,103844,1,0,0:0:0:0:
74,367,104020,5,0,1:0:0:0:
126,270,104197,1,0,3:0:0:0:
0,384,104373,1,8,0:0:0:0:
126,270,104550,2,0,P|128:245|108:215,1,37.5000014305115,2|2,2:1|2:1,2:0:0:0:
196,174,104726,2,0,P|179:154|144:147,1,37.5000014305115,2|2,0:1|0:1,0:0:0:0:
40,263,104903,5,2,3:1:0:0:
266,340,105079,1,8,0:0:0:0:
215,195,105256,1,0,0:0:0:0:
387,168,105432,6,0,P|407:136|413:93,1,75.0000028610231,0|0,1:0|0:0,0:0:0:0:
316,239,105785,1,8,0:0:0:0:
326,90,105961,2,0,P|305:43|264:17,1,75.0000028610231,0|0,1:2|0:1,0:0:0:0:
230,246,106314,1,0,3:1:0:0:
378,304,106491,1,8,0:0:0:0:
210,347,106667,1,0,0:0:0:0:
402,291,106844,6,0,P|419:240|418:200,1,75.0000028610231,0|0,1:0|0:0,0:0:0:0:
151,252,107197,1,8,0:0:0:0:
306,321,107373,2,0,P|316:283|310:256,1,37.5000014305115,2|2,3:1|0:1,0:0:0:0:
372,214,107550,2,0,P|357:177|337:159,1,37.5000014305115,2|2,0:1|0:1,0:0:0:0:
248,172,107726,5,2,3:1:0:0:
471,145,107903,1,8,0:0:0:0:
372,214,108079,1,0,0:0:0:0:
349,26,108256,5,0,1:0:0:0:
372,214,108432,1,0,3:0:0:0:
323,123,108609,1,8,0:0:0:0:
344,319,108785,1,2,3:1:0:0:
344,319,108873,1,2,0:1:0:0:
344,319,108961,1,2,0:1:0:0:
323,123,109138,5,2,3:1:0:0:
151,241,109314,1,8,0:0:0:0:
269,231,109491,1,0,0:0:0:0:
160,61,109667,5,0,1:0:0:0:
151,241,109844,1,0,3:0:0:0:
231,128,110020,1,8,0:0:0:0:
222,308,110197,1,2,3:1:0:0:
222,308,110285,1,2,0:1:0:0:
222,308,110373,1,2,0:1:0:0:
151,241,110550,5,2,3:1:0:0:
316,209,110726,1,8,0:0:0:0:
151,241,110903,1,0,0:0:0:0:
374,120,111079,6,0,P|383:82|376:37,1,75.0000028610231,0|0,1:2|0:0,0:0:0:0:
354,303,111432,1,8,0:0:0:0:
286,86,111609,2,0,P|255:64|217:56,1,75.0000028610231,0|0,1:1|0:0,0:0:0:0:
361,329,111961,1,0,3:0:0:0:
206,143,112138,2,0,P|167:145|124:179,1,75.0000028610231,8|0,0:0|3:0,0:0:0:0:
33,348,112491,5,8,1:2:0:0:
158,330,112667,1,0,0:0:0:0:
84,236,112844,1,2,0:0:0:0:
33,348,113373,5,0,3:0:0:0:
108,312,113550,1,8,0:0:0:0:
33,348,113726,1,0,3:0:0:0:
168,194,113903,5,4,1:0:0:0:
197,315,114079,1,0,3:0:0:0:
213,116,114256,1,8,0:0:0:0:
242,243,114432,1,2,3:1:0:0:
242,243,114520,1,2,0:1:0:0:
242,243,114609,1,2,0:1:0:0:
121,267,114785,1,2,3:1:0:0:
213,116,114961,2,0,P|216:78|206:39,1,75.0000028610231,8|0,0:0|0:0,0:0:0:0:
242,243,115314,5,0,1:0:0:0:
358,279,115491,1,0,3:0:0:0:
121,267,115667,2,0,P|77:280|51:309,1,75.0000028610231,8|2,0:0|0:1,0:0:0:0:
56,299,115932,1,2,0:1:0:0:
56,299,116020,1,2,0:1:0:0:
4,148,116197,1,2,3:1:0:0:
137,361,116373,2,0,P|181:348|207:319,1,75.0000028610231,8|0,0:0|0:0,0:0:0:0:
276,148,116726,6,0,L|268:54,1,75.0000028610231,0|0,1:0|0:0,0:0:0:0:
342,219,117079,2,0,P|373:227|429:215,1,75.0000028610231,8|2,0:0|3:1,0:0:0:0:
434,203,117344,1,2,0:1:0:0:
447,180,117432,2,0,P|459:158|462:135,1,37.5000014305115,2|2,0:1|0:1,0:0:0:0:
370,78,117609,2,0,P|364:95|364:114,1,37.5000014305115,2|2,3:1|0:1,0:0:0:0:
505,51,117785,2,0,P|477:20|432:11,1,75.0000028610231,8|0,0:0|0:0,0:0:0:0:
189,245,118138,5,0,1:0:0:0:
244,92,118314,1,0,0:0:0:0:
247,316,118491,2,0,L|324:332,1,75.0000028610231,8|2,0:0|3:1,0:0:0:0:
342,316,118756,1,2,0:1:0:0:
363,301,118844,1,2,0:1:0:0:
155,330,119020,1,2,3:1:0:0:
306,245,119197,2,0,L|379:196,1,75.0000028610231,8|0,0:0|0:0,0:0:0:0:
182,85,119550,6,0,P|131:79|91:98,1,75.0000028610231,0|0,1:0|3:0,0:0:0:0:
217,245,119903,1,8,0:0:0:0:
260,155,120079,1,2,3:1:0:0:
274,133,120167,1,2,0:1:0:0:
289,111,120256,2,0,L|331:102,1,37.5000014305115,2|2,0:1|0:1,0:0:0:0:
391,176,120432,2,0,L|354:183,1,37.5000014305115,2|2,3:1|0:1,0:0:0:0:
338,20,120609,2,0,L|414:3,1,75.0000028610231,8|0,0:0|0:0,0:0:0:0:
465,242,120961,5,0,1:0:0:0:
469,76,121138,1,0,3:0:0:0:
373,300,121314,2,0,P|329:308|279:292,1,75.0000028610231,8|2,0:0|0:1,0:0:0:0:
281,282,121579,1,2,0:1:0:0:
273,256,121667,2,0,L|293:219,1,37.5000014305115,2|2,0:1|0:1,0:0:0:0:
219,347,121844,2,0,L|199:315,1,37.5000014305115,2|2,3:1|0:1,0:0:0:0:
373,300,122020,2,0,L|458:310,1,75.0000028610231,8|0,0:0|0:0,0:0:0:0:
256,139,122373,6,0,P|212:135|173:152,1,75.0000028610231,0|0,1:0|0:0,0:0:0:0:
347,186,122726,1,8,0:0:0:0:
213,243,122903,1,2,0:1:0:0:
190,255,122991,1,2,0:1:0:0:
163,257,123079,1,2,0:1:0:0:
137,252,123167,1,2,0:1:0:0:
116,235,123256,2,0,L|102:181,1,37.5000014305115,2|0,3:1|0:0,0:0:0:0:
149,341,123432,1,8,0:0:0:0:
16,321,123609,1,0,3:0:0:0:
176,357,123785,6,0,L|261:358,1,75.0000028610231,0|0,1:0|0:0,0:0:0:0:
215,259,124138,1,8,0:0:0:0:
276,348,124314,1,0,3:1:0:0:
293,209,124491,1,0,0:1:0:0:
301,339,124667,1,0,3:1:0:0:
122,286,124844,2,0,L|47:285,1,75.0000028610231,8|0,0:0|0:0,0:0:0:0:
324,330,125197,5,0,1:0:0:0:
453,267,125373,1,0,3:0:0:0:
301,339,125550,1,8,0:0:0:0:
368,220,125726,1,2,3:1:0:0:
367,197,125814,1,2,0:1:0:0:
360,175,125903,2,0,P|348:157|322:141,1,37.5000014305115,2|2,0:1|0:1,0:0:0:0:
237,233,126079,2,0,P|258:231|285:217,1,37.5000014305115,2|2,3:1|0:1,0:0:0:0:
239,77,126256,2,0,P|229:96|234:153,1,75.0000028610231,8|0,0:0|0:0,0:0:0:0:
411,19,126609,5,0,1:0:0:0:
306,153,126785,1,0,3:0:0:0:
486,170,126961,1,8,0:0:0:0:
396,112,127138,1,2,3:1:0:0:
396,112,127226,1,2,0:1:0:0:
396,112,127314,1,2,0:1:0:0:
471,264,127491,1,2,3:1:0:0:
306,153,127667,2,0,L|200:146,1,75.0000028610231,8|0,0:0|0:0,0:0:0:0:
68,300,128020,6,0,P|115:312|151:299,1,75.0000028610231,0|0,1:0|0:0,0:0:0:0:
7,174,128373,1,8,0:0:0:0:
166,71,128550,1,2,3:1:0:0:
166,71,128638,1,2,0:1:0:0:
166,71,128726,2,0,L|201:32,1,37.5000014305115,2|2,0:1|0:1,0:0:0:0:
276,83,128903,2,0,L|322:90,1,37.5000014305115,2|2,3:1|0:1,0:0:0:0:
301,180,129079,2,0,L|336:261,1,75.0000028610231,8|0,0:0|0:0,0:0:0:0:
114,225,129432,5,0,1:0:0:0:
215,226,129609,1,0,0:0:0:0:
37,159,129785,1,8,0:0:0:0:
171,286,129961,1,2,3:1:0:0:
171,286,130050,1,2,0:1:0:0:
171,286,130138,2,0,L|212:332,1,37.5000014305115,2|2,0:1|0:1,0:0:0:0:
97,347,130314,2,0,L|90:401,1,37.5000014305115,2|2,3:1|0:1,0:0:0:0:
80,159,130491,2,0,P|118:150|156:162,1,75.0000028610231,8|0,0:0|0:0,0:0:0:0:
255,309,130844,5,0,1:0:0:0:
114,225,131020,1,0,3:0:0:0:
290,126,131197,2,0,L|311:41,1,75.0000028610231,8|2,0:0|3:1,0:0:0:0:
321,75,131461,1,2,0:1:0:0:
336,96,131550,1,2,0:1:0:0:
205,41,131726,1,2,3:1:0:0:
382,178,131903,2,0,P|413:150|423:102,1,75.0000028610231,8|0,0:0|0:0,0:0:0:0:
224,186,132256,5,0,1:0:0:0:
382,178,132432,1,0,3:0:0:0:
202,270,132609,2,0,P|159:252|140:210,1,75.0000028610231,8|2,0:0|3:1,0:0:0:0:
138,254,132873,1,2,0:1:0:0:
120,273,132961,2,0,P|102:285|76:293,1,37.5000014305115,2|2,0:1|0:1,0:0:0:0:
165,156,133138,2,0,P|184:164|204:184,1,37.5000014305115,2|2,3:1|0:1,0:0:0:0:
63,197,133314,2,0,P|58:158|73:123,1,75.0000028610231,8|0,0:0|0:0,0:0:0:0:
248,273,133667,6,0,L|230:357,1,75.0000028610231,0|0,1:2|0:0,0:0:0:0:
203,186,134020,1,8,0:0:0:0:
346,300,134197,1,2,0:1:0:0:
371,303,134285,1,2,0:1:0:0:
396,298,134373,2,0,L|450:278,1,37.5000014305115,2|2,0:1|0:1,0:0:0:0:
309,182,134550,2,0,L|333:212,1,37.5000014305115,2|2,3:1|0:1,0:0:0:0:
424,130,134726,2,0,L|438:44,1,75.0000028610231,8|0,0:0|3:0,0:0:0:0:
255,259,135079,5,0,1:0:0:0:
249,284,135167,1,0,0:0:0:0:
232,304,135256,1,0,3:0:0:0:
210,318,135344,1,0,3:0:0:0:
184,324,135432,2,0,L|127:323,1,37.5000014305115,0|0,3:0|0:0,0:0:0:0:
251,232,135609,2,0,L|288:232,1,37.5000014305115,2|0,3:1|3:0,0:0:0:0:
150,190,135785,6,0,P|129:174|114:148,1,50,0|0,3:0|0:0,0:0:0:0:
187,91,135961,2,0,P|176:66|176:36,1,50,0|0,1:0|0:0,0:0:0:0:
273,15,136138,1,8,0:0:0:0:
12,79,136491,6,0,L|39:232,1,150.000005722046,4|0,1:2|1:0,0:0:0:0:
109,166,137020,1,0,3:0:0:0:
96,333,137197,1,0,0:0:0:0:
38,226,137373,1,0,3:0:0:0:
187,338,137550,1,8,0:0:0:0:
187,338,137903,6,0,P|259:314|343:348,1,150.000005722046,0|0,1:0|1:0,0:0:0:0:
327,335,138432,1,0,3:0:0:0:
419,297,138609,2,0,P|429:261|420:203,1,75.0000028610231,0|0,0:0|3:0,0:0:0:0:
194,232,138961,1,8,0:0:0:0:
194,232,139314,6,0,B|146:235|146:235|118:248,2,75.0000028610231,0|2|0,1:0|0:0|1:0,0:0:0:0:
361,249,139844,2,0,P|394:199|352:102,1,150.000005722046,0|0,3:0|3:0,0:0:0:0:
268,293,140373,1,8,0:0:0:0:
302,175,140550,1,0,0:0:0:0:
338,347,140726,6,0,L|418:354,1,75.0000028610231,0|2,1:0|0:0,0:0:0:0:
490,296,141079,1,0,1:0:0:0:
317,365,141256,2,0,B|274:360|274:360|172:312,1,150.000005722046,0|0,0:0|3:0,0:0:0:0:
151,141,141785,1,2,1:2:0:0:
166,161,141873,1,2,3:2:0:0:
174,185,141961,2,0,P|175:203|156:239,1,37.5000014305115,2|0,0:0|0:0,0:0:0:0:
256,96,142138,6,0,P|310:63|417:98,1,150.000005722046,0|0,1:0|1:0,0:0:0:0:
459,186,142667,1,0,3:0:0:0:
336,158,142844,1,0,0:0:0:0:
376,264,143020,1,2,3:2:0:0:
415,43,143197,1,8,0:0:0:0:
415,43,143550,6,0,L|322:32,1,75.0000028610231,0|0,1:0|0:0,0:0:0:0:
133,187,143903,1,0,1:0:0:0:
270,99,144079,1,0,3:0:0:0:
265,245,144256,1,0,0:0:0:0:
133,187,144432,1,2,3:2:0:0:
218,343,144609,1,8,0:0:0:0:
218,343,144961,6,0,L|320:346,1,75.0000028610231,0|0,1:0|0:0,0:0:0:0:
145,274,145314,1,0,1:0:0:0:
316,363,145491,2,0,B|423:368|423:368|473:350,1,150.000005722046,2|0,0:0|3:0,0:0:0:0:
218,343,146020,1,8,0:0:0:0:
122,46,146373,5,0,3:0:0:0:
98,64,146461,1,0,0:0:0:0:
87,92,146550,1,2,0:0:0:0:
90,121,146638,1,0,0:0:0:0:
104,147,146726,2,0,L|158:151,1,37.5000014305115,0|0,1:0|0:0,0:0:0:0:
222,102,146903,2,0,L|259:104,1,37.5000014305115,0|0,3:0|0:0,0:0:0:0:
382,158,147079,6,0,P|382:183|377:206,1,50,2|0,1:2|0:0,0:0:0:0:
229,242,147256,2,0,P|223:217|224:192,1,50,2|0,1:2|3:0,0:0:0:0:
318,317,147432,1,8,0:0:0:0:
318,317,147785,5,4,1:0:0:0:
216,252,147961,1,0,1:0:0:0:
344,303,148138,2,0,B|398:303|398:303|430:294,1,75.0000028610231,8|0,0:0|0:0,0:0:0:0:
296,182,148491,1,0,3:0:0:0:
344,303,148667,1,0,1:0:0:0:
280,160,148844,2,0,B|226:160|226:160|194:169,1,75.0000028610231,8|0,0:0|0:0,0:0:0:0:
275,290,149197,5,0,1:0:0:0:
375,205,149373,1,0,3:0:0:0:
258,310,149550,2,0,P|212:318|174:299,1,75.0000028610231,8|0,0:0|0:0,0:0:0:0:
191,162,149903,1,0,3:0:0:0:
97,266,150079,1,0,1:0:0:0:
211,144,150256,2,0,P|246:133|282:142,1,75.0000028610231,8|0,0:0|0:0,0:0:0:0:
410,132,150609,6,0,L|449:57,1,75.0000028610231,0|0,1:0|1:0,0:0:0:0:
451,219,150961,1,8,0:0:0:0:
381,145,151138,2,0,B|271:143|271:143|227:159,1,150.000005722046,2|0,0:0|1:0,0:0:0:0:
317,232,151667,1,8,0:0:0:0:
232,58,151844,1,0,0:0:0:0:
115,211,152020,5,0,1:0:0:0:
115,211,152197,1,0,0:0:0:0:
118,114,152373,1,8,0:0:0:0:
188,274,152550,2,0,L|241:330,1,75.0000028610231,0|0,0:0|3:0,0:0:0:0:
30,260,152903,1,0,1:0:0:0:
188,274,153079,2,0,P|223:274|269:250,1,75.0000028610231,8|0,0:0|0:0,0:0:0:0:
347,150,153432,5,0,3:0:0:0:
417,264,153609,1,0,0:0:0:0:
347,150,153785,2,0,P|296:143|200:196,1,150.000005722046,8|0,0:0|3:0,0:0:0:0:
417,264,154314,1,0,0:0:0:0:
347,150,154491,2,0,P|340:101|353:67,1,75.0000028610231,8|0,0:0|0:0,0:0:0:0:
317,279,154844,5,0,3:0:0:0:
221,276,155020,1,0,0:0:0:0:
268,144,155197,1,8,0:0:0:0:
267,360,155373,2,0,B|380:364|380:364|350:334,1,150.000005722046,0|0,3:0|3:0,0:0:0:0:
221,276,155903,1,8,0:0:0:0:
465,331,156079,1,0,0:0:0:0:
334,255,156256,5,0,3:0:0:0:
334,255,156344,1,0,0:0:0:0:
334,255,156432,2,0,L|370:255,1,37.5000014305115,0|0,3:0|0:0,0:0:0:0:
285,339,156609,2,0,L|248:338,1,37.5000014305115,8|0,0:0|0:0,0:0:0:0:
400,164,156785,1,0,3:0:0:0:
430,157,156873,1,0,0:0:0:0:
460,160,156961,1,0,3:0:0:0:
489,171,157050,1,0,0:0:0:0:
510,193,157138,2,0,L|513:231,1,37.5000014305115,0|0,3:0|0:0,0:0:0:0:
301,241,157314,2,0,L|317:144,1,75.0000028610231,8|0,0:0|0:0,0:0:0:0:
176,323,157667,6,0,B|142:325|142:325|101:354|101:354|65:356,1,112.5,2|0,3:2|0:0,0:0:0:0:
48,340,158550,5,8,3:0:0:0:
292,264,158726,1,12,1:2:0:0:
42,70,159079,5,0,1:0:0:0:
67,184,159256,1,0,3:0:0:0:
60,51,159432,1,8,0:0:0:0:
164,186,159609,1,2,3:1:0:0:
164,186,159697,1,2,0:1:0:0:
164,186,159785,1,2,0:1:0:0:
0,135,159961,1,2,3:1:0:0:
200,105,160138,2,0,P|235:92|265:64,1,75.0000028610231,8|0,0:0|0:0,0:0:0:0:
451,194,160491,5,0,1:0:0:0:
287,217,160667,1,0,3:0:0:0:
460,114,160844,1,8,0:0:0:0:
361,272,161020,1,2,3:1:0:0:
371,296,161109,1,2,0:1:0:0:
393,310,161197,2,0,P|415:318|437:315,1,37.5000014305115,2|2,0:1|0:1,0:0:0:0:
440,229,161373,2,0,P|452:209|454:187,1,37.5000014305115,2|2,3:1|0:1,2:0:0:0:
294,204,161550,2,0,L|207:207,1,75.0000028610231,8|0,0:0|0:0,0:0:0:0:
43,283,161903,6,0,L|27:369,1,75.0000028610231,0|0,1:0|0:0,0:0:0:0:
33,161,162256,1,8,0:0:0:0:
124,248,162432,1,2,3:1:0:0:
143,265,162520,1,2,0:1:0:0:
163,282,162609,1,2,0:1:0:0:
183,298,162697,1,2,0:1:0:0:
203,314,162785,2,0,L|250:320,1,37.5000014305115,2|2,3:1|0:1,0:0:0:0:
90,361,162961,1,8,0:0:0:0:
56,233,163138,1,0,0:0:0:0:
277,347,163314,5,0,1:0:0:0:
384,250,163491,1,0,0:0:0:0:
251,359,163667,2,0,P|207:365|162:345,1,75.0000028610231,8|2,0:0|3:1,0:0:0:0:
163,334,163932,1,2,0:1:0:0:
150,310,164020,1,2,0:1:0:0:
356,365,164197,1,2,3:1:0:0:
223,274,164373,2,0,P|213:234|230:188,1,75.0000028610231,8|0,0:0|0:0,0:0:0:0:
52,239,164726,6,0,P|80:208|90:90,1,150.000005722046,0|8,1:0|0:0,0:0:0:0:
222,201,165256,1,2,3:1:0:0:
222,201,165344,1,2,0:1:0:0:
222,201,165432,1,2,0:1:0:0:
96,105,165609,1,2,3:1:0:0:
249,215,165785,2,0,P|278:188|276:125,1,75.0000028610231,8|0,0:0|0:0,0:0:0:0:
498,254,166138,6,0,P|456:258|370:339,1,150.000005722046,0|8,1:0|0:0,0:0:0:0:
511,147,166668,1,2,3:1:0:0:
511,147,166756,1,2,0:1:0:0:
511,147,166844,1,2,0:1:0:0:
330,231,167021,1,2,3:1:0:0:
511,147,167197,2,0,P|511:106|479:58,1,75.0000028610231,8|0,0:0|0:0,0:0:0:0:
438,260,167550,6,0,L|459:352,1,75.0000028610231,0|2,1:0|0:1,0:0:0:0:
473,352,167814,1,2,0:1:0:0:
493,370,167903,1,8,0:0:0:0:
438,170,168079,2,0,L|401:148,1,37.5000014305115,2|0,1:1|0:0,0:0:0:0:
349,217,168256,2,0,L|305:214,1,37.5000014305115,2|2,0:1|0:1,0:0:0:0:
302,307,168432,1,2,3:1:0:0:
149,189,168609,1,8,0:0:0:0:
302,307,168785,1,0,3:0:0:0:
262,22,168961,5,0,1:0:0:0:
149,189,169138,1,0,0:0:0:0:
327,102,169314,1,8,0:0:0:0:
108,89,169491,1,0,3:1:0:0:
108,89,169844,1,2,3:1:0:0:
213,96,170020,2,0,L|236:54,1,37.5000014305115,2|0,0:1|0:0,0:0:0:0:
153,177,170197,1,2,0:1:0:0:
153,177,170285,1,2,0:1:0:0:
153,177,170373,5,4,1:0:0:0:
146,8,170550,1,0,3:0:0:0:
309,110,170726,2,0,L|407:101,1,75.0000028610231,8|2,0:0|3:1,0:0:0:0:
402,123,170991,1,2,0:1:0:0:
418,144,171079,2,0,P|420:162|416:188,1,37.5000014305115,2|2,0:1|0:1,0:0:0:0:
323,245,171256,2,0,P|320:226|325:201,1,37.5000014305115,2|2,3:1|0:1,0:0:0:0:
402,301,171432,2,0,L|386:384,1,75.0000028610231,8|0,0:0|0:0,0:0:0:0:
383,164,171785,5,0,1:0:0:0:
402,301,171961,1,0,3:0:0:0:
361,150,172138,2,0,P|322:136|271:148,1,75.0000028610231,8|2,0:0|3:1,0:0:0:0:
267,155,172403,1,2,0:1:0:0:
251,175,172491,1,2,0:1:0:0:
340,42,172667,1,2,3:1:0:0:
329,229,172844,2,0,P|368:243|419:231,1,75.0000028610231,8|0,0:0|0:0,0:0:0:0:
249,341,173197,6,0,L|169:348,1,75.0000028610231,0|0,1:0|0:0,0:0:0:0:
70,268,173550,1,8,0:0:0:0:
204,262,173726,1,2,3:1:0:0:
215,239,173814,1,2,0:1:0:0:
222,214,173903,2,0,P|224:190|217:170,1,37.5000014305115,2|2,0:1|0:1,0:0:0:0:
130,139,174079,2,0,P|128:163|135:183,1,37.5000014305115,2|2,3:1|0:1,0:0:0:0:
292,279,174256,2,0,L|366:272,1,75.0000028610231,8|0,0:0|0:0,0:0:0:0:
220,177,174609,5,0,1:0:0:0:
412,160,174785,1,0,0:0:0:0:
272,296,174961,2,0,L|198:303,1,75.0000028610231,8|2,0:0|3:1,0:0:0:0:
198,303,175226,1,2,0:1:0:0:
198,303,175314,1,2,0:1:0:0:
302,183,175491,1,2,3:1:0:0:
331,363,175667,1,8,0:0:0:0:
331,363,175844,1,0,0:0:0:0:
220,210,176020,6,0,P|213:171|242:117,1,75.0000028610231,0|0,1:0|3:0,0:0:0:0:
390,262,176373,1,8,0:0:0:0:
302,183,176550,1,2,3:1:0:0:
311,158,176638,1,2,0:1:0:0:
328,138,176726,2,0,P|343:125|369:121,1,37.5000014305115,2|2,0:1|0:1,0:0:0:0:
390,262,176903,2,0,P|393:281|384:306,1,37.5000014305115,2|2,3:1|0:1,0:0:0:0:
220,210,177079,2,0,P|213:171|242:117,1,75.0000028610231,8|0,0:0|0:0,0:0:0:0:
109,200,177432,5,0,1:0:0:0:
282,75,177609,1,0,3:0:0:0:
214,237,177785,2,0,P|220:281|253:319,1,75.0000028610231,8|2,0:0|3:1,0:0:0:0:
260,316,178050,1,2,0:1:0:0:
285,321,178138,1,2,0:1:0:0:
104,326,178314,1,2,3:1:0:0:
299,236,178491,2,0,P|318:204|321:167,1,75.0000028610231,8|0,0:0|0:0,0:0:0:0:
86,74,178844,6,0,L|48:139,1,75.0000028610231,0|0,1:2|0:0,0:0:0:0:
211,32,179197,1,8,0:0:0:0:
125,178,179373,2,0,L|144:250,1,75.0000028610231,0|0,1:1|0:0,0:0:0:0:
211,32,179726,1,0,3:0:0:0:
228,228,179903,2,0,L|293:265,1,75.0000028610231,8|0,0:0|3:0,0:0:0:0:
211,32,180256,5,8,1:2:0:0:
125,204,180432,2,0,L|101:238,2,25.0000009536744,2|2|2,0:1|0:1|0:1,0:0:0:0:
311,173,180609,1,0,1:0:0:0:
123,96,180785,1,8,1:2:0:0:
289,84,180961,2,0,L|302:63,2,25.0000009536744,2|2|2,0:1|0:1|0:1,0:0:0:0:
210,261,181138,5,0,1:0:0:0:
289,84,181314,1,8,1:2:0:0:
123,96,181491,1,0,1:0:0:0:
318,294,181667,5,4,1:0:0:0:
433,257,181844,1,0,3:0:0:0:
348,182,182020,1,8,0:0:0:0:
395,334,182197,1,2,3:1:0:0:
395,334,182285,1,2,0:1:0:0:
395,334,182373,1,2,0:1:0:0:
242,283,182550,5,2,3:1:0:0:
433,257,182726,1,8,0:0:0:0:
198,359,182903,1,0,0:0:0:0:
433,257,183079,6,0,P|442:208|422:170,1,75.0000028610231,0|0,1:0|3:0,0:0:0:0:
395,334,183432,1,8,0:0:0:0:
357,221,183609,1,2,3:1:0:0:
347,196,183697,1,2,0:1:0:0:
338,171,183785,1,2,0:1:0:0:
267,266,183961,5,2,3:1:0:0:
323,71,184138,1,8,0:0:0:0:
264,286,184314,1,0,0:0:0:0:
238,54,184491,6,0,P|201:47|157:60,1,75.0000028610231,0|0,1:0|0:0,0:0:0:0:
259,206,184844,1,8,0:0:0:0:
133,144,185020,1,2,3:1:0:0:
107,136,185109,1,2,0:1:0:0:
80,138,185197,2,0,P|60:146|45:156,1,37.5000014305115,2|2,0:1|0:1,0:0:0:0:
103,231,185373,2,0,P|89:250|82:266,1,37.5000014305115,2|2,3:1|0:1,0:0:0:0:
162,66,185550,1,8,0:0:0:0:
161,308,185726,1,0,0:0:0:0:
246,106,185903,6,0,P|282:99|316:111,1,75.0000028610231,0|0,1:0|0:0,0:0:0:0:
157,146,186256,1,8,0:0:0:0:
226,271,186432,1,2,3:1:0:0:
226,271,186520,1,2,0:1:0:0:
226,271,186609,1,2,0:1:0:0:
276,172,186785,5,2,3:1:0:0:
62,204,186961,1,8,0:0:0:0:
276,172,187138,1,0,0:0:0:0:
140,348,187314,6,0,P|99:336|72:305,1,75.0000028610231,0|0,1:0|3:0,0:0:0:0:
80,113,187667,1,8,0:0:0:0:
45,236,187844,1,2,3:1:0:0:
45,236,187932,1,2,0:1:0:0:
45,236,188020,1,2,0:1:0:0:
80,113,188197,5,2,3:1:0:0:
151,268,188373,1,8,0:0:0:0:
132,36,188550,1,0,0:0:0:0:
204,199,188726,6,0,L|285:199,1,75.0000028610231,0|0,1:0|3:0,0:0:0:0:
396,117,189079,1,8,0:0:0:0:
395,279,189256,2,0,L|376:324,1,37.5000014305115,2|2,3:1|0:1,0:0:0:0:
303,315,189432,2,0,L|262:365,1,37.5000014305115,2|2,0:1|0:1,0:0:0:0:
195,339,189609,5,2,3:1:0:0:
295,151,189785,1,8,0:0:0:0:
195,339,189961,1,0,0:0:0:0:
376,187,190138,6,0,P|394:147|387:82,1,75.0000028610231,0|0,1:0|0:0,0:0:0:0:
325,326,190491,1,8,0:0:0:0:
307,131,190667,1,0,1:1:0:0:
307,131,190756,1,0,0:0:0:0:
307,131,190844,1,0,0:0:0:0:
456,167,191020,1,0,3:0:0:0:
246,208,191196,1,8,0:0:0:0:
432,79,191373,5,0,3:0:0:0:
231,124,191550,1,4,1:0:0:0:
270,24,191726,1,0,0:0:0:0:
67,160,191903,2,0,L|39:5,1,150.000005722046,2|0,3:2|0:0,0:0:0:0:
237,211,192432,5,0,1:1:0:0:
126,234,192609,1,8,0:0:0:0:
229,130,192785,1,0,0:0:0:0:
138,312,192961,5,0,1:0:0:0:
29,183,193138,1,0,3:0:0:0:
138,312,193314,2,0,P|183:321|228:310,1,75.0000028610231,8|2,0:0|3:1,0:0:0:0:
232,300,193579,1,2,0:1:0:0:
251,282,193667,1,2,0:1:0:0:
177,60,193844,5,2,3:1:0:0:
120,201,194020,1,8,0:0:0:0:
268,152,194197,1,0,0:0:0:0:
211,293,194373,5,0,1:0:0:0:
73,318,194550,1,0,3:0:0:0:
120,201,194726,1,8,0:0:0:0:
291,357,194903,2,0,P|313:363|343:363,1,37.5000014305115,2|2,3:1|0:1,0:0:0:0:
343,266,195079,2,0,P|365:260|391:245,1,37.5000014305115,2|2,0:1|0:1,0:0:0:0:
332,158,195256,5,2,3:1:0:0:
219,324,195432,1,8,0:0:0:0:
278,70,195609,1,0,0:0:0:0:
173,238,195785,6,0,B|129:244|129:244|90:234,1,75.0000028610231,0|0,1:0|0:0,0:0:0:0:
140,151,196138,1,8,0:0:0:0:
219,324,196314,2,0,L|262:322,1,37.5000014305115,2|2,3:1|0:1,0:0:0:0:
285,235,196491,2,0,L|326:232,1,37.5000014305115,2|2,0:1|0:1,0:0:0:0:
363,134,196667,1,2,3:1:0:0:
140,151,196844,1,8,0:0:0:0:
285,235,197020,1,0,0:0:0:0:
120,227,197197,6,0,P|84:206|62:157,1,75.0000028610231,0|0,1:0|0:0,0:0:0:0:
33,338,197550,1,8,0:0:0:0:
140,151,197726,1,2,3:1:0:0:
153,128,197814,1,2,0:1:0:0:
173,110,197903,2,0,L|223:101,1,37.5000014305115,2|0,0:1|0:0,0:0:0:0:
209,324,198079,5,2,1:1:0:0:
245,178,198256,1,8,0:0:0:0:
209,324,198432,1,0,0:0:0:0:
336,168,198609,5,0,1:0:0:0:
156,231,198785,1,0,3:0:0:0:
304,346,198961,1,8,0:0:0:0:
73,362,199138,1,2,3:1:0:0:
73,362,199226,1,2,0:1:0:0:
73,362,199315,1,2,0:1:0:0:
101,159,199491,5,2,3:1:0:0:
50,334,199667,1,8,0:0:0:0:
101,159,199844,1,0,0:0:0:0:
264,246,200020,5,0,1:0:0:0:
73,246,200197,1,0,3:0:0:0:
296,155,200373,1,8,0:0:0:0:
233,336,200550,1,2,3:1:0:0:
233,336,200638,1,2,0:1:0:0:
233,336,200726,1,2,0:1:0:0:
157,116,200903,5,2,3:1:0:0:
372,112,201079,1,8,0:0:0:0:
105,47,201256,1,0,0:0:0:0:
313,173,201432,6,0,L|289:272,1,75.0000028610231,0|0,1:2|0:0,0:0:0:0:
157,116,201785,1,8,0:0:0:0:
317,272,201961,2,0,L|414:243,1,75.0000028610231,2|0,1:1|0:0,0:0:0:0:
207,362,202314,1,0,3:0:0:0:
403,218,202491,2,0,L|427:128,1,75.0000028610231,8|0,0:0|3:0,0:0:0:0:
269,311,202844,5,8,1:2:0:0:
255,204,203020,1,0,0:0:0:0:
239,97,203197,1,2,0:0:0:0:
239,97,203726,5,0,3:0:0:0:
152,89,203903,1,8,0:0:0:0:
239,97,204079,1,0,3:0:0:0:
50,262,204256,5,4,1:0:0:0:
92,157,204432,1,0,3:0:0:0:
120,306,204609,2,0,P|162:318|216:303,1,75.0000028610231,8|2,0:0|3:1,0:0:0:0:
212,297,204873,1,2,0:1:0:0:
230,278,204961,1,2,0:1:0:0:
92,157,205138,1,2,3:1:0:0:
259,277,205314,2,0,L|339:293,1,75.0000028610231,8|0,0:0|0:0,0:0:0:0:
160,238,205667,5,0,1:0:0:0:
280,118,205844,1,0,3:0:0:0:
332,291,206020,1,8,0:0:0:0:
191,148,206197,1,2,3:1:0:0:
183,122,206285,1,2,0:1:0:0:
186,96,206373,2,0,P|189:73|200:52,1,37.5000014305115,2|2,0:1|0:1,0:0:0:0:
280,118,206550,2,0,P|277:141|266:162,1,37.5000014305115,2|2,3:1|0:1,0:0:0:0:
289,26,206726,2,0,P|338:14|374:22,1,75.0000028610231,8|0,0:0|0:0,0:0:0:0:
82,174,207079,6,0,L|102:92,1,75.0000028610231,0|0,1:0|0:0,0:0:0:0:
115,268,207432,1,8,0:0:0:0:
173,148,207609,1,2,3:1:0:0:
186,125,207697,1,2,0:1:0:0:
207,109,207785,1,2,0:1:0:0:
232,104,207873,1,2,0:1:0:0:
257,108,207961,2,0,P|277:116|308:142,1,37.5000014305115,2|2,3:1|0:1,0:0:0:0:
160,244,208138,2,0,P|140:236|109:210,1,37.5000014305115,8|0,0:0|0:0,0:0:0:0:
186,125,208314,1,0,0:0:0:0:
250,282,208491,5,0,1:0:0:0:
186,125,208667,1,0,0:0:0:0:
334,306,208844,2,0,L|424:315,1,75.0000028610231,8|2,0:0|3:1,0:0:0:0:
432,301,209109,1,2,0:1:0:0:
453,285,209197,2,0,L|492:256,1,37.5000014305115,2|2,0:1|0:1,0:0:0:0:
276,219,209373,2,0,L|268:255,1,37.5000014305115,2|2,3:1|0:1,0:0:0:0:
403,157,209550,2,0,L|361:79,1,75.0000028610231,8|0,0:0|0:0,0:0:0:0:
95,196,209903,5,0,1:0:0:0:
276,219,210079,1,0,3:0:0:0:
69,121,210256,1,8,0:0:0:0:
125,273,210432,1,2,3:1:0:0:
125,273,210520,1,2,0:1:0:0:
125,273,210609,1,2,0:1:0:0:
69,121,210785,1,2,3:1:0:0:
226,291,210961,2,0,P|264:306|329:290,1,75.0000028610231,8|0,0:0|0:0,0:0:0:0:
379,172,211314,5,0,1:0:0:0:
380,353,211491,1,0,3:0:0:0:
295,117,211667,2,0,P|257:116|223:130,1,75.0000028610231,8|2,0:0|0:1,0:0:0:0:
201,151,211932,1,2,0:1:0:0:
185,176,212020,1,2,0:1:0:0:
145,66,212197,1,2,3:1:0:0:
278,270,212373,2,0,P|286:234|278:198,1,75.0000028610231,8|0,0:0|0:0,0:0:0:0:
362,47,212726,6,0,L|456:40,1,75.0000028610231,0|0,1:0|0:0,0:0:0:0:
368,225,213079,1,8,0:0:0:0:
257,60,213256,1,2,0:1:0:0:
257,60,213344,1,2,0:1:0:0:
257,60,213432,2,0,L|220:83,1,37.5000014305115,2|2,0:1|0:1,0:0:0:0:
127,60,213609,2,0,L|122:115,1,37.5000014305115,2|2,3:1|0:1,0:0:0:0:
34,129,213785,2,0,L|64:215,1,75.0000028610231,8|0,0:0|3:0,0:0:0:0:
78,217,214050,1,0,0:0:0:0:
98,232,214138,5,0,1:0:0:0:
204,185,214314,1,0,0:0:0:0:
106,252,214491,1,8,0:0:0:0:
232,272,214667,1,0,3:1:0:0:
113,275,214844,1,0,0:1:0:0:
222,364,215020,1,0,3:1:0:0:
34,363,215197,2,0,L|11:269,1,75.0000028610231,8|0,0:0|0:0,0:0:0:0:
261,165,215550,5,0,1:0:0:0:
261,165,215726,1,0,3:0:0:0:
121,201,215903,1,8,0:0:0:0:
303,239,216079,1,2,3:1:0:0:
303,239,216167,1,2,0:1:0:0:
303,239,216256,2,0,L|338:208,1,37.5000014305115,2|2,0:1|0:1,0:0:0:0:
336,127,216432,2,0,L|371:96,1,37.5000014305115,2|2,3:1|0:1,0:0:0:0:
263,50,216609,2,0,P|223:40|163:63,1,75.0000028610231,8|0,0:0|0:0,0:0:0:0:
53,219,216961,6,0,P|93:229|153:206,1,75.0000028610231,0|0,1:0|0:0,0:0:0:0:
23,58,217314,1,8,0:0:0:0:
149,204,217491,1,2,3:1:0:0:
149,204,217579,1,2,0:1:0:0:
149,204,217667,1,2,0:1:0:0:
35,138,217844,1,2,3:1:0:0:
172,185,218020,2,0,L|260:187,1,75.0000028610231,8|0,0:0|0:0,0:0:0:0:
304,345,218373,6,0,L|229:343,1,75.0000028610231,0|0,1:0|0:0,0:0:0:0:
396,303,218726,2,0,L|411:211,1,75.0000028610231,8|2,0:0|3:1,0:0:0:0:
395,205,218991,1,2,0:1:0:0:
378,184,219079,2,0,P|358:178|336:179,1,37.5000014305115,2|2,0:1|0:1,0:0:0:0:
257,254,219256,2,0,P|277:260|299:259,1,37.5000014305115,2|2,3:1|0:1,0:0:0:0:
202,175,219432,2,0,P|182:169|160:170,1,37.5000014305115,8|0,0:0|0:1,0:0:0:0:
75,216,219609,1,0,3:0:0:0:
268,107,219785,5,0,1:0:0:0:
268,107,219961,1,0,0:0:0:0:
173,193,220138,2,0,B|136:202|136:202|80:194,1,75.0000028610231,8|2,0:0|3:1,0:0:0:0:
76,183,220403,1,2,0:1:0:0:
52,170,220491,1,2,0:1:0:0:
24,282,220667,1,2,3:1:0:0:
136,117,220844,2,0,B|173:108|173:108|229:116,1,75.0000028610231,8|0,0:0|0:0,0:0:0:0:
271,316,221197,5,0,1:0:0:0:
303,144,221373,1,0,3:0:0:0:
367,341,221550,1,8,0:0:0:0:
222,246,221726,2,0,P|212:260|182:276,1,37.5000014305115,2|2,3:1|0:1,0:0:0:0:
158,181,221903,2,0,P|140:181|120:175,1,37.5000014305115,2|2,0:1|0:1,0:0:0:0:
167,87,222079,1,2,3:1:0:0:
292,333,222256,2,0,L|383:342,1,75.0000028610231,8|0,0:0|0:0,0:0:0:0:
295,179,222609,5,0,1:0:0:0:
137,279,222785,1,0,3:0:0:0:
260,94,222961,2,0,L|339:90,1,75.0000028610231,8|2,0:0|0:1,0:0:0:0:
356,74,223226,1,2,0:1:0:0:
377,58,223314,1,2,0:1:0:0:
446,158,223491,1,2,3:1:0:0:
236,76,223667,2,0,L|161:79,1,75.0000028610231,8|0,0:0|0:0,0:0:0:0:
315,258,224020,6,0,P|330:217|314:168,1,75.0000028610231,0|0,1:2|0:0,0:0:0:0:
249,331,224373,1,8,0:0:0:0:
123,241,224550,2,0,P|119:204|134:170,1,75.0000028610231,2|0,1:1|0:0,0:0:0:0:
240,107,224903,1,0,3:0:0:0:
249,331,225079,1,8,0:0:0:0:
123,241,225256,1,0,0:0:0:0:
339,272,225432,6,0,B|437:259|437:259|377:229,1,150.000005722046,0|2,1:0|3:2,0:0:0:0:
297,132,225961,1,0,3:1:0:0:
376,225,226138,1,0,0:0:0:0:
381,95,226314,1,0,1:0:0:0:
304,263,226491,2,0,B|210:274|210:274|148:265,1,150.000005722046,8|0,0:0|0:0,0:0:0:0:
241,142,238138,5,4,0:1:0:0:
220,257,238314,1,0,0:0:0:0:
298,84,238491,2,0,P|252:62|205:72,1,75.0000028610231,8|0,0:0|0:0,0:0:0:0:
205,74,238756,1,0,0:0:0:0:
181,85,238844,1,0,0:0:0:0:
157,96,238932,1,0,0:0:0:0:
133,107,239020,1,0,0:0:0:0:
311,152,239197,1,8,0:0:0:0:
172,252,239373,1,0,0:0:0:0:
311,152,239550,5,0,0:0:0:0:
313,299,239726,1,0,0:0:0:0:
236,165,239903,2,0,P|239:114|276:83,1,75.0000028610231,8|0,0:0|0:0,0:0:0:0:
275,83,240167,1,0,0:0:0:0:
298,71,240256,1,0,0:0:0:0:
322,61,240344,1,0,0:0:0:0:
346,51,240432,1,0,0:0:0:0:
224,192,240609,2,0,P|178:214|132:198,1,75.0000028610231,8|0,0:0|0:0,0:0:0:0:
441,113,240961,6,0,L|431:199,1,75.0000028610231,0|0,0:0|0:0,0:0:0:0:
351,55,241314,1,8,0:0:0:0:
357,225,241491,1,0,0:0:0:0:
334,238,241579,1,0,0:0:0:0:
308,243,241667,1,0,0:0:0:0:
282,236,241756,1,0,0:0:0:0:
261,219,241844,1,0,0:0:0:0:
128,288,242020,1,8,0:0:0:0:
128,288,242197,1,0,0:0:0:0:
49,154,242373,6,0,L|41:64,1,75.0000028610231,0|0,0:0|0:0,0:0:0:0:
255,149,242726,1,8,0:0:0:0:
106,229,242903,1,0,0:0:0:0:
127,243,242991,1,0,0:0:0:0:
154,247,243079,1,0,0:0:0:0:
180,244,243167,1,0,0:0:0:0:
204,234,243256,1,0,0:0:0:0:
171,56,243432,1,8,0:0:0:0:
171,56,243609,1,0,0:0:0:0:
317,117,243785,5,0,1:0:0:0:
465,85,243961,1,0,1:0:0:0:
306,141,244138,5,0,1:0:0:0:
162,95,244314,1,0,1:0:0:0:
297,165,244491,5,0,1:0:0:0:
398,54,244667,1,0,1:0:0:0:
289,186,244844,5,0,1:0:0:0:
257,39,245020,1,0,1:0:0:0:
282,208,245197,5,0,1:0:0:0:
449,187,245373,1,0,1:0:0:0:
274,296,245550,5,0,1:0:0:0:
119,231,245726,1,0,1:0:0:0:
361,179,245903,5,0,1:0:0:0:
462,312,246079,1,0,1:0:0:0:
210,294,246256,5,0,1:0:0:0:
145,140,246432,1,0,1:0:0:0:
244,44,246609,6,0,L|250:13,7,18.7500007152558,0|0|0|0|0|0|0|0,0:0|0:0|0:0|0:0|0:0|0:0|0:0|0:0,0:0:0:0:
280,64,246961,2,0,L|296:47,7,18.7500007152558,0|0|0|0|0|0|0|0,0:0|0:0|0:0|0:0|0:0|0:0|0:0|0:0,0:0:0:0:
300,100,247314,6,0,L|327:97,7,18.7500007152558,0|0|0|0|0|0|0|0,0:0|0:0|0:0|0:0|0:0|0:0|0:0|0:0,0:0:0:0:
300,138,247667,2,0,L|331:151,7,18.7500007152558
281,169,248020,6,0,P|258:205|218:229,1,75.0000028610231,0|0,1:0|0:0,0:0:0:0:
206,217,248285,1,0,0:0:0:0:
181,208,248373,2,0,P|131:203|105:215,1,75.0000028610231,0|0,1:0|0:0,0:0:0:0:
89,229,248638,1,0,0:0:0:0:
73,249,248726,1,0,1:0:0:0:
24,144,248903,2,0,L|7:95,1,37.5000014305115,0|0,1:0|0:0,0:0:0:0:
151,283,249079,1,8,0:0:0:0:
90,46,249256,1,0,3:0:0:0:
377,148,249432,5,4,0:1:0:0:
233,75,249609,1,2,0:0:0:0:
233,75,249697,1,2,0:0:0:0:
233,75,249785,2,0,L|196:82,1,37.5000014305115,8|0,0:0|0:0,0:0:0:0:
268,256,249961,1,2,0:0:0:0:
268,256,250049,1,0,0:0:0:0:
268,256,250137,2,0,L|304:248,1,37.5000014305115,2|0,3:2|0:0,0:0:0:0:
209,166,250314,2,0,L|197:201,1,37.5000014305115,2|0,0:2|0:0,0:0:0:0:
363,346,250491,1,8,0:0:0:0:
409,124,250667,1,0,3:0:0:0:
238,339,250844,5,4,0:1:0:0:
70,145,251020,1,2,0:0:0:0:
70,145,251109,1,2,0:0:0:0:
70,145,251197,2,0,L|36:167,1,37.5000014305115,8|0,0:0|0:0,0:0:0:0:
88,353,251372,1,2,0:0:0:0:
88,353,251461,1,0,0:0:0:0:
88,353,251549,2,0,L|121:330,1,37.5000014305115,2|0,3:2|0:0,0:0:0:0:
195,183,251726,2,0,L|193:146,1,37.5000014305115,2|0,0:2|0:0,0:0:0:0:
270,312,251903,1,8,0:0:0:0:
105,233,252079,1,2,3:1:0:0:
290,331,252256,6,0,L|382:331,1,75.0000028610231,0|0,1:0|0:0,0:0:0:0:
385,315,252520,1,2,0:0:0:0:
405,298,252609,1,8,0:0:0:0:
333,190,252785,1,2,0:0:0:0:
306,188,252873,1,0,0:0:0:0:
279,186,252961,2,0,L|227:156,1,37.5000014305115,2|0,3:2|0:0,0:0:0:0:
166,233,253138,2,0,L|114:203,1,37.5000014305115,0|0,0:2|0:0,0:0:0:0:
39,279,253314,1,8,0:0:0:0:
257,268,253491,1,0,3:0:0:0:
25,256,253667,5,2,1:2:0:0:
44,146,253844,1,0,0:0:0:0:
64,39,254020,1,8,0:0:0:0:
25,256,254197,1,0,3:0:0:0:
76,53,254373,5,2,0:0:0:0:
58,148,254550,1,0,0:0:0:0:
36,245,254726,1,8,0:0:0:0:
76,53,254903,1,0,3:0:0:0:
116,209,255079,5,0,1:0:0:0:
244,121,255256,1,2,0:0:0:0:
269,115,255344,1,2,0:0:0:0:
294,110,255432,2,0,L|352:100,1,37.5000014305115,8|0,0:0|0:0,0:0:0:0:
173,59,255609,1,2,0:0:0:0:
173,59,255697,1,0,0:0:0:0:
173,59,255785,2,0,L|164:107,1,37.5000014305115,2|0,3:2|0:0,0:0:0:0:
294,241,255961,2,0,L|288:205,1,37.5000014305115,2|0,0:2|0:0,0:0:0:0:
157,334,256138,1,8,0:0:0:0:
384,226,256314,1,0,3:0:0:0:
118,226,256491,5,0,1:1:0:0:
234,139,256667,1,2,0:0:0:0:
252,121,256756,1,2,0:0:0:0:
271,103,256844,2,0,L|277:58,1,37.5000014305115,8|0,0:0|0:0,0:0:0:0:
216,237,257020,1,2,0:0:0:0:
234,256,257109,1,0,0:0:0:0:
252,275,257197,2,0,L|297:281,1,37.5000014305115,2|0,3:2|0:0,0:0:0:0:
384,176,257373,2,0,L|429:182,1,37.5000014305115,2|0,0:2|0:0,0:0:0:0:
503,15,257550,1,8,0:0:0:0:
240,54,257726,2,0,L|192:50,1,37.5000014305115,2|0,3:1|0:0,0:0:0:0:
335,63,257903,5,0,1:0:0:0:
162,147,258079,2,0,L|114:143,1,37.5000014305115,0|2,0:0|0:0,0:0:0:0:
335,63,258256,5,8,0:0:0:0:
85,242,258432,2,0,L|37:238,1,37.5000014305115,2|0,0:0|0:0,0:0:0:0:
248,192,258609,6,0,P|269:202|284:216,1,37.5000014305115,2|0,3:2|0:0,0:0:0:0:
215,301,258785,2,0,P|221:325|218:347,1,37.5000014305115,0|0,0:2|0:0,0:0:0:0:
101,348,258961,1,8,0:0:0:0:
323,307,259138,1,0,3:0:0:0:
47,256,259314,5,2,1:2:0:0:
129,181,259491,1,0,0:0:0:0:
211,109,259667,1,8,0:0:0:0:
47,256,259844,1,0,3:0:0:0:
212,127,260020,5,2,0:0:0:0:
139,191,260197,1,0,0:0:0:0:
62,254,260373,1,8,0:0:0:0:
212,127,260550,1,0,3:0:0:0:
151,279,260726,5,4,1:1:0:0:
212,127,260903,1,2,0:0:0:0:
138,296,261079,1,8,0:0:0:0:
254,212,261256,1,2,0:0:0:0:
275,197,261344,1,0,0:0:0:0:
301,194,261432,2,0,L|352:216,1,37.5000014305115,2|0,3:2|0:0,0:0:0:0:
160,218,261609,2,0,L|125:203,1,37.5000014305115,2|0,0:2|0:0,0:0:0:0:
300,92,261785,1,8,0:0:0:0:
231,290,261961,1,0,3:0:0:0:
474,222,262138,5,4,1:1:0:0:
406,79,262314,1,2,0:0:0:0:
476,245,262491,1,8,0:0:0:0:
353,148,262667,1,2,0:0:0:0:
353,148,262756,1,0,0:0:0:0:
353,148,262844,2,0,L|304:141,1,37.5000014305115,2|0,3:2|0:0,0:0:0:0:
160,196,263020,2,0,L|111:189,1,37.5000014305115,2|0,0:2|0:0,0:0:0:0:
353,148,263197,1,8,0:0:0:0:
229,289,263373,1,2,3:1:0:0:
90,87,263550,5,4,1:0:0:0:
49,226,263726,1,0,0:0:0:0:
119,76,263903,5,8,0:0:0:0:
151,223,264079,1,0,3:0:0:0:
148,59,264256,5,2,3:2:0:0:
148,59,264432,1,0,0:2:0:0:
49,226,264609,1,8,0:0:0:0:
254,223,264785,1,0,3:0:0:0:
72,127,264961,6,0,L|49:48,1,75.0000028610231,8|0,1:2|0:0,0:0:0:0:
149,274,265314,1,0,1:0:0:0:
216,137,265491,1,8,1:2:0:0:
231,116,265579,1,0,0:0:0:0:
247,96,265667,2,0,L|290:87,1,37.5000014305115,2|0,0:0|0:0,0:0:0:0:
369,225,265844,2,0,L|332:232,1,37.5000014305115,0|0,0:0|0:0,0:0:0:0:
378,100,266020,2,0,L|456:85,1,75.0000028610231,8|0,0:0|3:0,0:0:0:0:
245,30,266373,5,4,1:0:0:0:
245,30,266550,1,0,3:0:0:0:
280,212,266726,1,8,0:0:0:0:
184,110,266903,1,2,3:1:0:0:
177,84,266991,1,2,0:1:0:0:
172,58,267079,2,0,L|162:15,1,37.5000014305115,2|2,0:1|0:1,0:0:0:0:
118,161,267256,2,0,L|126:197,1,37.5000014305115,2|2,3:1|0:1,0:0:0:0:
280,212,267432,1,8,0:0:0:0:
86,82,267609,1,0,0:0:0:0:
191,263,267785,6,0,P|191:302|169:342,1,75.0000028610231,4|0,1:0|3:0,0:0:0:0:
280,212,268138,1,8,0:0:0:0:
104,290,268314,1,2,3:1:0:0:
104,290,268403,1,2,0:1:0:0:
104,290,268491,5,2,0:1:0:0:
324,294,268667,1,0,3:1:0:0:
116,69,268844,1,8,0:0:0:0:
336,73,269020,1,0,0:0:0:0:
104,290,269197,5,4,1:0:0:0:
104,290,269373,1,0,3:0:0:0:
224,227,269550,2,0,P|270:214|327:230,1,75.0000028610231,8|2,0:0|3:1,0:0:0:0:
278,198,269814,1,2,0:1:0:0:
264,175,269903,2,0,P|255:154|257:132,1,37.5000014305115,2|2,0:1|0:1,0:0:0:0:
384,217,270079,2,0,P|406:219|424:232,1,37.5000014305115,2|2,3:1|0:1,0:0:0:0:
301,300,270256,2,0,P|287:318|236:334,1,75.0000028610231,8|0,0:0|0:0,0:0:0:0:
58,138,270609,5,8,0:0:0:0:
231,230,270785,2,0,L|250:271,2,25.0000009536744,2|2|2,0:1|0:1|0:1,0:0:0:0:
247,116,270961,1,0,1:0:0:0:
436,138,271138,1,8,1:2:0:0:
263,230,271314,2,0,L|244:271,2,25.0000009536744
247,116,271490,5,0,1:0:0:0:
241,354,271667,1,8,1:2:0:0:
241,354,271844,1,0,1:0:0:0:
356,297,272020,5,4,1:0:0:0:
138,296,272197,1,0,3:0:0:0:
356,297,272373,1,8,0:0:0:0:
235,196,272550,2,0,P|215:195|193:201,1,37.5000014305115,2|2,3:1|0:1,0:0:0:0:
242,274,272726,2,0,P|262:275|284:269,1,37.5000014305115,2|2,0:1|0:1,0:0:0:0:
257,52,272903,5,2,3:1:0:0:
332,196,273079,1,8,0:0:0:0:
157,66,273256,1,0,0:0:0:0:
332,196,273432,5,0,1:0:0:0:
475,124,273609,1,0,3:0:0:0:
332,196,273785,1,8,0:0:0:0:
175,170,273961,1,2,0:1:0:0:
153,154,274050,1,2,0:1:0:0:
134,135,274138,2,0,L|123:83,1,37.5000014305115,2|2,0:1|0:1,0:0:0:0:
136,255,274314,5,0,0:0:0:0:
281,99,274491,1,8,0:0:0:0:
57,192,274667,1,0,0:0:0:0:
281,99,274844,6,0,L|360:105,1,75.0000028610231,0|0,1:0|0:0,0:0:0:0:
454,61,275197,1,8,0:0:0:0:
294,191,275373,2,0,L|215:197,1,75.0000028610231,2|0,1:1|0:1,0:0:0:0:
121,153,275726,1,0,3:1:0:0:
288,288,275903,2,0,L|367:294,1,75.0000028610231,8|0,0:0|0:0,0:0:0:0:
461,250,276256,5,0,1:0:0:0:
315,192,276432,1,0,0:0:0:0:
437,96,276609,1,8,0:0:0:0:
461,250,276785,2,0,P|460:274|446:303,1,37.5000014305115,2|2,3:1|0:1,0:0:0:0:
356,276,276961,2,0,P|342:294|327:304,1,37.5000014305115,2|2,0:1|0:1,0:0:0:0:
246,236,277138,5,2,3:1:0:0:
482,168,277314,1,8,0:0:0:0:
294,164,277491,1,0,0:0:0:0:
451,27,277667,5,0,1:0:0:0:
486,192,277844,1,0,3:0:0:0:
451,27,278020,1,8,0:0:0:0:
407,239,278197,1,2,3:1:0:0:
396,258,278285,1,2,0:1:0:0:
385,277,278373,2,0,L|333:294,1,37.5000014305115,2|2,0:1|0:1,0:0:0:0:
117,243,278550,5,2,3:1:0:0:
326,214,278726,1,8,0:0:0:0:
159,170,278903,1,0,0:0:0:0:
318,191,279079,5,0,1:0:0:0:
284,30,279256,1,0,3:0:0:0:
318,191,279432,1,8,0:0:0:0:
195,81,279609,1,2,3:1:0:0:
195,81,279697,1,2,0:1:0:0:
195,81,279785,2,0,L|153:63,1,37.5000014305115,2|2,0:1|0:1,0:0:0:0:
84,223,279961,5,0,0:0:0:0:
153,42,280138,1,8,0:0:0:0:
164,276,280314,1,0,0:0:0:0:
276,123,280491,6,0,P|320:114|362:125,1,75.0000028610231,0|0,1:0|0:0,0:0:0:0:
218,54,280844,1,8,0:0:0:0:
228,261,281020,1,2,1:1:0:0:
228,261,281109,1,0,0:0:0:0:
228,261,281197,1,0,0:0:0:0:
153,194,281373,1,0,3:0:0:0:
362,207,281550,1,8,0:0:0:0:
119,30,281726,5,0,3:0:0:0:
268,225,281903,1,4,1:0:0:0:
153,194,282079,1,0,0:0:0:0:
114,369,282256,2,0,L|275:359,1,150.000005722046,2|0,3:2|0:0,0:0:0:0:
44,236,282785,5,2,3:1:0:0:
133,68,282961,1,8,0:0:0:0:
95,322,283138,1,0,0:0:0:0:
184,145,283314,5,0,1:0:0:0:
44,236,283491,1,0,3:0:0:0:
184,145,283667,1,8,0:0:0:0:
190,302,283844,1,2,3:1:0:0:
190,302,283932,1,2,0:1:0:0:
190,302,284020,1,2,0:1:0:0:
96,156,284197,5,2,3:1:0:0:
276,215,284373,1,8,0:0:0:0:
82,63,284550,1,0,0:0:0:0:
239,130,284726,5,0,1:0:0:0:
334,7,284903,1,0,3:0:0:0:
239,130,285079,1,8,0:0:0:0:
414,112,285256,1,2,3:1:0:0:
438,120,285344,1,2,0:1:0:0:
462,128,285432,1,2,0:1:0:0:
248,42,285609,5,2,3:1:0:0:
383,199,285785,1,8,0:0:0:0:
168,221,285961,1,0,0:0:0:0:
300,107,286138,6,0,L|294:33,1,75.0000028610231,0|0,1:0|0:0,0:0:0:0:
116,146,286491,1,8,0:0:0:0:
284,130,286667,1,2,3:1:0:0:
309,137,286756,1,2,0:1:0:0:
333,145,286844,1,2,0:1:0:0:
357,152,286932,1,2,0:1:0:0:
381,160,287020,2,0,L|406:201,1,37.5000014305115,2|2,3:1|0:1,0:0:0:0:
215,199,287197,1,8,0:0:0:0:
182,36,287373,1,0,0:0:0:0:
48,140,287550,5,0,1:0:0:0:
235,111,287726,1,0,0:0:0:0:
91,32,287903,1,8,0:0:0:0:
104,222,288079,2,0,P|93:243|87:273,1,37.5000014305115,2|2,3:1|0:1,0:0:0:0:
189,285,288256,2,0,P|189:309|200:328,1,37.5000014305115,2|2,0:1|0:1,0:0:0:0:
292,296,288432,5,2,3:1:0:0:
104,338,288609,1,8,0:0:0:0:
292,296,288785,1,0,0:0:0:0:
166,95,288961,5,0,1:0:0:0:
310,71,289138,1,0,3:0:0:0:
254,196,289314,1,8,0:0:0:0:
229,34,289491,1,2,3:1:0:0:
229,34,289579,1,2,0:1:0:0:
229,34,289667,1,2,0:1:0:0:
351,224,289844,5,2,3:1:0:0:
136,222,290020,1,8,0:0:0:0:
351,224,290197,1,0,0:0:0:0:
124,96,290373,5,0,1:0:0:0:
247,154,290550,1,0,3:0:0:0:
136,222,290726,1,8,0:0:0:0:
220,59,290903,1,2,3:1:0:0:
220,59,290991,1,2,0:1:0:0:
220,59,291079,1,2,0:1:0:0:
262,332,291256,5,2,3:1:0:0:
302,183,291432,1,8,0:0:0:0:
166,338,291609,1,0,0:0:0:0:
362,256,291785,6,0,L|449:282,1,75.0000028610231,0|0,1:2|0:0,0:0:0:0:
338,94,292138,1,8,0:0:0:0:
247,222,292314,2,0,L|291:310,1,75.0000028610231,0|0,1:1|0:0,0:0:0:0:
416,32,292667,1,0,3:0:0:0:
187,111,292844,2,0,L|157:199,1,75.0000028610231,8|0,0:0|3:0,0:0:0:0:
451,124,293197,5,8,1:2:0:0:
337,136,293373,1,0,0:0:0:0:
382,37,293550,1,2,0:0:0:0:
486,190,294079,5,0,3:0:0:0:
451,343,294256,1,8,0:0:0:0:
486,190,294432,1,0,3:0:0:0:
301,359,294609,5,0,1:0:0:0:
376,221,294785,1,0,3:0:0:0:
275,368,294961,2,0,P|233:365|193:341,1,75.0000028610231,8|2,0:0|0:1,0:0:0:0:
204,350,295226,1,2,0:1:0:0:
204,350,295314,1,2,0:1:0:0:
318,155,295491,1,2,3:1:0:0:
384,342,295667,2,0,P|417:357|454:359,1,75.0000028610231,8|0,0:0|0:0,0:0:0:0:
226,247,296020,5,0,1:0:0:0:
398,216,296197,1,0,3:0:0:0:
189,156,296373,1,8,0:0:0:0:
350,130,296550,1,2,3:1:0:0:
350,130,296638,1,2,0:1:0:0:
350,130,296726,2,0,L|395:120,1,37.5000014305115,2|2,0:1|0:1,0:0:0:0:
434,207,296903,2,0,L|398:216,1,37.5000014305115,2|2,3:1|0:1,0:0:0:0:
267,48,297079,2,0,L|340:31,1,75.0000028610231,8|0,0:0|0:0,0:0:0:0:
129,216,297432,5,0,1:0:0:0:
129,216,297609,1,0,0:0:0:0:
87,65,297785,1,8,0:0:0:0:
30,247,297961,1,2,3:1:0:0:
45,268,298050,1,2,0:1:0:0:
60,289,298138,1,2,0:1:0:0:
75,309,298226,1,2,0:1:0:0:
92,328,298314,2,0,L|151:340,1,37.5000014305115,2|2,3:1|0:1,0:0:0:0:
265,279,298491,1,8,0:0:0:0:
13,358,298667,1,0,0:0:0:0:
205,207,298844,6,0,P|210:166|183:124,1,75.0000028610231,0|0,1:0|0:0,0:0:0:0:
59,52,299197,1,8,0:0:0:0:
196,136,299373,1,2,3:1:0:0:
220,146,299461,1,2,0:1:0:0:
246,150,299550,2,0,P|268:147|290:135,1,37.5000014305115,2|2,0:1|0:1,0:0:0:0:
300,45,299726,2,0,P|277:47|255:59,1,37.5000014305115,2|2,3:1|0:1,0:0:0:0:
381,165,299903,2,0,L|378:80,1,75.0000028610231,8|0,0:0|0:0,0:0:0:0:
334,301,300256,5,0,1:0:0:0:
406,180,300432,1,0,3:0:0:0:
231,281,300609,1,8,0:0:0:0:
406,367,300785,1,2,3:1:0:0:
406,367,300873,1,2,0:1:0:0:
406,367,300961,1,2,0:1:0:0:
264,267,301138,1,2,3:1:0:0:
406,180,301314,2,0,L|418:90,1,75.0000028610231,8|0,0:0|0:0,0:0:0:0:
178,301,301667,5,0,1:0:0:0:
178,301,301843,1,0,0:0:0:0:
106,180,302020,1,8,0:0:0:0:
106,367,302196,1,2,0:1:0:0:
106,367,302284,1,2,0:1:0:0:
106,367,302372,1,2,0:1:0:0:
281,281,302549,1,0,0:0:0:0:
106,180,302726,2,0,L|93:91,1,75.0000028610231,8|0,0:0|0:0,0:0:0:0:
308,48,303079,6,0,L|398:42,1,75.0000028610231,0|0,1:0|0:0,0:0:0:0:
162,27,303432,1,8,0:0:0:0:
220,173,303609,1,2,0:1:0:0:
229,197,303697,1,2,0:1:0:0:
239,221,303785,2,0,L|269:191,1,37.5000014305115,2|2,0:1|0:1,0:0:0:0:
132,187,303961,2,0,L|102:157,1,37.5000014305115,2|2,3:1|0:1,0:0:0:0:
258,104,304138,2,0,L|311:45,1,75.0000028610231,8|0,0:0|3:0,0:0:0:0:
426,219,304491,5,0,1:0:0:0:
437,125,304667,1,0,0:0:0:0:
398,237,304844,1,8,0:0:0:0:
340,148,305020,1,0,3:1:0:0:
384,265,305197,1,0,0:1:0:0:
269,227,305373,1,0,3:1:0:0:
381,294,305550,2,0,L|464:319,1,75.0000028610231,8|0,0:0|0:0,0:0:0:0:
247,334,305903,5,0,1:0:0:0:
247,334,306079,1,0,3:0:0:0:
363,200,306256,1,8,0:0:0:0:
168,261,306432,1,2,3:1:0:0:
168,261,306520,1,2,0:1:0:0:
168,261,306609,1,2,0:1:0:0:
363,200,306785,1,2,3:1:0:0:
94,190,306961,2,0,L|70:110,1,75.0000028610231,8|0,0:0|0:0,0:0:0:0:
316,84,307314,5,0,1:0:0:0:
316,84,307491,1,0,3:0:0:0:
163,118,307667,2,0,L|80:98,1,75.0000028610231,8|2,0:0|0:1,0:0:0:0:
70,82,307932,1,2,0:1:0:0:
52,62,308020,1,2,0:1:0:0:
233,22,308197,1,2,3:1:0:0:
163,266,308373,2,0,L|80:286,1,75.0000028610231,8|0,0:0|0:0,0:0:0:0:
283,348,308726,5,0,1:0:0:0:
227,197,308903,1,0,0:0:0:0:
393,263,309079,2,0,L|476:243,1,75.0000028610231,8|2,0:0|3:1,0:0:0:0:
483,225,309344,1,2,0:1:0:0:
497,203,309432,2,0,L|502:150,1,37.5000014305115,2|2,0:1|0:1,0:0:0:0:
410,113,309609,2,0,L|406:150,1,37.5000014305115,2|2,3:1|0:1,0:0:0:0:
493,54,309785,2,0,P|462:23|419:16,1,75.0000028610231,8|0,0:0|0:0,0:0:0:0:
261,181,310138,5,0,1:0:0:0:
306,27,310314,1,0,0:0:0:0:
169,165,310491,2,0,L|77:177,1,75.0000028610231,8|2,0:0|3:1,0:0:0:0:
73,159,310756,1,2,0:1:0:0:
54,140,310844,2,0,L|-11:152,1,37.5000014305115,2|2,0:1|0:1,0:0:0:0:
63,52,311020,2,0,L|100:46,1,37.5000014305115,2|2,3:1|0:1,0:0:0:0:
135,256,311197,2,0,L|61:268,1,75.0000028610231,8|0,0:0|0:0,0:0:0:0:
316,179,311550,5,0,1:0:0:0:
167,154,311726,1,0,3:0:0:0:
364,75,311903,1,8,0:0:0:0:
350,283,312079,1,2,3:1:0:0:
350,283,312167,1,2,0:1:0:0:
350,283,312256,1,2,0:1:0:0:
364,75,312432,1,2,3:1:0:0:
231,257,312609,2,0,L|178:319,1,75.0000028610231,8|0,0:0|0:0,0:0:0:0:
104,116,312961,5,0,1:0:0:0:
31,285,313138,1,0,3:0:0:0:
231,257,313314,1,8,0:0:0:0:
30,190,313491,1,2,3:1:0:0:
30,190,313579,1,2,0:1:0:0:
30,190,313667,1,2,0:1:0:0:
231,257,313844,1,2,3:1:0:0:
104,116,314020,2,0,P|104:61|126:25,1,75.0000028610231,8|0,0:0|0:0,0:0:0:0:
231,257,314373,6,0,L|319:272,1,75.0000028610231,0|0,1:2|0:0,0:0:0:0:
104,311,314726,1,8,0:0:0:0:
224,223,314903,1,2,0:1:0:0:
224,223,314991,1,2,0:1:0:0:
224,223,315079,2,0,L|263:194,1,37.5000014305115,2|2,0:1|0:1,0:0:0:0:
189,121,315256,2,0,L|198:66,1,37.5000014305115,2|2,3:1|0:1,0:0:0:0:
82,67,315432,2,0,L|31:6,1,75.0000028610231,8|0,0:0|3:0,0:0:0:0:
119,243,315785,5,0,1:0:0:0:
140,258,315873,1,0,0:0:0:0:
165,263,315961,1,0,3:0:0:0:
191,262,316050,1,0,3:0:0:0:
216,255,316138,2,0,P|235:241|254:220,1,37.5000014305115,0|0,3:0|0:0,0:0:0:0:
177,171,316314,2,0,P|179:147|174:119,1,37.5000014305115,2|0,3:1|3:0,0:0:0:0:
50,235,316491,6,0,P|36:252|30:275,1,37.5000014305115,0|0,3:0|0:0,0:0:0:0:
112,308,316667,2,0,P|111:332|126:350,1,37.5000014305115,0|0,1:0|0:0,0:0:0:0:
269,146,316844,1,8,0:0:0:0:
269,146,317197,6,0,P|293:161|345:157,1,59.9999981689454,4|0,0:1|0:0,0:0:0:0:
363,50,317550,1,0,1:0:0:0:
250,126,317726,1,0,3:0:0:0:
265,34,317903,1,0,0:0:0:0:
345,145,318079,1,0,3:0:0:0:
176,69,318256,1,8,0:0:0:0:
176,69,318609,6,0,L|171:139,1,59.9999981689454,0|0,1:0|0:0,0:0:0:0:
105,18,318961,1,0,1:0:0:0:
153,144,319138,2,0,L|148:214,1,59.9999981689454,0|0,3:0|0:0,0:0:0:0:
71,116,319490,1,0,3:0:0:0:
214,269,319667,1,8,0:0:0:0:
214,269,320020,5,0,1:0:0:0:
269,183,320197,1,0,0:0:0:0:
321,270,320373,1,0,3:0:0:0:
214,269,320550,2,0,L|102:284,1,89.9999972534181,0|0,1:0|0:0,0:0:0:0:
93,271,320903,5,0,3:0:0:0:
228,249,321079,1,8,0:0:0:0:
364,225,321256,1,0,0:0:0:0:
198,234,321432,6,0,P|187:194|196:168,1,59.9999981689454,0|0,1:0|0:0,0:0:0:0:
364,225,321785,1,0,1:0:0:0:
180,156,321961,2,0,P|187:121|212:98,1,59.9999981689454,0|0,3:0|0:0,0:0:0:0:
364,225,322314,1,0,3:0:0:0:
205,78,322491,1,8,0:0:0:0:
205,78,322844,5,0,1:0:0:0:
305,63,323020,1,0,0:0:0:0:
136,142,323197,1,0,1:0:0:0:
48,108,323373,1,0,3:0:0:0:
273,148,323550,1,0,0:0:0:0:
122,41,323726,1,0,3:0:0:0:
202,211,323903,1,8,0:0:0:0:
202,211,324256,6,0,L|284:223,1,59.9999981689454,0|0,1:0|0:0,0:0:0:0:
379,181,324609,1,0,1:0:0:0:
278,244,324785,2,0,L|196:256,1,59.9999981689454,0|0,3:0|0:0,0:0:0:0:
101,214,325138,1,0,3:0:0:0:
249,333,325314,1,8,0:0:0:0:
249,333,325667,6,0,L|265:201,1,119.999996337891,0|0,1:0|1:0,0:0:0:0:
266,356,326197,2,0,L|282:224,1,119.999996337891,0|0,3:0|3:0,0:0:0:0:
297,136,326726,1,8,0:0:0:0:
310,34,326903,1,0,0:0:0:0:
306,160,327079,6,0,P|339:175|435:158,1,119.999996337891,0|0,1:0|1:0,0:0:0:0:
277,154,327609,2,0,P|218:166|162:147,1,119.999996337891,0|0,3:0|3:0,0:0:0:0:
310,34,328138,1,8,0:0:0:0:
310,34,328491,6,0,B|273:21|273:21|247:25,2,59.9999981689454,4|0|0,0:1|0:0|0:0,0:0:0:0:
323,135,329020,1,2,0:0:0:0:
337,236,329197,2,0,B|374:249|374:249|463:234,1,119.999996337891,0|2,0:0|0:0,0:0:0:0:
153,59,329903,5,0,0:3:0:0:
76,125,330079,1,0,0:0:0:0:
169,160,330256,1,0,0:0:0:0:
153,59,330432,2,0,B|69:32|69:32|30:40,1,119.999996337891,2|0,0:0|0:0,0:0:0:0:
37,38,331314,6,0,L|50:163,1,119.999996337891,2|0,0:0|0:0,0:0:0:0:
148,129,331844,2,0,L|135:248,1,119.999996337891,2|0,0:0|0:0,0:0:0:0:
262,195,332373,1,0,0:0:0:0:
230,287,332550,1,0,0:0:0:0:
134,354,332726,6,0,P|96:350|33:279,1,119.999996337891,2|0,0:0|0:0,0:0:0:0:
135,248,333256,2,0,P|117:205|140:126,1,119.999996337891,2|0,0:0|0:0,0:0:0:0:
224,303,333785,1,2,0:0:0:0:
233,314,334138,6,0,L|305:322,2,59.9999981689454,2|0|0,0:0|0:0|0:0,0:0:0:0:
161,240,334667,1,2,0:0:0:0:
312,301,334844,2,0,L|442:319,1,119.999996337891,0|0,0:0|0:0,0:0:0:0:
262,224,335550,6,0,P|245:189|252:150,2,59.9999981689454,2|0|0,0:0|0:0|0:0,0:0:0:0:
349,170,336079,1,2,0:0:0:0:
253,245,336256,2,0,P|208:253|135:217,1,119.999996337891,0|0,0:0|0:0,0:0:0:0:
258,56,336961,6,0,L|266:186,1,119.999996337891,2|0,0:0|0:0,0:0:0:0:
295,286,337491,2,0,L|287:166,1,119.999996337891,2|0,0:0|0:0,0:0:0:0:
192,203,338020,1,0,0:0:0:0:
369,148,338197,1,0,0:0:0:0:
202,110,338373,6,0,B|170:103|170:103|122:116|122:116|71:110,1,119.999996337891,2|0,0:0|0:0,0:0:0:0:
192,203,338903,2,0,B|224:196|224:196|272:209|272:209|323:203,1,119.999996337891,2|0,0:0|0:0,0:0:0:0:
182,291,339432,1,2,0:0:0:0:
