osu file format v14

[General]
AudioFilename: audio.mp3
AudioLeadIn: 0
PreviewTime: 158550
Countdown: 0
SampleSet: Normal
StackLeniency: 0.7
Mode: 1
LetterboxInBreaks: 0
WidescreenStoryboard: 0

[Editor]
Bookmarks: 961,12256,23550,46138,57432,67314,68726,91314,113903,136491,147785,159079,181667,204256,226844,238138,249432,272020,294609,317197,328491,339432,339785,340138
DistanceSpacing: 0.7
BeatDivisor: 4
GridSize: 8
TimelineZoom: 1.9

[Metadata]
Title:Masshiro na Yuki
TitleUnicode:まっしろな雪
Artist:Halozy
ArtistUnicode:Halozy
Creator:Kin
Version:Endless Snow
Source:東方花映塚 ~ Phantasmagoria of Flower View.
Tags:Touhou Project 中日附詞 Marathon sumijun すみじゅん Amorevole 水瀬ましろ Minase Mashiro Higan Retour 彼岸帰航 ~ Riverside Eastern Flower Viewing Mound Komachi Onozuka 幻奏響 UROBOROS ~fAIRYtAILoVERdRIVE~ Toho Arrange Album Bayside Beat Comiket89 c89
BeatmapID:1344856
BeatmapSetID:633705

[Difficulty]
HPDrainRate:5
CircleSize:6.9
OverallDifficulty:6
ApproachRate:6.9
SliderMultiplier:1.4
SliderTickRate:1

[Events]
//Background and Video events
0,0,"komachi.jpg",0,120
//Break Periods
//Storyboard Layer 0 (Background)
//Storyboard Layer 1 (Fail)
//Storyboard Layer 2 (Pass)
//Storyboard Layer 3 (Foreground)
//Storyboard Sound Samples

[TimingPoints]
962,352.941176470588,4,1,0,20,1,0
962,-125,4,1,0,20,0,0
12256,-100,4,1,0,40,0,0
17903,-90.9090909090909,4,1,0,70,0,0
22314,-92.3020121838656,4,1,0,60,0,0
22403,-93.0146032927169,4,1,0,60,0,0
22491,-93.7382827146607,4,1,0,60,0,0
22667,-95.2199581032184,4,1,0,60,0,0
22844,-96.9743987587277,4,1,0,60,0,0
23020,-98.3284169124877,4,1,0,60,0,0
23109,-99.1571641051066,4,1,0,60,0,0
23197,-100,4,1,0,60,0,0
23550,-90.9090909090909,4,1,0,70,0,0
46138,-100,4,1,0,60,0,0
46844,-111.111111111111,4,1,0,60,0,0
56020,-90.9090909090909,4,1,0,70,0,0
57432,-100,4,1,0,60,0,0
68197,-71.4285714285714,4,1,0,70,0,0
68726,-90.9090909090909,4,1,0,70,0,1
113373,-71.4285714285714,4,1,0,70,0,1
113903,-90.9090909090909,4,1,0,70,0,0
135961,-76.9230769230769,4,1,0,70,0,0
136491,-100,4,1,0,60,0,0
137197,-111.111111111111,4,1,0,60,0,0
146373,-90.9090909090909,4,1,0,70,0,0
147785,-100,4,1,0,60,0,0
158550,-71.4285714285714,4,1,0,70,0,0
159079,-90.9090909090909,4,1,0,70,0,1
203726,-71.4285714285714,4,1,0,70,0,1
204256,-90.9090909090909,4,1,0,70,0,0
226314,-76.9230769230769,4,1,0,70,0,0
226844,-90.9090909090909,4,1,0,70,0,0
227020,-93.5672514619883,4,1,0,60,0,0
227197,-96.3855421686747,4,1,0,50,0,0
227373,-99.3788819875776,4,1,0,40,0,0
227550,-102.564102564103,4,1,0,30,0,0
228256,-117.647058823529,4,1,0,30,0,0
228432,-122.137404580153,4,1,0,30,0,0
228609,-126.984126984127,4,1,0,30,0,0
228785,-132.231404958678,4,1,0,30,0,0
228961,-137.931034482759,4,1,0,30,0,0
229667,-166.666666666667,4,1,0,30,0,0
238138,-100,4,1,0,60,0,0
243785,-90.9090909090909,4,1,0,70,0,0
247976,-92.3020121838656,4,1,0,60,0,0
248065,-93.0146032927169,4,1,0,60,0,0
248153,-93.7382827146607,4,1,0,60,0,0
248329,-95.2199581032184,4,1,0,60,0,0
248506,-96.9743987587277,4,1,0,60,0,0
248594,-97.560690066273,4,1,0,60,0,0
248682,-98.360333244809,4,1,0,60,0,0
248859,-71.4285714285714,4,1,0,70,0,0
249432,-90.9090909090909,4,1,0,70,0,1
270609,-90.9090909090909,4,1,0,70,0,0
272020,-90.9090909090909,4,1,0,70,0,1
294079,-71.4285714285714,4,1,0,70,0,1
294609,-90.9090909090909,4,1,0,70,0,0
316667,-76.9230769230769,4,1,0,70,0,0
317197,-100,4,1,0,70,0,0
328667,-100.81295567456,4,1,0,60,0,0
328844,-101.639237624406,4,1,0,50,0,0
329020,-102.47917623139,4,1,0,40,0,0
329197,-103.333112889359,4,1,0,30,0,0
329903,-106.896079906958,4,1,0,30,0,0
330079,-107.825546891174,4,1,0,30,0,0
330256,-108.771319178559,4,1,0,30,0,0
330432,-109.733829622867,4,1,0,30,0,0
331314,-114.813726210596,4,1,0,30,0,0
331844,-118.093870455748,4,1,0,30,0,0
332197,-120.386778642422,4,1,0,30,0,0
332373,-121.566949350346,4,1,0,30,0,0
332550,-122.770487939027,4,1,0,30,0,0
332726,-123.998095389255,4,1,0,30,0,0
333256,-127.832774278,4,1,0,30,0,0
333609,-130.523765767271,4,1,0,30,0,0
333785,-131.912199240186,4,1,0,30,0,0
334138,-134.77960838437,4,1,0,30,0,0
334314,-136.260573820528,4,1,0,30,0,0
334491,-137.774446697822,4,1,0,30,0,0
334667,-139.322336156933,4,1,0,30,0,0
334844,-140.905401749481,4,1,0,30,0,0
335550,-147.614548889939,4,1,0,30,0,0
335726,-149.392867386939,4,1,0,30,0,0
335903,-151.214555308236,4,1,0,30,0,0
336079,-153.081218771431,4,1,0,30,0,0
336961,-163.151299989558,4,1,0,30,0,0
337491,-169.85541906729,4,1,0,30,0,0
337844,-174.639543981223,4,1,0,30,0,0
338020,-177.13411177871,4,1,0,30,0,0
338197,-179.700977573318,4,1,0,30,0,0
338373,-182.34333061034,4,1,0,30,0,0
338903,-190.758149188133,4,1,0,30,0,0
339256,-196.813200654994,4,1,0,30,0,0
339432,-200,4,1,0,30,0,0
339785,-206.652559185293,4,1,0,20,0,0
340138,-213.77753454645,4,1,0,10,0,0

[HitObjects]
256,192,962,5,0,0:0:0:0:
256,192,1491,1,8,0:0:0:0:
256,192,1844,1,8,0:0:0:0:
256,192,2373,1,0,0:0:0:0:
256,192,2903,1,8,0:0:0:0:
256,192,3256,1,0,0:0:0:0:
256,192,4138,1,0,0:0:0:0:
256,192,4314,1,0,0:0:0:0:
256,192,4491,1,8,0:0:0:0:
256,192,4844,1,8,0:0:0:0:
256,192,5197,1,0,0:0:0:0:
256,192,5726,1,0,0:0:0:0:
256,192,6079,1,8,0:0:0:0:
256,192,6609,1,0,0:0:0:0:
256,192,7138,1,0,0:0:0:0:
256,192,7491,1,8,0:0:0:0:
256,192,8020,1,0,0:0:0:0:
256,192,8550,1,8,0:0:0:0:
256,192,8903,1,8,0:0:0:0:
256,192,9432,1,8,0:0:0:0:
256,192,9785,1,8,0:0:0:0:
256,192,9961,1,0,0:0:0:0:
256,192,10314,1,0,0:0:0:0:
256,192,10667,1,8,0:0:0:0:
256,192,11197,1,8,0:0:0:0:
256,192,11373,1,8,0:0:0:0:
256,192,11550,1,0,0:0:0:0:
256,192,11903,1,8,0:0:0:0:
256,192,12256,1,4,0:0:0:0:
256,192,12609,1,8,0:0:0:0:
256,192,12785,1,0,0:0:0:0:
256,192,12873,1,0,0:0:0:0:
256,192,12961,1,0,0:0:0:0:
256,192,13138,1,0,0:0:0:0:
256,192,13314,1,8,0:0:0:0:
256,192,13491,1,8,0:0:0:0:
256,192,13667,1,0,0:0:0:0:
256,192,14020,1,8,0:0:0:0:
256,192,14197,1,0,0:0:0:0:
256,192,14285,1,8,0:0:0:0:
256,192,14373,1,0,0:0:0:0:
256,192,14550,1,0,0:0:0:0:
256,192,14726,1,8,0:0:0:0:
256,192,14903,1,8,0:0:0:0:
256,192,15079,1,0,0:0:0:0:
256,192,15256,1,0,0:0:0:0:
256,192,15344,1,0,0:0:0:0:
256,192,15432,1,8,0:0:0:0:
256,192,15609,1,8,0:0:0:0:
256,192,15697,1,8,0:0:0:0:
256,192,15785,1,8,0:0:0:0:
256,192,15961,1,0,0:0:0:0:
256,192,16138,1,8,0:0:0:0:
256,192,16314,1,8,0:0:0:0:
256,192,16491,1,0,0:0:0:0:
256,192,16667,1,0,0:0:0:0:
256,192,16756,1,0,0:0:0:0:
256,192,16844,1,8,0:0:0:0:
256,192,17020,1,8,0:0:0:0:
256,192,17109,1,8,0:0:0:0:
256,192,17197,1,0,0:0:0:0:
256,192,17373,1,0,0:0:0:0:
256,192,17550,1,8,0:0:0:0:
256,192,17903,1,0,0:0:0:0:
256,192,18079,1,0,0:0:0:0:
256,192,18256,1,8,0:0:0:0:
256,192,18432,1,8,0:0:0:0:
256,192,18520,1,8,0:0:0:0:
256,192,18609,1,0,0:0:0:0:
256,192,18697,1,8,0:0:0:0:
256,192,18785,1,0,0:0:0:0:
256,192,18961,1,8,0:0:0:0:
256,192,19138,1,8,0:0:0:0:
256,192,19314,1,0,0:0:0:0:
256,192,19403,1,0,0:0:0:0:
256,192,19491,1,0,0:0:0:0:
256,192,19579,1,0,0:0:0:0:
256,192,19667,1,8,0:0:0:0:
256,192,19844,1,8,0:0:0:0:
256,192,20020,1,0,0:0:0:0:
256,192,20109,1,0,0:0:0:0:
256,192,20197,1,8,0:0:0:0:
256,192,20285,1,0,0:0:0:0:
256,192,20373,1,8,0:0:0:0:
256,192,20550,1,8,0:0:0:0:
256,192,20726,1,0,0:0:0:0:
256,192,20814,1,0,0:0:0:0:
256,192,20903,1,8,0:0:0:0:
256,192,20991,1,0,0:0:0:0:
256,192,21079,1,8,0:0:0:0:
256,192,21138,1,8,0:0:0:0:
256,192,21197,1,8,0:0:0:0:
256,192,21256,1,0,0:0:0:0:
256,192,21344,1,0,0:0:0:0:
256,192,21432,1,8,0:0:0:0:
256,192,21491,1,8,0:0:0:0:
256,192,21550,1,8,0:0:0:0:
256,192,21609,1,0,0:0:0:0:
256,192,21697,1,0,0:0:0:0:
256,192,21785,1,8,0:0:0:0:
256,192,21844,1,0,0:0:0:0:
256,192,21903,1,0,0:0:0:0:
256,192,21961,1,8,0:0:0:0:
256,192,22020,1,0,0:0:0:0:
256,192,22079,1,0,0:0:0:0:
256,192,22138,1,8,0:0:0:0:
256,192,22314,1,0,0:0:0:0:
256,192,22403,1,0,0:0:0:0:
256,192,22491,1,8,0:0:0:0:
256,192,22667,1,8,0:0:0:0:
256,192,22844,1,8,0:0:0:0:
256,192,23020,1,0,0:0:0:0:
256,192,23109,1,0,0:0:0:0:
256,192,23197,1,8,0:0:0:0:
256,192,23550,1,4,0:0:0:0:
256,192,23726,1,0,0:0:0:0:
256,192,23814,1,0,0:0:0:0:
256,192,23903,1,8,0:0:0:0:
256,192,23991,1,0,0:0:0:0:
256,192,24079,1,8,0:0:0:0:
256,192,24256,1,0,0:0:0:0:
256,192,24432,1,0,0:0:0:0:
256,192,24609,1,8,0:0:0:0:
256,192,24667,1,8,0:0:0:0:
256,192,24726,1,8,0:0:0:0:
256,192,24785,1,0,0:0:0:0:
256,192,24961,1,0,0:0:0:0:
256,192,25138,1,0,0:0:0:0:
256,192,25226,1,0,0:0:0:0:
256,192,25314,1,8,0:0:0:0:
256,192,25491,1,0,0:0:0:0:
256,192,25667,1,8,0:0:0:0:
256,192,25726,1,8,0:0:0:0:
256,192,25785,1,8,0:0:0:0:
256,192,25844,1,0,0:0:0:0:
256,192,25903,1,0,0:0:0:0:
256,192,25961,1,0,0:0:0:0:
256,192,26020,1,8,0:0:0:0:
256,192,26197,1,0,0:0:0:0:
256,192,26373,1,8,0:0:0:0:
256,192,26550,1,0,0:0:0:0:
256,192,26638,1,0,0:0:0:0:
256,192,26726,1,8,0:0:0:0:
256,192,26785,1,0,0:0:0:0:
256,192,26844,1,0,0:0:0:0:
256,192,26903,1,8,0:0:0:0:
256,192,27079,1,0,0:0:0:0:
256,192,27167,1,0,0:0:0:0:
256,192,27256,1,8,0:0:0:0:
256,192,27344,1,0,0:0:0:0:
256,192,27432,1,8,0:0:0:0:
256,192,27609,1,0,0:0:0:0:
256,192,27785,1,8,0:0:0:0:
256,192,27961,1,0,0:0:0:0:
256,192,28050,1,0,0:0:0:0:
256,192,28138,1,8,0:0:0:0:
256,192,28226,1,0,0:0:0:0:
256,192,28314,1,8,0:0:0:0:
256,192,28373,1,8,0:0:0:0:
256,192,28432,1,8,0:0:0:0:
256,192,28491,1,0,0:0:0:0:
256,192,28667,1,0,0:0:0:0:
256,192,28844,1,8,0:0:0:0:
256,192,28932,1,8,0:0:0:0:
256,192,29020,1,0,0:0:0:0:
256,192,29197,1,0,0:0:0:0:
256,192,29373,1,0,0:0:0:0:
256,192,29461,1,0,0:0:0:0:
256,192,29550,1,8,0:0:0:0:
256,192,29726,1,0,0:0:0:0:
256,192,29903,1,8,0:0:0:0:
256,192,29991,1,8,0:0:0:0:
256,192,30079,1,0,0:0:0:0:
256,192,30167,1,0,0:0:0:0:
256,192,30256,1,8,0:0:0:0:
256,192,30314,1,8,0:0:0:0:
256,192,30373,1,8,0:0:0:0:
256,192,30432,1,0,0:0:0:0:
256,192,30609,1,8,0:0:0:0:
256,192,30785,1,8,0:0:0:0:
256,192,30961,1,0,0:0:0:0:
256,192,31020,1,0,0:0:0:0:
256,192,31079,1,0,0:0:0:0:
256,192,31138,1,8,0:0:0:0:
256,192,31314,1,8,0:0:0:0:
256,192,31491,1,0,0:0:0:0:
256,192,31550,1,0,0:0:0:0:
256,192,31609,1,0,0:0:0:0:
256,192,31667,1,8,0:0:0:0:
256,192,31844,1,0,0:0:0:0:
256,192,32020,1,8,0:0:0:0:
256,192,32197,1,0,0:0:0:0:
256,192,32285,1,0,0:0:0:0:
256,192,32373,1,8,0:0:0:0:
256,192,32550,1,8,0:0:0:0:
256,192,32726,1,0,0:0:0:0:
256,192,32814,1,0,0:0:0:0:
256,192,32903,1,8,0:0:0:0:
256,192,32991,1,0,0:0:0:0:
256,192,33079,1,8,0:0:0:0:
256,192,33167,1,8,0:0:0:0:
256,192,33256,1,0,0:0:0:0:
256,192,33432,1,8,0:0:0:0:
256,192,33609,1,8,0:0:0:0:
256,192,33785,1,0,0:0:0:0:
256,192,33873,1,0,0:0:0:0:
256,192,33961,1,8,0:0:0:0:
256,192,34020,1,8,0:0:0:0:
256,192,34079,1,8,0:0:0:0:
256,192,34138,1,0,0:0:0:0:
256,192,34314,1,0,0:0:0:0:
256,192,34491,1,8,0:0:0:0:
256,192,34667,1,8,0:0:0:0:
256,192,34726,1,0,0:0:0:0:
256,192,34785,1,0,0:0:0:0:
256,192,34844,1,8,0:0:0:0:
256,192,35197,1,8,0:0:0:0:
256,192,35373,1,8,0:0:0:0:
256,192,35550,1,0,0:0:0:0:
256,192,35726,1,0,0:0:0:0:
256,192,35903,1,8,0:0:0:0:
256,192,35961,1,8,0:0:0:0:
256,192,36020,1,8,0:0:0:0:
256,192,36079,1,0,0:0:0:0:
256,192,36256,1,8,0:0:0:0:
256,192,36432,1,0,0:0:0:0:
256,192,36609,1,8,0:0:0:0:
256,192,36667,1,8,0:0:0:0:
256,192,36726,1,8,0:0:0:0:
256,192,36785,1,0,0:0:0:0:
256,192,36873,1,0,0:0:0:0:
256,192,36961,1,8,0:0:0:0:
256,192,37020,1,0,0:0:0:0:
256,192,37079,1,0,0:0:0:0:
256,192,37138,1,8,0:0:0:0:
256,192,37197,1,0,0:0:0:0:
256,192,37256,1,0,0:0:0:0:
256,192,37314,1,8,0:0:0:0:
256,192,37491,1,0,0:0:0:0:
256,192,37667,1,8,0:0:0:0:
256,192,37844,1,0,0:0:0:0:
256,192,38020,1,0,0:0:0:0:
256,192,38079,1,0,0:0:0:0:
256,192,38138,1,0,0:0:0:0:
256,192,38197,1,8,0:0:0:0:
256,192,38373,1,0,0:0:0:0:
256,192,38550,1,8,0:0:0:0:
256,192,38726,1,8,0:0:0:0:
256,192,38785,1,8,0:0:0:0:
256,192,38844,1,8,0:0:0:0:
256,192,38903,1,0,0:0:0:0:
256,192,39079,1,8,0:0:0:0:
256,192,39256,1,0,0:0:0:0:
256,192,39432,1,0,0:0:0:0:
256,192,39491,1,0,0:0:0:0:
256,192,39550,1,0,0:0:0:0:
256,192,39609,1,8,0:0:0:0:
256,192,39697,1,8,0:0:0:0:
256,192,39785,1,0,0:0:0:0:
256,192,39873,1,0,0:0:0:0:
256,192,39961,1,8,0:0:0:0:
256,192,40020,1,8,0:0:0:0:
256,192,40079,1,8,0:0:0:0:
256,192,40138,1,0,0:0:0:0:
256,192,40314,1,8,0:0:0:0:
256,192,40491,1,0,0:0:0:0:
256,192,40667,1,0,0:0:0:0:
256,192,40756,1,0,0:0:0:0:
256,192,40844,1,8,0:0:0:0:
256,192,40932,1,0,0:0:0:0:
256,192,41020,1,8,0:0:0:0:
256,192,41197,1,0,0:0:0:0:
256,192,41373,1,8,0:0:0:0:
256,192,41550,1,8,0:0:0:0:
256,192,41609,1,8,0:0:0:0:
256,192,41667,1,8,0:0:0:0:
256,192,41726,1,0,0:0:0:0:
256,192,41903,1,8,0:0:0:0:
256,192,42079,1,0,0:0:0:0:
256,192,42256,1,8,0:0:0:0:
256,192,42314,1,0,0:0:0:0:
256,192,42373,1,0,0:0:0:0:
256,192,42432,1,8,0:0:0:0:
256,192,42491,1,0,0:0:0:0:
256,192,42550,1,0,0:0:0:0:
256,192,42609,1,8,0:0:0:0:
256,192,42667,1,8,0:0:0:0:
256,192,42726,1,8,0:0:0:0:
256,192,42785,1,0,0:0:0:0:
256,192,42961,1,8,0:0:0:0:
256,192,43138,1,8,0:0:0:0:
256,192,43314,1,0,0:0:0:0:
256,192,43491,1,8,0:0:0:0:
256,192,43667,1,8,0:0:0:0:
256,192,43726,1,8,0:0:0:0:
256,192,43785,1,8,0:0:0:0:
256,192,43844,1,0,0:0:0:0:
256,192,44020,1,8,0:0:0:0:
256,192,44197,1,0,0:0:0:0:
256,192,44373,1,8,0:0:0:0:
256,192,44461,1,8,0:0:0:0:
256,192,44550,1,8,0:0:0:0:
256,192,44638,1,8,0:0:0:0:
256,192,44726,1,0,0:0:0:0:
256,192,44814,1,0,0:0:0:0:
256,192,44903,1,8,0:0:0:0:
256,192,44991,1,0,0:0:0:0:
256,192,45079,1,8,0:0:0:0:
256,192,45167,1,8,0:0:0:0:
256,192,45256,1,8,0:0:0:0:
256,192,45344,1,8,0:0:0:0:
256,192,45432,1,0,0:0:0:0:
256,192,45520,1,8,0:0:0:0:
256,192,45609,1,0,0:0:0:0:
256,192,45697,1,0,0:0:0:0:
256,192,45785,1,8,0:0:0:0:
256,192,46138,1,4,0:0:0:0:
256,192,46844,1,0,0:0:0:0:
256,192,47550,1,8,0:0:0:0:
256,192,48256,1,8,0:0:0:0:
256,192,48609,1,8,0:0:0:0:
256,192,48961,1,0,0:0:0:0:
256,192,49138,1,0,0:0:0:0:
256,192,49314,1,8,0:0:0:0:
256,192,49491,1,0,0:0:0:0:
256,192,49844,1,0,0:0:0:0:
256,192,50020,1,8,0:0:0:0:
256,192,50197,1,8,0:0:0:0:
256,192,50373,1,0,0:0:0:0:
256,192,50726,1,8,0:0:0:0:
256,192,51256,1,0,0:0:0:0:
256,192,51432,1,8,0:0:0:0:
256,192,51609,1,8,0:0:0:0:
256,192,51697,1,8,0:0:0:0:
256,192,51785,1,0,0:0:0:0:
256,192,52491,1,8,0:0:0:0:
256,192,53197,1,0,0:0:0:0:
256,192,53903,1,8,0:0:0:0:
256,192,54256,1,8,0:0:0:0:
256,192,54432,1,8,0:0:0:0:
256,192,54609,1,0,0:0:0:0:
256,192,54961,1,8,0:0:0:0:
256,192,55138,1,0,0:0:0:0:
256,192,55491,1,0,0:0:0:0:
256,192,55667,1,8,0:0:0:0:
256,192,56020,1,0,0:0:0:0:
256,192,56197,1,0,0:0:0:0:
256,192,56285,1,0,0:0:0:0:
256,192,56373,1,8,0:0:0:0:
256,192,56550,1,8,0:0:0:0:
256,192,56638,1,8,0:0:0:0:
256,192,56726,1,0,0:0:0:0:
256,192,56814,1,8,0:0:0:0:
256,192,56903,1,0,0:0:0:0:
256,192,56991,1,0,0:0:0:0:
256,192,57079,1,8,0:0:0:0:
256,192,57432,1,4,0:0:0:0:
256,192,57785,1,8,0:0:0:0:
256,192,57961,1,8,0:0:0:0:
256,192,58138,1,0,0:0:0:0:
256,192,58844,1,8,0:0:0:0:
256,192,59197,1,8,0:0:0:0:
256,192,59373,1,8,0:0:0:0:
256,192,59550,1,0,0:0:0:0:
256,192,59903,1,8,0:0:0:0:
256,192,60256,1,0,0:0:0:0:
256,192,60432,1,0,0:0:0:0:
256,192,60520,1,0,0:0:0:0:
256,192,60609,1,8,0:0:0:0:
256,192,60785,1,0,0:0:0:0:
256,192,61138,1,0,0:0:0:0:
256,192,61314,1,8,0:0:0:0:
256,192,61491,1,8,0:0:0:0:
256,192,61579,1,8,0:0:0:0:
256,192,61667,1,0,0:0:0:0:
256,192,61844,1,0,0:0:0:0:
256,192,62020,1,8,0:0:0:0:
256,192,62373,1,0,0:0:0:0:
256,192,62550,1,0,0:0:0:0:
256,192,62638,1,0,0:0:0:0:
256,192,62726,1,8,0:0:0:0:
256,192,62903,1,8,0:0:0:0:
256,192,63079,1,0,0:0:0:0:
256,192,63432,1,8,0:0:0:0:
256,192,63961,1,0,0:0:0:0:
256,192,64138,1,8,0:0:0:0:
256,192,64491,1,0,0:0:0:0:
256,192,64667,1,0,0:0:0:0:
256,192,64844,1,8,0:0:0:0:
256,192,65197,1,8,0:0:0:0:
256,192,65373,1,0,0:0:0:0:
256,192,65550,1,8,0:0:0:0:
256,192,65726,1,8,0:0:0:0:
256,192,65903,1,0,0:0:0:0:
256,192,66256,1,8,0:0:0:0:
256,192,66432,1,0,0:0:0:0:
256,192,66520,1,0,0:0:0:0:
256,192,66609,1,0,0:0:0:0:
256,192,66785,1,0,0:0:0:0:
256,192,66961,1,8,0:0:0:0:
256,192,67138,1,8,0:0:0:0:
256,192,67314,2,0,B|278:214|278:214|270:176|270:176|256:192|256:192|256:206|256:206|233:214|233:214|256:206|256:206|256:192|256:192|270:192|270:192|300:192|300:192|270:192|270:192|224:192,1,280
256,192,68197,1,4,0:0:0:0:
256,192,68373,1,14,0:0:0:0:
256,192,68726,1,4,0:0:0:0:
256,192,68903,1,0,0:0:0:0:
256,192,68991,1,0,0:0:0:0:
256,192,69079,1,8,0:0:0:0:
256,192,69256,1,8,0:0:0:0:
256,192,69344,1,8,0:0:0:0:
256,192,69432,1,0,0:0:0:0:
256,192,69520,1,0,0:0:0:0:
256,192,69609,1,8,0:0:0:0:
256,192,69785,1,8,0:0:0:0:
256,192,69961,1,0,0:0:0:0:
256,192,70050,1,0,0:0:0:0:
256,192,70138,1,8,0:0:0:0:
256,192,70314,1,0,0:0:0:0:
256,192,70491,1,0,0:0:0:0:
256,192,70579,1,0,0:0:0:0:
256,192,70667,1,8,0:0:0:0:
256,192,70756,1,8,0:0:0:0:
256,192,70844,1,0,0:0:0:0:
256,192,71020,1,8,0:0:0:0:
256,192,71197,1,0,0:0:0:0:
256,192,71373,1,8,0:0:0:0:
256,192,71461,1,8,0:0:0:0:
256,192,71550,1,0,0:0:0:0:
256,192,71726,1,0,0:0:0:0:
256,192,71814,1,0,0:0:0:0:
256,192,71903,1,8,0:0:0:0:
256,192,71991,1,0,0:0:0:0:
256,192,72079,1,8,0:0:0:0:
256,192,72167,1,8,0:0:0:0:
256,192,72256,1,0,0:0:0:0:
256,192,72432,1,0,0:0:0:0:
256,192,72520,1,0,0:0:0:0:
256,192,72609,1,8,0:0:0:0:
256,192,72785,1,8,0:0:0:0:
256,192,72961,1,0,0:0:0:0:
256,192,73138,1,0,0:0:0:0:
256,192,73226,1,0,0:0:0:0:
256,192,73314,1,8,0:0:0:0:
256,192,73491,1,0,0:0:0:0:
256,192,73844,1,0,0:0:0:0:
256,192,74020,1,8,0:0:0:0:
256,192,74197,1,8,0:0:0:0:
256,192,74285,1,8,0:0:0:0:
256,192,74373,1,0,0:0:0:0:
256,192,74550,1,0,0:0:0:0:
256,192,74726,1,8,0:0:0:0:
256,192,74903,1,8,0:0:0:0:
256,192,75079,1,0,0:0:0:0:
256,192,75167,1,0,0:0:0:0:
256,192,75256,1,8,0:0:0:0:
256,192,75344,1,8,0:0:0:0:
256,192,75432,1,0,0:0:0:0:
256,192,75609,1,0,0:0:0:0:
256,192,75785,1,8,0:0:0:0:
256,192,75961,1,0,0:0:0:0:
256,192,76050,1,0,0:0:0:0:
256,192,76138,1,0,0:0:0:0:
256,192,76314,1,8,0:0:0:0:
256,192,76491,1,0,0:0:0:0:
256,192,76579,1,0,0:0:0:0:
256,192,76667,1,8,0:0:0:0:
256,192,76756,1,0,0:0:0:0:
256,192,76844,1,8,0:0:0:0:
256,192,77020,1,0,0:0:0:0:
256,192,77197,1,8,0:0:0:0:
256,192,77373,1,0,0:0:0:0:
256,192,77461,1,0,0:0:0:0:
256,192,77550,1,8,0:0:0:0:
256,192,77726,1,8,0:0:0:0:
256,192,77903,1,0,0:0:0:0:
256,192,78079,1,8,0:0:0:0:
256,192,78256,1,0,0:0:0:0:
256,192,78432,1,8,0:0:0:0:
256,192,78609,1,0,0:0:0:0:
256,192,78697,1,0,0:0:0:0:
256,192,78785,1,8,0:0:0:0:
256,192,78873,1,0,0:0:0:0:
256,192,78961,1,8,0:0:0:0:
256,192,79138,1,0,0:0:0:0:
256,192,79491,1,0,0:0:0:0:
256,192,79667,1,8,0:0:0:0:
256,192,79844,1,8,0:0:0:0:
256,192,80020,1,4,0:0:0:0:
256,192,80197,1,0,0:0:0:0:
256,192,80285,1,0,0:0:0:0:
256,192,80373,1,8,0:0:0:0:
256,192,80550,1,8,0:0:0:0:
256,192,80638,1,8,0:0:0:0:
256,192,80726,1,0,0:0:0:0:
256,192,80814,1,0,0:0:0:0:
256,192,80903,1,8,0:0:0:0:
256,192,81079,1,8,0:0:0:0:
256,192,81256,1,0,0:0:0:0:
256,192,81344,1,0,0:0:0:0:
256,192,81432,1,8,0:0:0:0:
256,192,81609,1,0,0:0:0:0:
256,192,81697,1,0,0:0:0:0:
256,192,81785,1,8,0:0:0:0:
256,192,81873,1,0,0:0:0:0:
256,192,81961,1,8,0:0:0:0:
256,192,82138,1,0,0:0:0:0:
256,192,82314,1,8,0:0:0:0:
256,192,82403,1,8,0:0:0:0:
256,192,82491,1,0,0:0:0:0:
256,192,82667,1,8,0:0:0:0:
256,192,82844,1,0,0:0:0:0:
256,192,83020,1,0,0:0:0:0:
256,192,83109,1,0,0:0:0:0:
256,192,83197,1,8,0:0:0:0:
256,192,83285,1,0,0:0:0:0:
256,192,83373,1,8,0:0:0:0:
256,192,83461,1,8,0:0:0:0:
256,192,83550,1,0,0:0:0:0:
256,192,83726,1,0,0:0:0:0:
256,192,83814,1,0,0:0:0:0:
256,192,83903,1,8,0:0:0:0:
256,192,84079,1,8,0:0:0:0:
256,192,84167,1,8,0:0:0:0:
256,192,84256,1,0,0:0:0:0:
256,192,84432,1,0,0:0:0:0:
256,192,84609,1,8,0:0:0:0:
256,192,84785,1,8,0:0:0:0:
256,192,85138,1,0,0:0:0:0:
256,192,85314,1,8,0:0:0:0:
256,192,85491,1,8,0:0:0:0:
256,192,85667,1,0,0:0:0:0:
256,192,85844,1,0,0:0:0:0:
256,192,85932,1,0,0:0:0:0:
256,192,86020,1,8,0:0:0:0:
256,192,86109,1,0,0:0:0:0:
256,192,86197,1,8,0:0:0:0:
256,192,86373,1,0,0:0:0:0:
256,192,86550,1,8,0:0:0:0:
256,192,86726,1,8,0:0:0:0:
256,192,86814,1,8,0:0:0:0:
256,192,86903,1,0,0:0:0:0:
256,192,86991,1,0,0:0:0:0:
256,192,87079,1,8,0:0:0:0:
256,192,87256,1,0,0:0:0:0:
256,192,87432,1,8,0:0:0:0:
256,192,87609,1,8,0:0:0:0:
256,192,87697,1,0,0:0:0:0:
256,192,87785,1,0,0:0:0:0:
256,192,87873,1,0,0:0:0:0:
256,192,87961,1,8,0:0:0:0:
256,192,88138,1,8,0:0:0:0:
256,192,88314,1,0,0:0:0:0:
256,192,88491,1,8,0:0:0:0:
256,192,88667,1,0,0:0:0:0:
256,192,88756,1,0,0:0:0:0:
256,192,88844,1,8,0:0:0:0:
256,192,88932,1,0,0:0:0:0:
256,192,89020,1,8,0:0:0:0:
256,192,89109,1,8,0:0:0:0:
256,192,89197,1,0,0:0:0:0:
256,192,89373,1,8,0:0:0:0:
256,192,89550,1,0,0:0:0:0:
256,192,89726,1,8,0:0:0:0:
256,192,89903,1,8,0:0:0:0:
256,192,90079,1,0,0:0:0:0:
256,192,90138,1,0,0:0:0:0:
256,192,90197,1,0,0:0:0:0:
256,192,90256,1,0,0:0:0:0:
256,192,90432,1,8,0:0:0:0:
256,192,90609,1,0,0:0:0:0:
256,192,90667,1,0,0:0:0:0:
256,192,90726,1,0,0:0:0:0:
256,192,90785,1,0,0:0:0:0:
256,192,90961,1,8,0:0:0:0:
256,192,91138,1,8,0:0:0:0:
256,192,91314,1,4,0:0:0:0:
256,192,91667,1,8,0:0:0:0:
256,192,91844,1,0,0:0:0:0:
256,192,91932,1,8,0:0:0:0:
256,192,92020,1,0,0:0:0:0:
256,192,92109,1,0,0:0:0:0:
256,192,92197,1,8,0:0:0:0:
256,192,92373,1,8,0:0:0:0:
256,192,92550,1,8,0:0:0:0:
256,192,92638,1,8,0:0:0:0:
256,192,92726,1,0,0:0:0:0:
256,192,92814,1,8,0:0:0:0:
256,192,92903,1,0,0:0:0:0:
256,192,93079,1,8,0:0:0:0:
256,192,93256,1,0,0:0:0:0:
256,192,93344,1,0,0:0:0:0:
256,192,93432,1,0,0:0:0:0:
256,192,93609,1,8,0:0:0:0:
256,192,93785,1,8,0:0:0:0:
256,192,93961,1,8,0:0:0:0:
256,192,94050,1,0,0:0:0:0:
256,192,94138,1,0,0:0:0:0:
256,192,94226,1,8,0:0:0:0:
256,192,94314,1,0,0:0:0:0:
256,192,94491,1,8,0:0:0:0:
256,192,94667,1,8,0:0:0:0:
256,192,94756,1,8,0:0:0:0:
256,192,94844,1,0,0:0:0:0:
256,192,94932,1,0,0:0:0:0:
256,192,95020,1,8,0:0:0:0:
256,192,95197,1,0,0:0:0:0:
256,192,95373,1,8,0:0:0:0:
256,192,95550,1,0,0:0:0:0:
256,192,95726,1,8,0:0:0:0:
256,192,95814,1,0,0:0:0:0:
256,192,95903,1,8,0:0:0:0:
256,192,96079,1,0,0:0:0:0:
256,192,96432,1,0,0:0:0:0:
256,192,96609,1,8,0:0:0:0:
256,192,96785,1,8,0:0:0:0:
256,192,96961,1,0,0:0:0:0:
256,192,97138,1,0,0:0:0:0:
256,192,97226,1,0,0:0:0:0:
256,192,97314,1,8,0:0:0:0:
256,192,97491,1,8,0:0:0:0:
256,192,97579,1,8,0:0:0:0:
256,192,97667,1,0,0:0:0:0:
256,192,97756,1,0,0:0:0:0:
256,192,97844,1,8,0:0:0:0:
256,192,98020,1,8,0:0:0:0:
256,192,98197,1,8,0:0:0:0:
256,192,98285,1,8,0:0:0:0:
256,192,98373,1,0,0:0:0:0:
256,192,98550,1,0,0:0:0:0:
256,192,98726,1,8,0:0:0:0:
256,192,98903,1,0,0:0:0:0:
256,192,98991,1,8,0:0:0:0:
256,192,99079,1,0,0:0:0:0:
256,192,99167,1,0,0:0:0:0:
256,192,99256,1,8,0:0:0:0:
256,192,99432,1,8,0:0:0:0:
256,192,99609,1,8,0:0:0:0:
256,192,99697,1,0,0:0:0:0:
256,192,99785,1,0,0:0:0:0:
256,192,99961,1,0,0:0:0:0:
256,192,100050,1,0,0:0:0:0:
256,192,100138,1,8,0:0:0:0:
256,192,100226,1,0,0:0:0:0:
256,192,100314,1,8,0:0:0:0:
256,192,100491,1,0,0:0:0:0:
256,192,100667,1,8,0:0:0:0:
256,192,100756,1,8,0:0:0:0:
256,192,100844,1,0,0:0:0:0:
256,192,100932,1,0,0:0:0:0:
256,192,101020,1,8,0:0:0:0:
256,192,101197,1,4,0:0:0:0:
256,192,101373,1,8,0:0:0:0:
256,192,101550,1,8,0:0:0:0:
256,192,101903,1,0,0:0:0:0:
256,192,101991,1,0,0:0:0:0:
256,192,102079,1,8,0:0:0:0:
256,192,102256,1,8,0:0:0:0:
256,192,102432,1,0,0:0:0:0:
256,192,102609,1,4,0:0:0:0:
256,192,102785,1,0,0:0:0:0:
256,192,102873,1,0,0:0:0:0:
256,192,102961,1,8,0:0:0:0:
256,192,103138,1,8,0:0:0:0:
256,192,103314,1,0,0:0:0:0:
256,192,103403,1,0,0:0:0:0:
256,192,103491,1,8,0:0:0:0:
256,192,103579,1,0,0:0:0:0:
256,192,103667,1,8,0:0:0:0:
256,192,103844,1,8,0:0:0:0:
256,192,104020,1,0,0:0:0:0:
256,192,104197,1,0,0:0:0:0:
256,192,104285,1,0,0:0:0:0:
256,192,104373,1,8,0:0:0:0:
256,192,104550,1,8,0:0:0:0:
256,192,104726,1,0,0:0:0:0:
256,192,104814,1,0,0:0:0:0:
256,192,104903,1,8,0:0:0:0:
256,192,105079,1,8,0:0:0:0:
256,192,105256,1,8,0:0:0:0:
256,192,105432,1,0,0:0:0:0:
256,192,105609,1,0,0:0:0:0:
256,192,105697,1,0,0:0:0:0:
256,192,105785,1,8,0:0:0:0:
256,192,105873,1,0,0:0:0:0:
256,192,105961,1,8,0:0:0:0:
256,192,106050,1,8,0:0:0:0:
256,192,106138,1,0,0:0:0:0:
256,192,106314,1,8,0:0:0:0:
256,192,106491,1,0,0:0:0:0:
256,192,106667,1,8,0:0:0:0:
256,192,106844,1,0,0:0:0:0:
256,192,106932,1,0,0:0:0:0:
256,192,107020,1,8,0:0:0:0:
256,192,107109,1,0,0:0:0:0:
256,192,107197,1,8,0:0:0:0:
256,192,107373,1,0,0:0:0:0:
256,192,107726,1,0,0:0:0:0:
256,192,107903,1,8,0:0:0:0:
256,192,108079,1,8,0:0:0:0:
256,192,108256,1,0,0:0:0:0:
256,192,108432,1,0,0:0:0:0:
256,192,108520,1,0,0:0:0:0:
256,192,108609,1,8,0:0:0:0:
256,192,108785,1,0,0:0:0:0:
256,192,108873,1,0,0:0:0:0:
256,192,108961,1,8,0:0:0:0:
256,192,109050,1,8,0:0:0:0:
256,192,109138,1,0,0:0:0:0:
256,192,109314,1,8,0:0:0:0:
256,192,109491,1,8,0:0:0:0:
256,192,109579,1,8,0:0:0:0:
256,192,109667,1,0,0:0:0:0:
256,192,109844,1,0,0:0:0:0:
256,192,110020,1,8,0:0:0:0:
256,192,110197,1,8,0:0:0:0:
256,192,110285,1,0,0:0:0:0:
256,192,110373,1,0,0:0:0:0:
256,192,110461,1,0,0:0:0:0:
256,192,110550,1,8,0:0:0:0:
256,192,110726,1,8,0:0:0:0:
256,192,110903,1,0,0:0:0:0:
256,192,111079,1,8,0:0:0:0:
256,192,111256,1,0,0:0:0:0:
256,192,111344,1,0,0:0:0:0:
256,192,111432,1,8,0:0:0:0:
256,192,111520,1,0,0:0:0:0:
256,192,111609,1,8,0:0:0:0:
256,192,111697,1,8,0:0:0:0:
256,192,111785,1,0,0:0:0:0:
256,192,111961,1,8,0:0:0:0:
256,192,112050,1,8,0:0:0:0:
256,192,112138,1,0,0:0:0:0:
256,192,112314,1,8,0:0:0:0:
256,192,112491,1,4,0:0:0:0:
256,128,112667,1,8,0:0:0:0:
256,160,112844,1,8,0:0:0:0:
256,192,113373,1,4,0:0:0:0:
256,192,113550,1,14,0:0:0:0:
256,192,113903,1,4,0:0:0:0:
256,192,114256,1,0,0:0:0:0:
256,192,114432,1,8,0:0:0:0:
256,192,114520,1,8,0:0:0:0:
256,192,114609,1,0,0:0:0:0:
256,192,114697,1,0,0:0:0:0:
256,192,114785,1,8,0:0:0:0:
256,192,114961,1,8,0:0:0:0:
256,192,115138,1,0,0:0:0:0:
256,192,115226,1,0,0:0:0:0:
256,192,115314,1,8,0:0:0:0:
256,192,115491,1,0,0:0:0:0:
256,192,115579,1,0,0:0:0:0:
256,192,115667,1,8,0:0:0:0:
256,192,115756,1,0,0:0:0:0:
256,192,115844,1,8,0:0:0:0:
224,224,116020,1,0,0:0:0:0:
256,192,116109,1,0,0:0:0:0:
256,192,116197,1,8,0:0:0:0:
256,192,116373,1,8,0:0:0:0:
256,192,116726,1,0,0:0:0:0:
256,192,116903,1,0,0:0:0:0:
256,192,117079,1,8,0:0:0:0:
256,192,117256,1,8,0:0:0:0:
256,192,117344,1,8,0:0:0:0:
256,192,117432,1,0,0:0:0:0:
256,192,117520,1,8,0:0:0:0:
256,192,117609,1,0,0:0:0:0:
256,192,117785,1,8,0:0:0:0:
256,192,117961,1,0,0:0:0:0:
256,192,118138,1,8,0:0:0:0:
256,192,118314,1,8,0:0:0:0:
256,192,118403,1,8,0:0:0:0:
256,192,118491,1,0,0:0:0:0:
256,192,118579,1,0,0:0:0:0:
256,192,118667,1,8,0:0:0:0:
256,192,118844,1,0,0:0:0:0:
256,192,119020,1,8,0:0:0:0:
256,192,119197,1,8,0:0:0:0:
256,192,119550,1,8,0:0:0:0:
256,192,119726,1,0,0:0:0:0:
256,192,119814,1,0,0:0:0:0:
256,192,119903,1,8,0:0:0:0:
256,192,119991,1,0,0:0:0:0:
256,192,120079,1,8,0:0:0:0:
256,192,120256,1,0,0:0:0:0:
256,192,120432,1,8,0:0:0:0:
256,192,120609,1,8,0:0:0:0:
256,192,120785,1,0,0:0:0:0:
256,192,120873,1,0,0:0:0:0:
256,192,120961,1,8,0:0:0:0:
256,192,121138,1,8,0:0:0:0:
256,192,121314,1,0,0:0:0:0:
256,192,121491,1,8,0:0:0:0:
256,192,121579,1,0,0:0:0:0:
256,192,121667,1,0,0:0:0:0:
256,192,121756,1,0,0:0:0:0:
256,192,121844,1,8,0:0:0:0:
256,192,122020,1,8,0:0:0:0:
256,192,122197,1,0,0:0:0:0:
256,192,122285,1,0,0:0:0:0:
256,192,122373,1,8,0:0:0:0:
256,192,122550,1,0,0:0:0:0:
256,192,122638,1,0,0:0:0:0:
256,192,122726,1,8,0:0:0:0:
256,192,122814,1,0,0:0:0:0:
256,192,122903,1,8,0:0:0:0:
256,192,123079,1,0,0:0:0:0:
256,192,123256,1,8,0:0:0:0:
256,192,123344,1,8,0:0:0:0:
256,192,123432,1,0,0:0:0:0:
256,192,123520,1,0,0:0:0:0:
256,192,123609,1,8,0:0:0:0:
256,192,123785,1,0,0:0:0:0:
256,192,123961,1,8,0:0:0:0:
256,192,124138,1,8,0:0:0:0:
256,192,124314,1,0,0:0:0:0:
256,192,124403,1,0,0:0:0:0:
256,192,124491,1,8,0:0:0:0:
256,192,124667,1,0,0:0:0:0:
256,192,124756,1,0,0:0:0:0:
256,192,124844,1,8,0:0:0:0:
256,192,125020,1,8,0:0:0:0:
256,192,125197,1,4,0:0:0:0:
256,192,125550,1,0,0:0:0:0:
256,192,125726,1,8,0:0:0:0:
256,192,125814,1,8,0:0:0:0:
256,192,125903,1,0,0:0:0:0:
256,192,125991,1,0,0:0:0:0:
256,192,126079,1,8,0:0:0:0:
256,192,126256,1,8,0:0:0:0:
256,192,126432,1,0,0:0:0:0:
256,192,126609,1,8,0:0:0:0:
256,192,126785,1,0,0:0:0:0:
256,192,126873,1,0,0:0:0:0:
256,192,126961,1,0,0:0:0:0:
256,192,127138,1,8,0:0:0:0:
256,192,127314,1,0,0:0:0:0:
256,192,127403,1,0,0:0:0:0:
256,192,127491,1,8,0:0:0:0:
256,192,127667,1,0,0:0:0:0:
256,192,127844,1,8,0:0:0:0:
256,192,127932,1,8,0:0:0:0:
256,192,128020,1,0,0:0:0:0:
256,192,128109,1,0,0:0:0:0:
256,192,128197,1,0,0:0:0:0:
256,192,128373,1,8,0:0:0:0:
256,192,128550,1,8,0:0:0:0:
256,192,128726,1,8,0:0:0:0:
256,192,128903,1,0,0:0:0:0:
256,192,128991,1,0,0:0:0:0:
256,192,129079,1,8,0:0:0:0:
256,192,129256,1,0,0:0:0:0:
256,192,129344,1,0,0:0:0:0:
256,192,129432,1,8,0:0:0:0:
256,192,129609,1,0,0:0:0:0:
256,192,129697,1,0,0:0:0:0:
256,192,129785,1,0,0:0:0:0:
256,192,129873,1,0,0:0:0:0:
256,192,129961,1,8,0:0:0:0:
256,192,130138,1,0,0:0:0:0:
256,192,130314,1,8,0:0:0:0:
256,192,130491,1,8,0:0:0:0:
256,192,130844,1,8,0:0:0:0:
256,192,131020,1,0,0:0:0:0:
256,192,131109,1,0,0:0:0:0:
256,192,131197,1,8,0:0:0:0:
256,192,131285,1,0,0:0:0:0:
256,192,131373,1,8,0:0:0:0:
256,192,131550,1,0,0:0:0:0:
256,192,131726,1,8,0:0:0:0:
256,192,131903,1,0,0:0:0:0:
256,192,131991,1,0,0:0:0:0:
256,192,132079,1,0,0:0:0:0:
256,192,132256,1,8,0:0:0:0:
256,192,132432,1,8,0:0:0:0:
256,192,132609,1,0,0:0:0:0:
256,192,132697,1,0,0:0:0:0:
256,192,132785,1,8,0:0:0:0:
256,192,132961,1,0,0:0:0:0:
256,192,133050,1,0,0:0:0:0:
256,192,133138,1,8,0:0:0:0:
256,192,133314,1,0,0:0:0:0:
256,192,133403,1,0,0:0:0:0:
256,192,133491,1,0,0:0:0:0:
256,192,133579,1,0,0:0:0:0:
256,192,133667,1,8,0:0:0:0:
256,192,133844,1,0,0:0:0:0:
256,192,134020,1,8,0:0:0:0:
256,192,134197,1,8,0:0:0:0:
256,192,134285,1,8,0:0:0:0:
256,192,134373,1,0,0:0:0:0:
256,192,134461,1,0,0:0:0:0:
256,192,134550,1,8,0:0:0:0:
256,192,134726,1,0,0:0:0:0:
256,192,134903,1,8,0:0:0:0:
256,192,135079,1,4,0:0:0:0:
256,192,135256,1,8,0:0:0:0:
256,192,135344,1,8,0:0:0:0:
256,192,135432,1,8,0:0:0:0:
256,192,135609,1,0,0:0:0:0:
256,192,135697,1,0,0:0:0:0:
256,192,135785,1,0,0:0:0:0:
256,192,135961,1,4,0:0:0:0:
256,192,136138,1,14,0:0:0:0:
256,192,136491,1,4,0:0:0:0:
256,192,137197,1,0,0:0:0:0:
256,192,137903,1,8,0:0:0:0:
256,192,138609,1,8,0:0:0:0:
256,192,138961,1,8,0:0:0:0:
256,192,139314,1,0,0:0:0:0:
256,192,139491,1,0,0:0:0:0:
256,192,139667,1,8,0:0:0:0:
256,192,139844,1,0,0:0:0:0:
256,192,140197,1,0,0:0:0:0:
256,192,140373,1,8,0:0:0:0:
256,192,140550,1,8,0:0:0:0:
256,192,140726,1,0,0:0:0:0:
256,192,141079,1,8,0:0:0:0:
256,192,141609,1,0,0:0:0:0:
256,192,141785,1,8,0:0:0:0:
256,192,141961,1,8,0:0:0:0:
256,192,142050,1,8,0:0:0:0:
256,192,142138,1,0,0:0:0:0:
256,192,142844,1,8,0:0:0:0:
256,192,143550,1,0,0:0:0:0:
256,192,144256,1,8,0:0:0:0:
256,192,144609,1,8,0:0:0:0:
256,192,144785,1,8,0:0:0:0:
256,192,144961,1,0,0:0:0:0:
256,192,145314,1,8,0:0:0:0:
256,192,145491,1,0,0:0:0:0:
256,192,145844,1,0,0:0:0:0:
256,192,146020,1,8,0:0:0:0:
256,192,146373,1,0,0:0:0:0:
256,192,146550,1,0,0:0:0:0:
256,192,146638,1,0,0:0:0:0:
256,192,146726,1,8,0:0:0:0:
256,192,146903,1,8,0:0:0:0:
256,192,146991,1,8,0:0:0:0:
256,192,147079,1,0,0:0:0:0:
256,192,147167,1,0,0:0:0:0:
256,192,147256,1,8,0:0:0:0:
256,192,147344,1,0,0:0:0:0:
256,192,147432,1,8,0:0:0:0:
256,192,147785,1,4,0:0:0:0:
256,192,148138,1,8,0:0:0:0:
256,192,148314,1,8,0:0:0:0:
256,192,148491,1,0,0:0:0:0:
256,192,149197,1,8,0:0:0:0:
256,192,149550,1,8,0:0:0:0:
256,192,149726,1,8,0:0:0:0:
256,192,149903,1,0,0:0:0:0:
256,192,150256,1,8,0:0:0:0:
256,192,150609,1,0,0:0:0:0:
256,192,150785,1,0,0:0:0:0:
256,192,150873,1,0,0:0:0:0:
256,192,150961,1,8,0:0:0:0:
256,192,151138,1,0,0:0:0:0:
256,192,151491,1,0,0:0:0:0:
256,192,151667,1,8,0:0:0:0:
256,192,151844,1,8,0:0:0:0:
256,192,151932,1,8,0:0:0:0:
256,192,152020,1,0,0:0:0:0:
256,192,152197,1,0,0:0:0:0:
256,192,152373,1,8,0:0:0:0:
256,192,152726,1,0,0:0:0:0:
256,192,152903,1,0,0:0:0:0:
256,192,153079,1,8,0:0:0:0:
256,192,153256,1,8,0:0:0:0:
256,192,153344,1,8,0:0:0:0:
256,192,153432,1,0,0:0:0:0:
256,192,153785,1,8,0:0:0:0:
256,192,154314,1,0,0:0:0:0:
256,192,154491,1,8,0:0:0:0:
256,192,154844,1,0,0:0:0:0:
256,192,155020,1,0,0:0:0:0:
256,192,155197,1,8,0:0:0:0:
256,192,155550,1,8,0:0:0:0:
256,192,155726,1,0,0:0:0:0:
256,192,155903,1,8,0:0:0:0:
256,192,156079,1,8,0:0:0:0:
256,192,156256,1,0,0:0:0:0:
256,192,156609,1,8,0:0:0:0:
256,192,156785,1,0,0:0:0:0:
256,192,156873,1,0,0:0:0:0:
256,192,156961,1,0,0:0:0:0:
256,192,157138,1,0,0:0:0:0:
256,192,157314,1,8,0:0:0:0:
256,192,157491,1,8,0:0:0:0:
256,192,157667,2,0,P|32:192|104:192,1,280
256,192,158550,1,4,0:0:0:0:
256,192,158726,1,14,0:0:0:0:
256,192,159079,1,4,0:0:0:0:
256,192,159256,1,8,0:0:0:0:
256,192,159344,1,8,0:0:0:0:
256,192,159432,1,0,0:0:0:0:
256,192,159520,1,0,0:0:0:0:
256,192,159609,1,8,0:0:0:0:
256,192,159785,1,0,0:0:0:0:
256,192,159961,1,8,0:0:0:0:
256,192,160138,1,8,0:0:0:0:
256,192,160314,1,0,0:0:0:0:
256,192,160403,1,0,0:0:0:0:
256,192,160491,1,8,0:0:0:0:
256,192,160667,1,0,0:0:0:0:
256,192,160756,1,0,0:0:0:0:
256,192,160844,1,0,0:0:0:0:
256,192,160932,1,0,0:0:0:0:
256,192,161020,1,8,0:0:0:0:
256,192,161197,1,0,0:0:0:0:
256,192,161373,1,8,0:0:0:0:
256,192,161550,1,8,0:0:0:0:
256,192,161726,1,0,0:0:0:0:
256,192,161814,1,0,0:0:0:0:
256,192,161903,1,0,0:0:0:0:
256,192,162079,1,0,0:0:0:0:
256,192,162256,1,8,0:0:0:0:
256,192,162344,1,0,0:0:0:0:
256,192,162432,1,8,0:0:0:0:
256,192,162520,1,8,0:0:0:0:
256,192,162609,1,0,0:0:0:0:
256,192,162697,1,0,0:0:0:0:
256,192,162785,1,8,0:0:0:0:
256,192,162961,1,8,0:0:0:0:
256,192,163138,1,0,0:0:0:0:
256,192,163226,1,0,0:0:0:0:
256,192,163314,1,8,0:0:0:0:
256,192,163491,1,0,0:0:0:0:
256,192,163579,1,0,0:0:0:0:
256,192,163667,1,8,0:0:0:0:
256,192,163756,1,0,0:0:0:0:
256,192,163844,1,8,0:0:0:0:
256,192,164020,1,0,0:0:0:0:
256,192,164197,1,0,0:0:0:0:
256,192,164373,1,8,0:0:0:0:
256,192,164726,1,8,0:0:0:0:
256,192,164903,1,0,0:0:0:0:
256,192,164991,1,0,0:0:0:0:
256,192,165079,1,0,0:0:0:0:
256,192,165167,1,0,0:0:0:0:
256,192,165256,1,8,0:0:0:0:
256,192,165432,1,0,0:0:0:0:
256,192,165520,1,0,0:0:0:0:
256,192,165609,1,8,0:0:0:0:
256,192,165785,1,8,0:0:0:0:
256,192,165961,1,0,0:0:0:0:
256,192,166138,1,8,0:0:0:0:
256,192,166314,1,8,0:0:0:0:
256,192,166403,1,8,0:0:0:0:
256,192,166491,1,0,0:0:0:0:
256,192,166579,1,0,0:0:0:0:
256,192,166667,1,8,0:0:0:0:
256,192,166844,1,0,0:0:0:0:
256,192,166932,1,0,0:0:0:0:
256,192,167020,1,8,0:0:0:0:
256,192,167197,1,8,0:0:0:0:
256,192,167373,1,0,0:0:0:0:
256,192,167550,1,8,0:0:0:0:
280,184,167638,1,8,0:0:0:0:
256,192,167726,1,0,0:0:0:0:
256,192,167814,1,0,0:0:0:0:
256,192,167903,1,8,0:0:0:0:
256,192,167991,1,0,0:0:0:0:
256,192,168079,1,8,0:0:0:0:
256,192,168256,1,0,0:0:0:0:
256,192,168344,1,0,0:0:0:0:
256,192,168432,1,8,0:0:0:0:
256,192,168609,1,0,0:0:0:0:
256,192,168785,1,8,0:0:0:0:
256,192,168873,1,0,0:0:0:0:
256,192,168961,1,0,0:0:0:0:
256,192,169050,1,0,0:0:0:0:
256,192,169138,1,8,0:0:0:0:
256,192,169314,1,8,0:0:0:0:
256,192,169491,1,0,0:0:0:0:
256,192,169579,1,0,0:0:0:0:
256,192,169667,1,0,0:0:0:0:
256,192,169844,1,0,0:0:0:0:
256,192,170020,1,8,0:0:0:0:
256,192,170373,1,4,0:0:0:0:
256,192,170550,1,0,0:0:0:0:
256,192,170638,1,0,0:0:0:0:
256,192,170726,1,0,0:0:0:0:
256,192,170814,1,0,0:0:0:0:
256,192,170903,1,8,0:0:0:0:
256,192,171079,1,0,0:0:0:0:
256,192,171167,1,0,0:0:0:0:
256,192,171256,1,8,0:0:0:0:
256,192,171432,1,8,0:0:0:0:
256,192,171609,1,0,0:0:0:0:
256,192,171785,1,8,0:0:0:0:
256,192,171873,1,8,0:0:0:0:
256,192,171961,1,0,0:0:0:0:
256,192,172050,1,0,0:0:0:0:
256,192,172138,1,0,0:0:0:0:
256,192,172314,1,8,0:0:0:0:
256,192,172491,1,0,0:0:0:0:
256,192,172579,1,0,0:0:0:0:
256,192,172667,1,8,0:0:0:0:
256,192,172756,1,0,0:0:0:0:
256,192,172844,1,8,0:0:0:0:
256,192,173020,1,0,0:0:0:0:
256,192,173197,1,0,0:0:0:0:
256,192,173550,1,8,0:0:0:0:
256,192,173638,1,8,0:0:0:0:
256,192,173726,1,0,0:0:0:0:
256,192,173814,1,0,0:0:0:0:
256,192,173903,1,8,0:0:0:0:
256,192,173991,1,8,0:0:0:0:
256,192,174079,1,0,0:0:0:0:
256,192,174256,1,8,0:0:0:0:
256,192,174432,1,8,0:0:0:0:
256,192,174609,1,0,0:0:0:0:
256,192,174785,1,0,0:0:0:0:
256,192,174873,1,0,0:0:0:0:
256,192,174961,1,8,0:0:0:0:
256,192,175050,1,0,0:0:0:0:
256,192,175138,1,8,0:0:0:0:
256,192,175314,1,0,0:0:0:0:
256,192,175491,1,0,0:0:0:0:
256,192,175579,1,0,0:0:0:0:
256,192,175667,1,8,0:0:0:0:
256,192,175844,1,8,0:0:0:0:
256,192,176020,1,0,0:0:0:0:
256,192,176373,1,0,0:0:0:0:
256,192,176550,1,8,0:0:0:0:
256,192,176638,1,8,0:0:0:0:
256,192,176726,1,0,0:0:0:0:
256,192,176814,1,0,0:0:0:0:
256,192,176903,1,8,0:0:0:0:
256,192,177079,1,0,0:0:0:0:
256,192,177167,1,0,0:0:0:0:
256,192,177256,1,0,0:0:0:0:
256,192,177432,1,8,0:0:0:0:
256,192,177609,1,0,0:0:0:0:
256,192,177697,1,0,0:0:0:0:
256,192,177785,1,0,0:0:0:0:
256,192,177873,1,0,0:0:0:0:
256,192,177961,1,8,0:0:0:0:
256,192,178138,1,0,0:0:0:0:
256,192,178226,1,0,0:0:0:0:
256,192,178314,1,8,0:0:0:0:
256,192,178491,1,8,0:0:0:0:
256,192,178667,1,0,0:0:0:0:
256,192,178756,1,0,0:0:0:0:
256,192,178844,1,8,0:0:0:0:
256,192,179020,1,0,0:0:0:0:
256,192,179109,1,0,0:0:0:0:
256,192,179197,1,8,0:0:0:0:
256,192,179285,1,0,0:0:0:0:
256,192,179373,1,8,0:0:0:0:
256,192,179550,1,0,0:0:0:0:
256,192,179638,1,0,0:0:0:0:
256,192,179726,1,8,0:0:0:0:
256,192,179903,1,0,0:0:0:0:
256,192,180079,1,8,0:0:0:0:
256,192,180256,1,0,0:0:0:0:
256,192,180432,1,8,0:0:0:0:
256,192,180491,1,8,0:0:0:0:
256,192,180550,1,8,0:0:0:0:
256,192,180609,1,0,0:0:0:0:
256,192,180785,1,8,0:0:0:0:
256,192,180961,1,0,0:0:0:0:
256,192,181020,1,0,0:0:0:0:
256,192,181079,1,0,0:0:0:0:
256,192,181138,1,8,0:0:0:0:
256,192,181314,1,0,0:0:0:0:
256,192,181491,1,8,0:0:0:0:
256,192,181667,1,4,0:0:0:0:
256,192,182020,1,8,0:0:0:0:
256,192,182197,1,0,0:0:0:0:
256,192,182285,1,8,0:0:0:0:
256,192,182373,1,0,0:0:0:0:
256,192,182461,1,0,0:0:0:0:
256,192,182550,1,8,0:0:0:0:
256,192,182726,1,8,0:0:0:0:
256,192,182903,1,8,0:0:0:0:
256,192,183079,1,0,0:0:0:0:
256,192,183167,1,0,0:0:0:0:
256,192,183256,1,0,0:0:0:0:
256,192,183432,1,8,0:0:0:0:
256,192,183609,1,0,0:0:0:0:
256,192,183697,1,0,0:0:0:0:
256,192,183785,1,0,0:0:0:0:
256,192,183961,1,8,0:0:0:0:
256,192,184138,1,8,0:0:0:0:
256,192,184314,1,8,0:0:0:0:
256,192,184491,1,0,0:0:0:0:
256,192,184667,1,0,0:0:0:0:
256,192,184756,1,0,0:0:0:0:
256,192,184844,1,8,0:0:0:0:
256,192,184932,1,0,0:0:0:0:
256,192,185020,1,8,0:0:0:0:
256,192,185197,1,0,0:0:0:0:
256,192,185285,1,0,0:0:0:0:
256,192,185373,1,8,0:0:0:0:
256,192,185550,1,0,0:0:0:0:
256,192,185726,1,8,0:0:0:0:
256,192,185903,1,0,0:0:0:0:
256,192,185991,1,0,0:0:0:0:
256,192,186079,1,8,0:0:0:0:
256,192,186167,1,0,0:0:0:0:
256,192,186256,1,8,0:0:0:0:
256,192,186432,1,0,0:0:0:0:
256,192,186785,1,8,0:0:0:0:
256,192,186961,1,8,0:0:0:0:
256,192,187138,1,8,0:0:0:0:
256,192,187314,1,0,0:0:0:0:
256,192,187403,1,0,0:0:0:0:
256,192,187491,1,0,0:0:0:0:
256,192,187667,1,8,0:0:0:0:
256,192,187844,1,0,0:0:0:0:
256,192,187932,1,0,0:0:0:0:
256,192,188020,1,0,0:0:0:0:
256,192,188109,1,0,0:0:0:0:
256,192,188197,1,8,0:0:0:0:
256,192,188373,1,8,0:0:0:0:
256,192,188550,1,8,0:0:0:0:
256,192,188638,1,8,0:0:0:0:
256,192,188726,1,0,0:0:0:0:
256,192,188903,1,0,0:0:0:0:
256,192,189079,1,8,0:0:0:0:
256,192,189256,1,8,0:0:0:0:
256,192,189344,1,8,0:0:0:0:
256,192,189432,1,0,0:0:0:0:
256,192,189520,1,0,0:0:0:0:
256,192,189609,1,8,0:0:0:0:
256,192,189785,1,8,0:0:0:0:
256,192,189961,1,8,0:0:0:0:
256,192,190138,1,0,0:0:0:0:
256,192,190314,1,0,0:0:0:0:
256,192,190403,1,0,0:0:0:0:
256,192,190491,1,8,0:0:0:0:
256,192,190579,1,0,0:0:0:0:
256,192,190667,1,8,0:0:0:0:
256,192,190844,1,0,0:0:0:0:
256,192,190932,1,0,0:0:0:0:
256,192,191020,1,8,0:0:0:0:
256,192,191197,1,0,0:0:0:0:
256,192,191373,1,8,0:0:0:0:
256,192,191550,1,4,0:0:0:0:
256,192,191726,1,8,0:0:0:0:
256,192,191903,1,8,0:0:0:0:
256,192,192432,1,8,0:0:0:0:
256,192,192520,1,8,0:0:0:0:
256,192,192609,1,8,0:0:0:0:
256,192,192785,1,8,0:0:0:0:
256,192,192961,1,4,0:0:0:0:
256,192,193138,1,0,0:0:0:0:
256,192,193226,1,0,0:0:0:0:
256,192,193314,1,8,0:0:0:0:
256,192,193491,1,8,0:0:0:0:
256,192,193579,1,8,0:0:0:0:
256,192,193667,1,0,0:0:0:0:
256,192,193756,1,0,0:0:0:0:
256,192,193844,1,8,0:0:0:0:
256,192,194020,1,8,0:0:0:0:
256,192,194197,1,8,0:0:0:0:
256,192,194373,1,0,0:0:0:0:
256,192,194550,1,0,0:0:0:0:
256,192,194638,1,0,0:0:0:0:
256,192,194726,1,8,0:0:0:0:
256,192,194903,1,8,0:0:0:0:
256,192,194991,1,0,0:0:0:0:
256,192,195079,1,0,0:0:0:0:
256,192,195167,1,0,0:0:0:0:
256,192,195256,1,8,0:0:0:0:
256,192,195432,1,8,0:0:0:0:
256,192,195609,1,8,0:0:0:0:
256,192,195785,1,0,0:0:0:0:
256,192,195961,1,8,0:0:0:0:
256,192,196050,1,8,0:0:0:0:
256,192,196138,1,0,0:0:0:0:
256,192,196226,1,0,0:0:0:0:
256,192,196314,1,8,0:0:0:0:
256,192,196403,1,8,0:0:0:0:
256,192,196491,1,0,0:0:0:0:
256,192,196667,1,8,0:0:0:0:
256,192,196844,1,0,0:0:0:0:
256,192,197020,1,8,0:0:0:0:
256,192,197109,1,8,0:0:0:0:
256,192,197197,1,0,0:0:0:0:
256,192,197285,1,0,0:0:0:0:
256,192,197373,1,8,0:0:0:0:
256,192,197550,1,8,0:0:0:0:
256,192,197726,1,0,0:0:0:0:
256,192,198079,1,0,0:0:0:0:
256,192,198256,1,8,0:0:0:0:
256,192,198432,1,8,0:0:0:0:
256,192,198609,1,0,0:0:0:0:
256,192,198785,1,0,0:0:0:0:
256,192,198873,1,0,0:0:0:0:
256,192,198961,1,8,0:0:0:0:
256,192,199050,1,0,0:0:0:0:
256,192,199138,1,0,0:0:0:0:
256,192,199314,1,0,0:0:0:0:
256,192,199403,1,0,0:0:0:0:
256,192,199491,1,8,0:0:0:0:
256,192,199667,1,8,0:0:0:0:
256,192,199844,1,8,0:0:0:0:
256,192,200020,1,0,0:0:0:0:
256,192,200197,1,8,0:0:0:0:
256,192,200285,1,8,0:0:0:0:
256,192,200373,1,0,0:0:0:0:
256,192,200461,1,8,0:0:0:0:
256,192,200550,1,0,0:0:0:0:
256,192,200726,1,0,0:0:0:0:
256,192,200903,1,8,0:0:0:0:
256,192,201079,1,8,0:0:0:0:
256,192,201167,1,8,0:0:0:0:
256,192,201256,1,8,0:0:0:0:
256,192,201432,1,0,0:0:0:0:
256,192,201609,1,0,0:0:0:0:
256,192,201697,1,0,0:0:0:0:
256,192,201785,1,8,0:0:0:0:
256,192,201873,1,0,0:0:0:0:
256,192,201961,1,8,0:0:0:0:
256,192,202050,1,8,0:0:0:0:
256,192,202138,1,0,0:0:0:0:
256,192,202314,1,8,0:0:0:0:
256,192,202491,1,0,0:0:0:0:
256,192,202579,1,0,0:0:0:0:
256,192,202667,1,8,0:0:0:0:
256,192,202844,1,4,0:0:0:0:
256,192,203020,1,8,0:0:0:0:
256,192,203197,1,8,0:0:0:0:
256,192,203726,1,4,0:0:0:0:
256,192,203903,1,14,0:0:0:0:
256,192,204256,1,4,0:0:0:0:
256,192,204432,1,8,0:0:0:0:
256,192,204520,1,8,0:0:0:0:
256,192,204609,1,0,0:0:0:0:
256,192,204697,1,0,0:0:0:0:
256,192,204785,1,8,0:0:0:0:
256,192,204961,1,0,0:0:0:0:
256,192,205138,1,8,0:0:0:0:
256,192,205314,1,0,0:0:0:0:
256,192,205403,1,0,0:0:0:0:
256,192,205491,1,0,0:0:0:0:
256,192,205667,1,8,0:0:0:0:
256,192,205844,1,0,0:0:0:0:
256,192,205932,1,0,0:0:0:0:
256,192,206020,1,0,0:0:0:0:
256,192,206109,1,0,0:0:0:0:
256,192,206197,1,8,0:0:0:0:
256,192,206373,1,0,0:0:0:0:
256,192,206461,1,0,0:0:0:0:
256,192,206550,1,8,0:0:0:0:
256,192,206726,1,8,0:0:0:0:
256,192,206903,1,0,0:0:0:0:
256,192,207079,1,0,0:0:0:0:
256,192,207432,1,8,0:0:0:0:
256,192,207609,1,8,0:0:0:0:
256,192,207785,1,0,0:0:0:0:
256,192,207873,1,0,0:0:0:0:
256,192,207961,1,0,0:0:0:0:
256,192,208138,1,8,0:0:0:0:
256,192,208314,1,8,0:0:0:0:
256,192,208491,1,0,0:0:0:0:
256,192,208667,1,8,0:0:0:0:
256,192,208756,1,0,0:0:0:0:
256,192,208844,1,0,0:0:0:0:
256,192,208932,1,0,0:0:0:0:
256,192,209020,1,8,0:0:0:0:
256,192,209197,1,0,0:0:0:0:
256,192,209373,1,8,0:0:0:0:
256,192,209550,1,0,0:0:0:0:
256,192,209638,1,0,0:0:0:0:
256,192,209726,1,0,0:0:0:0:
256,192,209903,1,8,0:0:0:0:
256,192,210079,1,0,0:0:0:0:
256,192,210167,1,0,0:0:0:0:
256,192,210256,1,8,0:0:0:0:
256,192,210344,1,0,0:0:0:0:
256,192,210432,1,8,0:0:0:0:
256,192,210609,1,0,0:0:0:0:
256,192,210785,1,8,0:0:0:0:
256,192,210961,1,0,0:0:0:0:
256,192,211050,1,0,0:0:0:0:
256,192,211138,1,0,0:0:0:0:
256,192,211314,1,8,0:0:0:0:
256,192,211491,1,0,0:0:0:0:
256,192,211579,1,0,0:0:0:0:
256,192,211667,1,0,0:0:0:0:
256,192,211756,1,0,0:0:0:0:
256,192,211844,1,8,0:0:0:0:
256,192,212020,1,0,0:0:0:0:
256,192,212109,1,0,0:0:0:0:
256,192,212197,1,8,0:0:0:0:
256,192,212373,1,8,0:0:0:0:
256,192,212550,1,0,0:0:0:0:
256,192,212726,1,8,0:0:0:0:
256,192,212903,1,0,0:0:0:0:
256,192,212991,1,0,0:0:0:0:
256,192,213079,1,8,0:0:0:0:
256,192,213167,1,0,0:0:0:0:
256,192,213256,1,8,0:0:0:0:
256,192,213432,1,0,0:0:0:0:
256,192,213609,1,8,0:0:0:0:
256,192,213785,1,0,0:0:0:0:
256,192,213873,1,0,0:0:0:0:
256,192,213961,1,8,0:0:0:0:
256,192,214314,1,0,0:0:0:0:
256,192,214491,1,8,0:0:0:0:
256,192,214579,1,8,0:0:0:0:
256,192,214667,1,0,0:0:0:0:
256,192,214756,1,8,0:0:0:0:
256,192,214844,1,0,0:0:0:0:
256,192,214932,1,0,0:0:0:0:
256,192,215020,1,8,0:0:0:0:
256,192,215109,1,0,0:0:0:0:
256,192,215197,1,8,0:0:0:0:
256,192,215373,1,8,0:0:0:0:
256,192,215550,1,4,0:0:0:0:
256,192,215903,1,0,0:0:0:0:
256,192,216079,1,8,0:0:0:0:
256,192,216167,1,8,0:0:0:0:
256,192,216256,1,0,0:0:0:0:
256,192,216344,1,0,0:0:0:0:
256,192,216432,1,8,0:0:0:0:
256,192,216609,1,0,0:0:0:0:
256,192,216697,1,0,0:0:0:0:
256,192,216785,1,0,0:0:0:0:
256,192,216961,1,8,0:0:0:0:
256,192,217138,1,8,0:0:0:0:
256,192,217226,1,0,0:0:0:0:
256,192,217314,1,0,0:0:0:0:
256,192,217491,1,8,0:0:0:0:
256,192,217667,1,0,0:0:0:0:
256,192,217756,1,0,0:0:0:0:
256,192,217844,1,8,0:0:0:0:
256,192,218020,1,0,0:0:0:0:
256,192,218109,1,0,0:0:0:0:
256,192,218197,1,0,0:0:0:0:
256,192,218373,1,8,0:0:0:0:
256,192,218550,1,0,0:0:0:0:
256,192,218638,1,0,0:0:0:0:
256,192,218726,1,8,0:0:0:0:
256,192,218814,1,0,0:0:0:0:
256,192,218903,1,8,0:0:0:0:
256,192,219079,1,8,0:0:0:0:
256,192,219256,1,0,0:0:0:0:
256,192,219344,1,0,0:0:0:0:
256,192,219432,1,8,0:0:0:0:
256,192,219609,1,0,0:0:0:0:
256,192,219785,1,8,0:0:0:0:
256,192,219961,1,0,0:0:0:0:
256,192,220050,1,0,0:0:0:0:
256,192,220138,1,0,0:0:0:0:
256,192,220314,1,8,0:0:0:0:
256,192,220491,1,0,0:0:0:0:
256,192,220579,1,0,0:0:0:0:
256,192,220667,1,8,0:0:0:0:
256,192,220756,1,0,0:0:0:0:
256,192,220844,1,8,0:0:0:0:
256,192,221020,1,0,0:0:0:0:
256,192,221197,1,8,0:0:0:0:
256,192,221550,1,0,0:0:0:0:
256,192,221726,1,8,0:0:0:0:
256,192,221814,1,0,0:0:0:0:
256,192,221903,1,0,0:0:0:0:
256,192,221991,1,0,0:0:0:0:
256,192,222079,1,8,0:0:0:0:
256,192,222256,1,0,0:0:0:0:
256,192,222344,1,0,0:0:0:0:
256,192,222432,1,0,0:0:0:0:
256,192,222609,1,8,0:0:0:0:
256,192,222785,1,0,0:0:0:0:
256,192,222873,1,0,0:0:0:0:
256,192,222961,1,0,0:0:0:0:
256,192,223050,1,0,0:0:0:0:
256,192,223138,1,8,0:0:0:0:
256,192,223314,1,0,0:0:0:0:
256,192,223403,1,0,0:0:0:0:
256,192,223491,1,8,0:0:0:0:
256,192,223667,1,8,0:0:0:0:
256,192,223844,1,0,0:0:0:0:
256,192,224020,1,8,0:0:0:0:
256,192,224197,1,0,0:0:0:0:
256,192,224285,1,0,0:0:0:0:
256,192,224373,1,8,0:0:0:0:
256,192,224461,1,0,0:0:0:0:
256,192,224550,1,8,0:0:0:0:
256,192,224726,1,0,0:0:0:0:
256,192,224814,1,0,0:0:0:0:
256,192,224903,1,8,0:0:0:0:
256,192,225079,1,0,0:0:0:0:
256,192,225167,1,0,0:0:0:0:
256,192,225256,1,8,0:0:0:0:
256,192,225432,1,4,0:0:0:0:
256,192,225785,1,8,0:0:0:0:
256,192,225961,1,8,0:0:0:0:
256,192,226138,1,0,0:0:0:0:
256,192,226314,1,4,0:0:0:0:
256,192,226491,1,14,0:0:0:0:
256,192,226844,1,8,0:0:0:0:
256,192,227020,1,8,0:0:0:0:
256,192,227197,1,8,0:0:0:0:
256,192,227373,1,8,0:0:0:0:
256,192,227550,1,8,0:0:0:0:
256,192,228432,1,8,0:0:0:0:
256,192,228609,1,8,0:0:0:0:
256,192,228785,1,8,0:0:0:0:
256,192,228961,1,8,0:0:0:0:
256,192,229667,1,0,0:0:0:0:
256,192,229844,1,0,0:0:0:0:
256,192,230020,1,0,0:0:0:0:
256,192,230197,1,0,0:0:0:0:
256,192,230550,1,8,0:0:0:0:
256,192,230726,1,8,0:0:0:0:
256,192,230903,1,8,0:0:0:0:
256,192,231961,1,8,0:0:0:0:
256,192,232138,1,8,0:0:0:0:
256,192,232667,1,8,0:0:0:0:
256,192,232844,1,8,0:0:0:0:
256,192,233020,1,8,0:0:0:0:
256,192,233197,1,8,0:0:0:0:
256,192,234079,1,8,0:0:0:0:
256,192,234256,1,8,0:0:0:0:
256,192,234432,1,8,0:0:0:0:
256,192,235314,1,0,0:0:0:0:
256,192,235491,1,0,0:0:0:0:
256,192,235667,1,0,0:0:0:0:
256,192,235844,1,0,0:0:0:0:
256,192,236197,1,8,0:0:0:0:
256,192,236373,1,8,0:0:0:0:
256,192,236550,1,8,0:0:0:0:
256,192,236726,1,0,0:0:0:0:
288,192,237609,1,8,0:0:0:0:
288,192,237785,1,8,0:0:0:0:
288,192,238138,1,4,0:0:0:0:
288,192,238314,1,0,0:0:0:0:
288,192,238491,1,8,0:0:0:0:
288,192,238667,1,0,0:0:0:0:
288,192,238756,1,8,0:0:0:0:
288,192,238844,1,0,0:0:0:0:
288,192,239020,1,0,0:0:0:0:
288,192,239197,1,8,0:0:0:0:
288,192,239550,1,0,0:0:0:0:
288,192,239726,1,0,0:0:0:0:
288,192,239814,1,0,0:0:0:0:
288,192,239903,1,8,0:0:0:0:
288,192,240079,1,8,0:0:0:0:
288,192,240256,1,0,0:0:0:0:
288,192,240432,1,0,0:0:0:0:
288,192,240520,1,0,0:0:0:0:
288,192,240609,1,8,0:0:0:0:
288,192,240785,1,8,0:0:0:0:
288,192,240873,1,8,0:0:0:0:
288,192,240961,1,0,0:0:0:0:
288,192,241138,1,0,0:0:0:0:
288,192,241314,1,8,0:0:0:0:
288,192,241491,1,0,0:0:0:0:
288,192,241579,1,8,0:0:0:0:
288,192,241667,1,0,0:0:0:0:
288,192,241844,1,0,0:0:0:0:
288,192,242020,1,8,0:0:0:0:
288,192,242197,1,8,0:0:0:0:
288,192,242285,1,8,0:0:0:0:
288,192,242373,1,0,0:0:0:0:
288,192,242550,1,0,0:0:0:0:
288,192,242726,1,8,0:0:0:0:
288,192,242903,1,8,0:0:0:0:
288,192,242991,1,8,0:0:0:0:
288,192,243079,1,0,0:0:0:0:
288,192,243167,1,8,0:0:0:0:
288,192,243256,1,0,0:0:0:0:
288,192,243432,1,8,0:0:0:0:
288,192,243785,1,0,0:0:0:0:
288,192,243873,1,0,0:0:0:0:
288,192,243961,1,8,0:0:0:0:
288,192,244138,1,0,0:0:0:0:
288,192,244314,1,8,0:0:0:0:
288,192,244403,1,8,0:0:0:0:
288,192,244491,1,0,0:0:0:0:
288,192,244579,1,0,0:0:0:0:
288,192,244667,1,8,0:0:0:0:
288,192,244844,1,0,0:0:0:0:
288,192,244932,1,0,0:0:0:0:
288,192,245020,1,0,0:0:0:0:
288,192,245197,1,8,0:0:0:0:
288,192,245285,1,8,0:0:0:0:
288,192,245373,1,0,0:0:0:0:
288,192,245461,1,0,0:0:0:0:
288,192,245550,1,8,0:0:0:0:
288,192,245638,1,0,0:0:0:0:
288,192,245726,1,8,0:0:0:0:
288,192,245903,1,0,0:0:0:0:
288,192,246079,1,8,0:0:0:0:
288,192,246167,1,8,0:0:0:0:
288,192,246256,1,0,0:0:0:0:
288,192,246344,1,0,0:0:0:0:
288,192,246432,1,8,0:0:0:0:
288,192,246609,1,0,0:0:0:0:
288,192,246697,1,0,0:0:0:0:
288,192,246785,1,8,0:0:0:0:
288,192,246843,1,8,0:0:0:0:
288,192,246902,1,8,0:0:0:0:
288,192,246961,1,0,0:0:0:0:
288,192,247049,1,0,0:0:0:0:
288,192,247137,1,8,0:0:0:0:
288,192,247196,1,8,0:0:0:0:
288,192,247255,1,8,0:0:0:0:
288,192,247314,1,0,0:0:0:0:
288,192,247402,1,0,0:0:0:0:
288,192,247490,1,8,0:0:0:0:
288,192,247549,1,0,0:0:0:0:
288,192,247608,1,0,0:0:0:0:
288,192,247667,1,8,0:0:0:0:
288,192,247726,1,0,0:0:0:0:
288,192,247785,1,0,0:0:0:0:
288,192,247843,1,8,0:0:0:0:
352,192,248020,1,0,0:0:0:0:
320,192,248109,1,0,0:0:0:0:
320,192,248197,1,8,0:0:0:0:
256,192,248373,1,0,0:0:0:0:
224,192,248550,1,8,0:0:0:0:
224,160,248638,1,8,0:0:0:0:
224,160,248726,1,0,0:0:0:0:
224,160,248903,1,4,0:0:0:0:
224,160,249079,1,14,0:0:0:0:
288,256,249432,1,0,0:0:0:0:
256,224,249609,1,8,0:0:0:0:
256,192,249697,1,8,0:0:0:0:
256,192,249785,1,0,0:0:0:0:
256,192,249873,1,0,0:0:0:0:
256,192,249961,1,8,0:0:0:0:
256,192,250050,1,0,0:0:0:0:
256,192,250138,1,8,0:0:0:0:
256,192,250226,1,8,0:0:0:0:
256,192,250314,1,0,0:0:0:0:
256,192,250491,1,8,0:0:0:0:
256,192,250667,1,0,0:0:0:0:
256,192,250756,1,8,0:0:0:0:
256,192,250844,1,0,0:0:0:0:
256,192,251020,1,8,0:0:0:0:
256,192,251109,1,8,0:0:0:0:
256,192,251197,1,0,0:0:0:0:
256,192,251285,1,0,0:0:0:0:
256,192,251373,1,8,0:0:0:0:
256,192,251461,1,8,0:0:0:0:
256,192,251550,1,0,0:0:0:0:
256,192,251638,1,8,0:0:0:0:
256,192,251726,1,0,0:0:0:0:
256,192,251903,1,8,0:0:0:0:
256,192,252079,1,0,0:0:0:0:
256,192,252167,1,0,0:0:0:0:
256,192,252256,1,8,0:0:0:0:
256,192,252432,1,0,0:0:0:0:
256,192,252520,1,0,0:0:0:0:
256,192,252609,1,8,0:0:0:0:
256,192,252697,1,0,0:0:0:0:
256,192,252785,1,8,0:0:0:0:
256,192,252873,1,8,0:0:0:0:
256,192,252961,1,0,0:0:0:0:
256,192,253050,1,0,0:0:0:0:
256,192,253138,1,8,0:0:0:0:
256,192,253314,1,8,0:0:0:0:
256,192,253491,1,8,0:0:0:0:
256,192,253667,1,0,0:0:0:0:
256,192,253756,1,0,0:0:0:0:
256,192,253844,1,0,0:0:0:0:
256,192,254020,1,8,0:0:0:0:
256,192,254197,1,0,0:0:0:0:
256,192,254550,1,0,0:0:0:0:
256,192,254726,1,8,0:0:0:0:
256,192,254903,1,0,0:0:0:0:
256,192,254991,1,0,0:0:0:0:
256,192,255079,1,8,0:0:0:0:
256,192,255256,1,8,0:0:0:0:
256,192,255344,1,8,0:0:0:0:
256,192,255432,1,0,0:0:0:0:
256,192,255520,1,0,0:0:0:0:
256,192,255609,1,8,0:0:0:0:
256,192,255697,1,0,0:0:0:0:
256,192,255785,1,8,0:0:0:0:
256,192,255873,1,8,0:0:0:0:
256,192,255961,1,0,0:0:0:0:
256,192,256138,1,8,0:0:0:0:
256,192,256314,1,8,0:0:0:0:
256,192,256403,1,8,0:0:0:0:
256,192,256491,1,0,0:0:0:0:
256,192,256667,1,0,0:0:0:0:
256,192,256756,1,0,0:0:0:0:
256,192,256844,1,8,0:0:0:0:
256,192,256932,1,0,0:0:0:0:
256,192,257020,1,8,0:0:0:0:
256,192,257109,1,8,0:0:0:0:
256,192,257197,1,0,0:0:0:0:
256,192,257285,1,0,0:0:0:0:
256,192,257373,1,8,0:0:0:0:
256,192,257550,1,0,0:0:0:0:
256,192,257726,1,0,0:0:0:0:
256,192,257814,1,0,0:0:0:0:
256,192,257903,1,8,0:0:0:0:
256,192,258079,1,0,0:0:0:0:
256,192,258256,1,8,0:0:0:0:
256,192,258344,1,8,0:0:0:0:
256,192,258432,1,0,0:0:0:0:
256,192,258520,1,0,0:0:0:0:
256,192,258609,1,8,0:0:0:0:
256,192,258785,1,0,0:0:0:0:
256,192,258961,1,8,0:0:0:0:
256,192,259138,1,8,0:0:0:0:
256,192,259314,1,0,0:0:0:0:
256,192,259403,1,0,0:0:0:0:
256,192,259491,1,0,0:0:0:0:
256,192,259667,1,8,0:0:0:0:
256,192,259844,1,0,0:0:0:0:
256,192,260197,1,0,0:0:0:0:
256,192,260373,1,8,0:0:0:0:
256,192,260550,1,8,0:0:0:0:
256,192,260726,1,4,0:0:0:0:
256,192,260903,1,0,0:0:0:0:
256,192,260991,1,0,0:0:0:0:
256,192,261079,1,8,0:0:0:0:
256,192,261167,1,0,0:0:0:0:
256,192,261256,1,8,0:0:0:0:
256,192,261344,1,8,0:0:0:0:
256,192,261432,1,0,0:0:0:0:
256,192,261520,1,0,0:0:0:0:
256,192,261609,1,8,0:0:0:0:
256,192,261785,1,8,0:0:0:0:
256,192,261961,1,0,0:0:0:0:
256,192,262050,1,0,0:0:0:0:
256,192,262138,1,8,0:0:0:0:
256,192,262314,1,8,0:0:0:0:
256,192,262403,1,8,0:0:0:0:
256,192,262491,1,0,0:0:0:0:
256,192,262579,1,0,0:0:0:0:
256,192,262667,1,8,0:0:0:0:
256,192,262756,1,0,0:0:0:0:
256,192,262844,1,8,0:0:0:0:
256,192,262932,1,8,0:0:0:0:
256,192,263020,1,0,0:0:0:0:
256,192,263197,1,8,0:0:0:0:
256,192,263373,1,0,0:0:0:0:
256,192,263550,1,8,0:0:0:0:
256,192,263726,1,0,0:0:0:0:
256,192,263814,1,0,0:0:0:0:
256,192,263903,1,8,0:0:0:0:
256,192,264079,1,0,0:0:0:0:
256,192,264256,1,8,0:0:0:0:
256,192,264344,1,8,0:0:0:0:
256,192,264432,1,0,0:0:0:0:
256,192,264520,1,0,0:0:0:0:
256,192,264609,1,8,0:0:0:0:
256,192,264785,1,8,0:0:0:0:
256,192,264961,1,0,0:0:0:0:
256,192,265314,1,8,0:0:0:0:
256,192,265491,1,0,0:0:0:0:
256,192,265579,1,0,0:0:0:0:
256,192,265667,1,0,0:0:0:0:
256,192,265844,1,0,0:0:0:0:
256,192,266020,1,8,0:0:0:0:
256,192,266109,1,8,0:0:0:0:
256,192,266197,1,0,0:0:0:0:
256,192,266373,1,8,0:0:0:0:
256,192,266550,1,0,0:0:0:0:
256,192,266638,1,0,0:0:0:0:
256,192,266726,1,8,0:0:0:0:
256,192,266903,1,0,0:0:0:0:
256,192,267256,1,0,0:0:0:0:
256,192,267432,1,8,0:0:0:0:
256,192,267609,1,8,0:0:0:0:
256,192,267785,1,0,0:0:0:0:
256,192,267873,1,0,0:0:0:0:
256,192,267961,1,0,0:0:0:0:
256,192,268138,1,8,0:0:0:0:
256,192,268314,1,0,0:0:0:0:
256,192,268491,1,8,0:0:0:0:
256,192,268667,1,8,0:0:0:0:
256,192,268844,1,0,0:0:0:0:
256,192,268932,1,0,0:0:0:0:
256,192,269020,1,0,0:0:0:0:
256,192,269197,1,8,0:0:0:0:
256,192,269550,1,8,0:0:0:0:
256,192,269726,1,8,0:0:0:0:
256,192,269903,1,0,0:0:0:0:
256,192,269991,1,0,0:0:0:0:
256,192,270079,1,0,0:0:0:0:
256,192,270256,1,8,0:0:0:0:
256,192,270609,1,8,0:0:0:0:
256,192,270785,1,0,0:0:0:0:
256,192,270844,1,0,0:0:0:0:
256,192,270903,1,0,0:0:0:0:
256,192,270961,1,0,0:0:0:0:
256,192,271138,1,8,0:0:0:0:
256,192,271314,1,0,0:0:0:0:
256,192,271373,1,0,0:0:0:0:
256,192,271432,1,0,0:0:0:0:
256,192,271491,1,0,0:0:0:0:
256,192,271667,1,8,0:0:0:0:
256,192,271844,1,0,0:0:0:0:
256,192,272020,1,4,0:0:0:0:
256,192,272373,1,8,0:0:0:0:
256,192,272550,1,0,0:0:0:0:
256,192,272638,1,0,0:0:0:0:
256,192,272726,1,0,0:0:0:0:
256,192,272814,1,0,0:0:0:0:
256,192,272903,1,8,0:0:0:0:
256,192,273079,1,8,0:0:0:0:
256,192,273256,1,8,0:0:0:0:
256,192,273432,1,0,0:0:0:0:
256,192,273520,1,0,0:0:0:0:
256,192,273609,1,0,0:0:0:0:
256,192,273785,1,8,0:0:0:0:
256,192,273961,1,8,0:0:0:0:
256,192,274138,1,0,0:0:0:0:
256,192,274314,1,8,0:0:0:0:
256,192,274403,1,0,0:0:0:0:
256,192,274491,1,8,0:0:0:0:
256,192,274667,1,8,0:0:0:0:
256,192,274844,1,0,0:0:0:0:
256,192,275020,1,0,0:0:0:0:
256,192,275109,1,0,0:0:0:0:
256,192,275197,1,8,0:0:0:0:
256,192,275285,1,0,0:0:0:0:
256,192,275373,1,8,0:0:0:0:
256,192,275550,1,0,0:0:0:0:
256,192,275726,1,8,0:0:0:0:
256,192,275814,1,8,0:0:0:0:
256,192,275903,1,0,0:0:0:0:
256,192,276079,1,8,0:0:0:0:
256,192,276256,1,0,0:0:0:0:
256,192,276344,1,0,0:0:0:0:
256,192,276432,1,8,0:0:0:0:
256,192,276520,1,0,0:0:0:0:
256,192,276609,1,8,0:0:0:0:
256,192,276785,1,0,0:0:0:0:
256,192,277138,1,0,0:0:0:0:
256,192,277314,1,8,0:0:0:0:
256,192,277491,1,8,0:0:0:0:
256,192,277667,1,0,0:0:0:0:
256,192,277756,1,0,0:0:0:0:
256,192,277844,1,0,0:0:0:0:
256,192,278020,1,8,0:0:0:0:
256,192,278197,1,0,0:0:0:0:
256,192,278285,1,0,0:0:0:0:
256,192,278373,1,0,0:0:0:0:
256,192,278461,1,0,0:0:0:0:
256,192,278550,1,8,0:0:0:0:
256,192,278726,1,8,0:0:0:0:
256,192,278903,1,8,0:0:0:0:
256,192,279079,1,0,0:0:0:0:
256,192,279167,1,0,0:0:0:0:
256,192,279256,1,0,0:0:0:0:
256,192,279432,1,8,0:0:0:0:
256,192,279609,1,0,0:0:0:0:
256,192,279697,1,0,0:0:0:0:
256,192,279785,1,0,0:0:0:0:
256,192,279961,1,8,0:0:0:0:
256,192,280138,1,8,0:0:0:0:
256,192,280314,1,8,0:0:0:0:
256,192,280491,1,0,0:0:0:0:
256,192,280667,1,0,0:0:0:0:
256,192,280756,1,0,0:0:0:0:
256,192,280844,1,8,0:0:0:0:
256,192,280932,1,0,0:0:0:0:
256,192,281020,1,8,0:0:0:0:
256,192,281197,1,0,0:0:0:0:
256,192,281373,1,8,0:0:0:0:
256,192,281461,1,8,0:0:0:0:
256,192,281550,1,0,0:0:0:0:
256,192,281638,1,0,0:0:0:0:
256,192,281726,1,8,0:0:0:0:
256,192,281903,1,4,0:0:0:0:
256,192,282079,1,8,0:0:0:0:
256,192,282256,1,8,0:0:0:0:
256,192,282609,1,0,0:0:0:0:
256,192,282785,1,8,0:0:0:0:
256,192,282873,1,8,0:0:0:0:
256,192,282961,1,8,0:0:0:0:
256,192,283138,1,8,0:0:0:0:
256,192,283314,1,0,0:0:0:0:
256,192,283403,1,0,0:0:0:0:
256,192,283491,1,0,0:0:0:0:
256,192,283667,1,8,0:0:0:0:
256,192,283844,1,8,0:0:0:0:
256,192,283932,1,8,0:0:0:0:
256,192,284020,1,0,0:0:0:0:
256,192,284109,1,0,0:0:0:0:
256,192,284197,1,8,0:0:0:0:
256,192,284373,1,8,0:0:0:0:
256,192,284550,1,8,0:0:0:0:
256,192,284726,1,0,0:0:0:0:
256,192,284814,1,8,0:0:0:0:
256,192,284903,1,0,0:0:0:0:
256,192,285079,1,8,0:0:0:0:
256,192,285256,1,0,0:0:0:0:
256,192,285344,1,0,0:0:0:0:
256,192,285432,1,0,0:0:0:0:
256,192,285520,1,0,0:0:0:0:
256,192,285609,1,8,0:0:0:0:
256,192,285785,1,8,0:0:0:0:
256,192,285961,1,8,0:0:0:0:
256,192,286138,1,0,0:0:0:0:
256,192,286314,1,0,0:0:0:0:
256,192,286403,1,0,0:0:0:0:
256,192,286491,1,8,0:0:0:0:
256,192,286579,1,0,0:0:0:0:
256,192,286667,1,8,0:0:0:0:
256,192,286756,1,8,0:0:0:0:
256,192,286844,1,0,0:0:0:0:
256,192,287020,1,8,0:0:0:0:
224,192,287109,1,8,0:0:0:0:
256,192,287197,1,0,0:0:0:0:
256,192,287373,1,8,0:0:0:0:
192,192,287550,1,0,0:0:0:0:
224,192,287638,1,0,0:0:0:0:
224,192,287726,1,8,0:0:0:0:
224,192,287814,1,0,0:0:0:0:
224,192,287903,1,8,0:0:0:0:
224,192,288079,1,0,0:0:0:0:
128,160,288432,1,0,0:0:0:0:
160,160,288609,1,8,0:0:0:0:
192,192,288785,1,8,0:0:0:0:
224,192,288961,1,0,0:0:0:0:
192,192,289050,1,8,0:0:0:0:
192,192,289138,1,0,0:0:0:0:
224,192,289314,1,8,0:0:0:0:
224,192,289491,1,0,0:0:0:0:
224,192,289579,1,8,0:0:0:0:
224,192,289667,1,0,0:0:0:0:
224,192,289756,1,0,0:0:0:0:
224,192,289844,1,8,0:0:0:0:
224,192,290020,1,0,0:0:0:0:
224,192,290197,1,8,0:0:0:0:
224,192,290373,1,0,0:0:0:0:
224,192,290461,1,8,0:0:0:0:
224,192,290550,1,0,0:0:0:0:
224,192,290726,1,8,0:0:0:0:
224,192,290903,1,0,0:0:0:0:
224,192,290991,1,8,0:0:0:0:
224,192,291079,1,0,0:0:0:0:
224,192,291167,1,0,0:0:0:0:
224,192,291256,1,8,0:0:0:0:
224,192,291432,1,8,0:0:0:0:
224,192,291520,1,8,0:0:0:0:
224,192,291609,1,8,0:0:0:0:
224,192,291785,1,0,0:0:0:0:
224,192,291961,1,0,0:0:0:0:
224,192,292050,1,0,0:0:0:0:
224,192,292138,1,8,0:0:0:0:
224,192,292226,1,0,0:0:0:0:
224,192,292314,1,8,0:0:0:0:
224,192,292403,1,8,0:0:0:0:
224,192,292491,1,0,0:0:0:0:
224,192,292667,1,8,0:0:0:0:
224,192,292756,1,8,0:0:0:0:
224,192,292844,1,0,0:0:0:0:
224,192,292932,1,0,0:0:0:0:
224,192,293020,1,8,0:0:0:0:
224,192,293197,1,0,0:0:0:0:
224,192,293373,1,8,0:0:0:0:
224,192,293550,1,8,0:0:0:0:
224,192,294079,1,4,0:0:0:0:
224,192,294256,1,14,0:0:0:0:
224,192,294609,1,4,0:0:0:0:
224,192,294785,1,8,0:0:0:0:
224,192,294873,1,8,0:0:0:0:
224,192,294961,1,0,0:0:0:0:
224,192,295050,1,0,0:0:0:0:
224,192,295138,1,8,0:0:0:0:
224,192,295314,1,0,0:0:0:0:
224,192,295403,1,0,0:0:0:0:
224,192,295491,1,8,0:0:0:0:
224,192,295667,1,8,0:0:0:0:
224,192,295844,1,0,0:0:0:0:
224,192,296020,1,8,0:0:0:0:
224,192,296197,1,0,0:0:0:0:
224,192,296285,1,0,0:0:0:0:
224,192,296373,1,0,0:0:0:0:
224,192,296461,1,0,0:0:0:0:
224,192,296550,1,8,0:0:0:0:
224,192,296726,1,0,0:0:0:0:
224,192,296814,1,0,0:0:0:0:
224,192,296903,1,8,0:0:0:0:
224,192,297079,1,8,0:0:0:0:
224,192,297256,1,0,0:0:0:0:
224,192,297432,1,8,0:0:0:0:
224,192,297609,1,0,0:0:0:0:
224,192,297697,1,0,0:0:0:0:
224,192,297785,1,8,0:0:0:0:
224,192,297873,1,0,0:0:0:0:
224,192,297961,1,8,0:0:0:0:
224,192,298138,1,8,0:0:0:0:
224,192,298314,1,0,0:0:0:0:
224,192,298403,1,0,0:0:0:0:
224,192,298491,1,8,0:0:0:0:
224,192,298667,1,0,0:0:0:0:
224,192,298844,1,8,0:0:0:0:
224,192,299020,1,0,0:0:0:0:
224,192,299109,1,0,0:0:0:0:
224,192,299197,1,0,0:0:0:0:
224,192,299285,1,0,0:0:0:0:
224,192,299373,1,8,0:0:0:0:
224,192,299550,1,0,0:0:0:0:
224,192,299726,1,8,0:0:0:0:
224,192,299903,1,0,0:0:0:0:
224,192,299991,1,0,0:0:0:0:
224,192,300079,1,0,0:0:0:0:
224,192,300256,1,8,0:0:0:0:
224,192,300609,1,0,0:0:0:0:
224,192,300785,1,8,0:0:0:0:
224,192,300873,1,8,0:0:0:0:
224,192,300961,1,0,0:0:0:0:
224,192,301050,1,0,0:0:0:0:
224,192,301138,1,8,0:0:0:0:
224,192,301314,1,8,0:0:0:0:
224,192,301491,1,0,0:0:0:0:
224,192,301667,1,8,0:0:0:0:
256,192,301844,1,0,0:0:0:0:
256,192,301932,1,0,0:0:0:0:
256,192,302020,1,0,0:0:0:0:
256,192,302109,1,0,0:0:0:0:
224,192,302197,1,8,0:0:0:0:
256,192,302373,1,0,0:0:0:0:
256,192,302461,1,0,0:0:0:0:
256,192,302550,1,8,0:0:0:0:
256,192,302726,1,8,0:0:0:0:
256,192,302903,1,0,0:0:0:0:
256,192,303079,1,8,0:0:0:0:
256,192,303256,1,0,0:0:0:0:
256,192,303344,1,0,0:0:0:0:
256,192,303432,1,8,0:0:0:0:
256,192,303520,1,0,0:0:0:0:
256,192,303609,1,8,0:0:0:0:
256,192,303785,1,0,0:0:0:0:
256,192,303961,1,8,0:0:0:0:
256,192,304050,1,8,0:0:0:0:
256,192,304138,1,0,0:0:0:0:
256,192,304226,1,0,0:0:0:0:
256,192,304314,1,8,0:0:0:0:
192,192,304491,1,0,0:0:0:0:
224,192,304667,1,0,0:0:0:0:
224,192,304844,1,8,0:0:0:0:
224,192,304932,1,8,0:0:0:0:
224,192,305020,1,0,0:0:0:0:
224,192,305109,1,0,0:0:0:0:
224,192,305197,1,8,0:0:0:0:
224,192,305373,1,0,0:0:0:0:
224,192,305550,1,8,0:0:0:0:
224,192,305726,1,8,0:0:0:0:
224,192,305903,1,4,0:0:0:0:
224,192,306256,1,0,0:0:0:0:
224,192,306432,1,8,0:0:0:0:
224,192,306520,1,0,0:0:0:0:
224,192,306609,1,0,0:0:0:0:
224,192,306697,1,0,0:0:0:0:
224,192,306785,1,8,0:0:0:0:
224,192,306961,1,8,0:0:0:0:
224,192,307138,1,0,0:0:0:0:
224,192,307314,1,8,0:0:0:0:
224,192,307491,1,0,0:0:0:0:
224,192,307579,1,0,0:0:0:0:
224,192,307667,1,0,0:0:0:0:
224,192,307756,1,0,0:0:0:0:
224,192,307844,1,8,0:0:0:0:
224,192,308020,1,0,0:0:0:0:
224,192,308109,1,0,0:0:0:0:
224,192,308197,1,8,0:0:0:0:
224,192,308373,1,8,0:0:0:0:
224,192,308550,1,0,0:0:0:0:
192,224,308726,1,0,0:0:0:0:
224,192,308814,1,0,0:0:0:0:
256,192,308903,1,0,0:0:0:0:
256,192,309079,1,8,0:0:0:0:
256,192,309256,1,8,0:0:0:0:
256,192,309344,1,8,0:0:0:0:
256,192,309432,1,0,0:0:0:0:
256,192,309520,1,0,0:0:0:0:
256,192,309609,1,8,0:0:0:0:
256,192,309785,1,8,0:0:0:0:
256,192,309961,1,0,0:0:0:0:
256,192,310138,1,8,0:0:0:0:
256,192,310314,1,0,0:0:0:0:
256,192,310403,1,0,0:0:0:0:
256,192,310491,1,0,0:0:0:0:
256,192,310667,1,8,0:0:0:0:
288,256,310844,1,0,0:0:0:0:
288,224,310932,1,0,0:0:0:0:
288,288,311020,1,8,0:0:0:0:
288,256,311197,1,8,0:0:0:0:
256,192,311550,1,0,0:0:0:0:
256,192,311726,1,0,0:0:0:0:
256,192,311903,1,8,0:0:0:0:
256,192,312079,1,0,0:0:0:0:
256,192,312167,1,0,0:0:0:0:
256,192,312256,1,0,0:0:0:0:
256,192,312344,1,0,0:0:0:0:
256,192,312432,1,8,0:0:0:0:
256,192,312609,1,0,0:0:0:0:
256,192,312697,1,0,0:0:0:0:
256,192,312785,1,0,0:0:0:0:
256,192,312961,1,8,0:0:0:0:
256,192,313138,1,0,0:0:0:0:
256,192,313226,1,0,0:0:0:0:
256,192,313314,1,0,0:0:0:0:
256,192,313403,1,0,0:0:0:0:
256,192,313491,1,8,0:0:0:0:
256,192,313667,1,0,0:0:0:0:
256,192,313756,1,0,0:0:0:0:
256,192,313844,1,8,0:0:0:0:
256,192,314020,1,8,0:0:0:0:
256,192,314197,1,0,0:0:0:0:
256,192,314285,1,0,0:0:0:0:
256,192,314373,1,8,0:0:0:0:
256,192,314550,1,0,0:0:0:0:
256,192,314638,1,0,0:0:0:0:
256,192,314726,1,8,0:0:0:0:
256,192,314814,1,0,0:0:0:0:
256,192,314903,1,8,0:0:0:0:
256,192,315079,1,0,0:0:0:0:
256,192,315256,1,8,0:0:0:0:
256,192,315344,1,8,0:0:0:0:
256,192,315432,1,0,0:0:0:0:
256,192,315520,1,0,0:0:0:0:
256,192,315609,1,8,0:0:0:0:
256,192,315785,1,4,0:0:0:0:
256,192,315961,1,8,0:0:0:0:
256,192,316050,1,8,0:0:0:0:
256,192,316138,1,8,0:0:0:0:
256,192,316314,1,0,0:0:0:0:
256,192,316403,1,0,0:0:0:0:
256,192,316491,1,0,0:0:0:0:
256,192,316667,1,4,0:0:0:0:
256,192,316844,1,14,0:0:0:0:
256,192,317197,1,4,0:0:0:0:
256,192,317550,1,8,0:0:0:0:
256,192,317726,1,0,0:0:0:0:
256,192,318079,1,0,0:0:0:0:
256,192,318256,1,8,0:0:0:0:
256,192,318609,1,0,0:0:0:0:
256,192,318785,1,0,0:0:0:0:
256,192,318961,1,8,0:0:0:0:
224,192,319138,1,0,0:0:0:0:
256,192,319491,1,0,0:0:0:0:
256,192,319667,1,8,0:0:0:0:
256,192,320020,1,0,0:0:0:0:
256,192,320373,1,8,0:0:0:0:
256,192,320550,1,8,0:0:0:0:
256,192,320903,1,0,0:0:0:0:
256,192,321079,1,8,0:0:0:0:
256,192,321256,1,8,0:0:0:0:
256,192,321432,1,0,0:0:0:0:
256,192,321785,1,8,0:0:0:0:
256,192,321961,1,0,0:0:0:0:
256,192,322314,1,0,0:0:0:0:
256,192,322491,1,8,0:0:0:0:
256,192,322844,1,0,0:0:0:0:
256,192,323020,1,0,0:0:0:0:
256,192,323197,1,8,0:0:0:0:
256,192,323373,1,0,0:0:0:0:
256,192,323726,1,0,0:0:0:0:
256,192,323903,1,8,0:0:0:0:
256,192,324256,1,0,0:0:0:0:
256,192,324432,1,8,0:0:0:0:
256,192,324609,1,8,0:0:0:0:
256,192,324785,1,0,0:0:0:0:
256,192,325138,1,0,0:0:0:0:
256,192,325314,1,8,0:0:0:0:
256,192,325667,1,0,0:0:0:0:
256,192,326020,1,8,0:0:0:0:
256,192,326197,1,0,0:0:0:0:
256,192,326550,1,0,0:0:0:0:
256,192,326726,1,8,0:0:0:0:
256,192,326903,1,8,0:0:0:0:
256,192,327079,1,0,0:0:0:0:
256,192,327432,1,8,0:0:0:0:
256,192,327609,1,0,0:0:0:0:
256,192,327961,1,0,0:0:0:0:
256,192,328138,1,8,0:0:0:0:
256,192,328491,1,4,0:0:0:0:
256,192,328667,1,8,0:0:0:0:
256,192,328844,1,8,0:0:0:0:
256,192,329020,1,8,0:0:0:0:
256,192,329197,1,8,0:0:0:0:
256,192,329903,1,8,0:0:0:0:
256,192,330079,1,8,0:0:0:0:
256,192,330256,1,8,0:0:0:0:
256,192,330432,1,8,0:0:0:0:
256,192,331314,1,0,0:0:0:0:
256,192,331844,1,0,0:0:0:0:
256,192,332197,1,8,0:0:0:0:
256,192,332373,1,8,0:0:0:0:
256,192,332550,1,8,0:0:0:0:
256,192,332726,1,0,0:0:0:0:
256,192,333256,1,0,0:0:0:0:
256,192,333609,1,8,0:0:0:0:
256,192,333785,1,8,0:0:0:0:
256,192,334138,1,0,0:0:0:0:
256,192,334314,1,8,0:0:0:0:
256,192,334491,1,8,0:0:0:0:
256,192,334667,1,8,0:0:0:0:
256,192,334844,1,8,0:0:0:0:
256,192,335550,1,0,0:0:0:0:
256,192,335726,1,8,0:0:0:0:
256,192,335903,1,8,0:0:0:0:
256,192,336079,1,8,0:0:0:0:
256,192,336961,1,0,0:0:0:0:
256,192,337491,1,0,0:0:0:0:
256,192,337844,1,8,0:0:0:0:
256,192,338020,1,8,0:0:0:0:
256,192,338197,1,8,0:0:0:0:
256,192,338373,1,0,0:0:0:0:
256,192,338903,1,0,0:0:0:0:
256,192,339256,1,8,0:0:0:0:
256,192,339432,1,8,0:0:0:0:
256,192,339785,1,8,0:0:0:0:
256,192,340138,1,8,0:0:0:0:
