osu file format v14

[General]
AudioFilename: audio.mp3
AudioLeadIn: 0
PreviewTime: 159079
Countdown: 0
SampleSet: Soft
StackLeniency: 0.7
Mode: 2
LetterboxInBreaks: 0
WidescreenStoryboard: 0

[Editor]
Bookmarks: 33079,36961,136491
DistanceSpacing: 0.7
BeatDivisor: 8
GridSize: 32
TimelineZoom: 3.299999

[Metadata]
Title:Masshiro na Yuki
TitleUnicode:まっしろな雪
Artist:Halozy
ArtistUnicode:Halozy
Creator:Kashima
Version:Masshiro na omoi
Source:東方花映塚 ~ Phantasmagoria of Flower View.
Tags:Touhou Project 中日附詞 Marathon sumijun すみじゅん Amorevole 水瀬ましろ Minase Mashiro Higan Retour 彼岸帰航 ~ Riverside Eastern Flower Viewing Mound Komachi Onozuka 幻奏響 UROBOROS ~fAIRYtAILoVERdRIVE~ Toho Arrange Album Bayside Beat Comiket89 c89
BeatmapID:1627187
BeatmapSetID:774158

[Difficulty]
HPDrainRate:6
CircleSize:4.4
OverallDifficulty:9.6
ApproachRate:9.6
SliderMultiplier:1.5
SliderTickRate:2

[Events]
//Background and Video events
0,0,"483195991.png",0,0
//Break Periods
//Storyboard Layer 0 (Background)
//Storyboard Layer 1 (Fail)
//Storyboard Layer 2 (Pass)
//Storyboard Layer 3 (Foreground)
//Storyboard Sound Samples

[TimingPoints]
962,352.941176470588,4,2,1,50,1,0
4756,-100,4,2,1,5,0,0
4844,-100,4,2,1,50,0,0
5109,-100,4,2,1,5,0,0
5197,-100,4,2,1,50,0,0
11814,-100,4,2,1,5,0,0
11903,-100,4,2,1,50,0,0
12167,-100,4,2,1,5,0,0
12256,-66.6666666666667,4,2,1,60,0,0
17903,-66.6666666666667,4,2,1,40,0,0
18609,-66.6666666666667,4,2,1,50,0,0
19314,-66.6666666666667,4,2,1,60,0,0
20020,-66.6666666666667,4,2,1,70,0,0
20726,-66.6666666666667,4,2,1,40,0,0
21079,-66.6666666666667,4,2,1,50,0,0
21432,-66.6666666666667,4,2,1,60,0,0
21785,-66.6666666666667,4,2,1,70,0,0
22138,-66.6666666666667,4,2,1,65,0,0
23550,-66.6666666666667,4,2,1,75,0,1
34491,-33.3333333333334,4,2,1,80,0,1
34844,-50,4,2,1,75,0,1
37314,-33.3333333333334,4,2,1,80,0,1
37667,-50.0000000000002,4,2,1,75,0,1
39079,-33.3333333333334,4,2,1,80,0,1
39432,-50.0000000000002,4,2,1,75,0,1
40138,-33.3333333333334,4,2,1,80,0,1
40491,-50.0000000000002,4,2,1,75,0,1
46138,-66.6666666666667,4,2,1,60,0,0
56726,-50,4,2,1,80,0,0
57432,-66.6666666666667,4,2,1,60,0,0
67314,-200,4,2,1,50,0,0
68109,-200,4,2,1,5,0,0
68197,-66.6666666666667,4,2,1,70,0,0
68726,-66.6666666666667,4,2,1,70,0,1
89903,-66.6666666666667,4,2,1,85,0,0
91314,-66.6666666666667,4,2,1,80,0,1
101197,-66.6666666666667,4,2,1,60,0,0
102609,-66.6666666666667,4,2,1,80,0,1
112491,-100,4,2,1,55,0,0
113903,-66.6666666666667,4,2,1,70,0,0
135785,-50,4,2,1,80,0,0
136138,-66.6666666666667,4,2,1,65,0,0
147079,-50,4,2,1,80,0,0
147432,-66.6666666666667,4,2,1,70,0,0
157667,-200,4,2,1,50,0,0
158461,-200,4,2,1,5,0,0
158550,-66.6666666666667,4,2,1,70,0,0
180256,-66.6666666666667,4,2,1,85,0,0
181667,-66.6666666666667,4,2,1,80,0,1
191550,-66.6666666666667,4,2,1,60,0,0
192961,-66.6666666666667,4,2,1,80,0,1
202844,-66.6666666666667,4,2,1,60,0,0
204256,-66.6666666666667,4,2,1,70,0,0
238138,-66.6666666666667,4,2,1,60,0,0
243785,-66.6666666666667,4,2,1,40,0,0
244491,-66.6666666666667,4,2,1,50,0,0
245197,-66.6666666666667,4,2,1,60,0,0
245903,-66.6666666666667,4,2,1,70,0,0
246609,-66.6666666666667,4,2,1,40,0,0
246961,-66.6666666666667,4,2,1,50,0,0
247314,-66.6666666666667,4,2,1,60,0,0
247667,-66.6666666666667,4,2,1,70,0,0
248020,-66.6666666666667,4,2,1,65,0,0
249432,-66.6666666666667,4,2,1,75,0,0
270609,-66.6666666666667,4,2,1,85,0,0
272020,-66.6666666666667,4,2,1,80,0,1
281903,-66.6666666666667,4,2,1,60,0,0
283314,-66.6666666666667,4,2,1,80,0,1
293197,-66.6666666666667,4,2,1,60,0,0
294609,-66.6666666666667,4,2,1,75,0,0
317197,-83.3333333333333,4,2,1,60,0,0
328491,-83.3333333333333,4,2,1,50,0,0

[Colours]
Combo1 : 98,176,255
Combo2 : 255,128,128
Combo3 : 232,60,72
Combo4 : 255,147,201
Combo5 : 231,67,182
Combo6 : 199,130,244
Combo7 : 213,74,242
Combo8 : 167,86,233

[HitObjects]
79,170,961,5,2,0:0:0:0:
136,114,1138,1,0,0:0:0:0:
192,55,1314,1,0,0:0:0:0:
30,237,1491,2,0,L|192:250,1,150
407,223,2373,5,2,0:0:0:0:
350,167,2550,1,0,0:0:0:0:
294,108,2726,1,0,0:0:0:0:
460,289,2903,2,0,L|304:312,1,150
94,132,3785,2,0,L|93:49,1,75
155,25,4138,1,2,0:0:0:0:
21,153,4314,1,0,0:0:0:0:
154,179,4491,2,0,L|271:164,1,112.5
373,143,4844,2,0,L|259:134,1,112.5
154,179,5197,5,2,0:0:0:0:
307,216,5373,2,0,L|222:228,1,75
353,314,5726,2,0,L|203:308,1,150
83,109,6609,5,2,0:0:0:0:
153,135,6785,1,0,0:0:0:0:
226,161,6961,1,0,0:0:0:0:
6,238,7138,2,0,L|154:211,1,150
429,109,8020,5,2,0:0:0:0:
359,135,8196,1,0,0:0:0:0:
286,161,8372,1,0,0:0:0:0:
506,238,8549,2,0,L|358:211,1,150
72,144,9432,6,0,L|246:125,1,150
20,77,9961,1,0,0:0:0:0:
369,154,10314,1,0,0:0:0:0:
33,238,10667,1,0,0:0:0:0:
237,251,10844,6,0,L|224:340,1,75
109,192,11197,2,0,L|144:262,1,75
322,160,11550,6,0,L|202:169,1,112.5
68,125,11903,2,0,L|188:134,1,112.5
236,210,12256,5,4,0:1:0:0:
122,214,12432,1,0,0:0:0:0:
442,231,12609,1,8,0:0:0:0:
336,155,12785,2,0,L|301:104,1,56.2500021457673
238,166,12961,2,0,L|188:142,1,56.2500021457673
147,213,13138,1,0,0:0:0:0:
386,226,13314,2,0,L|497:214,1,112.500004291535,8|0,0:0|0:0,0:0:0:0:
251,307,13667,5,0,0:0:0:0:
393,263,13844,1,0,0:0:0:0:
54,212,14020,1,8,0:0:0:0:
250,166,14197,2,0,L|181:155,1,56.2500021457673
89,81,14373,2,0,L|145:90,1,56.2500021457673
212,45,14550,1,0,0:0:0:0:
0,213,14726,2,0,L|111:198,1,112.500004291535,8|0,0:0|0:0,0:0:0:0:
325,151,15079,5,0,0:0:0:0:
476,209,15256,1,0,0:0:0:0:
147,188,15432,1,8,0:0:0:0:
386,268,15609,2,0,L|406:353,1,56.2500021457673
451,154,15785,2,0,L|471:239,1,56.2500021457673
512,60,15961,1,0,0:0:0:0:
302,120,16138,2,0,L|167:132,1,112.500004291535,8|0,0:0|0:0,0:0:0:0:
68,64,16491,5,0,0:0:0:0:
376,165,16667,1,0,0:0:0:0:
86,222,16844,1,8,0:0:0:0:
333,88,17020,2,0,L|264:102,1,56.2500021457673
161,165,17197,2,0,L|224:200,1,56.2500021457673
323,265,17373,1,0,0:0:0:0:
88,121,17550,2,0,L|38:21,1,112.500004291535,8|0,0:0|0:0,0:0:0:0:
363,157,17903,5,0,1:0:0:0:
222,171,18080,1,0,1:0:0:0:
349,242,18256,5,0,1:0:0:0:
177,237,18432,1,0,1:0:0:0:
316,338,18609,5,0,1:0:0:0:
138,299,18785,1,0,1:0:0:0:
280,352,18961,5,0,1:0:0:0:
29,345,19138,1,0,1:0:0:0:
301,155,19314,6,0,L|354:135,1,56.2500021457673,0|0,1:0|0:0,1:0:0:0:
188,159,19491,2,0,L|135:138,1,56.2500021457673,0|0,1:0|0:0,1:0:0:0:
346,229,19667,2,0,L|399:209,1,56.2500021457673,0|0,1:0|0:0,1:0:0:0:
140,241,19844,2,0,L|88:221,1,56.2500021457673,0|0,1:0|0:0,1:0:0:0:
395,306,20020,2,0,L|447:285,1,56.2500021457673,0|0,1:0|0:0,1:0:0:0:
100,319,20197,2,0,L|48:299,1,56.2500021457673,0|0,1:0|0:0,1:0:0:0:
430,370,20373,2,0,L|485:379,1,56.2500021457673,0|0,1:0|0:0,0:0:0:0:
42,173,20550,2,0,L|97:182,1,56.2500021457673,0|0,1:0|0:0,0:0:0:0:
285,76,20726,6,0,L|258:81,7,28.1250010728836
14,177,21079,6,0,L|42:173,7,28.1250010728836
399,118,21432,6,0,L|372:123,7,28.1250010728836
110,236,21785,6,0,L|107:264,7,28.1250010728836
339,149,22138,6,0,P|383:164|468:159,1,112.500004291535,0|0,1:0|0:0,0:0:0:0:
465,160,22403,1,0,0:0:0:0:
269,201,22491,2,0,L|192:298,1,112.500004291535,8|0,0:0|0:0,0:0:0:0:
200,289,22756,1,0,0:0:0:0:
200,289,22844,1,0,1:0:0:0:
47,160,23020,2,0,L|133:175,1,56.2500021457673
339,285,23197,2,0,L|367:282,2,28.1250010728836,8|0|0,0:3|0:0|0:0,0:0:0:0:
11,63,23373,1,2,0:0:0:0:
68,247,23550,5,4,0:1:0:0:
363,212,23726,1,0,0:0:0:0:
167,194,23903,2,0,L|226:173,1,56.2500021457673,8|0,0:0|0:0,0:0:0:0:
135,129,24079,2,0,L|203:106,1,56.2500021457673
31,38,24256,1,2,0:0:0:0:
363,212,24432,1,0,3:3:0:0:
95,191,24609,2,0,L|67:197,2,28.1250010728836,8|0|0,0:0|0:0|0:0,0:0:0:0:
363,212,24785,1,2,3:2:0:0:
95,191,24961,6,0,L|52:73,1,112.500004291535,0|0,1:0|0:0,0:0:0:0:
363,212,25314,2,0,L|401:153,1,56.2500021457673,8|0,0:0|0:0,0:0:0:0:
95,191,25491,6,0,L|55:143,1,56.2500021457673,0|0,1:0|0:0,0:0:0:0:
363,212,25667,2,0,L|392:217,2,28.1250010728836
95,191,25844,2,0,L|68:187,2,28.1250010728836
363,212,26020,6,0,L|403:164,1,56.2500021457673,0|0,1:0|0:0,0:0:0:0:
95,191,26197,1,0,3:0:0:0:
363,212,26373,6,0,L|435:126,1,112.500004291535,4|0,0:0|0:0,0:0:0:0:
141,248,26726,2,0,L|128:286,2,28.1250010728836,8|0|0,0:0|0:0|0:0,0:0:0:0:
363,212,26903,6,0,L|449:140,1,112.500004291535,4|0,0:0|0:0,0:0:0:0:
119,274,27256,1,0,1:0:0:0:
363,212,27432,6,0,L|460:156,1,112.500004291535,12|0,0:0|0:0,0:0:0:0:
98,297,27785,2,0,L|37:306,1,56.2500021457673,0|0,1:0|0:0,0:0:0:0:
357,292,27961,2,0,L|412:283,1,56.2500021457673,0|0,3:0|0:0,0:0:0:0:
112,274,28138,2,0,L|70:266,2,28.1250010728836,8|0|0,0:0|0:0|0:0,0:0:0:0:
263,318,28314,2,0,L|302:315,1,28.1250010728836
289,286,28403,2,0,L|260:288,1,28.1250010728836
112,274,28491,5,2,0:0:0:0:
381,170,28667,1,0,0:0:0:0:
273,134,28844,1,0,0:0:0:0:
171,95,29020,1,0,0:0:0:0:
385,47,29197,5,4,1:1:0:0:
130,176,29373,1,0,0:0:0:0:
372,181,29550,2,0,L|428:175,1,56.2500021457673,8|0,0:0|0:0,0:0:0:0:
402,225,29726,2,0,L|461:224,1,56.2500021457673,8|0,0:0|0:0,0:0:0:0:
130,176,29903,1,2,0:0:0:0:
98,373,30079,1,0,3:3:0:0:
429,269,30256,2,0,L|461:248,2,28.1250010728836,8|0|0,0:0|0:0|0:0,0:0:0:0:
130,176,30432,1,2,3:2:0:0:
429,269,30609,6,0,L|474:145,1,112.500004291535,0|0,1:0|0:0,0:0:0:0:
130,176,30961,2,0,L|122:144,2,28.1250010728836,0|0|0,1:0|0:0|0:0,0:0:0:0:
429,269,31138,6,0,L|494:154,1,112.500004291535,0|0,1:0|0:0,0:0:0:0:
130,176,31491,2,0,L|93:157,2,28.1250010728836,0|0|0,1:0|0:0|0:0,0:0:0:0:
429,269,31667,5,8,0:0:0:0:
130,176,31844,1,0,3:0:0:0:
429,269,32020,6,0,L|323:197,1,112.500004291535,4|0,1:2|0:0,0:0:0:0:
499,148,32373,2,0,L|491:182,2,28.1250010728836,8|0|0,0:0|0:0|0:0,0:0:0:0:
335,205,32550,2,0,L|229:133,1,112.500004291535,4|0,1:2|0:0,0:0:0:0:
504,122,32903,1,0,1:0:0:0:
241,141,33079,2,0,L|148:77,1,112.500004291535,4|0,1:2|0:0,0:0:0:0:
453,203,33432,5,0,1:0:0:0:
261,231,33609,1,0,3:0:0:0:
490,270,33785,2,0,L|518:293,2,28.1250010728836,8|0|0,0:0|0:0|0:0,0:0:0:0:
348,310,33961,2,0,L|299:298,1,28.1250010728836
320,268,34050,2,0,L|348:275,1,28.1250010728836
490,270,34138,1,2,0:0:0:0:
160,233,34314,2,0,L|215:246,1,56.2500021457673
472,191,34491,6,0,B|521:142|521:142|346:120,1,225.000008583069,8|0,0:0|0:0,0:0:0:0:
100,174,34844,5,4,1:1:0:0:
297,95,35020,1,0,0:0:0:0:
361,159,35197,6,0,L|374:109,2,37.5,8|0|0,0:0|0:0|0:0,0:0:0:0:
154,245,35373,2,0,L|67:263,1,75,0|0,1:0|0:0,0:0:0:0:
361,159,35550,6,0,L|374:109,2,37.5,8|0|0,0:0|0:0|0:0,0:0:0:0:
136,322,35726,2,0,L|124:357,1,37.5
124,357,35814,2,0,L|136:322,1,37.5
396,228,35903,6,0,L|437:216,2,37.5,8|0|0,0:0|0:0|0:0,0:0:0:0:
431,217,36079,2,0,L|395:229,2,37.5
136,288,36256,5,0,1:0:0:0:
344,284,36432,1,0,0:0:0:0:
106,220,36609,6,0,L|68:151,1,75,8|0,0:0|0:0,0:0:0:0:
271,225,36785,2,0,L|313:213,1,37.5,0|0,3:0|3:0,0:0:0:0:
307,176,36873,2,0,L|271:187,1,37.5,0|0,3:0|3:0,0:0:0:0:
69,154,36961,5,8,1:2:0:0:
90,115,37005,1,0,0:0:0:0:
110,77,37049,1,0,0:0:0:0:
131,42,37093,1,0,0:0:0:0:
307,162,37138,5,8,1:2:0:0:
287,122,37182,1,0,0:0:0:0:
268,83,37226,1,0,0:0:0:0:
248,47,37270,1,0,0:0:0:0:
69,154,37314,5,0,1:2:0:0:
90,115,37358,1,0,0:0:0:0:
110,77,37402,1,0,0:0:0:0:
131,42,37446,1,0,0:0:0:0:
307,25,37491,2,0,L|248:127,1,112.500004291535
89,147,37667,5,0,1:0:0:0:
316,215,37844,1,0,0:0:0:0:
105,235,38020,6,0,L|61:256,2,37.5,8|0|0,0:0|0:0|0:0,0:0:0:0:
301,292,38197,2,0,L|311:332,1,37.5
85,160,38373,1,0,3:0:0:0:
383,69,38550,1,2,0:0:0:0:
459,206,38726,2,0,L|528:195,2,37.5,8|0|0,0:0|0:0|0:0,0:0:0:0:
354,266,38903,2,0,L|316:271,2,37.5
425,93,39079,6,0,B|474:63|474:63|362:65,1,168.750006437302,0|0,1:0|0:0,0:0:0:0:
224,152,39256,6,0,B|174:181|174:181|287:180,1,168.750006437302,0|0,1:0|0:0,0:0:0:0:
456,310,39432,6,0,L|520:298,2,37.5,8|0|0,0:0|0:0|0:0,0:0:0:0:
224,152,39609,2,0,L|172:146,2,37.5,0|0|0,3:0|0:0|0:0,0:0:0:0:
456,310,39785,6,0,L|464:245,1,37.5
224,152,39961,2,0,L|216:217,2,37.5
451,312,40138,6,0,L|345:280,1,56.2500021457673,8|0,0:0|0:0,0:0:0:0:
170,168,40314,2,0,L|276:136,1,56.2500021457673,8|0,0:0|0:0,0:0:0:0:
412,204,40491,5,0,1:0:0:0:
217,240,40667,1,0,3:0:0:0:
414,124,40844,6,0,L|457:104,2,37.5,8|0|0,0:0|0:0|0:0,0:0:0:0:
274,307,41020,1,0,3:0:0:0:
164,158,41197,1,0,1:0:0:0:
390,202,41373,1,2,0:0:0:0:
75,326,41550,2,0,L|60:278,2,37.5,8|0|0,0:0|0:0|0:0,0:0:0:0:
110,221,41726,2,0,L|95:173,2,37.5
357,279,41903,2,0,L|298:228,1,75,0|0,1:0|0:0,1:0:0:0:
90,170,42079,2,0,L|164:157,1,75
414,104,42256,6,0,L|461:76,2,37.5,8|0|0,0:0|0:0|0:0,0:0:0:0:
258,211,42432,2,0,L|265:258,2,37.5,0|0|0,3:0|3:0|0:0,0:0:0:0:
474,150,42609,6,0,L|521:122,2,37.5,8|0|0,0:0|0:0|0:0,0:0:0:0:
184,176,42785,2,0,L|92:157,1,75
54,229,42961,2,0,L|128:245,1,75
292,234,43138,1,0,0:0:0:0:
59,72,43314,5,0,1:0:0:0:
251,143,43491,1,2,0:0:0:0:
34,171,43667,2,0,L|-23:197,2,37.5,8|0|0,0:0|0:0|0:0,0:0:0:0:
297,71,43844,1,0,3:0:0:0:
121,230,44020,1,0,1:0:0:0:
327,161,44197,1,2,0:0:0:0:
121,230,44373,5,10,0:0:0:0:
50,269,44461,1,2,0:0:0:0:
121,230,44550,1,2,0:0:0:0:
50,269,44638,1,2,0:0:0:0:
305,271,44726,5,0,1:0:0:0:
323,263,44814,1,0,0:0:0:0:
339,250,44903,1,0,3:0:0:0:
351,234,44991,1,0,3:0:0:0:
207,271,45079,5,0,1:0:0:0:
189,263,45167,1,0,0:0:0:0:
173,250,45256,1,0,3:0:0:0:
161,234,45344,1,0,3:0:0:0:
331,158,45432,6,0,L|399:115,1,75
181,158,45609,2,0,L|113:115,1,75
255,23,45785,1,8,0:0:0:0:
483,221,46138,6,0,L|326:56,1,225.000008583069
146,240,46667,1,0,3:0:0:0:
329,228,46844,2,0,L|219:178,1,112.500004291535,0|0,0:0|3:0,0:0:0:0:
428,234,47197,1,8,0:0:0:0:
428,234,47550,6,0,L|507:18,1,225.000008583069,0|0,1:0|1:0,0:0:0:0:
213,191,48079,1,0,3:0:0:0:
370,138,48256,1,0,0:0:0:0:
105,139,48432,1,0,3:0:0:0:
320,254,48609,1,8,0:0:0:0:
320,254,48961,6,0,L|434:224,2,112.500004291535,0|2|0,1:0|0:0|1:0,0:0:0:0:
102,57,49491,2,0,L|239:235,1,225.000008583069,0|0,3:0|3:0,0:0:0:0:
67,173,50020,1,8,0:0:0:0:
283,141,50197,1,0,0:0:0:0:
162,318,50373,6,0,L|256:218,1,112.500004291535,0|2,1:0|0:0,0:0:0:0:
431,185,50726,1,0,1:0:0:0:
238,235,50903,2,0,L|376:57,1,225.000008583069,0|0,3:0|3:0,0:0:0:0:
294,230,51432,2,0,L|213:237,1,56.2500021457673
119,179,51609,2,0,L|200:186,1,56.2500021457673
367,270,51785,6,0,B|408:204|408:204|356:56,1,225.000008583069,0|0,1:0|1:0,0:0:0:0:
89,108,52314,1,0,3:0:0:0:
326,190,52491,1,0,0:0:0:0:
172,176,52667,1,2,0:0:0:0:
421,120,52844,1,8,0:0:0:0:
421,120,53197,6,0,L|310:51,1,112.500004291535,0|0,1:0|0:0,0:0:0:0:
147,177,53550,1,0,1:0:0:0:
322,171,53726,1,0,3:0:0:0:
224,28,53903,1,0,0:0:0:0:
66,195,54079,1,2,3:2:0:0:
364,244,54256,1,8,0:0:0:0:
364,244,54609,6,0,L|461:337,1,112.500004291535,0|2,1:0|0:0,0:0:0:0:
297,188,54961,1,0,1:0:0:0:
445,321,55138,2,0,L|271:162,1,225.000008583069,0|0,0:0|3:0,0:0:0:0:
476,145,55667,1,8,0:0:0:0:
176,62,56020,5,0,3:0:0:0:
158,95,56109,1,0,0:0:0:0:
93,157,56197,2,0,L|141:128,1,56.2500021457673,2|0,0:0|0:0,0:0:0:0:
274,192,56373,2,0,L|207:234,1,56.2500021457673,2|0,0:0|0:0,0:0:0:0:
353,279,56550,2,0,L|401:250,1,56.2500021457673,2|0,0:0|0:0,0:0:0:0:
141,128,56726,2,0,L|88:198,1,75,2|0,0:0|0:0,0:0:0:0:
226,250,56902,2,0,L|273:192,1,75,2|0,0:0|0:0,0:0:0:0:
401,250,57079,2,0,L|353:307,1,75,2|0,0:0|0:0,0:0:0:0:
352,307,57432,5,4,1:0:0:0:
188,138,57608,1,0,1:0:0:0:
381,175,57785,2,0,L|245:187,1,112.500004291535,8|0,0:0|0:0,0:0:0:0:
62,240,58138,1,0,3:0:0:0:
270,271,58314,1,0,1:0:0:0:
83,319,58491,2,0,L|200:308,1,112.500004291535,8|0,0:0|0:0,0:0:0:0:
458,218,58844,5,0,1:0:0:0:
212,157,59020,1,0,3:0:0:0:
377,235,59197,2,0,L|265:258,1,112.500004291535,8|0,0:0|0:0,0:0:0:0:
37,150,59550,1,0,3:0:0:0:
266,257,59726,1,0,1:0:0:0:
54,230,59903,2,0,L|174:239,1,112.500004291535,8|0,0:0|0:0,0:0:0:0:
431,223,60256,6,0,L|461:97,1,112.500004291535,0|0,1:0|1:0,0:0:0:0:
211,78,60609,1,8,0:0:0:0:
430,222,60785,2,0,L|273:40,1,225.000008583069,2|0,0:0|1:0,0:0:0:0:
90,211,61314,1,8,0:0:0:0:
291,178,61491,1,0,0:0:0:0:
146,274,61667,5,0,1:0:0:0:
291,178,61844,1,0,0:0:0:0:
90,211,62020,1,8,0:0:0:0:
342,260,62197,2,0,B|212:249,1,112.500004291535,0|0,0:0|3:0,0:0:0:0:
42,86,62550,1,0,1:0:0:0:
253,140,62726,2,0,B|224:276,1,112.500004291535,8|0,0:0|0:0,0:0:0:0:
52,298,63079,5,0,3:0:0:0:
211,323,63256,1,0,0:0:0:0:
420,83,63432,2,0,B|295:270,1,225.000008583069,8|0,0:0|3:0,0:0:0:0:
448,327,63961,1,0,0:0:0:0:
215,349,64138,2,0,L|305:260,1,112.500004291535,8|0,0:0|0:0,0:0:0:0:
455,135,64491,5,0,3:0:0:0:
279,58,64667,1,0,0:0:0:0:
155,151,64844,1,8,0:0:0:0:
124,229,65020,2,0,B|34:198|34:198|163:149,1,225.000008583069
356,244,65550,1,8,0:0:0:0:
199,214,65726,1,0,0:0:0:0:
377,157,65903,5,0,3:0:0:0:
377,157,65991,1,0,0:0:0:0:
377,157,66079,2,0,L|439:134,1,56.2500021457673,0|0,3:0|0:0,0:0:0:0:
251,233,66256,2,0,L|189:210,1,56.2500021457673,0|0,3:0|0:0,0:0:0:0:
428,350,66432,1,0,3:0:0:0:
391,334,66520,1,0,0:0:0:0:
358,311,66609,1,0,3:0:0:0:
325,289,66697,1,0,0:0:0:0:
429,137,66785,2,0,L|442:77,1,56.2500021457673,0|0,3:0|0:0,0:0:0:0:
138,240,66961,2,0,L|251:233,1,112.500004291535,8|0,0:0|0:0,0:0:0:0:
437,305,67314,6,0,B|405:301|405:301|367:327|367:327|292:320,1,150,2|0,3:2|0:0,0:0:0:0:
437,305,68197,5,8,3:0:0:0:
104,166,68373,1,12,1:2:0:0:
436,148,68726,5,0,1:0:0:0:
236,207,68903,1,0,3:0:0:0:
357,74,69079,1,8,0:0:0:0:
236,207,69256,1,2,3:1:0:0:
198,219,69344,1,2,0:1:0:0:
160,229,69432,2,0,L|95:235,1,56.2500021457673,2|2,0:1|0:1,0:0:0:0:
230,289,69609,2,0,L|295:295,1,56.2500021457673,2|2,0:1|0:1,0:0:0:0:
35,190,69785,2,0,L|18:57,1,112.500004291535,8|0,0:0|0:0,0:0:0:0:
314,200,70138,5,0,1:0:0:0:
115,163,70314,1,0,3:0:0:0:
286,294,70491,1,8,0:0:0:0:
115,163,70667,2,0,L|61:181,1,56.2500021457673,2|2,0:1|0:1,0:1:0:0:
314,200,70844,2,0,L|339:126,1,56.2500021457673,2|2,0:1|0:1,0:1:0:0:
152,245,71020,2,0,L|97:266,1,56.2500021457673,2|2,0:1|0:1,0:0:0:0:
332,146,71197,2,0,L|321:28,1,112.500004291535,8|0,0:0|0:0,0:0:0:0:
39,235,71550,6,0,L|166:246,1,112.500004291535,0|0,1:0|0:0,0:0:0:0:
190,249,71814,1,0,0:0:0:0:
229,252,71903,1,8,0:0:0:0:
423,114,72079,1,2,3:1:0:0:
396,143,72167,1,2,0:1:0:0:
369,172,72256,1,2,0:1:0:0:
340,199,72344,1,2,0:1:0:0:
229,252,72432,2,0,L|172:252,1,56.2500021457673,2|2,3:1|0:1,0:0:0:0:
470,260,72609,1,8,0:0:0:0:
229,252,72785,2,0,L|152:254,1,56.2500021457673,2|2,0:1|0:1,0:0:0:0:
470,260,72961,6,0,L|495:131,1,112.500004291535,0|0,1:0|0:0,0:0:0:0:
229,252,73314,1,8,0:0:0:0:
470,260,73491,2,0,L|522:153,1,112.500004291535,2|2,1:1|0:1,0:0:0:0:
229,252,73844,2,0,L|166:255,1,56.2500021457673,2|2,3:1|0:1,0:0:0:0:
470,260,74020,2,0,L|508:150,1,112.500004291535,8|0,0:0|0:0,0:0:0:0:
229,252,74373,5,0,1:0:0:0:
394,110,74550,1,0,3:0:0:0:
229,252,74726,2,0,L|206:127,1,112.500004291535,8|2,0:0|3:1,0:0:0:0:
394,110,74991,1,2,0:1:0:0:
437,166,75079,2,0,L|503:133,1,56.2500021457673,2|2,0:1|0:1,0:0:0:0:
439,234,75256,2,0,L|517:218,1,56.2500021457673,2|2,0:1|0:1,0:0:0:0:
229,252,75432,2,0,L|206:127,1,112.500004291535,8|0,0:0|3:1,0:0:0:0:
467,174,75785,5,0,1:0:0:0:
265,83,75961,1,0,3:0:0:0:
398,246,76138,1,8,0:0:0:0:
161,117,76314,2,0,L|100:129,1,56.2500021457673,2|2,0:1|0:1,0:0:0:0:
263,216,76491,2,0,L|210:248,1,56.2500021457673,2|2,0:1|0:1,0:0:0:0:
398,246,76667,2,0,L|385:308,1,56.2500021457673,2|2,0:1|0:1,0:0:0:0:
263,216,76844,2,0,L|151:228,1,112.500004291535,8|0,0:0|0:0,0:0:0:0:
439,243,77197,6,0,L|484:111,1,112.500004291535,0|0,1:0|0:0,0:0:0:0:
286,302,77550,1,8,0:0:0:0:
475,136,77726,2,0,L|432:9,1,112.500004291535,0|0,1:1|0:0,0:0:0:0:
228,239,78079,1,0,3:0:0:0:
475,136,78256,1,8,0:0:0:0:
475,136,78432,1,0,3:0:0:0:
284,316,78609,6,0,L|215:288,1,56.2500021457673,2|2,1:0|0:1,0:0:0:0:
110,244,78785,2,0,L|178:220,1,56.2500021457673,2|2,0:1|0:1,0:0:0:0:
276,195,78961,1,8,0:0:0:0:
414,63,79138,5,2,3:1:0:0:
414,63,79226,1,2,0:1:0:0:
414,63,79314,2,0,L|360:44,1,56.2500021457673,2|2,0:1|0:1,0:0:0:0:
137,72,79491,1,2,3:1:0:0:
475,158,79667,1,8,0:0:0:0:
475,158,80020,5,0,1:0:0:0:
244,101,80197,1,0,3:0:0:0:
405,280,80373,2,0,L|385:151,1,112.500004291535,8|2,0:0|3:1,0:0:0:0:
380,129,80638,1,2,0:1:0:0:
372,90,80726,2,0,L|409:33,1,56.2500021457673,2|2,0:1|0:1,0:0:0:0:
251,169,80903,2,0,L|311:163,1,56.2500021457673,2|2,3:1|0:1,0:0:0:0:
171,215,81079,2,0,L|124:93,1,112.500004291535,8|0,0:0|0:0,0:0:0:0:
306,163,81432,5,0,1:0:0:0:
102,240,81609,1,0,3:0:0:0:
277,245,81785,1,8,0:0:0:0:
106,58,81961,1,2,3:1:0:0:
79,59,82050,1,2,0:1:0:0:
55,60,82138,2,0,L|4:82,1,56.2500021457673,2|2,0:1|0:1,0:0:0:0:
201,124,82314,2,0,L|261:137,1,56.2500021457673,2|2,3:1|0:1,0:0:0:0:
49,142,82491,2,0,L|30:261,1,112.500004291535,8|0,0:0|0:0,0:0:0:0:
255,135,82844,6,0,B|372:114,1,112.500004291535,0|0,1:0|0:0,0:0:0:0:
192,78,83197,1,8,0:0:0:0:
433,156,83373,1,2,3:1:0:0:
433,156,83461,1,2,0:1:0:0:
433,156,83550,2,0,L|421:235,1,56.2500021457673,2|2,0:1|0:1,0:0:0:0:
248,245,83726,2,0,L|238:178,1,56.2500021457673,2|2,3:1|0:1,0:0:0:0:
468,189,83903,2,0,B|447:307,1,112.500004291535,8|0,0:0|0:0,0:0:0:0:
220,302,84256,6,0,L|191:180,1,112.500004291535,0|0,1:2|0:0,0:0:0:0:
448,299,84609,1,8,0:0:0:0:
220,302,84785,5,2,3:1:0:0:
206,247,84873,1,2,0:1:0:0:
193,192,84961,2,0,L|175:122,1,56.2500021457673
448,299,85138,2,0,L|465:235,1,56.2500021457673,2|0,3:1|0:0,0:0:0:0:
220,302,85314,2,0,L|188:180,1,112.500004291535,8|0,0:0|0:0,0:0:0:0:
381,69,85667,6,0,L|488:34,1,112.500004291535,0|0,1:0|0:0,0:0:0:0:
309,33,86020,1,8,0:0:0:0:
494,143,86197,1,2,3:1:0:0:
490,168,86285,1,2,0:1:0:0:
486,195,86373,2,0,L|428:217,1,56.2500021457673,2|2,0:1|0:1,0:0:0:0:
292,221,86550,2,0,L|364:198,1,56.2500021457673,2|2,3:1|0:1,0:0:0:0:
189,291,86726,2,0,L|216:165,1,112.500004291535,8|0,0:0|0:0,0:0:0:0:
399,67,87079,6,0,L|287:82,1,112.500004291535,0|0,1:0|0:0,0:0:0:0:
60,24,87432,1,8,0:0:0:0:
198,267,87609,1,2,3:1:0:0:
194,241,87697,1,2,0:1:0:0:
190,211,87785,2,0,L|217:153,1,56.2500021457673,2|2,0:1|0:1,0:0:0:0:
355,227,87961,2,0,L|414:214,1,56.2500021457673,2|2,3:1|3:1,3:1:0:0:
213,159,88138,2,0,L|101:181,1,112.500004291535,8|0,0:0|0:0,0:0:0:0:
355,227,88491,6,0,L|471:198,1,112.500004291535,0|0,1:2|0:0,0:0:0:0:
213,159,88844,1,8,0:0:0:0:
419,91,89020,2,0,L|398:216,1,112.500004291535,0|0,1:1|0:0,0:0:0:0:
213,159,89373,1,0,3:0:0:0:
509,175,89550,2,0,L|399:201,1,112.500004291535,8|0,0:0|3:0,0:0:0:0:
231,283,89903,5,8,1:2:0:0:
399,201,90079,2,0,L|440:168,2,28.1250010728836,2|2|2,0:1|0:1|0:1,0:0:0:0:
172,207,90256,1,0,1:0:0:0:
399,201,90432,1,8,1:2:0:0:
120,132,90608,2,0,L|78:115,2,28.1250010728836,2|2|2,0:1|0:1|0:1,0:0:0:0:
436,121,90785,5,0,1:0:0:0:
265,170,90961,1,8,1:2:0:0:
93,121,91138,1,0,1:0:0:0:
266,73,91314,5,4,1:0:0:0:
115,198,91491,1,0,3:0:0:0:
356,136,91667,1,8,0:0:0:0:
190,248,91844,1,2,3:1:0:0:
211,281,91932,1,2,0:1:0:0:
235,311,92020,1,2,0:1:0:0:
87,121,92197,5,0,1:0:0:0:
258,170,92373,1,8,1:2:0:0:
430,121,92550,1,0,1:0:0:0:
199,96,92726,5,0,1:0:0:0:
387,194,92903,1,0,3:0:0:0:
137,166,93079,1,8,0:0:0:0:
292,266,93256,2,0,L|348:260,1,56.2500021457673,2|2,3:1|0:1,0:0:0:0:
422,337,93432,2,0,L|359:328,1,56.2500021457673,2|2,0:1|0:1,0:0:0:0:
436,121,93609,5,0,1:0:0:0:
265,170,93785,1,8,1:2:0:0:
93,121,93962,1,0,1:0:0:0:
339,237,94138,6,0,L|463:196,1,112.500004291535,0|0,1:0|0:0,0:0:0:0:
265,170,94491,1,8,0:0:0:0:
445,201,94667,2,0,L|470:77,1,112.500004291535,0|0,1:0|0:1,0:0:0:0:
199,219,95020,1,0,3:1:0:0:
467,90,95197,1,8,0:0:0:0:
467,90,95373,1,0,0:0:0:0:
265,107,95550,6,0,L|150:65,1,112.500004291535,0|0,1:0|0:0,0:0:0:0:
467,90,95903,1,8,0:0:0:0:
265,107,96079,2,0,L|188:111,1,56.2500021457673,2|2,3:1|0:1,0:0:0:0:
91,152,96256,2,0,L|147:148,1,56.2500021457673,2|2,3:1|0:1,0:0:0:0:
281,219,96432,5,2,3:1:0:0:
91,152,96609,1,8,0:0:0:0:
362,167,96785,1,0,0:0:0:0:
115,53,96961,5,0,1:0:0:0:
281,219,97138,1,0,3:0:0:0:
91,152,97314,1,8,0:0:0:0:
333,92,97491,1,2,3:1:0:0:
369,76,97579,1,2,0:1:0:0:
405,62,97667,1,2,0:1:0:0:
231,219,97844,5,2,3:1:0:0:
421,152,98021,1,8,0:0:0:0:
150,167,98197,1,0,0:0:0:0:
365,214,98373,5,0,1:0:0:0:
177,88,98550,1,0,3:0:0:0:
421,152,98726,1,8,0:0:0:0:
231,219,98903,2,0,L|155:224,1,56.2500021457673,2|2,3:1|0:1,0:0:0:0:
75,254,99079,2,0,L|107:195,1,56.2500021457673,2|2,0:1|0:1,0:0:0:0:
281,219,99256,5,2,3:1:0:0:
91,152,99433,1,8,0:0:0:0:
362,167,99609,1,0,0:0:0:0:
187,244,99785,6,0,B|73:254,1,112.500004291535,0|0,1:0|0:0,0:0:0:0:
289,108,100138,1,8,0:0:0:0:
129,216,100314,2,0,B|15:228,1,112.500004291535,0|0,1:1|0:0,0:0:0:0:
360,125,100667,1,0,3:0:0:0:
96,180,100844,1,8,0:0:0:0:
426,140,101020,5,0,3:0:0:0:
66,144,101197,1,4,1:0:0:0:
329,190,101373,1,0,0:0:0:0:
202,274,101550,2,0,L|174:40,1,225.000008583069,2|0,3:2|0:0,0:0:0:0:
442,149,102079,5,0,3:0:0:0:
262,194,102256,1,8,0:0:0:0:
79,170,102432,1,0,0:0:0:0:
285,262,102609,5,0,1:0:0:0:
461,233,102785,1,0,3:0:0:0:
262,358,102961,1,8,0:0:0:0:
390,169,103138,1,2,3:1:0:0:
412,136,103226,1,2,0:1:0:0:
434,103,103314,1,2,0:1:0:0:
70,149,103491,5,0,3:0:0:0:
250,194,103668,1,8,0:0:0:0:
433,170,103844,1,0,0:0:0:0:
236,276,104020,5,0,1:0:0:0:
309,120,104197,1,0,3:0:0:0:
487,235,104373,1,8,0:0:0:0:
250,194,104550,2,0,L|230:126,1,56.2500021457673,2|2,2:1|2:1,2:0:0:0:
152,137,104726,2,0,L|90:103,1,56.2500021457673,2|2,0:1|0:1,0:0:0:0:
442,149,104903,5,0,3:0:0:0:
262,194,105080,1,8,0:0:0:0:
79,170,105256,1,0,0:0:0:0:
322,125,105432,6,0,L|408:50,1,112.500004291535,0|0,1:0|0:0,0:0:0:0:
233,284,105785,1,8,0:0:0:0:
417,147,105961,2,0,L|517:85,1,112.500004291535,0|0,1:2|0:1,0:0:0:0:
178,328,106314,1,0,3:1:0:0:
485,189,106491,1,8,0:0:0:0:
178,328,106667,1,0,0:0:0:0:
453,258,106844,6,0,L|472:142,1,112.500004291535,0|0,1:0|0:0,0:0:0:0:
270,347,107197,1,8,0:0:0:0:
453,258,107373,2,0,L|467:193,1,56.2500021457673,2|2,3:1|0:1,0:0:0:0:
324,107,107550,2,0,L|380:124,1,56.2500021457673,2|2,0:1|0:1,0:0:0:0:
244,173,107726,5,2,3:1:0:0:
471,145,107903,1,8,0:0:0:0:
206,253,108079,1,0,0:0:0:0:
349,26,108256,5,0,1:0:0:0:
372,214,108432,1,0,3:0:0:0:
180,135,108609,1,8,0:0:0:0:
399,116,108785,1,2,3:1:0:0:
438,112,108873,1,2,0:1:0:0:
477,108,108961,1,2,0:1:0:0:
268,173,109138,5,2,3:1:0:0:
41,145,109315,1,8,0:0:0:0:
306,253,109491,1,0,0:0:0:0:
109,89,109667,5,0,1:0:0:0:
203,305,109844,1,0,3:0:0:0:
477,172,110020,1,8,0:0:0:0:
308,99,110197,1,2,3:1:0:0:
269,94,110285,1,2,0:1:0:0:
230,88,110373,1,2,0:1:0:0:
244,173,110550,5,2,3:1:0:0:
471,145,110727,1,8,0:0:0:0:
206,253,110903,1,0,0:0:0:0:
374,120,111079,6,0,L|494:86,1,112.500004291535,0|0,1:2|0:0,0:0:0:0:
280,292,111432,1,8,0:0:0:0:
374,120,111609,2,0,L|450:32,1,112.500004291535,0|0,1:1|0:0,0:0:0:0:
268,322,111961,1,0,3:0:0:0:
374,120,112138,2,0,L|410:13,1,112.500004291535,8|0,0:0|3:0,0:0:0:0:
262,348,112491,5,8,1:2:0:0:
262,348,112667,1,0,0:0:0:0:
262,348,112844,1,2,0:0:0:0:
110,190,113373,5,0,3:0:0:0:
208,163,113550,1,8,0:0:0:0:
110,190,113726,1,0,3:0:0:0:
418,241,113903,5,4,1:0:0:0:
