osu file format v14

[General]
AudioFilename: audio.mp3
AudioLeadIn: 0
PreviewTime: 203974
Countdown: 0
SampleSet: Soft
StackLeniency: 0.3
Mode: 0
LetterboxInBreaks: 0
EpilepsyWarning: 1
WidescreenStoryboard: 1

[Editor]
Bookmarks: 11974,23268,25915,33679,44621,45856,68444,85915,90679,91032,103562,113621,134268,136209,158797,170091,181385,192150,203974,215268,226562,249150,265738,271738,294327,305621
DistanceSpacing: 0.4
BeatDivisor: 4
GridSize: 8
TimelineZoom: 3.699998

[Metadata]
Title:Masshiro na Yuki
TitleUnicode:まっしろな雪
Artist:Halozy
ArtistUnicode:Halozy
Creator:Heilia
Version:White Eternity
Source:東方花映塚 ~ Phantasmagoria of Flower View.
Tags:Touhou 中日附詞 Marathon sumijun すみじゅん Amorevole 水瀬ましろ Minase Mashiro Higan Retour 彼岸帰航 ~ Riverside Eastern Flower Viewing Mound Komachi Onozuka 幻奏響 UROBOROS ~fAIRYtAILoVERdRIVE~ Toho Arrange Album Bayside Beat c89 Comiket89 Project HLZY-0023 japanese drum and bass DH02
BeatmapID:1939883
BeatmapSetID:820259

[Difficulty]
HPDrainRate:5
CircleSize:4.2
OverallDifficulty:9
ApproachRate:9.3
SliderMultiplier:1.70000000596046
SliderTickRate:1

[Events]
//Background and Video events
0,0,"bgbg.jpg",0,0
//Break Periods
2,204174,214714
//Storyboard Layer 0 (Background)
//Storyboard Layer 1 (Fail)
//Storyboard Layer 2 (Pass)
//Storyboard Layer 3 (Foreground)
//Storyboard Layer 4 (Overlay)
//Storyboard Sound Samples

[TimingPoints]
680,352.941176470588,4,2,1,25,1,0
680,-200,4,2,1,25,0,0
1209,-133.333333333333,4,2,1,45,0,0
3503,-200,4,2,1,45,0,0
4209,-200,4,2,1,35,0,0
5444,-133.333333333333,4,2,1,25,0,0
7738,-100,4,2,1,25,0,0
9150,-133.333333333333,4,2,1,25,0,0
10562,-200,4,2,1,25,0,0
11974,-100,4,2,1,20,0,0
16209,-100,4,2,1,28,0,0
17268,-66.6666666666667,4,2,1,38,0,0
20444,-66.6666666666667,4,2,1,48,0,0
21856,-66.6666666666667,4,2,1,58,0,0
23268,-66.6666666666667,4,2,1,80,0,1
23444,-40,4,2,1,80,0,1
23621,-66.6666666666667,4,2,1,80,0,1
26444,-133.333333333333,4,2,1,80,0,1
26621,-66.6666666666667,4,2,1,80,0,1
29091,-40,4,2,1,80,0,1
29268,-66.6666666666667,4,2,1,80,0,1
30327,-50,4,2,1,80,0,1
30503,-57.1428571428571,4,2,1,80,0,1
30679,-66.6666666666667,4,2,1,80,0,1
32091,-133.333333333333,4,2,1,80,0,1
32268,-66.6666666666667,4,2,1,80,0,1
34562,-100,4,2,1,80,0,1
34915,-66.6666666666667,4,2,1,80,0,1
37209,-100,4,2,1,80,0,1
37385,-66.6666666666667,4,2,1,80,0,1
40209,-100,4,2,1,80,0,1
40562,-66.6666666666667,4,2,1,80,0,1
45856,-66.6666666666667,4,2,1,55,0,1
46209,-80,4,2,1,45,0,0
55915,-66.6666666666667,4,2,1,55,0,0
57150,-80,4,2,1,55,0,0
67032,-1000,4,2,1,55,0,0
67827,-1000,4,2,1,5,0,0
67915,-1000,4,2,1,55,0,0
68444,-66.6666666666667,4,2,1,80,0,1
89621,-81.9672131147541,4,2,1,55,0,0
90503,-66.6666666666667,4,2,1,55,0,0
91032,-66.6666666666667,4,2,1,80,0,1
100738,-50,4,2,1,80,0,0
101797,-66.6666666666667,4,2,1,80,0,0
102327,-66.6666666666667,4,2,1,80,0,1
112562,-66.6666666666667,4,2,1,55,0,1
113621,-83.3333333333333,4,2,1,55,0,0
136562,-83.3333333333333,4,2,1,45,0,0
146265,-66.6666666666667,4,2,1,55,0,0
147503,-80,4,2,1,55,0,0
157385,-1000,4,2,1,55,0,0
158797,-66.6666666666667,4,2,1,80,0,1
179974,-83.3333333333333,4,2,1,55,0,0
180856,-66.6666666666667,4,2,1,55,0,0
181385,-66.6666666666667,4,2,1,80,0,1
191091,-50,4,2,1,80,0,0
192150,-66.6666666666667,4,2,1,80,0,0
192679,-66.6666666666667,4,2,1,80,0,1
202915,-83.3333333333333,4,2,1,55,0,0
215268,-100,4,2,1,30,0,0
220915,-83.3333333333333,4,2,1,55,0,0
226032,-66.6666666666667,4,2,1,55,0,0
226562,-66.6666666666667,4,2,1,80,0,1
235738,-50,4,2,1,80,0,1
236444,-66.6666666666667,4,2,1,80,0,1
242091,-68.9655172413793,4,2,1,80,0,1
242621,-83.3333333333333,4,2,1,80,0,1
246327,-133.333333333333,4,2,1,55,0,0
246679,-100,4,2,1,55,0,0
247032,-66.6666666666667,4,2,1,55,0,0
247385,-57.1428571428571,4,2,1,55,0,0
247738,-66.6666666666667,4,2,1,55,0,0
248621,-83.3333333333333,4,2,1,80,0,1
249150,-66.6666666666667,4,2,1,80,0,1
258856,-50,4,2,1,80,0,0
259915,-66.6666666666667,4,2,1,80,0,0
260444,-66.6666666666667,4,2,1,80,0,1
270679,-83.3333333333333,4,2,1,55,0,0
299797,-83.3333333333333,4,2,1,5,0,0
299974,-83.3333333333333,4,2,1,55,0,0
305797,-83.3333333333333,4,2,1,40,0,0
308444,-200,4,2,1,20,0,0

[Colours]
Combo1 : 232,236,232
Combo2 : 211,168,255
Combo3 : 197,206,219
Combo4 : 230,202,215

[HitObjects]
183,148,680,54,0,P|188:181|183:204,2,42.5000001490115,2|2|2,0:0|0:0|0:0,0:0:0:0:
126,94,1209,2,0,P|159:73|245:99,1,127.500005310774,2|0,0:0|0:0,0:0:0:0:
381,286,2091,22,0,P|417:289|451:285,2,63.7500026553869,2|2|2,0:0|0:0|0:0,0:0:0:0:
329,225,2621,2,0,P|307:258|338:355,1,127.500005310774,2|0,0:0|0:0,0:0:0:0:
235,142,3503,22,0,P|208:148|187:163,1,42.5000001490115,2|2,0:0|0:0,0:0:0:0:
0,119,3856,2,0,P|27:125|48:140,1,42.5000001490115,2|2,0:0|0:0,0:0:0:0:
108,198,4209,2,2,L|119:102,1,85.000000298023
143,305,4915,22,0,L|85:311,2,42.5000001490115,2|2|2,0:0|0:0|0:0,0:0:0:0:
186,238,5444,2,0,P|221:295|203:362,1,127.500005310774,2|0,0:0|0:0,0:0:0:0:
360,98,6327,22,0,P|358:65|358:27,2,63.7500026553869,2|2|2,0:0|0:0|0:0,0:0:0:0:
299,149,6856,2,0,P|367:139|426:139,1,127.500005310774,2|0,0:0|0:0,0:0:0:0:
172,235,7738,22,0,P|176:192|175:144,2,85.000000298023,2|2|2,0:0|0:0|0:0,0:0:0:0:
251,282,8268,2,0,P|168:274|82:272,1,170.000000596046,2|0,0:0|0:0,0:0:0:0:
268,196,9150,22,0,P|240:197|195:207,1,63.7500026553869,2|2,0:0|0:0,0:0:0:0:
269,87,9503,1,2,0:0:0:0:
117,48,9679,2,0,P|136:108|202:118,1,127.500005310774,2|0,0:0|0:0,0:0:0:0:
149,316,10385,21,0,0:0:0:0:
149,316,10562,2,0,P|174:312|198:312,2,42.5000001490115,2|2|2,0:0|0:0|0:0,0:0:0:0:
90,235,11091,1,0,0:0:0:0:
182,153,11268,2,0,P|183:193|179:251,1,85.000000298023,2|0,0:0|0:0,0:0:0:0:
473,294,11974,22,0,L|378:294,1,85.000000298023,8|0,0:3|0:0,0:0:0:0:
272,347,12327,1,8,0:0:0:0:
327,138,12503,1,8,0:3:0:0:
331,160,12591,1,8,0:3:0:0:
335,182,12679,1,8,0:3:0:0:
339,203,12768,1,8,0:3:0:0:
343,224,12856,1,8,0:0:0:0:
406,63,13032,1,0,0:0:0:0:
215,28,13209,37,8,0:3:0:0:
215,28,13297,1,8,0:3:0:0:
215,28,13385,2,0,L|300:28,1,85.000000298023,8|0,0:3|0:0,0:0:0:0:
225,196,13738,1,8,0:0:0:0:
66,100,13915,1,8,0:3:0:0:
87,102,14003,1,8,0:3:0:0:
109,104,14091,1,8,0:3:0:0:
131,106,14179,1,8,0:3:0:0:
153,108,14268,1,8,0:0:0:0:
20,224,14444,1,0,0:0:0:0:
131,298,14621,5,8,0:3:0:0:
131,298,14709,1,8,0:3:0:0:
131,298,14797,2,0,P|118:250|122:204,1,85.000000298023,8|0,0:3|0:0,0:0:0:0:
193,109,15150,1,8,0:3:0:0:
0,158,15327,1,8,0:3:0:0:
88,48,15503,1,8,0:3:0:0:
91,70,15591,1,8,0:3:0:0:
95,92,15679,1,8,0:3:0:0:
99,114,15767,1,8,0:3:0:0:
103,135,15856,1,8,0:0:0:0:
264,209,16033,37,8,0:3:0:0:
264,209,16121,1,8,0:3:0:0:
264,209,16209,2,0,L|165:216,1,85.000000298023,8|0,0:0|0:0,0:0:0:0:
329,290,16562,1,8,0:0:0:0:
418,132,16738,2,0,L|334:127,1,85.000000298023,8|0,0:3|0:0,0:0:0:0:
462,273,17091,5,8,0:0:0:0:
247,345,17268,1,0,0:0:0:0:
147,139,17444,1,0,0:0:0:0:
247,345,17621,37,8,0:0:0:0:
247,345,17797,1,0,0:0:0:0:
364,227,17974,5,8,0:0:0:0:
364,227,18150,1,0,0:0:0:0:
247,110,18327,37,8,0:0:0:0:
247,110,18503,1,0,0:0:0:0:
129,227,18679,5,8,0:0:0:0:
129,227,18856,1,0,0:0:0:0:
334,349,19032,37,8,0:0:0:0:
364,134,19209,1,0,0:0:0:0:
150,104,19385,1,8,0:0:0:0:
120,319,19562,1,0,0:0:0:0:
439,266,19738,5,8,0:0:0:0:
330,8,19915,1,0,0:0:0:0:
72,117,20091,1,8,0:0:0:0:
181,375,20268,1,0,0:0:0:0:
420,71,20444,5,8,0:0:0:0:
394,53,20532,1,0,0:0:0:0:
362,48,20621,1,0,0:0:0:0:
331,57,20709,1,0,0:0:0:0:
278,106,20797,37,8,0:0:0:0:
234,117,20885,1,0,0:0:0:0:
189,113,20974,1,0,0:0:0:0:
149,93,21062,1,0,0:0:0:0:
73,104,21150,5,8,0:0:0:0:
102,152,21238,1,0,0:0:0:0:
105,209,21327,1,8,0:0:0:0:
76,258,21415,1,0,0:0:0:0:
159,257,21503,37,8,0:0:0:0:
237,267,21592,1,0,0:0:0:0:
250,348,21679,1,8,0:0:0:0:
179,384,21768,1,8,0:0:0:0:
122,329,21856,5,12,0:3:0:0:
97,157,22032,1,2,0:0:0:0:
97,157,22121,1,2,0:0:0:0:
97,157,22209,2,0,L|90:86,1,63.7500026553869,10|0,0:0|0:0,0:0:0:0:
0,68,22385,5,2,0:0:0:0:
33,20,22474,1,2,0:0:0:0:
88,4,22562,1,10,0:0:0:0:
143,17,22650,1,2,0:0:0:0:
184,56,22738,6,0,P|189:85|191:123,1,63.7500026553869,2|0,0:0|0:0,0:0:0:0:
364,53,22915,6,0,P|359:82|357:120,1,63.7500026553869,8|0,0:0|0:0,0:0:0:0:
279,177,23091,6,0,L|275:83,1,63.7500026553869,0|0,0:0|0:0,0:0:0:0:
361,250,23268,22,0,L|315:242,2,31.8750013276934,8|0|0,0:3|0:0|0:0,0:0:0:0:
450,149,23444,5,0,0:0:0:0:
452,161,23532,1,0,0:0:0:0:
454,173,23621,2,0,P|413:172|374:193,1,63.7500026553869,8|0,0:0|0:0,0:0:0:0:
437,312,23797,2,0,L|442:218,1,63.7500026553869,0|0,0:3|0:0,0:0:0:0:
505,357,23974,38,0,P|515:324|512:292,1,63.7500026553869
366,278,24150,2,0,P|356:311|359:343,1,63.7500026553869,8|0,0:3|0:0,0:0:0:0:
182,362,24327,6,0,L|177:314,1,31.8750013276934,8|0,0:0|0:0,0:0:0:0:
200,360,24415,2,0,L|195:312,1,31.8750013276934,0|0,0:0|0:0,0:0:0:0:
219,358,24503,2,0,L|306:350,1,63.7500026553869,0|0,0:0|0:0,0:0:0:0:
104,281,24679,38,0,P|103:248|97:212,1,63.7500026553869,8|0,0:3|0:0,0:0:0:0:
66,135,24856,6,0,P|98:134|130:129,1,63.7500026553869,0|0,0:0|0:0,0:0:0:0:
216,98,25032,38,0,P|217:131|223:167,1,63.7500026553869,8|0,0:0|0:0,0:0:0:0:
253,244,25209,6,0,P|221:244|189:249,1,63.7500026553869,0|0,0:0|0:0,0:0:0:0:
409,273,25385,38,0,L|366:268,3,31.8750013276934
407,252,25562,2,0,L|364:247,2,31.8750013276934
459,182,25738,6,0,P|471:150|467:113,1,63.7500026553869,8|0,0:0|0:0,0:0:0:0:
373,167,25915,2,0,P|371:135|383:105,1,63.7500026553869,0|0,0:0|0:0,0:0:0:0:
124,259,26091,38,0,B|234:277|186:198|302:218,1,191.250007966161,8|0,0:3|0:0,0:0:0:0:
273,322,26444,2,0,P|270:302|269:274,1,31.8750013276934,8|0,0:0|0:0,0:0:0:0:
335,92,26621,2,0,P|338:188|355:282,1,191.250007966161,0|0,0:0|0:0,0:0:0:0:
172,68,26974,5,8,0:3:0:0:
302,218,27150,1,8,0:0:0:0:
469,111,27327,1,0,0:0:0:0:
265,28,27503,38,0,P|253:75|259:121,1,63.7500026553869,8|0,0:3|0:0,0:0:0:0:
291,178,27679,2,0,P|244:166|198:172,1,63.7500026553869,0|0,0:0|0:0,0:0:0:0:
137,208,27856,2,0,P|149:161|143:115,1,63.7500026553869,8|0,0:0|0:0,0:0:0:0:
113,80,28032,1,0,0:0:0:0:
111,68,28120,1,0,0:0:0:0:
109,56,28209,6,0,P|141:58|171:67,1,63.7500026553869,0|0,0:0|0:0,0:0:0:0:
397,47,28385,2,0,P|365:49|335:58,1,63.7500026553869,8|0,0:3|0:0,0:0:0:0:
260,209,28562,2,0,L|254:104,1,63.7500026553869,8|0,0:0|0:0,0:0:0:0:
247,0,28738,2,0,L|253:105,1,63.7500026553869,0|0,0:0|0:0,0:0:0:0:
270,308,28915,37,12,0:3:0:0:
406,157,29091,1,0,0:0:0:0:
403,168,29179,1,0,0:0:0:0:
400,180,29268,2,0,P|368:172|316:179,1,63.7500026553869,8|0,0:0|0:0,0:0:0:0:
365,314,29444,2,0,L|355:242,1,63.7500026553869,0|0,0:0|0:0,0:0:0:0:
499,256,29621,6,0,P|450:249|423:249,1,63.7500026553869,0|0,0:0|0:0,0:0:0:0:
479,110,29797,2,0,P|486:159|486:186,1,63.7500026553869,8|0,0:3|0:0,0:0:0:0:
236,183,29974,38,0,L|231:135,1,31.8750013276934,8|0,0:0|0:0,0:0:0:0:
254,181,30062,2,0,L|249:133,1,31.8750013276934,0|0,0:0|0:0,0:0:0:0:
273,179,30150,2,0,L|360:171,1,63.7500026553869,0|0,0:0|0:0,0:0:0:0:
184,73,30327,6,0,P|143:76|107:99,1,85.000000298023,8|0,0:3|0:0,0:0:0:0:
236,183,30503,38,0,P|209:159|172:153,1,74.3750009700654
170,297,30679,6,0,L|177:233,1,63.7500026553869,8|0,0:0|0:0,0:0:0:0:
0,85,30856,38,0,P|76:113|72:220,1,191.250007966161
267,232,31209,6,0,L|269:195,3,31.8750013276934,8|0|0|0,0:3|0:0|0:0|0:0,0:0:0:0:
377,134,31385,38,0,P|344:141|300:126,1,63.7500026553869,8|0,0:0|0:0,0:0:0:0:
168,115,31562,2,0,P|201:108|245:123,1,63.7500026553869,0|0,0:0|0:0,0:0:0:0:
273,40,31738,6,0,L|266:243,1,191.250007966161,8|0,0:3|0:0,0:0:0:0:
84,171,32091,2,0,P|101:171|115:173,1,31.8750013276934,8|0,0:0|0:0,0:0:0:0:
170,277,32268,2,0,P|244:259|328:340,1,191.250007966161,0|0,0:0|0:0,0:0:0:0:
407,243,32621,37,8,0:3:0:0:
230,355,32797,1,8,0:0:0:0:
115,173,32974,1,0,0:0:0:0:
350,154,33150,6,0,L|356:79,1,63.7500026553869,8|0,0:3|0:0,0:0:0:0:
367,171,33327,2,0,L|373:96,1,63.7500026553869,0|0,0:0|0:0,0:0:0:0:
215,125,33503,38,0,P|245:119|289:128,1,63.7500026553869,8|0,0:0|0:0,0:0:0:0:
231,241,33679,1,0,0:0:0:0:
238,250,33767,1,0,0:0:0:0:
246,259,33856,2,0,L|249:175,1,63.7500026553869,0|0,0:0|0:0,0:0:0:0:
388,249,34032,2,0,P|358:250|316:240,1,63.7500026553869,8|0,0:3|0:0,0:0:0:0:
443,340,34209,6,0,P|436:246|447:144,1,191.250007966161,8|0,0:0|0:0,0:0:0:0:
277,123,34562,2,0,P|327:123|368:134,1,85.000000298023,8|0,0:3|0:0,0:0:0:0:
277,123,34915,37,8,0:0:0:0:
272,133,35003,1,0,0:0:0:0:
266,144,35091,2,0,L|263:56,1,63.7500026553869,0|0,0:0|0:0,0:0:0:0:
134,21,35268,6,0,P|178:24|209:43,1,63.7500026553869,0|0,0:0|0:0,0:0:0:0:
397,32,35444,2,0,P|353:35|322:54,1,63.7500026553869,8|0,0:3|0:0,0:0:0:0:
144,179,35621,38,0,L|143:131,1,31.8750013276934,8|0,0:0|0:0,0:0:0:0:
162,179,35709,2,0,L|161:130,1,31.8750013276934,0|0,0:0|0:0,0:0:0:0:
181,178,35797,2,0,L|174:80,1,63.7500026553869,0|0,0:0|0:0,0:0:0:0:
372,325,35974,6,0,L|381:239,1,63.7500026553869,8|0,0:3|0:0,0:0:0:0:
266,144,36150,2,0,L|272:207,1,63.7500026553869,0|0,0:0|0:0,0:0:0:0:
452,6,36327,38,0,P|413:4|382:11,1,63.7500026553869,8|0,0:0|0:0,0:0:0:0:
410,130,36503,1,0,0:0:0:0:
417,139,36591,1,0,0:0:0:0:
425,148,36679,2,0,L|428:64,1,63.7500026553869,0|0,0:0|0:0,0:0:0:0:
498,192,36856,6,0,P|508:154|504:124,1,63.7500026553869,8|0,0:3|0:0,0:0:0:0:
342,109,37032,2,0,P|332:147|336:177,1,63.7500026553869,8|0,0:0|0:0,0:0:0:0:
410,269,37209,38,0,L|412:204,1,42.5000001490115
411,284,37385,6,0,B|295:304|343:225|233:243,1,191.250007966161,8|0,0:3|0:0,0:0:0:0:
253,383,37738,2,0,P|260:345|258:307,1,63.7500026553869,8|0,0:0|0:0,0:0:0:0:
97,322,37915,1,0,0:0:0:0:
99,333,38003,1,0,0:0:0:0:
102,344,38092,2,0,P|137:351|189:339,1,63.7500026553869,0|0,0:0|0:0,0:0:0:0:
101,219,38268,2,0,P|120:248|166:276,1,63.7500026553869,8|0,0:3|0:0,0:0:0:0:
187,66,38444,37,8,0:0:0:0:
182,122,38532,1,0,0:0:0:0:
177,180,38621,1,0,0:0:0:0:
421,160,38797,5,8,0:3:0:0:
276,33,38974,1,0,0:0:0:0:
90,100,39150,1,8,0:0:0:0:
264,195,39327,37,0,0:0:0:0:
275,199,39415,1,0,0:0:0:0:
286,203,39503,2,0,P|283:236|283:282,1,63.7500026553869,0|0,0:0|0:0,0:0:0:0:
119,213,39679,2,0,P|121:246|121:292,1,63.7500026553869,8|0,0:3|0:0,0:0:0:0:
197,154,39856,6,0,P|203:246|204:347,1,191.250007966161,8|0,0:0|0:0,0:0:0:0:
213,356,40209,38,0,P|214:301|212:258,1,85.000000298023,8|0,0:3|0:0,0:0:0:0:
449,222,40562,5,8,0:0:0:0:
396,199,40650,1,0,0:0:0:0:
349,232,40738,1,0,0:0:0:0:
510,115,40915,38,0,P|466:127|451:141,1,63.7500026553869
270,136,41091,2,0,P|315:139|333:151,1,63.7500026553869,8|0,0:3|0:0,0:0:0:0:
335,18,41268,6,0,L|340:70,1,31.8750013276934,8|0,0:0|0:0,0:0:0:0:
360,21,41356,2,0,L|365:74,1,31.8750013276934,0|0,0:0|0:0,0:0:0:0:
384,22,41444,2,0,L|392:109,1,63.7500026553869,0|0,0:0|0:0,0:0:0:0:
197,49,41621,37,8,0:3:0:0:
243,236,41797,1,0,0:0:0:0:
0,128,41974,6,0,P|31:127|58:142,1,63.7500026553869,8|0,0:0|0:0,0:0:0:0:
47,291,42150,2,0,L|52:259,1,31.8750013276934,0|0,0:0|0:0,0:0:0:0:
23,281,42238,2,0,L|28:249,1,31.8750013276934,0|0,0:0|0:0,0:0:0:0:
0,274,42326,2,0,L|10:211,1,63.7500026553869,0|0,0:0|0:0,0:0:0:0:
131,290,42503,38,0,L|121:353,1,63.7500026553869,8|0,0:3|0:0,0:0:0:0:
274,290,42679,2,0,P|230:290|207:302,1,63.7500026553869,8|0,0:0|0:0,0:0:0:0:
157,166,42856,2,0,P|179:205|184:234,1,63.7500026553869,0|0,0:0|0:0,0:0:0:0:
278,193,43032,5,8,0:3:0:0:
321,15,43209,1,0,0:0:0:0:
450,145,43385,38,0,P|409:144|370:165,1,63.7500026553869,8|0,0:0|0:0,0:0:0:0:
433,284,43561,2,0,L|438:190,1,63.7500026553869,0|0,0:0|0:0,0:0:0:0:
352,309,43738,6,0,P|350:277|359:247,1,63.7500026553869,0|0,0:0|0:0,0:0:0:0:
508,267,43914,2,0,P|510:298|501:329,1,63.7500026553869,8|0,0:3|0:0,0:0:0:0:
352,309,44091,37,8,0:0:0:0:
307,306,44179,1,0,0:0:0:0:
262,303,44268,1,0,0:0:0:0:
217,300,44356,1,0,0:0:0:0:
172,297,44444,6,0,L|175:217,1,63.7500026553869,0|0,0:0|0:0,0:0:0:0:
74,204,44621,37,2,0:0:0:0:
81,213,44709,1,2,0:0:0:0:
89,222,44797,2,0,L|92:138,1,63.7500026553869,2|0,0:0|0:0,0:0:0:0:
268,178,44974,5,2,0:0:0:0:
261,187,45062,1,2,0:0:0:0:
253,196,45150,2,0,L|250:112,1,63.7500026553869,2|0,0:0|0:0,0:0:0:0:
149,56,45327,37,2,0:0:0:0:
156,65,45415,1,2,0:0:0:0:
164,74,45503,2,0,P|260:94|345:19,1,191.250007966161,2|0,0:0|0:0,0:0:0:0:
253,196,45856,37,8,0:3:0:0:
253,196,46209,22,0,P|248:258|250:313,1,106.250000372529,8|0,0:0|0:0,0:0:0:0:
150,203,46562,1,0,0:0:0:0:
150,203,46738,1,8,0:3:0:0:
338,259,46915,2,0,P|343:321|341:376,1,106.250000372529,8|0,0:0|0:0,0:0:0:0:
434,137,47268,21,8,0:3:0:0:
434,137,47621,21,8,0:0:0:0:
338,259,47797,2,0,P|344:200|345:151,1,106.250000372529,0|0,0:0|0:0,0:0:0:0:
225,62,48150,1,8,0:3:0:0:
253,216,48327,2,0,P|203:233|153:218,1,106.250000372529,8|0,0:0|0:0,0:0:0:0:
153,218,48679,22,0,P|155:164|148:104,1,106.250000372529,8|0,0:3|0:0,0:0:0:0:
225,62,49032,1,8,0:0:0:0:
58,7,49209,2,0,P|144:87|236:52,1,212.500000745058,0|8,0:0|0:3,0:0:0:0:
331,6,49738,2,0,P|325:73|325:117,1,106.250000372529,8|0,0:0|0:0,0:0:0:0:
351,291,50091,22,0,P|403:283|457:282,1,106.250000372529,8|0,0:3|0:0,0:0:0:0:
289,199,50444,1,8,0:0:0:0:
500,183,50621,2,0,P|395:197|289:199,1,212.500000745058,0|8,0:0|0:3,0:0:0:0:
186,128,51150,2,0,P|193:179|195:233,1,106.250000372529,8|0,0:0|0:0,0:0:0:0:
342,24,51503,21,8,0:3:0:0:
342,24,51856,22,0,P|347:86|345:141,1,106.250000372529,8|0,0:0|0:0,0:0:0:0:
445,31,52209,1,0,0:0:0:0:
445,31,52385,1,8,0:3:0:0:
249,86,52562,2,0,P|248:139|252:191,1,106.250000372529,8|0,0:0|0:0,0:0:0:0:
392,339,52915,21,8,0:3:0:0:
392,339,53268,22,0,P|392:285|388:233,1,106.250000372529,8|0,0:0|0:0,0:0:0:0:
253,192,53621,21,0,0:0:0:0:
392,98,53797,1,8,0:3:0:0:
199,69,53974,1,8,0:0:0:0:
306,265,54150,1,0,0:0:0:0:
100,323,54327,22,0,P|103:268|101:208,1,106.250000372529,8|0,0:3|0:0,0:0:0:0:
203,165,54679,1,8,0:0:0:0:
43,101,54856,2,0,P|88:174|219:146,1,212.500000745058,0|8,0:0|0:3,0:0:0:0:
300,92,55385,2,0,P|293:145|292:209,1,106.250000372529,8|0,0:0|0:0,0:0:0:0:
42,222,55738,21,8,0:3:0:0:
42,222,55915,6,0,P|32:274|44:309,1,63.7500026553869,14|2,0:0|0:0,0:0:0:0:
114,357,56091,2,0,L|120:282,1,63.7500026553869,10|2,0:3|0:0,0:0:0:0:
212,242,56268,2,0,P|215:272|208:303,1,63.7500026553869,10|2,0:3|0:0,0:0:0:0:
29,219,56444,22,0,P|19:271|31:306,1,63.7500026553869,14|2,0:0|0:0,0:0:0:0:
113,374,56620,2,0,L|119:299,1,63.7500026553869,10|2,0:3|0:0,0:0:0:0:
230,242,56797,2,0,P|233:272|226:303,1,63.7500026553869,10|2,0:3|0:0,0:0:0:0:
418,172,57150,38,0,P|362:172|291:182,1,106.250000372529,12|0,0:3|0:0,0:0:0:0:
257,5,57503,2,0,P|247:56|260:107,1,106.250000372529,8|0,0:0|0:0,0:0:0:0:
229,220,57856,1,0,0:0:0:0:
46,191,58032,1,8,0:3:0:0:
229,220,58209,1,8,0:0:0:0:
229,220,58562,22,0,P|228:161|223:110,1,106.250000372529,8|0,0:3|0:0,0:0:0:0:
121,0,58915,1,8,0:0:0:0:
121,0,59091,1,0,0:0:0:0:
238,129,59268,2,0,L|356:116,1,106.250000372529,0|8,0:0|0:3,0:0:0:0:
466,21,59621,2,0,P|458:73|455:126,1,106.250000372529,8|0,0:0|0:0,0:0:0:0:
402,350,59974,22,0,P|399:296|391:244,1,106.250000372529,8|0,0:3|0:0,0:0:0:0:
512,222,60327,1,8,0:0:0:0:
282,265,60503,2,0,P|228:268|176:277,1,106.250000372529
282,142,60856,1,8,0:3:0:0:
168,291,61032,1,8,0:0:0:0:
4,196,61209,1,0,0:0:0:0:
101,30,61385,22,0,P|164:32|210:42,1,106.250000372529,8|0,0:3|0:0,0:0:0:0:
448,0,61738,1,8,0:0:0:0:
320,23,61915,2,0,P|315:103|319:147,1,106.250000372529,8|0,0:3|0:0,0:0:0:0:
447,238,62268,1,8,0:3:0:0:
183,166,62444,1,8,0:0:0:0:
322,312,62621,1,0,0:0:0:0:
322,312,62709,1,0,0:0:0:0:
322,312,62797,22,0,P|318:257|313:203,1,106.250000372529,8|0,0:3|0:0,0:0:0:0:
512,212,63150,2,0,P|441:220|394:214,1,106.250000372529,8|0,0:0|0:0,0:0:0:0:
512,76,63503,1,0,0:0:0:0:
344,42,63679,1,8,0:3:0:0:
512,76,63856,1,8,0:0:0:0:
512,76,64209,21,8,0:3:0:0:
406,217,64385,1,0,0:0:0:0:
243,131,64562,1,8,0:0:0:0:
406,217,64738,2,0,P|408:275|403:338,1,106.250000372529,0|0,0:0|0:0,0:0:0:0:
512,328,65091,21,8,0:3:0:0:
278,292,65268,1,8,0:0:0:0:
419,130,65444,1,0,0:0:0:0:
231,225,65621,22,0,P|173:235|123:233,2,106.250000372529,8|0|8,0:3|0:0|0:0,0:0:0:0:
46,143,66150,2,0,P|80:199|69:347,1,212.500000745058,0|8,0:0|0:3,0:0:0:0:
231,225,66679,1,8,0:0:0:0:
331,335,67032,38,0,L|371:331,1,38.2500001341104
310,359,67915,5,8,0:3:0:0:
337,66,68091,1,8,0:0:0:0:
82,83,68444,22,0,P|89:157|89:212,1,127.500005310774,12|0,0:3|0:0,0:0:0:0:
35,279,68709,1,0,0:0:0:0:
46,302,68797,2,0,P|81:295|124:297,1,63.7500026553869,8|0,0:0|0:0,0:0:0:0:
177,236,68974,2,0,P|208:236|239:243,1,63.7500026553869,0|0,0:0|0:0,0:0:0:0:
438,217,69150,37,0,0:0:0:0:
415,171,69238,1,0,0:0:0:0:
372,145,69326,1,12,0:3:0:0:
322,147,69414,1,0,0:0:0:0:
280,175,69503,2,0,P|291:248|295:321,1,127.500005310774,8|0,0:0|0:0,0:0:0:0:
375,61,69856,5,12,0:3:0:0:
199,0,70032,1,0,0:0:0:0:
204,11,70120,1,0,0:0:0:0:
209,22,70209,2,0,P|245:14|283:26,1,63.7500026553869,8|0,0:0|0:0,0:0:0:0:
239,160,70385,2,0,L|244:78,1,63.7500026553869,0|0,0:0|0:0,0:0:0:0:
86,90,70562,37,0,0:0:0:0:
132,113,70650,1,0,0:0:0:0:
158,156,70738,1,12,0:3:0:0:
156,206,70826,1,0,0:0:0:0:
128,248,70915,2,0,P|199:243|288:245,1,127.500005310774,8|0,0:0|0:0,0:0:0:0:
396,294,71268,6,0,P|309:315|255:243,1,191.250007966161,12|0,0:3|0:0,0:0:0:0:
158,156,71621,2,0,P|203:165|231:191,1,63.7500026553869,8|0,0:0|0:0,0:0:0:0:
357,164,71797,2,0,P|311:169|280:191,1,63.7500026553869
502,118,71974,37,0,0:0:0:0:
470,157,72062,1,0,0:0:0:0:
457,206,72150,1,12,0:3:0:0:
463,256,72238,1,0,0:0:0:0:
489,300,72327,5,8,0:0:0:0:
450,268,72414,1,0,0:0:0:0:
401,255,72502,1,0,0:0:0:0:
351,261,72590,1,0,0:0:0:0:
307,287,72679,38,0,P|317:210|275:150,1,127.500005310774,12|0,0:3|0:0,0:0:0:0:
152,155,73032,2,0,P|199:154|233:163,1,63.7500026553869,8|0,0:0|0:0,0:0:0:0:
40,338,73209,5,2,0:0:0:0:
40,338,73297,1,2,0:0:0:0:
40,338,73385,38,0,P|39:305|33:269,1,63.7500026553869,2|0,0:0|0:0,0:0:0:0:
189,301,73562,6,0,P|156:302|120:308,1,63.7500026553869,14|0,0:3|0:0,0:0:0:0:
152,155,73738,38,0,P|153:188|159:224,1,63.7500026553869,8|0,0:0|0:0,0:0:0:0:
3,192,73915,6,0,P|36:191|72:185,1,63.7500026553869,8|0,0:3|0:0,0:0:0:0:
105,87,74091,38,0,P|177:75|234:129,1,127.500005310774,12|0,0:3|0:0,0:0:0:0:
272,227,74356,1,0,0:0:0:0:
252,243,74444,2,0,P|257:206|258:170,1,63.7500026553869,8|0,0:0|0:0,0:0:0:0:
327,75,74621,2,0,P|328:106|333:138,1,63.7500026553869
512,264,74797,5,0,0:0:0:0:
489,218,74885,1,0,0:0:0:0:
446,192,74973,1,12,0:3:0:0:
396,194,75061,1,0,0:0:0:0:
354,222,75150,2,0,P|365:295|369:368,1,127.500005310774,8|0,0:0|0:0,0:0:0:0:
141,362,75503,37,12,0:3:0:0:
25,262,75679,1,0,0:0:0:0:
30,251,75767,1,0,0:0:0:0:
34,239,75856,2,0,P|64:246|95:240,1,63.7500026553869,8|0,0:0|0:0,0:0:0:0:
252,243,76032,2,0,P|221:250|190:244,1,63.7500026553869,0|0,0:0|0:0,0:0:0:0:
360,60,76209,5,0,0:0:0:0:
294,23,76297,1,0,0:0:0:0:
219,32,76385,1,12,0:3:0:0:
163,83,76473,1,0,0:0:0:0:
148,157,76562,2,0,P|141:89|127:23,1,127.500005310774,8|0,0:0|0:0,0:0:0:0:
39,200,76915,38,0,P|144:184|190:283,1,191.250007966161,12|0,0:3|0:0,0:0:0:0:
191,261,77268,1,8,0:0:0:0:
292,182,77444,2,0,P|281:242|276:315,1,127.500005310774
482,271,77797,2,0,P|418:297|320:251,1,127.500005310774,12|8,0:3|0:0,0:0:0:0:
422,70,78150,6,0,P|420:134|411:197,1,127.500005310774,0|12,0:0|0:3,0:0:0:0:
278,50,78503,1,0,0:0:0:0:
510,150,78679,1,8,0:0:0:0:
303,328,78856,1,4,0:3:0:0:
36,202,79032,38,0,P|52:229|72:253,1,63.7500026553869,8|0,0:3|0:0,0:0:0:0:
283,182,79209,6,0,P|267:209|257:239,1,63.7500026553869,14|0,0:3|0:0,0:0:0:0:
153,147,79385,38,0,P|152:178|159:210,1,63.7500026553869,8|0,0:0|0:0,0:0:0:0:
354,291,79562,6,0,P|326:306|302:327,1,63.7500026553869,8|0,0:3|0:0,0:0:0:0:
377,6,79738,38,0,P|370:78|377:169,1,127.500005310774,12|0,0:3|0:0,0:0:0:0:
457,224,80003,1,0,0:0:0:0:
466,201,80091,2,0,P|410:206|390:210,1,63.7500026553869,8|0,0:0|0:0,0:0:0:0:
428,352,80268,2,0,L|436:275,1,63.7500026553869,0|0,0:0|0:0,0:0:0:0:
169,284,80444,5,0,0:0:0:0:
211,256,80532,1,0,0:0:0:0:
261,254,80620,1,12,0:3:0:0:
304,280,80708,1,0,0:0:0:0:
327,326,80797,2,0,P|322:265|326:174,1,127.500005310774,8|0,0:0|0:0,0:0:0:0:
357,54,81150,37,12,0:3:0:0:
235,153,81327,1,0,0:0:0:0:
240,164,81415,1,0,0:0:0:0:
245,175,81504,2,0,L|253:90,1,63.7500026553869,8|0,0:0|0:0,0:0:0:0:
156,21,81679,2,0,P|203:28|226:48,1,63.7500026553869,0|0,0:0|0:0,0:0:0:0:
209,276,81856,5,0,0:0:0:0:
163,253,81944,1,0,0:0:0:0:
137,210,82032,1,12,0:3:0:0:
139,160,82120,1,0,0:0:0:0:
167,118,82209,2,0,P|103:151|6:114,1,127.500005310774,8|0,0:0|0:0,0:0:0:0:
5,45,82562,38,0,P|16:133|14:247,1,191.250007966161,12|0,0:3|0:3,0:0:0:0:
0,328,82915,2,0,P|42:340|68:374,1,63.7500026553869,8|0,0:0|0:0,0:0:0:0:
200,289,83091,2,8,P|164:314|151:355,1,63.7500026553869,0|0,0:0|0:0,0:0:0:0:
297,202,83268,5,0,0:0:0:0:
329,241,83356,1,0,0:0:0:0:
342,290,83444,1,12,0:3:0:0:
336,340,83532,1,0,0:0:0:0:
310,384,83621,37,8,0:0:0:0:
349,352,83708,1,0,0:0:0:0:
398,339,83796,1,0,0:0:0:0:
448,345,83884,1,0,0:0:0:0:
492,371,83974,6,0,P|482:294|524:234,1,127.500005310774,12|0,0:3|0:0,0:0:0:0:
362,221,84238,2,0,P|404:222|435:230,1,63.7500026553869,0|8,0:0|0:0,0:0:0:0:
276,254,84503,37,2,0:0:0:0:
276,254,84591,1,2,0:0:0:0:
276,254,84679,6,0,P|274:220|248:184,1,63.7500026553869,2|0,0:0|0:0,0:0:0:0:
155,213,84856,38,0,P|129:190|85:183,1,63.7500026553869,14|0,0:3|0:0,0:0:0:0:
357,73,85032,6,0,P|355:107|329:143,1,63.7500026553869,8|0,0:0|0:0,0:0:0:0:
252,84,85209,38,0,P|226:106|182:113,1,63.7500026553869,8|0,0:3|0:0,0:0:0:0:
92,55,85385,6,0,P|101:120|100:202,1,127.500005310774,12|0,0:3|0:0,0:0:0:0:
55,251,85650,1,0,0:0:0:0:
42,273,85738,2,0,P|72:265|104:265,1,63.7500026553869,8|0,0:0|0:0,0:0:0:0:
175,222,85915,2,0,P|206:222|237:229,1,63.7500026553869,0|0,0:0|0:0,0:0:0:0:
392,314,86091,37,0,0:0:0:0:
350,286,86179,1,0,0:0:0:0:
300,284,86267,1,12,0:3:0:0:
257,310,86355,1,0,0:0:0:0:
234,356,86444,2,0,P|239:295|235:204,1,127.500005310774,8|0,0:0|0:0,0:0:0:0:
196,99,86797,5,12,0:3:0:0:
301,182,86974,1,0,0:0:0:0:
306,193,87062,1,0,0:0:0:0:
311,204,87151,2,0,L|319:119,1,63.7500026553869,8|0,0:0|0:0,0:0:0:0:
393,53,87327,2,0,L|398:116,1,63.7500026553869,0|0,0:0|0:0,0:0:0:0:
466,381,87503,37,0,0:0:0:0:
427,315,87591,1,0,0:0:0:0:
357,286,87679,1,12,0:3:0:0:
283,302,87767,1,0,0:0:0:0:
233,359,87856,2,0,P|235:286|230:217,1,127.500005310774,8|0,0:0|0:0,0:0:0:0:
62,226,88209,6,0,P|145:266|232:233,1,191.250007966161,12|0,0:3|0:0,0:0:0:0:
234,212,88562,1,8,0:0:0:0:
390,202,88738,2,0,P|404:137|410:62,1,127.500005310774
232,232,89091,2,0,P|238:295|251:357,1,127.500005310774,12|8,0:3|0:0,0:0:0:0:
466,267,89444,1,8,0:3:0:0:
371,33,89621,5,8,0:0:0:0:
339,267,89797,2,0,L|399:275,3,34.56666536376,0|0|0|0,0:0|0:0|0:0|0:0,0:0:0:0:
141,33,90150,5,8,0:0:0:0:
173,267,90326,2,0,L|113:275,2,34.56666536376
147,306,90503,6,0,P|195:312|226:351,1,63.7500026553869
373,271,90679,2,0,P|327:285|304:329,1,63.7500026553869,8|0,0:0|0:0,0:0:0:0:
238,189,90856,2,0,L|255:284,1,63.7500026553869,0|0,0:0|0:0,0:0:0:0:
428,202,91032,5,12,0:3:0:0:
464,155,91121,1,0,0:0:0:0:
428,109,91209,1,0,0:0:0:0:
373,126,91297,1,0,0:0:0:0:
373,184,91385,1,8,0:0:0:0:
399,315,91562,5,0,0:0:0:0:
373,271,91650,1,0,0:0:0:0:
327,249,91738,1,0,0:0:0:0:
278,255,91826,1,0,0:0:0:0:
238,286,91916,38,0,P|232:258|234:188,1,63.7500026553869,12|0,0:3|0:0,0:0:0:0:
171,109,92092,2,0,P|169:140|163:171,1,63.7500026553869,8|0,0:0|0:0,0:0:0:0:
47,250,92268,2,0,P|61:221|71:191,1,63.7500026553869,0|0,0:0|0:0,0:0:0:0:
340,114,92444,5,12,0:3:0:0:
307,160,92532,1,0,0:0:0:0:
252,143,92620,1,0,0:0:0:0:
252,85,92708,1,0,0:0:0:0:
307,67,92797,1,8,0:0:0:0:
272,305,92974,37,0,0:0:0:0:
295,259,93062,1,0,0:0:0:0:
338,233,93150,1,0,0:0:0:0:
388,235,93238,1,0,0:0:0:0:
430,263,93327,6,0,P|420:221|421:194,1,63.7500026553869,12|0,0:3|0:0,0:0:0:0:
340,114,93503,2,0,P|371:122|403:123,1,63.7500026553869,8|0,0:0|0:0,0:0:0:0:
487,84,93679,2,0,P|486:115|478:146,1,63.7500026553869,0|0,0:0|0:0,0:0:0:0:
208,35,93856,38,0,P|194:96|220:154,1,127.500005310774,12|0,0:3|0:0,0:0:0:0:
288,202,94208,1,8,0:0:0:0:
161,211,94385,2,0,P|224:202|288:202,1,127.500005310774,0|0,0:0|0:0,0:0:0:0:
382,145,94738,2,0,P|373:208|372:271,1,127.500005310774,12|8,0:3|0:0,0:0:0:0:
163,263,95091,5,0,0:0:0:0:
162,237,95179,1,0,0:0:0:0:
161,211,95268,1,12,0:3:0:0:
227,313,95444,1,0,0:0:0:0:
100,306,95621,2,0,P|173:307|244:317,1,127.500005310774,8|0,0:0|0:0,0:0:0:0:
342,229,95974,1,0,0:0:0:0:
241,149,96150,37,12,0:3:0:0:
316,354,96327,1,8,0:0:0:0:
463,193,96503,1,0,0:0:0:0:
328,112,96679,5,12,0:3:0:0:
270,99,96768,1,0,0:0:0:0:
241,149,96856,1,0,0:0:0:0:
280,191,96944,1,0,0:0:0:0:
332,169,97032,1,8,0:0:0:0:
327,317,97209,37,0,0:0:0:0:
291,272,97297,1,0,0:0:0:0:
235,258,97385,1,0,0:0:0:0:
178,272,97474,1,0,0:0:0:0:
146,320,97562,6,0,P|149:281|148:251,1,63.7500026553869,12|0,0:3|0:0,0:0:0:0:
16,250,97738,2,0,P|47:274|78:279,1,63.7500026553869,8|0,0:0|0:0,0:0:0:0:
85,131,97915,2,0,P|85:162|82:194,1,63.7500026553869,0|0,0:0|0:0,0:0:0:0:
217,196,98091,37,12,0:3:0:0:
255,152,98180,1,0,0:0:0:0:
226,102,98268,1,0,0:0:0:0:
170,115,98356,1,0,0:0:0:0:
164,171,98444,1,8,0:0:0:0:
394,281,98621,5,0,0:0:0:0:
347,248,98709,1,0,0:0:0:0:
325,195,98797,1,0,0:0:0:0:
343,140,98885,1,0,0:0:0:0:
387,105,98974,38,0,P|352:112|303:109,1,63.7500026553869,12|0,0:3|0:0,0:0:0:0:
226,0,99150,2,0,P|249:26|271:70,1,63.7500026553869,8|0,0:0|0:0,0:0:0:0:
220,193,99327,2,0,P|231:159|258:118,1,63.7500026553869,0|0,0:0|0:0,0:0:0:0:
394,281,99503,6,0,P|335:280|261:287,1,127.500005310774,12|0,0:3|0:0,0:0:0:0:
173,342,99856,1,8,0:0:0:0:
74,172,100032,2,0,P|121:174|168:246,1,127.500005310774,0|0,0:0|0:0,0:0:0:0:
69,382,100385,2,0,P|77:323|82:245,1,127.500005310774,4|8,0:3|0:0,0:0:0:0:
275,151,100738,6,0,P|182:170|170:244,1,170.000000596046,4|8,0:3|0:3,0:0:0:0:
383,345,101091,5,2,0:0:0:0:
386,311,101179,1,2,0:0:0:0:
389,276,101268,1,2,0:0:0:0:
267,14,101444,37,2,0:0:0:0:
271,83,101533,1,2,0:0:0:0:
275,151,101621,1,2,0:0:0:0:
49,186,101797,6,0,P|97:192|128:231,1,63.7500026553869,8|0,0:3|0:0,0:0:0:0:
275,151,101973,2,0,P|229:165|206:209,1,63.7500026553869,8|0,0:0|0:0,0:0:0:0:
140,69,102150,2,0,L|157:164,1,63.7500026553869,0|0,0:0|0:0,0:0:0:0:
255,343,102327,5,12,0:3:0:0:
293,299,102416,1,0,0:0:0:0:
264,249,102504,1,0,0:0:0:0:
208,262,102592,1,0,0:0:0:0:
202,318,102680,1,8,0:0:0:0:
308,178,102856,5,0,0:0:0:0:
347,221,102944,1,0,0:0:0:0:
402,240,103032,1,0,0:0:0:0:
457,222,103121,1,0,0:0:0:0:
494,178,103209,38,0,P|489:206|499:296,1,63.7500026553869,12|0,0:3|0:0,0:0:0:0:
374,89,103385,2,0,P|383:115|437:188,1,63.7500026553869,8|0,0:0|0:0,0:0:0:0:
497,30,103562,2,0,P|487:56|433:129,1,63.7500026553869,0|0,0:0|0:0,0:0:0:0:
243,149,103738,5,12,0:3:0:0:
205,105,103827,1,0,0:0:0:0:
234,55,103915,1,0,0:0:0:0:
290,68,104003,1,0,0:0:0:0:
296,124,104091,1,8,0:0:0:0:
162,218,104268,37,0,0:0:0:0:
199,252,104356,1,0,0:0:0:0:
248,264,104444,1,0,0:0:0:0:
296,249,104532,1,0,0:0:0:0:
332,212,104621,6,0,P|331:249|337:298,1,63.7500026553869,12|0,0:3|0:0,0:0:0:0:
434,334,104797,2,0,P|423:303|419:272,1,63.7500026553869,8|0,0:0|0:0,0:0:0:0:
232,325,104974,2,0,P|242:294|247:263,1,63.7500026553869
394,72,105150,38,0,P|356:122|281:115,1,127.500005310774,12|0,0:3|0:0,0:0:0:0:
243,58,105503,1,8,0:0:0:0:
242,185,105679,2,0,P|246:115|242:51,1,127.500005310774,0|0,0:0|0:0,0:0:0:0:
58,149,106032,2,0,P|96:99|171:106,1,127.500005310774,12|8,0:3|0:0,0:0:0:0:
140,248,106385,5,0,0:0:0:0:
141,222,106473,1,0,0:0:0:0:
142,196,106562,1,12,0:3:0:0:
199,309,106738,1,0,0:0:0:0:
74,296,106915,2,0,P|144:296|215:316,1,127.500005310774,8|0,0:0|0:0,0:0:0:0:
309,212,107268,1,0,0:0:0:0:
199,309,107444,37,12,0:3:0:0:
435,282,107620,1,8,0:0:0:0:
289,94,107797,1,0,0:0:0:0:
136,243,107974,5,12,0:3:0:0:
98,199,108063,1,0,0:0:0:0:
127,149,108151,1,0,0:0:0:0:
183,162,108239,1,0,0:0:0:0:
189,218,108327,1,8,0:0:0:0:
167,349,108503,37,0,0:0:0:0:
207,316,108591,1,0,0:0:0:0:
257,302,108679,1,0,0:0:0:0:
307,315,108767,1,0,0:0:0:0:
343,352,108856,6,0,P|340:298|358:244,1,63.7500026553869,12|0,0:3|0:0,0:0:0:0:
472,281,109032,2,0,P|446:300|417:313,1,63.7500026553869,8|0,0:0|0:0,0:0:0:0:
346,196,109209,2,0,P|371:215|400:228,1,63.7500026553869,0|0,0:0|0:0,0:0:0:0:
469,57,109385,37,12,0:3:0:0:
507,101,109474,1,0,0:0:0:0:
478,151,109562,1,0,0:0:0:0:
422,138,109650,1,0,0:0:0:0:
416,82,109738,1,8,0:0:0:0:
324,105,109915,5,0,0:0:0:0:
283,134,110003,1,0,0:0:0:0:
234,143,110091,1,0,0:0:0:0:
185,133,110179,1,0,0:0:0:0:
142,105,110268,38,0,P|148:142|142:199,1,63.7500026553869,12|0,0:3|0:0,0:0:0:0:
214,280,110444,2,0,P|213:248|219:216,1,63.7500026553869,8|0,0:0|0:0,0:0:0:0:
81,272,110621,2,0,P|109:250|150:252,1,63.7500026553869,0|0,0:0|0:0,0:0:0:0:
77,57,110797,6,0,P|140:65|203:57,1,127.500005310774,12|0,0:3|0:0,0:0:0:0:
259,124,111150,1,8,0:0:0:0:
278,11,111327,2,0,P|245:64|259:124,1,127.500005310774,0|0,0:0|0:0,0:0:0:0:
433,140,111679,2,0,P|397:88|317:92,1,127.500005310774,12|8,0:3|0:0,0:0:0:0:
354,309,112032,38,0,P|351:246|357:159,1,127.500005310774,0|4,0:0|0:0,0:0:0:0:
214,290,112385,5,0,0:3:0:0:
241,214,112562,1,8,0:0:0:0:
207,286,113091,5,0,0:2:0:0:
234,210,113268,1,4,0:2:0:0:
156,225,113444,1,0,0:2:0:0:
159,45,113621,22,0,P|160:114|153:159,1,101.999997244835,8|0,0:3|0:0,0:0:0:0:
251,194,113885,1,0,0:0:0:0:
234,210,113973,2,0,L|229:125,1,50.9999986224174,8|0,0:0|0:0,0:0:0:0:
393,92,114150,2,0,P|325:97|291:151,1,101.999997244835,0|0,0:0|0:0,0:0:0:0:
343,249,114503,1,8,0:3:0:0:
353,259,114591,1,0,0:0:0:0:
363,269,114679,2,0,P|365:181|371:122,1,101.999997244835,8|0,0:0|0:0,0:0:0:0:
464,275,115032,38,0,P|397:266|341:272,1,101.999997244835,8|0,0:3|0:0,0:0:0:0:
281,342,115297,1,0,0:3:0:0:
298,361,115385,2,0,L|290:282,1,50.9999986224174,8|0,0:0|0:0,0:0:0:0:
216,165,115562,2,0,P|222:218|222:266,1,101.999997244835,0|0,0:0|0:0,0:0:0:0:
67,320,115915,1,8,0:3:0:0:
60,308,116003,1,0,0:0:0:0:
53,295,116091,2,0,P|104:258|151:270,1,101.999997244835,8|0,0:0|0:0,0:0:0:0:
110,28,116444,6,0,P|118:104|122:199,1,152.999995867252,8|0,0:3|0:0,0:0:0:0:
222,182,116797,2,0,P|267:187|299:187,1,50.9999986224174,8|0,0:0|0:0,0:0:0:0:
361,166,116974,2,0,P|386:162|411:160,1,50.9999986224174,0|0,0:0|0:0,0:0:0:0:
494,257,117150,37,0,0:0:0:0:
490,266,117238,1,0,0:0:0:0:
486,275,117327,2,0,P|459:261|421:238,1,50.9999986224174,8|0,0:3|0:0,0:0:0:0:
467,364,117503,5,8,0:0:0:0:
460,369,117591,1,0,0:0:0:0:
452,375,117680,2,0,P|436:349|415:310,1,50.9999986224174,0|0,0:0|0:0,0:0:0:0:
487,186,117856,37,8,0:3:0:0:
356,286,118032,1,0,0:0:0:0:
222,182,118209,1,8,0:0:0:0:
47,284,118385,6,0,P|78:333|211:324,1,203.999994489669,0|8,0:0|0:3,0:0:0:0:
310,184,118915,1,8,0:0:0:0:
117,246,119091,1,0,0:0:0:0:
127,256,119179,1,0,0:0:0:0:
137,266,119267,38,0,L|140:120,1,101.999997244835,8|0,0:3|0:0,0:0:0:0:
49,121,119532,1,0,0:0:0:0:
67,110,119621,2,0,L|58:196,1,50.9999986224174,8|0,0:0|0:0,0:0:0:0:
310,184,119797,2,0,P|280:154|203:177,1,101.999997244835,0|0,0:0|0:0,0:0:0:0:
225,313,120150,1,0,0:0:0:0:
235,323,120238,1,0,0:0:0:0:
245,333,120326,2,0,P|247:245|253:186,1,101.999997244835,8|0,0:0|0:0,0:0:0:0:
454,144,120679,6,0,P|372:136|342:93,1,101.999997244835,8|0,0:3|0:0,0:0:0:0:
263,84,120943,1,0,0:0:0:0:
281,73,121032,2,0,L|275:123,1,50.9999986224174,8|0,0:0|0:0,0:0:0:0:
331,284,121209,37,0,0:0:0:0:
296,245,121297,1,0,0:0:0:0:
248,231,121385,1,0,0:0:0:0:
200,246,121473,1,0,0:0:0:0:
167,284,121562,2,0,L|173:234,1,50.9999986224174,8|0,0:3|0:0,0:0:0:0:
93,109,121738,2,0,P|143:104|194:96,1,101.999997244835,8|0,0:0|0:0,0:0:0:0:
281,12,122091,6,0,P|277:58|275:202,1,152.999995867252,8|0,0:3|0:0,0:0:0:0:
277,183,122444,1,8,0:0:0:0:
449,246,122621,2,0,P|455:194|459:141,1,101.999997244835,0|0,0:0|0:0,0:0:0:0:
283,271,122974,2,0,P|286:321|292:372,1,101.999997244835,8|8,0:3|0:0,0:0:0:0:
144,217,123327,1,0,0:0:0:0:
396,32,123503,37,8,0:3:0:0:
344,106,123679,1,0,0:0:0:0:
254,128,123856,1,8,0:0:0:0:
174,85,124032,1,0,3:0:0:0:
128,8,124209,2,0,P|133:48|138:168,1,152.999995867252,8|0,0:3|0:0,0:0:0:0:
81,265,124562,5,10,0:0:0:0:
123,237,124650,1,2,0:0:0:0:
173,235,124738,1,2,0:0:0:0:
216,261,124826,1,2,0:0:0:0:
239,307,124915,38,0,P|238:269|249:160,1,101.999997244835,8|0,0:3|0:0,0:0:0:0:
295,108,125179,1,0,0:0:0:0:
301,127,125268,2,0,L|223:120,1,50.9999986224174,8|0,0:0|0:0,0:0:0:0:
329,255,125444,2,0,P|367:251|435:248,1,101.999997244835,0|0,0:0|0:0,0:0:0:0:
511,98,125797,1,8,0:3:0:0:
499,91,125885,1,0,0:0:0:0:
485,84,125974,2,0,P|448:135|460:182,1,101.999997244835,8|0,0:0|0:0,0:0:0:0:
489,318,126327,6,0,P|463:260|416:247,1,101.999997244835,8|0,0:3|0:0,0:0:0:0:
338,204,126591,1,0,0:0:0:0:
352,190,126679,2,0,L|346:265,1,50.9999986224174,8|0,0:0|0:0,0:0:0:0:
275,354,126856,2,0,P|273:266|267:207,1,101.999997244835,0|0,0:0|0:0,0:0:0:0:
115,210,127209,1,8,0:3:0:0:
108,222,127297,1,0,0:0:0:0:
101,235,127385,2,0,P|152:272|199:260,1,101.999997244835,8|0,0:0|0:0,0:0:0:0:
216,30,127738,38,0,P|218:71|215:203,1,152.999995867252,8|0,0:3|0:0,0:0:0:0:
303,175,128091,2,0,P|345:183|371:193,1,50.9999986224174,8|0,0:0|0:0,0:0:0:0:
444,160,128268,2,0,P|476:187|493:209,1,50.9999986224174,0|0,0:0|0:0,0:0:0:0:
442,292,128444,5,0,0:0:0:0:
432,293,128532,1,0,0:0:0:0:
422,295,128621,2,0,P|417:264|415:220,1,50.9999986224174,8|0,0:3|0:0,0:0:0:0:
313,363,128797,37,8,0:0:0:0:
323,364,128885,1,0,0:0:0:0:
333,366,128974,2,0,P|337:335|339:291,1,50.9999986224174,0|0,0:0|0:0,0:0:0:0:
324,226,129150,5,8,0:3:0:0:
223,356,129327,1,0,0:0:0:0:
67,293,129503,1,8,0:0:0:0:
196,47,129679,38,0,P|197:107|205:271,1,203.999994489669,0|8,0:0|0:3,0:0:0:0:
366,358,130209,1,8,0:0:0:0:
507,198,130385,1,0,0:0:0:0:
509,210,130473,1,0,0:0:0:0:
512,225,130561,6,0,L|397:218,1,101.999997244835,8|0,0:3|0:0,0:0:0:0:
313,140,130827,1,0,0:0:0:0:
300,158,130915,2,0,L|376:156,1,50.9999986224174,8|0,0:0|0:0,0:0:0:0:
439,37,131091,2,0,P|438:82|429:161,1,101.999997244835,0|0,0:0|0:0,0:0:0:0:
275,67,131444,1,8,0:3:0:0:
270,55,131532,1,0,0:0:0:0:
265,41,131620,2,0,P|320:10|365:28,1,101.999997244835,8|0,0:0|0:0,0:0:0:0:
176,16,131974,38,0,L|181:121,1,101.999997244835,8|0,0:3|0:0,0:0:0:0:
283,174,132238,1,0,0:0:0:0:
262,156,132327,2,0,L|258:246,1,50.9999986224174,8|0,0:0|0:0,0:0:0:0:
80,249,132503,5,0,0:0:0:0:
129,232,132591,1,0,0:0:0:0:
178,244,132679,1,0,0:0:0:0:
212,281,132767,1,0,0:0:0:0:
222,331,132856,2,0,L|234:282,1,50.9999986224174,8|0,0:3|0:0,0:0:0:0:
438,197,133032,2,0,P|371:200|319:208,1,101.999997244835,8|0,0:0|0:0,0:0:0:0:
499,276,133385,38,0,P|530:224|478:108,1,152.999995867252,8|0,0:3|0:0,0:0:0:0:
500,123,133738,1,8,0:0:0:0:
346,27,133915,2,0,P|378:22|468:16,1,101.999997244835,0|0,0:0|0:0,0:0:0:0:
239,178,134268,2,0,P|206:173|117:167,1,101.999997244835,8|8,0:3|0:0,0:0:0:0:
389,257,134621,5,8,0:3:0:0:
364,381,134797,1,0,0:0:0:0:
258,366,134974,37,2,0:0:0:0:
265,375,135062,1,2,0:0:0:0:
273,384,135150,2,0,L|273:307,1,50.9999986224174,2|0,0:0|0:0,0:0:0:0:
128,332,135327,5,2,0:0:0:0:
129,343,135415,1,2,0:0:0:0:
131,355,135503,2,0,L|181:295,1,50.9999986224174,2|0,0:0|0:0,0:0:0:0:
60,208,135679,37,2,0:0:0:0:
55,218,135767,1,2,0:0:0:0:
51,229,135855,2,0,L|127:220,1,50.9999986224174,2|0,0:0|0:0,0:0:0:0:
167,31,136032,2,0,L|91:22,1,50.9999986224174,2|0,0:0|0:0,0:0:0:0:
126,132,136209,37,4,0:0:0:0:
126,132,136562,22,0,P|179:125|255:123,1,101.999997244835,8|0,0:0|0:0,0:0:0:0:
435,181,136915,1,0,0:0:0:0:
440,183,137091,1,8,0:3:0:0:
330,0,137268,2,0,P|331:42|349:130,1,101.999997244835,8|0,0:0|0:0,0:0:0:0:
440,183,137621,21,0,0:0:0:0:
440,183,137974,21,8,0:0:0:0:
370,320,138150,2,0,P|323:316|244:316,1,101.999997244835
93,191,138503,1,8,0:3:0:0:
156,367,138679,2,0,P|161:340|175:240,1,101.999997244835,8|0,0:0|0:0,0:0:0:0:
241,86,139032,22,0,P|190:77|139:75,1,101.999997244835,8|0,0:3|0:0,0:0:0:0:
322,13,139385,1,8,0:0:0:0:
278,182,139562,2,0,P|330:141|309:0,1,203.999994489669,0|0,0:0|0:3,0:0:0:0:
476,133,140091,2,0,L|375:121,1,101.999997244835,8|0,0:0|0:0,0:0:0:0:
351,273,140444,22,0,P|386:233|450:242,1,101.999997244835,8|0,0:3|0:0,0:0:0:0:
278,182,140797,1,8,0:0:0:0:
299,382,140974,2,0,P|302:301|274:171,1,203.999994489669,0|8,0:0|0:3,0:0:0:0:
100,192,141503,2,0,P|158:194|201:203,1,101.999997244835,8|0,0:0|0:0,0:0:0:0:
183,303,141856,21,8,0:3:0:0:
183,303,142209,22,0,P|139:298|70:295,1,101.999997244835,8|0,0:0|0:0,0:0:0:0:
115,84,142562,1,0,0:0:0:0:
115,84,142738,1,8,0:3:0:0:
0,204,142915,2,0,P|44:199|113:196,1,101.999997244835,8|0,0:0|0:0,0:0:0:0:
249,24,143268,21,8,0:3:0:0:
249,24,143621,22,0,P|254:53|255:153,1,101.999997244835,8|0,0:0|0:0,0:0:0:0:
321,200,143974,21,0,0:0:0:0:
159,145,144150,1,8,0:3:0:0:
354,70,144327,1,8,0:0:0:0:
239,269,144503,1,0,0:0:0:0:
387,328,144679,22,0,B|388:288|398:216,1,101.999997244835,8|0,0:3|0:0,0:0:0:0:
271,381,145032,1,8,0:0:0:0:
147,205,145209,2,0,B|155:266|156:306,1,101.999997244835,8|0,0:3|0:0,0:0:0:0:
31,113,145562,1,8,0:3:0:0:
258,184,145738,1,8,0:0:0:0:
33,199,146091,21,8,0:3:0:0:
33,199,146268,6,0,P|64:195|91:178,1,63.7500026553869,14|2,0:0|0:0,0:0:0:0:
199,51,146444,2,0,P|186:80|188:111,1,63.7500026553869,10|2,0:3|0:0,0:0:0:0:
243,269,146621,2,0,P|225:243|197:229,1,63.7500026553869,10|2,0:3|0:0,0:0:0:0:
0,194,146797,22,0,P|31:198|61:190,1,63.7500026553869,14|2,0:0|0:0,0:0:0:0:
212,35,146974,2,0,P|192:60|187:91,1,63.7500026553869,10|2,0:3|0:0,0:0:0:0:
232,300,147150,2,0,P|220:270|197:249,1,63.7500026553869,10|2,0:3|0:0,0:0:0:0:
512,306,147503,38,0,P|456:306|385:316,1,106.250000372529,4|0,0:3|0:0,0:0:0:0:
351,139,147856,2,0,P|341:190|354:241,1,106.250000372529,8|0,0:0|0:0,0:0:0:0:
323,354,148209,1,0,0:0:0:0:
140,325,148385,1,8,0:3:0:0:
323,354,148562,1,8,0:0:0:0:
247,254,148915,22,0,P|248:195|253:144,1,106.250000372529,8|0,0:3|0:0,0:0:0:0:
342,5,149268,1,8,0:0:0:0:
342,5,149444,1,0,0:0:0:0:
243,165,149621,2,0,L|114:155,1,106.250000372529
0,40,149974,2,0,P|12:95|16:151,1,106.250000372529,8|0,0:0|0:0,0:0:0:0:
105,369,150327,22,0,P|109:316|120:264,1,106.250000372529,8|0,0:3|0:0,0:0:0:0:
0,234,150680,1,8,0:0:0:0:
230,291,150856,2,0,P|284:294|336:303,1,106.250000372529
245,159,151209,1,8,0:3:0:0:
344,320,151385,1,8,0:0:0:0:
512,229,151562,1,0,0:0:0:0:
450,33,151738,22,0,P|391:37|340:47,1,106.250000372529,8|0,0:3|0:0,0:0:0:0:
96,0,152091,1,8,0:0:0:0:
223,22,152268,2,0,P|219:101|209:149,1,106.250000372529
212,279,152621,1,8,0:3:0:0:
69,150,152797,1,8,0:0:0:0:
313,241,152974,1,0,0:0:0:0:
313,241,153062,1,0,0:0:0:0:
313,241,153150,22,0,P|311:297|316:364,1,106.250000372529,8|0,0:3|0:0,0:0:0:0:
512,260,153503,2,0,P|435:251|390:258,1,106.250000372529,8|0,0:0|0:0,0:0:0:0:
469,137,153856,1,0,0:0:0:0:
283,87,154032,1,0,0:3:0:0:
469,137,154209,1,8,0:0:0:0:
469,137,154562,21,8,0:3:0:0:
345,265,154738,1,0,0:0:0:0:
181,176,154915,1,8,0:0:0:0:
365,277,155091,2,0,P|367:335|362:398,1,106.250000372529
487,250,155444,21,8,0:3:0:0:
239,300,155621,1,8,0:0:0:0:
314,52,155797,1,0,0:0:0:0:
239,300,155974,22,0,P|236:238|225:189,2,106.250000372529,0|0|8,0:0|0:0|0:0,0:0:0:0:
71,150,156503,2,0,B|141:178|189:138|152:126|216:94|269:123,1,212.500000745058
226,194,157032,21,8,0:0:0:0:
377,113,157385,6,0,L|415:111,1,38.2500001341104
349,92,158268,5,8,0:3:0:0:
385,384,158444,1,8,0:0:0:0:
31,11,158797,22,0,P|106:5|152:56,1,127.500005310774,12|0,0:3|0:0,0:0:0:0:
235,91,159062,1,0,0:0:0:0:
209,105,159150,2,0,L|218:30,1,63.7500026553869,8|0,0:0|0:0,0:0:0:0:
86,170,159327,2,0,L|77:95,1,63.7500026553869,0|0,0:0|0:0,0:0:0:0:
256,297,159503,37,0,0:0:0:0:
221,258,159591,1,0,0:0:0:0:
173,244,159679,1,12,0:3:0:0:
125,259,159767,1,0,0:0:0:0:
92,297,159856,2,0,P|93:261|80:137,1,127.500005310774,8|0,0:0|0:0,0:0:0:0:
175,345,160209,5,12,0:3:0:0:
372,246,160385,1,0,0:0:0:0:
364,237,160473,1,0,0:0:0:0:
356,228,160562,2,0,P|358:275|343:306,1,63.7500026553869,8|0,0:0|0:0,0:0:0:0:
268,363,160738,2,0,L|259:294,1,63.7500026553869,0|0,0:0|0:0,0:0:0:0:
107,154,160915,37,0,0:0:0:0:
141,115,161003,1,0,0:0:0:0:
189,101,161091,1,12,0:3:0:0:
237,116,161179,1,0,0:0:0:0:
270,154,161268,2,0,P|246:89|285:11,1,127.500005310774,8|0,0:0|0:0,0:0:0:0:
420,49,161621,6,0,P|331:-3|247:76,1,191.250007966161,12|0,0:3|0:0,0:0:0:0:
173,124,161974,2,0,P|217:114|244:113,1,63.7500026553869,8|0,0:0|0:0,0:0:0:0:
314,168,162150,2,0,P|358:178|385:179,1,63.7500026553869,0|0,0:0|0:0,0:0:0:0:
511,247,162327,37,0,0:0:0:0:
479,208,162415,1,0,0:0:0:0:
466,159,162503,1,12,0:3:0:0:
472,109,162591,1,0,0:0:0:0:
498,65,162680,5,8,0:0:0:0:
459,97,162767,1,0,0:0:0:0:
410,110,162855,1,0,0:0:0:0:
360,104,162943,1,0,0:0:0:0:
316,78,163032,38,0,P|326:155|284:215,1,127.500005310774,12|0,0:3|0:0,0:0:0:0:
149,180,163385,2,0,P|196:179|230:188,1,63.7500026553869,8|0,0:0|0:0,0:0:0:0:
355,372,163562,5,2,0:0:0:0:
355,372,163650,1,2,0:0:0:0:
355,372,163738,38,0,P|354:339|344:305,1,63.7500026553869,2|0,0:0|0:0,0:0:0:0:
430,270,163915,6,0,P|412:241|386:217,1,63.7500026553869,10|0,0:3|0:0,0:0:0:0:
248,333,164091,38,0,P|249:300|259:266,1,63.7500026553869,8|0,0:0|0:0,0:0:0:0:
173,231,164268,6,0,P|190:202|216:178,1,63.7500026553869,8|0,0:3|0:3,0:0:0:0:
480,51,164444,38,0,P|408:39|351:93,1,127.500005310774,12|0,0:3|0:0,0:0:0:0:
301,171,164709,1,0,0:0:0:0:
321,187,164797,2,0,P|316:150|315:114,1,63.7500026553869,8|0,0:0|0:3,0:0:0:0:
241,32,164974,2,0,P|240:63|235:95,1,63.7500026553869,0|0,0:0|0:0,0:0:0:0:
54,223,165150,5,0,0:0:0:0:
77,177,165238,1,0,0:0:0:0:
120,151,165326,1,12,0:3:0:0:
170,153,165414,1,0,0:0:0:0:
212,181,165503,2,0,P|203:259|209:310,1,127.500005310774,8|0,0:0|0:0,0:0:0:0:
430,359,165856,37,12,0:3:0:0:
510,271,166032,1,0,0:0:0:0:
505,260,166120,1,0,0:0:0:0:
501,248,166209,2,0,P|471:255|440:249,1,63.7500026553869,8|0,0:0|0:0,0:0:0:0:
283,252,166385,2,0,P|314:259|345:253,1,63.7500026553869,0|0,0:0|0:0,0:0:0:0:
184,54,166562,5,0,0:0:0:0:
250,17,166650,1,0,0:0:0:0:
325,26,166738,1,12,0:3:0:0:
381,77,166826,1,0,0:0:0:0:
396,151,166915,2,0,P|403:83|417:17,1,127.500005310774,8|0,0:0|0:0,0:0:0:0:
495,209,167268,38,0,P|390:193|344:292,1,191.250007966161,12|0,0:3|0:0,0:0:0:0:
343,270,167621,1,8,0:0:0:0:
237,190,167797,2,0,P|247:250|252:323,1,127.500005310774
52,280,168150,2,0,P|116:306|214:260,1,127.500005310774,12|8,0:3|0:0,0:0:0:0:
127,65,168503,6,0,P|122:126|123:199,1,127.500005310774,0|12,0:0|0:3,0:0:0:0:
251,333,168856,1,0,0:0:0:0:
434,114,169032,1,8,0:0:0:0:
247,206,169209,1,4,0:3:0:0:
467,281,169385,38,0,P|484:307|499:335,1,63.7500026553869,8|0,0:3|0:0,0:0:0:0:
281,277,169562,6,0,P|268:306|250:332,1,63.7500026553869,14|0,0:3|0:0,0:0:0:0:
377,316,169738,38,0,P|380:347|377:379,1,63.7500026553869,8|0,0:0|0:0,0:0:0:0:
245,187,169915,6,0,P|219:205|190:218,1,63.7500026553869,8|0,0:3|0:0,0:0:0:0:
412,9,170091,38,0,P|405:81|412:172,1,127.500005310774,12|0,0:3|0:0,0:0:0:0:
492,227,170356,1,0,0:0:0:0:
501,204,170444,2,0,P|445:209|425:213,1,63.7500026553869,8|0,0:0|0:0,0:0:0:0:
463,355,170621,2,0,L|471:278,1,63.7500026553869,0|0,0:0|0:0,0:0:0:0:
204,287,170797,5,0,0:0:0:0:
246,259,170885,1,0,0:0:0:0:
296,257,170973,1,12,0:3:0:0:
339,283,171061,1,0,0:0:0:0:
362,329,171150,2,0,P|357:268|361:177,1,127.500005310774,8|0,0:0|0:0,0:0:0:0:
391,37,171503,37,12,0:3:0:0:
269,136,171680,1,0,0:0:0:0:
274,147,171768,1,0,0:0:0:0:
279,158,171857,2,0,L|287:73,1,63.7500026553869,8|0,0:0|0:0,0:0:0:0:
190,4,172032,2,0,P|237:11|260:31,1,63.7500026553869,0|0,0:0|0:0,0:0:0:0:
243,253,172209,5,0,0:0:0:0:
197,230,172297,1,0,0:0:0:0:
171,187,172385,1,12,0:3:0:0:
173,137,172473,1,0,0:0:0:0:
201,95,172562,2,0,P|106:112|52:103,1,127.500005310774,8|0,0:0|0:0,0:0:0:0:
27,28,172915,38,0,P|38:116|36:230,1,191.250007966161,12|0,0:3|0:0,0:0:0:0:
0,318,173268,2,0,P|42:308|83:312,1,63.7500026553869,8|0,0:0|0:0,0:0:0:0:
161,308,173444,2,0,P|192:307|223:298,1,63.7500026553869
305,202,173621,5,0,0:0:0:0:
337,241,173709,1,0,0:0:0:0:
350,290,173797,1,12,0:3:0:0:
344,340,173885,1,0,0:0:0:0:
318,384,173974,37,8,0:0:0:0:
357,352,174061,1,0,0:0:0:0:
406,339,174149,1,0,0:0:0:0:
456,345,174237,1,0,0:0:0:0:
500,371,174327,6,0,P|490:294|532:234,1,127.500005310774,12|0,0:3|0:0,0:0:0:0:
365,221,174591,2,0,P|407:222|438:230,1,63.7500026553869,0|8,0:0|0:0,0:0:0:0:
391,69,174856,37,2,0:0:0:0:
391,69,174944,1,2,0:0:0:0:
391,69,175032,6,0,P|392:102|398:138,1,63.7500026553869,2|0,0:0|0:0,0:0:0:0:
242,106,175209,38,0,P|275:105|311:99,1,63.7500026553869,14|0,0:3|0:0,0:0:0:0:
279,252,175385,6,0,P|278:219|272:183,1,63.7500026553869,8|0,0:0|0:0,0:0:0:0:
428,215,175562,38,0,P|395:216|359:222,1,63.7500026553869,8|0,0:3|0:0,0:0:0:0:
190,355,175738,6,0,P|199:290|198:208,1,127.500005310774,12|0,0:3|0:0,0:0:0:0:
153,159,176003,1,0,0:0:0:0:
140,137,176091,2,0,P|170:145|202:145,1,63.7500026553869,8|0,0:0|0:0,0:0:0:0:
273,188,176268,2,0,P|304:188|335:181,1,63.7500026553869,0|0,0:0|0:0,0:0:0:0:
490,95,176444,37,0,0:0:0:0:
448,123,176532,1,0,0:0:0:0:
398,125,176620,1,12,0:3:0:0:
355,99,176708,1,0,0:0:0:0:
332,53,176797,2,0,P|337:114|333:205,1,127.500005310774,8|0,0:0|0:0,0:0:0:0:
436,217,177150,5,12,0:3:0:0:
331,300,177327,1,0,0:0:0:0:
326,311,177415,1,0,0:0:0:0:
321,322,177504,2,0,L|313:237,1,63.7500026553869,8|0,0:0|0:0,0:0:0:0:
239,171,177680,2,0,L|234:234,1,63.7500026553869,0|0,0:0|0:0,0:0:0:0:
0,384,177856,37,0,0:0:0:0:
39,318,177944,1,0,0:0:0:0:
109,289,178032,1,12,0:3:0:0:
183,305,178120,1,0,0:0:0:0:
233,362,178209,2,0,P|231:289|236:220,1,127.500005310774,8|0,0:0|0:0,0:0:0:0:
461,158,178562,6,0,P|378:118|291:151,1,191.250007966161,12|0,0:3|0:0,0:0:0:0:
292,170,178915,1,8,0:0:0:0:
134,125,179091,2,0,P|118:54|113:-8,1,127.500005310774,0|0,0:0|0:0,0:0:0:0:
292,170,179444,2,0,P|285:233|271:295,1,127.500005310774,12|8,0:3|0:0,0:0:0:0:
400,75,179797,1,0,0:0:0:0:
400,309,179974,5,12,0:0:0:0:
134,259,180150,2,0,L|100:258,3,33.9999990816116
400,75,180503,5,12,0:0:0:0:
134,125,180679,2,0,L|100:125,2,33.9999990816116
133,144,180856,6,0,P|168:139|216:152,1,63.7500026553869
292,161,181032,2,0,P|270:133|257:85,1,63.7500026553869,8|0,0:0|0:0,0:0:0:0:
224,13,181209,2,0,P|210:45|175:80,1,63.7500026553869
410,280,181385,5,12,0:3:0:0:
397,225,181473,1,0,0:0:0:0:
383,170,181561,1,0,0:0:0:0:
374,227,181649,1,0,0:0:0:0:
365,285,181738,1,8,0:0:0:0:
251,355,181915,5,0,0:0:0:0:
216,310,182003,1,0,0:0:0:0:
161,295,182091,1,0,0:0:0:0:
106,311,182180,1,0,0:0:0:0:
67,351,182268,38,0,L|78:256,1,63.7500026553869,12|0,0:3|0:0,0:0:0:0:
7,162,182444,2,0,P|7:200|11:243,1,63.7500026553869,8|0,0:0|0:0,0:0:0:0:
158,182,182621,2,0,P|119:182|76:217,1,63.7500026553869,0|0,0:0|0:0,0:0:0:0:
251,355,182797,5,12,0:3:0:0:
309,346,182886,1,0,0:0:0:0:
366,337,182974,1,0,0:0:0:0:
311,323,183062,1,0,0:0:0:0:
256,310,183150,1,8,0:0:0:0:
285,175,183327,37,0,0:0:0:0:
320,220,183415,1,0,0:0:0:0:
375,235,183503,1,0,0:0:0:0:
430,219,183592,1,0,0:0:0:0:
469,179,183679,6,0,P|463:207|465:277,1,63.7500026553869,12|0,0:3|0:0,0:0:0:0:
395,384,183856,2,0,P|393:352|387:321,1,63.7500026553869,8|0,0:0|0:0,0:0:0:0:
232,251,184032,2,0,P|245:276|261:344,1,63.7500026553869,0|0,0:0|0:0,0:0:0:0:
375,235,184209,38,0,P|372:168|373:105,1,127.500005310774,12|0,0:3|0:0,0:0:0:0:
414,23,184562,1,8,0:0:0:0:
299,50,184738,2,0,P|351:16|414:23,1,127.500005310774,0|0,0:0|0:0,0:0:0:0:
230,132,185091,2,0,P|223:79|206:-4,1,127.500005310774,12|8,0:3|0:0,0:0:0:0:
129,255,185444,5,0,0:0:0:0:
130,229,185532,1,0,0:0:0:0:
131,203,185621,1,12,0:3:0:0:
187,309,185797,1,0,0:0:0:0:
62,295,185974,2,0,P|153:299|213:321,1,127.500005310774,8|0,0:0|0:0,0:0:0:0:
318,204,186327,1,0,0:0:0:0:
225,92,186503,37,12,0:3:0:0:
271,343,186679,1,8,0:0:0:0:
464,178,186855,1,0,0:0:0:0:
196,260,187032,5,12,0:3:0:0:
137,266,187121,1,0,0:0:0:0:
80,272,187209,1,0,0:0:0:0:
129,244,187297,1,0,0:0:0:0:
179,217,187385,1,8,0:0:0:0:
142,77,187562,37,0,0:0:0:0:
177,122,187650,1,0,0:0:0:0:
232,137,187738,1,0,0:0:0:0:
287,121,187827,1,0,0:0:0:0:
326,81,187915,6,0,P|322:117|327:171,1,63.7500026553869,12|0,0:3|0:0,0:0:0:0:
463,183,188091,2,0,P|430:165|392:137,1,63.7500026553869,8|0,0:0|0:0,0:0:0:0:
303,254,188268,2,0,P|334:234|377:215,1,63.7500026553869,0|0,0:0|0:0,0:0:0:0:
434,370,188444,37,12,0:3:0:0:
378,363,188532,1,0,0:0:0:0:
321,356,188621,1,0,0:0:0:0:
378,346,188709,1,0,0:0:0:0:
435,336,188797,1,8,0:0:0:0:
503,179,188974,5,0,0:0:0:0:
468,224,189062,1,0,0:0:0:0:
413,239,189150,1,0,0:0:0:0:
358,223,189239,1,0,0:0:0:0:
319,183,189327,38,0,P|313:211|315:281,1,63.7500026553869,12|0,0:3|0:0,0:0:0:0:
239,374,189503,2,0,P|237:342|231:311,1,63.7500026553869,8|0,0:0|0:0,0:0:0:0:
83,251,189679,2,0,P|96:276|112:344,1,63.7500026553869,0|0,0:0|0:0,0:0:0:0:
231,311,189856,6,0,P|210:253|216:178,1,127.500005310774,12|0,0:3|0:0,0:0:0:0:
98,70,190209,1,8,0:0:0:0:
206,166,190385,2,0,P|271:181|331:167,1,127.500005310774
439,132,190738,2,0,P|423:225|438:305,1,127.500005310774,12|8,0:3|0:0,0:0:0:0:
317,346,191091,6,0,P|350:266|431:259,1,170.000000596046,4|8,0:0|0:3,0:0:0:0:
226,92,191444,5,2,0:0:0:0:
191,88,191533,1,2,0:0:0:0:
160,102,191621,1,2,0:0:0:0:
471,181,191797,37,2,0:0:0:0:
512,245,191885,1,2,0:0:0:0:
500,321,191974,1,2,0:0:0:0:
158,240,192150,6,0,P|206:234|237:195,1,63.7500026553869,8|0,0:3|0:0,0:0:0:0:
425,256,192326,2,0,P|379:242|356:198,1,63.7500026553869,8|0,0:0|0:0,0:0:0:0:
284,343,192503,2,0,L|290:248,1,63.7500026553869
293,51,192679,5,12,0:3:0:0:
349,61,192768,1,0,0:0:0:0:
405,70,192856,1,0,0:0:0:0:
348,81,192944,1,0,0:0:0:0:
291,92,193032,1,8,0:0:0:0:
158,240,193209,5,0,0:0:0:0:
193,195,193297,1,0,0:0:0:0:
248,180,193385,1,0,0:0:0:0:
303,196,193474,1,0,0:0:0:0:
342,236,193562,38,0,L|337:142,1,63.7500026553869,12|0,0:3|0:0,0:0:0:0:
463,269,193738,2,0,P|401:304|396:347,1,63.7500026553869,8|0,0:0|0:0,0:0:0:0:
229,292,193915,2,0,P|297:309|313:350,1,63.7500026553869,0|0,0:0|0:0,0:0:0:0:
256,128,194091,5,12,0:3:0:0:
248,72,194179,1,0,0:3:0:0:
240,15,194268,1,0,0:0:0:0:
225,71,194356,1,0,0:3:0:0:
211,127,194444,1,8,0:0:0:0:
27,123,194621,37,0,0:0:0:0:
62,168,194709,1,0,0:0:0:0:
117,183,194797,1,0,0:0:0:0:
172,167,194886,1,0,0:0:0:0:
211,127,194974,6,0,P|203:160|216:226,1,63.7500026553869,12|0,0:3|0:0,0:0:0:0:
307,283,195150,2,0,L|299:204,1,63.7500026553869,8|0,0:0|0:0,0:0:0:0:
362,109,195327,2,0,P|378:138|382:205,1,63.7500026553869,0|0,0:0|0:0,0:0:0:0:
244,330,195503,38,0,P|316:321|371:392,1,127.500005310774,12|0,0:3|0:0,0:0:0:0:
479,301,195856,1,8,0:0:0:0:
384,167,196032,2,0,B|413:199|413:199|393:302,1,127.500005310774
244,330,196385,2,0,P|180:333|118:346,1,127.500005310774,12|8,0:3|0:0,0:0:0:0:
165,184,196738,5,0,0:0:0:0:
166,158,196827,1,0,0:0:0:0:
167,132,196915,1,12,0:3:0:0:
227,241,197091,1,0,0:0:0:0:
99,237,197268,2,0,P|163:233|249:247,1,127.500005310774,8|0,0:0|0:0,0:0:0:0:
334,169,197621,1,0,0:0:0:0:
332,49,197797,37,12,0:3:0:0:
449,238,197974,1,8,0:0:0:0:
227,241,198150,1,0,0:0:0:0:
387,381,198327,5,12,0:3:0:0:
443,373,198415,1,0,0:0:0:0:
500,365,198504,1,0,0:0:0:0:
444,350,198591,1,0,0:0:0:0:
388,336,198680,1,8,0:0:0:0:
494,273,198856,37,0,0:0:0:0:
449,238,198944,1,0,0:0:0:0:
434,183,199032,1,0,0:0:0:0:
450,128,199121,1,0,0:0:0:0:
490,89,199209,6,0,P|453:98|395:100,1,63.7500026553869,12|0,0:3|0:0,0:0:0:0:
309,0,199385,2,0,P|335:27|366:76,1,63.7500026553869,8|0,0:0|0:0,0:0:0:0:
326,202,199562,2,0,P|336:165|363:114,1,63.7500026553869,0|0,0:0|0:0,0:0:0:0:
144,137,199738,37,12,0:3:0:0:
155,81,199827,1,0,0:0:0:0:
166,25,199915,1,0,0:0:0:0:
179,81,200003,1,0,0:0:0:0:
192,137,200091,1,8,0:0:0:0:
251,301,200268,5,0,0:0:0:0:
216,256,200356,1,0,0:0:0:0:
161,241,200444,1,0,0:0:0:0:
106,257,200533,1,0,0:0:0:0:
67,297,200621,38,0,P|73:259|62:205,1,63.7500026553869,12|0,0:3|0:0,0:0:0:0:
19,140,200797,2,0,P|63:152|100:147,1,63.7500026553869,8|0,0:0|0:0,0:0:0:0:
72,3,200974,2,0,P|66:41|77:95,1,63.7500026553869,0|0,0:0|0:0,0:0:0:0:
192,137,201150,6,0,P|254:178|314:145,1,127.500005310774,12|0,0:3|0:0,0:0:0:0:
351,103,201503,1,8,0:0:0:0:
342,231,201679,2,0,P|343:167|351:104,1,127.500005310774,0|0,0:0|0:0,0:0:0:0:
512,248,202032,2,0,P|488:196|400:209,1,127.500005310774,12|8,0:3|0:0,0:0:0:0:
223,370,202385,38,0,P|218:265|215:228,1,127.500005310774,0|12,0:0|0:3,0:0:0:0:
280,125,202738,5,0,0:0:0:0:
307,49,202915,1,8,0:0:0:0:
274,119,203444,5,0,0:0:0:0:
301,43,203621,1,4,0:0:0:0:
223,58,203797,1,0,0:0:0:0:
227,68,203974,5,6,0:3:0:0:
476,295,215268,6,0,L|381:295,1,85.000000298023,8|0,0:0|0:0,0:0:0:0:
275,348,215621,1,8,0:3:0:0:
330,139,215797,1,8,0:3:0:0:
334,161,215885,1,8,0:3:0:0:
338,183,215973,1,8,0:3:0:0:
342,204,216062,1,8,0:3:0:0:
346,225,216150,1,8,0:0:0:0:
409,64,216326,1,0,0:0:0:0:
218,29,216503,21,8,0:3:0:0:
218,29,216591,1,8,0:3:0:0:
218,29,216679,2,0,L|303:29,1,85.000000298023,8|0,0:0|0:0,0:0:0:0:
228,197,217032,1,0,0:0:0:0:
69,101,217209,1,8,0:3:0:0:
90,103,217297,1,8,0:3:0:0:
112,105,217385,1,8,0:3:0:0:
134,107,217473,1,8,0:3:0:0:
156,109,217562,1,8,0:0:0:0:
23,225,217738,1,0,0:0:0:0:
134,299,217915,21,8,0:3:0:0:
134,299,218003,1,8,0:3:0:0:
134,299,218091,2,0,P|121:251|125:205,1,85.000000298023,8|0,0:3|0:0,0:0:0:0:
196,110,218444,1,8,0:3:0:0:
3,159,218621,1,8,0:3:0:0:
91,49,218797,1,8,0:3:0:0:
94,71,218885,1,8,0:3:0:0:
98,93,218973,1,8,0:3:0:0:
102,115,219061,1,8,0:3:0:0:
106,136,219150,1,8,0:0:0:0:
267,210,219327,21,8,0:3:0:0:
267,210,219415,1,8,0:3:0:0:
267,210,219503,2,0,L|168:217,1,85.000000298023,8|0,0:0|0:0,0:0:0:0:
332,291,219856,1,8,0:0:0:0:
421,133,220032,2,0,L|337:128,1,85.000000298023,8|0,0:0|0:0,0:0:0:0:
465,274,220385,21,8,0:0:0:0:
272,344,220562,1,0,0:0:0:0:
176,136,220738,1,0,0:0:0:0:
8,266,220915,21,8,0:0:0:0:
8,266,221091,1,0,0:0:0:0:
90,123,221268,21,8,0:0:0:0:
90,123,221444,1,0,0:0:0:0:
151,350,221621,21,8,0:0:0:0:
151,350,221797,1,0,0:0:0:0:
235,206,221974,21,8,0:0:0:0:
235,206,222150,1,0,0:0:0:0:
0,147,222327,21,8,0:0:0:0:
216,120,222503,1,0,0:0:0:0:
27,362,222679,1,8,0:0:0:0:
242,335,222856,1,0,0:0:0:0:
153,23,223032,21,8,0:0:0:0:
425,80,223209,1,0,0:0:0:0:
94,295,223385,1,8,0:0:0:0:
368,354,223562,1,0,0:0:0:0:
315,75,223738,5,8,0:0:0:0:
291,65,223827,1,0,0:0:0:0:
266,59,223915,1,0,0:0:0:0:
240,57,224003,1,0,0:0:0:0:
178,105,224091,37,8,0:0:0:0:
193,137,224179,1,0,0:0:0:0:
224,154,224268,1,0,0:0:0:0:
259,159,224356,1,0,0:0:0:0:
340,163,224444,5,8,0:0:0:0:
319,209,224532,1,0,0:0:0:0:
274,234,224621,1,8,0:0:0:0:
223,236,224709,1,0,0:0:0:0:
146,245,224797,37,8,0:0:0:0:
188,308,224885,1,0,0:0:0:0:
258,339,224974,1,8,0:0:0:0:
332,324,225062,1,8,0:0:0:0:
389,274,225150,5,4,0:3:0:0:
389,155,225327,1,2,0:0:0:0:
389,155,225415,1,2,0:0:0:0:
389,155,225503,2,0,L|391:87,1,50.9999986224174,10|0,0:0|0:0,0:0:0:0:
471,71,225679,37,2,0:0:0:0:
433,36,225768,1,2,0:0:0:0:
382,26,225857,1,10,0:0:0:0:
334,43,225945,1,2,0:0:0:0:
304,84,226032,6,0,P|296:123|300:169,1,63.7500026553869,2|0,0:0|0:0,0:0:0:0:
153,42,226209,2,0,B|266:63|217:-19|332:0,1,191.250007966161,8|0,0:0|0:0,0:0:0:0:
227,343,226562,38,0,P|231:293|228:213,1,127.500005310774,12|0,0:3|0:0,0:0:0:0:
123,184,226827,1,0,0:0:0:0:
139,170,226915,2,0,L|151:265,1,63.7500026553869,8|0,0:0|0:0,0:0:0:0:
380,239,227091,1,0,0:0:0:0:
375,250,227179,1,0,0:0:0:0:
370,261,227268,38,0,P|341:239|293:239,1,63.7500026553869
374,98,227444,2,0,P|371:124|369:170,1,63.7500026553869,12|0,0:3|0:0,0:0:0:0:
232,116,227621,2,0,P|274:129|294:175,1,63.7500026553869,8|0,0:0|0:0,0:0:0:0:
505,147,227797,2,0,P|461:153|433:195,1,63.7500026553869
376,354,227974,6,0,P|303:348|213:353,1,127.500005310774,12|0,0:3|0:0,0:0:0:0:
156,285,228238,1,0,0:0:0:0:
176,267,228327,2,0,L|170:349,1,63.7500026553869,8|0,0:0|0:0,0:0:0:0:
22,339,228503,1,0,0:0:0:0:
27,350,228591,1,0,0:0:0:0:
32,361,228679,38,0,P|70:353|129:357,1,63.7500026553869
0,245,228856,2,0,P|36:257|86:290,1,63.7500026553869,12|0,0:3|0:0,0:0:0:0:
13,125,229032,2,0,P|38:153|64:207,1,63.7500026553869,8|0,0:0|0:0,0:0:0:0:
93,34,229209,2,0,P|101:71|97:130,1,63.7500026553869,0|0,0:0|0:0,0:0:0:0:
438,122,229385,6,0,P|362:133|306:91,1,127.500005310774,12|0,3:0|0:0,0:0:0:0:
238,44,229650,1,0,0:0:0:0:
238,44,229738,38,0,P|244:72|243:107,1,63.7500026553869,8|0,0:0|0:0,0:0:0:0:
165,190,229915,1,0,0:0:0:0:
170,201,230003,1,0,0:0:0:0:
175,212,230092,6,0,P|204:190|252:190,1,63.7500026553869,0|0,0:0|0:0,0:0:0:0:
434,245,230268,2,0,P|415:219|387:205,1,63.7500026553869,12|0,0:3|0:0,0:0:0:0:
329,45,230444,2,0,L|319:108,1,63.7500026553869,8|0,0:0|0:0,0:0:0:0:
298,251,230621,2,0,L|307:187,1,63.7500026553869
45,128,230797,38,0,P|74:119|120:119,1,63.7500026553869,12|0,0:3|0:0,0:0:0:0:
36,20,230974,2,0,P|44:49|44:95,1,63.7500026553869,0|0,0:0|0:0,0:0:0:0:
144,10,231150,2,0,P|114:18|68:18,1,63.7500026553869,8|0,0:0|0:0,0:0:0:0:
153,119,231327,2,0,P|144:89|144:43,1,63.7500026553869,0|0,0:0|0:0,0:0:0:0:
51,121,231503,5,0,0:0:0:0:
43,26,231679,1,12,0:3:0:0:
138,17,231856,1,8,0:0:0:0:
146,113,232032,1,0,0:0:0:0:
463,93,232209,38,0,P|420:124|328:88,1,127.500005310774,12|0,0:3|0:0,0:0:0:0:
248,82,232474,1,0,0:0:0:0:
266,65,232562,2,0,L|273:157,1,63.7500026553869,8|0,0:0|0:0,0:0:0:0:
300,245,232738,1,0,0:0:0:0:
311,250,232826,1,0,0:0:0:0:
322,255,232915,6,0,L|326:191,1,63.7500026553869,0|0,0:0|0:0,0:0:0:0:
460,271,233091,2,0,P|435:246|387:244,1,63.7500026553869,12|0,0:3|0:0,0:0:0:0:
402,383,233268,2,0,L|397:319,1,63.7500026553869,8|0,0:0|0:0,0:0:0:0:
254,346,233444,2,0,L|327:336,1,63.7500026553869,0|0,0:0|0:0,0:0:0:0:
119,384,233621,38,0,P|119:331|112:237,1,127.500005310774,12|0,0:3|0:0,0:0:0:0:
46,169,233885,1,0,0:0:0:0:
36,193,233974,2,0,L|118:179,1,63.7500026553869,8|0,0:0|0:0,0:0:0:0:
175,59,234150,1,0,0:0:0:0:
164,54,234238,1,0,0:0:0:0:
153,49,234327,6,0,P|153:73|148:112,1,63.7500026553869,0|0,0:0|0:0,0:0:0:0:
235,189,234503,2,0,L|230:123,1,63.7500026553869,12|0,0:3|0:0,0:0:0:0:
287,36,234679,2,0,P|293:59|308:96,1,63.7500026553869,8|0,0:0|0:0,0:0:0:0:
392,270,234856,37,0,0:0:0:0:
98,182,235032,1,12,0:3:0:0:
424,130,235209,5,0,0:0:0:0:
176,307,235385,1,8,0:0:0:0:
512,345,235562,37,2,0:0:0:0:
501,340,235650,1,2,0:0:0:0:
490,335,235738,2,0,B|502:216,1,85.000000298023,2|0,0:0|0:0,0:0:0:0:
308,96,235915,2,0,B|317:180,1,85.000000298023,14|0,3:0|0:0,0:0:0:0:
392,269,236091,5,10,0:0:0:0:
377,358,236268,1,0,0:0:0:0:
503,138,236444,38,0,P|474:129|428:129,1,63.7500026553869,12|0,0:3|0:0,0:0:0:0:
512,30,236621,2,0,P|504:59|504:105,1,63.7500026553869,0|0,0:0|0:0,0:0:0:0:
404,20,236797,2,0,P|434:28|480:28,1,63.7500026553869,8|0,0:0|0:0,0:0:0:0:
395,129,236974,2,0,P|404:99|404:53,1,63.7500026553869,0|0,0:0|0:0,0:0:0:0:
497,131,237150,5,0,0:0:0:0:
505,36,237326,1,12,0:3:0:0:
410,27,237503,1,8,0:0:0:0:
402,123,237679,1,0,0:0:0:0:
104,49,237856,38,0,P|167:111|220:97,1,127.500005310774,12|0,0:3|0:0,0:0:0:0:
289,76,238121,1,0,0:0:0:0:
272,59,238209,2,0,L|281:147,1,63.7500026553869,8|0,0:0|0:0,0:0:0:0:
173,210,238385,1,0,0:0:0:0:
168,199,238473,1,0,0:0:0:0:
163,188,238562,6,0,P|203:190|231:186,1,63.7500026553869,0|0,0:0|0:0,0:0:0:0:
420,135,238738,2,0,P|379:132|351:136,1,63.7500026553869,12|0,0:3|0:0,0:0:0:0:
312,267,238915,2,0,L|303:179,1,63.7500026553869,8|0,0:0|0:0,0:0:0:0:
272,59,239091,2,0,L|281:147,1,63.7500026553869,0|0,0:0|0:0,0:0:0:0:
497,249,239268,38,0,P|429:306|368:288,1,127.500005310774,12|0,0:3|0:0,0:0:0:0:
299,291,239532,1,0,0:0:0:0:
312,267,239621,2,0,L|324:341,1,63.7500026553869,8|0,0:0|0:0,0:0:0:0:
158,274,239797,1,0,0:0:0:0:
163,285,239885,1,0,0:0:0:0:
168,296,239974,6,0,P|197:277|250:279,1,63.7500026553869,0|0,0:0|0:0,0:0:0:0:
95,360,240150,2,0,L|82:280,1,63.7500026553869,12|0,0:3|0:0,0:0:0:0:
37,207,240327,2,0,P|79:208|112:240,1,63.7500026553869,8|0,0:0|0:0,0:0:0:0:
181,200,240503,2,0,L|168:120,1,63.7500026553869,0|0,0:0|0:0,0:0:0:0:
104,83,240679,38,0,P|169:97|235:31,1,127.500005310774,12|0,0:3|0:0,0:0:0:0:
446,164,241032,2,0,P|381:178|315:112,1,127.500005310774,8|0,0:0|0:0,0:0:0:0:
114,273,241385,2,0,P|177:252|201:162,1,127.500005310774,0|12,0:0|0:3,0:0:0:0:
403,359,241738,2,0,P|339:338|315:248,1,127.500005310774,8|0,0:0|0:0,0:0:0:0:
21,170,242091,6,0,B|165:205|104:84|249:120,1,246.50000838685,12|8,0:3|0:0,0:0:0:0:
293,19,242621,2,0,P|285:64|280:226,1,203.999994489669,4|8,0:3|0:3,0:0:0:0:
331,316,243062,1,0,0:0:0:0:
339,302,243150,2,0,L|210:307,1,101.999997244835,12|0,0:0|0:0,0:0:0:0:
387,214,243503,37,12,0:3:0:0:
184,148,243679,1,0,0:0:0:0:
467,45,243856,1,8,0:0:0:0:
339,302,244032,1,0,0:0:0:0:
142,64,244209,5,0,0:0:0:0:
220,240,244385,1,12,0:3:0:0:
378,129,244562,2,0,L|257:125,1,101.999997244835,8|0,0:0|0:0,0:0:0:0:
338,302,244915,37,12,0:3:0:0:
476,263,245092,1,0,0:0:0:0:
312,212,245268,1,8,0:0:0:0:
381,369,245445,1,0,0:0:0:0:
217,320,245621,5,0,0:0:0:0:
220,340,245797,1,12,0:3:0:0:
223,360,245974,1,8,0:0:0:0:
226,379,246150,1,0,0:0:0:0:
464,311,246327,6,0,L|402:307,3,31.8750013276934,12|0|0|0,0:3|0:0|0:0|0:0,0:0:0:0:
329,244,246679,6,0,L|393:239,5,42.5000001490115,8|0|0|0|0|0,0:0|0:0|0:0|0:0|0:0|0:0,0:0:0:0:
442,185,247209,38,0,L|434:107,1,63.7500026553869,8|0,3:0|0:0,0:0:0:0:
492,7,247385,6,0,P|425:92|303:10,1,223.125002910196,12|0,0:0|0:0,0:0:0:0:
185,65,247738,37,12,0:0:0:0:
373,324,247915,2,0,L|378:271,3,42.5000017702579,0|0|0|0,0:0|0:0|0:0|0:0,0:0:0:0:
327,65,248268,5,8,0:0:0:0:
139,324,248445,2,0,L|134:271,2,42.5000017702579,0|0|0,0:0|0:0|0:0,0:0:0:0:
125,353,248621,6,0,L|200:346,1,50.9999986224174,0|0,0:0|0:0,0:0:0:0:
317,213,248797,2,0,L|242:206,1,50.9999986224174,8|0,0:0|0:0,0:0:0:0:
118,94,248974,2,0,L|193:87,1,50.9999986224174,0|0,0:0|0:0,0:0:0:0:
415,94,249150,21,12,0:3:0:0:
382,140,249238,1,0,0:0:0:0:
327,123,249326,1,0,0:0:0:0:
327,65,249414,1,0,0:0:0:0:
382,47,249503,1,8,0:0:0:0:
317,213,249680,37,0,0:0:0:0:
282,258,249768,1,0,0:0:0:0:
227,273,249856,1,0,0:0:0:0:
172,257,249945,1,0,0:0:0:0:
133,217,250032,6,0,L|144:312,1,63.7500026553869,12|0,0:3|0:0,0:0:0:0:
0,193,250209,2,0,P|28:178|69:190,1,63.7500026553869,8|0,0:0|0:0,0:0:0:0:
222,185,250385,2,0,L|230:121,1,63.7500026553869,0|0,0:0|0:0,0:0:0:0:
313,44,250562,37,12,0:3:0:0:
368,57,250650,1,0,0:0:0:0:
423,71,250738,1,0,0:0:0:0:
366,80,250826,1,0,0:0:0:0:
308,89,250915,1,8,0:0:0:0:
77,192,251092,5,0,0:0:0:0:
117,152,251180,1,0,0:0:0:0:
173,140,251268,1,0,0:0:0:0:
230,149,251356,1,0,0:0:0:0:
269,193,251445,38,0,L|336:188,1,63.7500026553869,12|0,0:3|0:0,0:0:0:0:
461,178,251621,2,0,P|440:156|395:147,1,63.7500026553869,8|0,0:0|0:0,0:0:0:0:
368,332,251797,2,0,P|366:319|369:268,1,63.7500026553869,0|0,0:0|0:0,0:0:0:0:
191,361,251974,6,0,P|193:296|189:231,1,127.500005310774,12|0,0:3|0:0,0:0:0:0:
230,149,252327,1,8,0:0:0:0:
115,176,252503,2,0,P|167:142|230:149,1,127.500005310774,0|0,0:0|0:0,0:0:0:0:
45,251,252856,2,0,P|38:198|21:115,1,127.500005310774,12|8,0:3|0:0,0:0:0:0:
229,148,253209,37,0,0:0:0:0:
228,122,253297,1,0,0:0:0:0:
227,96,253386,1,12,0:3:0:0:
284,21,253562,1,0,0:0:0:0:
168,30,253739,2,0,P|227:47|283:20,1,127.500005310774,8|0,0:0|0:0,0:0:0:0:
402,186,254092,1,0,0:0:0:0:
508,56,254268,5,12,0:3:0:0:
228,122,254444,1,8,0:0:0:0:
430,325,254621,1,0,0:0:0:0:
129,329,254797,37,12,0:3:0:0:
74,311,254886,1,0,0:0:0:0:
74,253,254974,1,0,0:0:0:0:
129,236,255062,1,0,0:0:0:0:
162,282,255150,1,8,0:0:0:0:
248,355,255327,5,0,0:0:0:0:
284,310,255415,1,0,0:0:0:0:
340,296,255503,1,0,0:0:0:0:
397,310,255592,1,0,0:0:0:0:
429,358,255680,38,0,L|422:270,1,63.7500026553869,12|0,0:3|0:0,0:0:0:0:
345,234,255856,2,0,P|336:264|340:298,1,63.7500026553869,8|0,0:0|0:0,0:0:0:0:
496,227,256032,2,0,P|510:254|512:289,1,63.7500026553869,0|0,0:0|0:0,0:0:0:0:
358,57,256209,5,12,0:3:0:0:
303,70,256297,1,0,0:0:0:0:
248,84,256385,1,0,0:0:0:0:
305,93,256473,1,0,0:0:0:0:
363,102,256562,1,8,0:0:0:0:
114,66,256738,37,0,0:0:0:0:
161,99,256827,1,0,0:0:0:0:
183,152,256915,1,0,0:0:0:0:
165,207,257003,1,0,0:0:0:0:
120,244,257091,6,0,P|157:237|205:247,1,63.7500026553869,12|0,0:3|0:0,0:0:0:0:
191,381,257268,2,0,P|184:345|151:305,1,63.7500026553869,8|0,0:0|0:0,0:0:0:0:
290,243,257444,2,0,P|262:267|244:315,1,63.7500026553869,0|0,0:0|0:0,0:0:0:0:
422,384,257621,38,0,P|371:310|299:318,1,127.500005310774,12|0,0:3|0:0,0:0:0:0:
191,381,257974,1,8,0:0:0:0:
117,117,258150,2,0,P|123:181|117:260,1,127.500005310774,0|0,0:0|0:0,0:0:0:0:
323,151,258503,2,0,P|248:154|201:241,1,127.500005310774,12|8,0:3|0:0,0:0:0:0:
398,325,258856,38,0,P|305:306|293:232,1,170.000000596046,0|4,0:0|0:3,0:0:0:0:
446,100,259209,37,2,0:0:0:0:
443,133,259297,1,2,0:0:0:0:
438,167,259386,1,2,0:0:0:0:
220,325,259562,5,2,0:0:0:0:
216,257,259650,1,2,0:0:0:0:
212,188,259739,1,2,0:0:0:0:
117,1,259915,38,0,P|94:22|38:46,1,63.7500026553869,8|0,0:3|0:0,0:0:0:0:
205,101,260091,2,0,P|198:70|205:10,1,63.7500026553869,8|0,0:0|0:0,0:0:0:0:
77,125,260268,2,0,P|106:134|155:170,1,63.7500026553869,8|0,0:3|0:3,0:3:0:0:
416,59,260444,21,12,0:3:0:0:
454,103,260532,1,0,0:0:0:0:
425,153,260622,1,0,0:0:0:0:
369,140,260710,1,0,0:0:0:0:
363,84,260798,1,8,0:0:0:0:
512,299,260974,5,0,0:0:0:0:
473,257,261062,1,0,0:0:0:0:
418,238,261150,1,0,0:0:0:0:
363,256,261239,1,0,0:0:0:0:
326,300,261327,38,0,P|325:264|328:233,1,63.7500026553869,12|0,0:3|0:0,0:0:0:0:
247,131,261503,2,0,L|225:227,1,63.7500026553869,8|0,0:0|0:0,0:0:0:0:
102,236,261679,2,0,P|120:205|133:176,1,63.7500026553869,0|0,0:0|0:0,0:0:0:0:
216,327,261856,5,12,0:3:0:0:
271,314,261944,1,0,0:0:0:0:
326,300,262032,1,0,0:0:0:0:
269,291,262120,1,0,0:0:0:0:
211,282,262209,1,8,0:0:0:0:
414,262,262385,37,0,0:0:0:0:
380,225,262474,1,0,0:0:0:0:
368,176,262562,1,0,0:0:0:0:
383,128,262650,1,0,0:0:0:0:
420,93,262739,6,0,P|395:96|334:77,1,63.7500026553869,12|0,0:3|0:0,0:0:0:0:
279,0,262915,2,0,L|273:64,1,63.7500026553869,8|0,0:0|0:0,0:0:0:0:
497,12,263092,2,0,L|503:75,1,63.7500026553869,0|0,0:0|0:0,0:0:0:0:
414,262,263268,38,0,L|227:247,1,127.500005310774,12|0,0:3|0:0,0:0:0:0:
120,162,263621,1,8,0:0:0:0:
279,0,263797,2,0,L|289:133,1,127.500005310774,0|0,0:0|0:0,0:0:0:0:
111,289,264150,2,0,L|120:161,1,127.500005310774,12|8,0:3|0:0,0:0:0:0:
329,285,264503,5,0,0:0:0:0:
303,286,264592,1,0,0:0:0:0:
277,287,264680,1,12,0:3:0:0:
376,219,264856,1,0,0:0:0:0:
381,346,265033,2,0,P|373:285|379:204,1,127.500005310774,8|0,0:0|0:0,0:0:0:0:
222,85,265386,1,0,0:0:0:0:
345,4,265562,37,12,0:3:0:0:
214,228,265738,1,8,0:0:0:0:
88,4,265914,1,0,0:0:0:0:
72,293,266091,5,12,0:3:0:0:
34,249,266179,1,0,0:0:0:0:
63,199,266269,1,0,0:0:0:0:
119,212,266357,1,0,0:0:0:0:
125,268,266445,1,8,0:0:0:0:
25,70,266621,37,0,0:0:0:0:
65,103,266709,1,0,0:0:0:0:
115,117,266797,1,0,0:0:0:0:
165,104,266885,1,0,0:0:0:0:
201,67,266974,6,0,P|239:60|294:81,1,63.7500026553869,12|0,0:3|0:0,0:0:0:0:
309,188,267150,2,0,L|333:109,1,63.7500026553869,8|0,0:0|0:0,0:0:0:0:
468,144,267327,2,0,P|444:122|415:110,1,63.7500026553869,0|0,0:0|0:0,0:0:0:0:
339,355,267503,37,12,0:3:0:0:
282,344,267591,1,0,0:0:0:0:
227,330,267679,1,0,0:0:0:0:
284,321,267767,1,0,0:0:0:0:
343,311,267856,1,8,0:0:0:0:
309,188,268032,5,0,0:0:0:0:
260,220,268121,1,0,0:0:0:0:
211,229,268209,1,0,0:0:0:0:
162,219,268297,1,0,0:0:0:0:
119,191,268386,38,0,P|126:231|128:283,1,63.7500026553869,12|0,0:3|0:0,0:0:0:0:
138,357,268562,2,0,P|169:330|213:303,1,63.7500026553869,8|0,0:0|0:0,0:0:0:0:
270,252,268738,2,0,P|231:238|185:213,1,63.7500026553869,0|0,0:0|0:0,0:0:0:0:
206,0,268915,6,0,P|210:50|210:134,1,127.500005310774,12|0,0:3|0:0,0:0:0:0:
390,111,269268,1,8,0:0:0:0:
290,161,269445,2,0,P|337:109|424:139,1,127.500005310774,0|0,0:0|0:0,0:0:0:0:
373,324,269797,2,0,P|374:285|370:196,1,127.500005310774,12|8,0:3|0:0,0:0:0:0:
116,76,270150,38,0,P|112:139|113:203,1,127.500005310774,0|12,0:0|0:3,0:0:0:0:
242,319,270503,5,0,0:0:0:0:
269,243,270680,1,12,0:0:0:0:
236,315,271209,5,0,0:0:0:0:
263,239,271386,1,4,0:0:0:0:
185,254,271562,1,0,0:0:0:0:
341,224,271738,22,0,P|340:155|347:110,1,101.999997244835,8|0,0:3|0:0,0:0:0:0:
249,75,272002,1,0,0:0:0:0:
266,59,272090,2,0,L|271:144,1,50.9999986224174,8|0,0:0|0:0,0:0:0:0:
107,177,272267,2,0,P|175:172|209:118,1,101.999997244835
157,20,272620,1,8,0:3:0:0:
147,10,272708,1,0,0:0:0:0:
137,0,272797,2,0,P|135:88|128:151,1,101.999997244835,8|0,0:0|0:0,0:0:0:0:
39,268,273150,38,0,P|106:259|162:265,1,101.999997244835,8|0,0:3|0:0,0:0:0:0:
222,335,273414,1,0,0:0:0:0:
205,354,273502,2,0,L|213:275,1,50.9999986224174,8|0,0:0|0:0,0:0:0:0:
287,158,273679,2,0,P|281:211|281:259,1,101.999997244835,0|0,0:0|0:0,0:0:0:0:
436,313,274032,1,8,0:3:0:0:
443,301,274120,1,0,0:0:0:0:
450,288,274208,2,0,P|399:251|352:263,1,101.999997244835,8|0,0:0|0:0,0:0:0:0:
428,22,274562,6,0,P|420:98|416:193,1,152.999995867252,8|0,0:3|0:0,0:0:0:0:
316,176,274914,2,0,P|271:181|239:181,1,50.9999986224174,8|0,0:0|0:0,0:0:0:0:
179,168,275091,2,0,P|154:164|129:162,1,50.9999986224174
69,269,275267,37,0,0:0:0:0:
76,274,275355,1,0,0:0:0:0:
84,280,275444,2,0,L|92:206,1,50.9999986224174,8|0,0:3|0:0,0:0:0:0:
196,305,275621,5,8,0:0:0:0:
189,310,275709,1,0,0:0:0:0:
181,316,275798,2,0,L|173:242,1,50.9999986224174,0|0,0:0|0:0,0:0:0:0:
46,163,275973,37,8,0:3:0:0:
175,265,276150,1,0,0:0:0:0:
301,150,276326,1,8,0:0:0:0:
512,290,276503,6,0,P|481:339|348:330,1,203.999994489669,0|0,0:0|0:3,0:0:0:0:
238,186,277032,1,8,0:0:0:0:
440,251,277208,1,0,0:0:0:0:
430,261,277296,1,0,0:0:0:0:
420,271,277385,38,0,L|417:125,1,101.999997244835,8|0,0:3|0:0,0:0:0:0:
509,101,277649,1,0,0:0:0:0:
491,90,277738,2,0,L|500:176,1,50.9999986224174,8|0,0:0|0:0,0:0:0:0:
256,165,277914,2,0,P|286:135|363:158,1,101.999997244835,0|0,0:0|0:0,0:0:0:0:
343,296,278267,1,8,0:3:0:0:
333,306,278355,1,0,0:0:0:0:
323,316,278444,2,0,P|321:228|315:169,1,101.999997244835,8|0,0:0|0:0,0:0:0:0:
79,152,278797,6,0,P|161:144|191:101,1,101.999997244835,8|0,0:3|0:0,0:0:0:0:
270,92,279062,1,0,0:0:0:0:
252,81,279150,2,0,L|258:131,1,50.9999986224174,8|0,0:0|0:0,0:0:0:0:
202,292,279327,37,0,0:0:0:0:
237,253,279415,1,0,0:0:0:0:
285,239,279503,1,0,0:0:0:0:
333,254,279591,1,0,0:0:0:0:
366,292,279679,2,0,L|360:242,1,50.9999986224174,8|0,0:3|0:0,0:0:0:0:
440,117,279855,2,0,P|390:112|339:104,1,101.999997244835,8|0,0:0|0:0,0:0:0:0:
252,20,280209,6,0,P|256:66|258:210,1,152.999995867252,8|0,0:3|0:0,0:0:0:0:
256,191,280562,1,8,0:0:0:0:
84,254,280738,2,0,P|78:202|74:149,1,101.999997244835
250,279,281091,2,0,P|247:329|241:380,1,101.999997244835,8|8,0:3|0:0,0:0:0:0:
389,225,281444,1,0,0:0:0:0:
126,36,281621,37,8,0:3:0:0:
178,110,281797,1,0,0:0:0:0:
268,132,281974,1,8,0:0:0:0:
348,89,282150,1,0,3:0:0:0:
394,12,282327,2,0,P|389:52|384:172,1,152.999995867252,8|0,0:3|0:0,0:0:0:0:
452,273,282679,5,10,0:0:0:0:
410,245,282767,1,2,0:0:0:0:
360,243,282855,1,2,0:0:0:0:
317,269,282943,1,0,0:0:0:0:
294,315,283032,38,0,P|295:277|284:168,1,101.999997244835,8|0,0:3|0:0,0:0:0:0:
238,116,283296,1,0,0:0:0:0:
232,135,283385,2,0,L|310:128,1,50.9999986224174,8|0,0:0|0:0,0:0:0:0:
204,263,283561,2,0,P|166:259|98:256,1,101.999997244835,0|0,0:0|0:0,0:0:0:0:
22,106,283914,1,8,0:3:0:0:
34,99,284002,1,0,0:0:0:0:
48,92,284091,2,0,P|85:143|73:190,1,101.999997244835,8|0,0:0|0:0,0:0:0:0:
44,326,284444,6,0,P|70:268|117:255,1,101.999997244835,8|0,0:3|0:0,0:0:0:0:
195,212,284708,1,0,0:0:0:0:
181,198,284796,2,0,L|187:273,1,50.9999986224174,8|0,0:0|0:0,0:0:0:0:
258,362,284973,2,0,P|260:274|266:215,1,101.999997244835,0|0,0:0|0:0,0:0:0:0:
418,218,285326,1,8,0:3:0:0:
425,230,285414,1,0,0:0:0:0:
432,243,285502,2,0,P|381:280|334:268,1,101.999997244835,8|0,0:0|0:0,0:0:0:0:
317,38,285856,38,0,P|315:79|318:211,1,152.999995867252,8|0,0:3|0:0,0:0:0:0:
230,183,286209,2,0,P|188:191|162:201,1,50.9999986224174,8|0,0:0|0:0,0:0:0:0:
89,168,286385,2,0,P|57:195|40:217,1,50.9999986224174
91,300,286562,5,0,0:0:0:0:
101,301,286650,1,0,0:0:0:0:
111,303,286738,2,0,P|116:272|118:228,1,50.9999986224174,8|0,0:3|0:0,0:0:0:0:
214,375,286914,37,8,0:0:0:0:
204,376,287002,1,0,0:0:0:0:
194,378,287091,2,0,P|190:347|188:303,1,50.9999986224174,0|0,0:0|0:0,0:0:0:0:
224,256,287267,5,8,0:3:0:0:
371,342,287444,1,0,0:0:0:0:
478,215,287620,1,8,0:0:0:0:
337,55,287797,38,0,P|336:115|328:279,1,203.999994489669,0|8,0:0|0:3,0:0:0:0:
167,366,288327,1,8,0:0:0:0:
26,206,288503,1,0,0:0:0:0:
24,218,288590,1,0,0:0:0:0:
21,233,288679,6,0,L|136:226,1,101.999997244835,8|0,0:3|0:0,0:0:0:0:
220,148,288944,1,0,0:0:0:0:
233,166,289032,2,0,L|157:164,1,50.9999986224174,8|0,0:0|0:0,0:0:0:0:
94,45,289208,2,0,P|95:90|104:169,1,101.999997244835,0|0,0:0|0:0,0:0:0:0:
258,75,289561,1,8,0:3:0:0:
263,63,289649,1,0,0:0:0:0:
268,49,289738,2,0,P|213:18|168:36,1,101.999997244835,8|0,0:0|0:0,0:0:0:0:
357,24,290091,38,0,L|352:129,1,101.999997244835,8|0,0:3|0:0,0:0:0:0:
250,182,290356,1,0,0:0:0:0:
271,164,290444,2,0,L|275:254,1,50.9999986224174,8|0,0:0|0:0,0:0:0:0:
453,257,290621,5,0,0:0:0:0:
404,240,290708,1,0,0:0:0:0:
355,252,290796,1,0,0:0:0:0:
321,289,290884,1,0,0:0:0:0:
311,339,290973,2,0,L|299:290,1,50.9999986224174,8|0,0:3|0:0,0:0:0:0:
95,205,291150,2,0,P|162:208|214:216,1,101.999997244835,8|0,0:0|0:0,0:0:0:0:
34,284,291503,38,0,P|3:232|55:116,1,152.999995867252,8|0,0:3|0:0,0:0:0:0:
33,131,291856,1,8,0:0:0:0:
187,35,292032,2,0,P|155:30|65:24,1,101.999997244835
294,186,292385,2,0,P|327:181|416:175,1,101.999997244835,8|8,0:3|0:0,0:0:0:0:
143,264,292738,5,0,0:0:0:0:
161,384,292914,1,8,0:3:0:0:
326,324,293091,37,0,0:0:0:0:
333,333,293179,1,0,0:0:0:0:
341,342,293267,2,0,L|345:264,1,50.9999986224174,0|0,0:0|0:0,0:0:0:0:
416,228,293444,5,0,0:0:0:0:
423,219,293532,1,0,0:0:0:0:
431,210,293620,2,0,L|435:288,1,50.9999986224174,0|0,0:0|0:0,0:0:0:0:
290,209,293797,37,0,0:0:0:0:
283,200,293885,1,0,0:0:0:0:
275,191,293973,2,0,L|271:269,1,50.9999986224174,0|0,0:0|0:0,0:0:0:0:
108,187,294150,2,0,L|112:265,1,50.9999986224174,0|0,0:0|0:0,0:0:0:0:
198,110,294327,37,10,0:3:0:0:
189,329,294503,1,2,0:0:0:0:
205,124,294679,5,10,0:0:0:0:
186,317,294856,1,2,0:0:0:0:
8,243,295032,38,2,L|109:237,1,101.999997244835,2|10,0:0|0:3,0:0:0:0:
120,251,295385,1,10,0:0:0:0:
202,54,295738,5,10,0:3:0:0:
258,105,295915,1,2,0:0:0:0:
333,114,296091,1,10,0:0:0:0:
399,77,296268,2,0,P|384:136|390:244,1,152.999995867252,2|0,0:0|0:0,0:0:0:0:
386,227,296621,2,2,L|497:223,1,101.999997244835,10|10,0:3|0:0,0:0:0:0:
69,338,297150,38,2,P|107:272|253:298,1,203.999994489669,10|10,0:3|0:0,0:0:0:0:
244,288,297679,2,2,L|251:177,1,101.999997244835
232,165,298032,5,10,0:3:0:0:
308,173,298209,1,10,0:0:0:0:
384,181,298385,1,2,0:0:0:0:
438,88,298562,38,2,P|430:154|425:298,1,203.999994489669,10|10,0:3|0:0,0:0:0:0:
438,313,299091,2,2,P|387:311|304:318,1,101.999997244835
327,329,299444,1,2,0:0:0:0:
242,266,299621,2,2,P|248:308|252:381,1,101.999997244835,10|2,0:0|0:0,0:0:0:0:
170,132,299974,5,10,0:3:0:0:
161,351,300150,1,2,0:0:0:0:
177,146,300326,37,10,0:0:0:0:
158,339,300503,1,2,0:0:0:0:
4,244,300679,6,2,L|105:238,1,101.999997244835,2|10,0:0|0:3,0:0:0:0:
116,252,301032,1,10,0:0:0:0:
191,53,301385,37,10,0:3:0:0:
247,104,301562,1,2,0:0:0:0:
322,113,301738,1,10,0:0:0:0:
388,76,301915,2,0,P|355:155|390:244,1,152.999995867252,2|0,0:0|0:0,0:0:0:0:
370,217,302268,2,2,P|331:213|237:216,1,101.999997244835,10|10,0:3|0:0,0:0:0:0:
41,45,302797,6,2,P|79:111|225:85,1,203.999994489669,10|10,0:3|0:0,0:0:0:0:
216,95,303326,2,2,P|212:130|212:207,1,101.999997244835,10|0,0:3|0:3,0:0:0:0:
202,219,303679,37,10,0:3:0:0:
278,211,303856,1,10,0:0:0:0:
354,203,304032,1,2,0:0:0:0:
414,100,304209,6,2,P|406:166|401:310,1,203.999994489669,10|10,0:3|0:0,0:0:0:0:
412,322,304738,2,2,P|361:320|282:324,1,101.999997244835,10|2,0:3|0:0,0:0:0:0:
299,336,305091,5,2,0:0:0:0:
275,181,305268,1,10,0:0:0:0:
275,181,305621,5,14,0:3:0:0:
226,121,305797,1,2,0:0:0:0:
269,57,305974,1,2,0:0:0:0:
343,78,306150,1,6,0:0:0:0:
347,154,306327,1,2,0:0:0:0:
110,345,307032,37,6,0:0:0:0:
95,270,307209,1,2,0:0:0:0:
170,255,307385,1,2,0:0:0:0:
185,330,307562,1,6,0:0:0:0:
411,184,308444,6,2,P|377:132|311:137,1,127.500000447035,6|6,0:0|0:0,0:0:0:0:
293,120,309327,37,2,0:0:0:0:
295,196,309503,1,2,0:0:0:0:
297,274,309679,1,2,0:0:0:0:
294,294,309856,6,2,P|243:291|163:292,1,127.500000447035,6|6,0:0|0:0,0:0:0:0:
158,312,310738,37,2,0:0:0:0:
133,195,310915,1,6,0:0:0:0:
133,195,311268,5,6,0:0:0:0:
84,135,311445,1,2,0:0:0:0:
127,71,311621,1,2,0:0:0:0:
201,92,311797,1,6,0:0:0:0:
205,168,311974,1,2,0:0:0:0:
434,147,312679,37,6,0:0:0:0:
442,70,312855,1,2,0:0:0:0:
366,62,313032,1,2,0:0:0:0:
357,138,313209,1,6,0:0:0:0:
251,356,314091,6,2,P|247:323|241:220,1,127.500000447035,6|6,0:0|0:0,0:0:0:0:
226,209,314974,37,2,0:0:0:0:
302,207,315150,1,2,0:0:0:0:
380,205,315327,1,2,0:0:0:0:
396,227,315503,6,2,P|399:163|405:99,1,127.500000447035,6|6,0:0|0:0,0:0:0:0:
390,76,316385,37,2,0:0:0:0:
512,94,316562,1,6,0:0:0:0:
