osu file format v14

[General]
AudioFilename: audio.mp3
AudioLeadIn: 0
PreviewTime: 85695
Countdown: 0
SampleSet: Soft
StackLeniency: 0.7
Mode: 0
LetterboxInBreaks: 0
WidescreenStoryboard: 1

[Editor]
Bookmarks: 23578,24814,29226,30637,35226,39461,41049,43343
DistanceSpacing: 0.4
BeatDivisor: 4
GridSize: 4
TimelineZoom: 4.599998

[Metadata]
Title:Masshiro na Yuki
TitleUnicode:まっしろな雪
Artist:Halozy
ArtistUnicode:Halozy
Creator:Doj
Version:Lunatic
Source:東方Project
Tags:とらのあな toranoana 水瀬ましろ amorevole sumijun すみじゅん touhou kaeidzuka Phantasmagoria of Flower View 東方幻奏響 UROBOROS 弐 fAIRYtAILoVERdRIVE Gensoukyou bayside beat comiket87 comiket89 higan retour kikou riverside view komachi onozuka drum and bass victorica crowie
BeatmapID:1025276
BeatmapSetID:430693

[Difficulty]
HPDrainRate:6
CircleSize:4
OverallDifficulty:7.2
ApproachRate:9.3
SliderMultiplier:1.59999990463257
SliderTickRate:2

[Events]
//Background and Video events
0,0,"MasshiroBG-.jpg",0,0
//Break Periods
//Storyboard Layer 0 (Background)
Sprite,Background,Centre,"MasshiroBG-.jpg",320,240 S,0,0,,0.625 F,0,0,989,0,1 F,0,113932,122803,1,0
//Storyboard Layer 1 (Fail)
//Storyboard Layer 2 (Pass)
//Storyboard Layer 3 (Foreground)
//Storyboard Sound Samples

[TimingPoints]
-421,352.941176470588,4,2,1,25,1,0
990,-200,4,2,1,40,0,0
7255,-200,4,2,1,5,0,0
7431,-200,4,2,1,35,0,0
8667,-200,4,2,1,5,0,0
8843,-200,4,2,1,35,0,0
9549,-200,4,2,1,5,0,0
9726,-200,4,2,1,35,0,0
10784,-200,4,2,1,5,0,0
10961,-200,4,2,1,35,0,0
12284,-133.333333333333,4,2,1,50,0,0
23226,-90.9090909090909,4,2,1,65,0,0
23755,-90.9090909090909,4,2,1,60,0,0
26049,-66.6666666666667,4,2,1,60,0,0
26402,-83.3333333333333,4,2,1,60,0,0
27373,-83.3333333333333,4,2,1,5,0,0
27461,-83.3333333333333,4,2,1,60,0,0
27814,-90.9090909090909,4,2,1,60,0,0
30549,-90.9090909090909,4,2,1,5,0,0
30637,-90.9090909090909,4,2,1,60,0,0
31696,-66.6666666666667,4,2,1,60,0,0
32049,-83.3333333333333,4,2,1,60,0,0
33020,-83.3333333333333,4,2,1,5,0,0
33108,-83.3333333333333,4,2,1,60,0,0
33461,-90.9090909090909,4,2,1,60,0,0
34520,-80,4,2,1,60,0,0
34873,-90.9090909090909,4,2,1,60,0,0
37343,-66.6666666666667,4,2,1,60,0,0
37520,-66.6666666666667,4,2,1,5,0,0
37608,-66.6666666666667,4,2,1,5,0,0
37696,-90.9090909090909,4,2,1,60,0,0
39020,-90.9090909090909,4,2,1,5,0,0
39108,-90.9090909090909,4,2,1,60,0,0
40078,-90.9090909090909,4,2,1,5,0,0
40166,-66.6666666666667,4,2,1,60,0,0
40519,-90.9090909090909,4,2,1,65,0,0
40564,-90.9090909090909,4,2,1,60,0,0
42284,-90.9090909090909,4,2,1,60,0,0
42416,-90.9090909090909,4,2,1,70,0,0
42548,-90.9090909090909,4,2,1,60,0,0
42681,-90.9090909090909,4,2,1,50,0,0
42725,-90.9090909090909,4,2,1,40,0,0
42813,-90.9090909090909,4,2,1,65,0,0
42989,-90.9090909090909,4,2,1,60,0,0
46166,-133.333333333333,4,2,1,45,0,0
49254,-133.333333333333,4,2,1,5,0,0
49342,-133.333333333333,4,2,1,45,0,0
50666,-133.333333333333,4,2,1,5,0,0
50755,-133.333333333333,4,2,1,45,0,0
55960,-133.333333333333,4,2,1,5,0,0
56048,-133.333333333333,4,2,1,45,0,0
56225,-100,4,2,1,65,0,0
57460,-133.333333333333,4,2,1,45,0,0
67343,-400,4,2,1,50,0,0
68225,-100,4,2,1,55,0,0
68755,-100,4,2,1,70,0,1
88520,-100,4,2,1,70,0,0
91343,-90.9090909090909,4,2,1,75,0,1
113402,-200,4,2,1,75,0,0

[Colours]
Combo1 : 0,128,192
Combo2 : 255,128,192
Combo3 : 0,255,255
Combo4 : 128,128,192
SliderTrackOverride : 80,180,223
SliderBorder : 110,210,255

[HitObjects]
172,124,990,6,0,L|216:148,2,39.9999976158142,2|0|0,0:0|0:0|0:0,0:0:0:0:
97,112,1520,2,0,P|101:152|93:192,1,79.9999952316285
288,288,2402,6,0,L|256:312,2,39.9999976158142,2|0|0,0:0|0:0|0:0,0:0:0:0:
362,269,2931,2,0,P|350:233|358:181,1,79.9999952316285
429,46,3814,6,0,L|441:100,2,39.9999976158142
341,28,4343,1,0,0:0:0:0:
276,79,4520,2,0,P|272:125|279:172,1,79.9999952316285
373,264,5226,2,0,P|383:207|370:141,1,119.999992847443
372,146,6108,1,0,0:0:0:0:
156,60,6637,6,0,P|135:53|117:46,2,39.9999976158142,2|0|0,0:0|0:0|0:0,0:0:0:0:
189,133,7167,2,0,P|227:144|279:161,1,79.9999952316285
409,290,8049,2,0,P|431:295|452:301,2,39.9999976158142,2|0|0,0:0|0:0|0:0,0:0:0:0:
285,325,8578,2,0,P|319:337|361:349,1,79.9999952316285
230,118,9461,6,0,P|192:110|135:110,1,79.9999952316285
150,108,9990,1,0,0:0:0:0:
58,198,10343,1,0,0:0:0:0:
103,284,10696,2,0,P|145:281|191:286,1,79.9999952316285
277,329,11226,1,0,0:0:0:0:
269,203,11402,1,0,0:0:0:0:
371,274,11578,1,0,0:0:0:0:
277,329,11931,1,0,0:0:0:0:
396,297,12284,6,0,P|412:273|432:200,1,89.9999980688095,4|0,0:3|0:0,0:0:0:0:
430,215,12637,1,0,0:0:0:0:
334,124,12814,2,0,P|329:138|324:152,1,29.9999993562698
243,99,12990,1,0,0:0:0:0:
219,80,13078,1,0,0:0:0:0:
191,69,13167,1,0,0:0:0:0:
161,66,13255,1,0,0:0:0:0:
132,72,13343,1,0,0:0:0:0:
24,224,13520,2,0,P|26:210|31:195,1,29.9999993562698
104,144,13696,6,0,P|120:203|123:245,1,89.9999980688095
122,231,14049,1,0,0:0:0:0:
263,233,14226,2,0,P|258:217|258:203,1,29.9999993562698
295,130,14402,1,0,0:0:0:0:
319,112,14490,1,0,0:0:0:0:
347,102,14578,1,0,0:0:0:0:
377,101,14667,1,0,0:0:0:0:
405,110,14755,1,0,0:0:0:0:
512,172,14931,2,0,P|511:142|510:115,1,29.9999993562698
428,38,15108,6,0,P|426:83|430:128,1,89.9999980688095
430,128,15461,1,0,0:0:0:0:
488,296,15637,2,0,L|472:264,1,29.9999993562698
396,316,15814,1,0,0:0:0:0:
369,330,15902,1,0,0:0:0:0:
340,335,15990,1,0,0:0:0:0:
311,331,16078,1,0,0:0:0:0:
284,317,16167,1,0,0:0:0:0:
166,204,16343,2,0,L|148:247,1,29.9999993562698
112,312,16520,6,0,P|119:338|131:368,2,59.9999987125397
74,89,17049,1,0,0:0:0:0:
103,93,17137,1,0,0:0:0:0:
130,105,17226,1,0,0:0:0:0:
150,127,17314,1,0,0:0:0:0:
161,155,17402,2,0,L|179:204,1,29.9999993562698
228,89,17578,2,0,L|230:133,1,29.9999993562698
309,40,17755,2,0,L|298:97,1,29.9999993562698
301,178,17931,5,4,0:3:0:0:
301,178,18108,1,4,0:3:0:0:
419,80,18284,1,4,0:3:0:0:
429,74,18461,1,4,0:3:0:0:
481,221,18637,1,4,0:3:0:0:
493,240,18814,1,4,0:3:0:0:
270,297,18990,1,4,0:3:0:0:
248,256,19167,1,4,0:3:0:0:
294,69,19343,5,4,0:3:0:0:
327,139,19520,1,4,0:3:0:0:
154,203,19696,1,4,0:3:0:0:
104,103,19873,1,4,0:3:0:0:
257,168,20049,1,4,0:3:0:0:
315,293,20226,1,4,0:3:0:0:
91,264,20402,1,4,0:3:0:0:
29,96,20578,1,4,0:3:0:0:
256,72,20755,5,0,0:0:0:0:
288,81,20843,1,0,0:0:0:0:
311,104,20931,1,0,0:0:0:0:
320,136,21020,1,0,0:0:0:0:
308,168,21108,2,0,L|275:200,3,29.9999993562698
168,156,21461,5,0,0:0:0:0:
136,165,21549,1,0,0:0:0:0:
113,188,21637,1,0,0:0:0:0:
104,220,21726,1,0,0:0:0:0:
116,252,21814,2,0,L|144:288,3,29.9999993562698
216,356,22167,2,0,P|245:318|269:301,1,59.9999987125397,4|2,0:3|0:0,0:0:0:0:
281,297,22431,1,0,0:0:0:0:
310,294,22520,1,0,0:0:0:0:
440,348,22696,5,0,0:0:0:0:
439,317,22784,1,0,0:0:0:0:
443,287,22873,1,0,0:0:0:0:
450,258,22961,1,0,0:0:0:0:
454,225,23049,1,2,0:3:0:0:
458,195,23137,1,2,0:3:0:0:
456,152,23226,2,0,P|454:115|441:65,1,87.9999974403381,0|0,0:0|0:0,0:0:0:0:
309,0,23578,5,4,0:0:0:0:
141,117,23755,2,0,P|145:138|151:159,1,43.9999987201691
137,284,23931,2,0,P|128:262|126:255,2,21.9999993600845,8|0|0,0:0|0:0|0:0,0:0:0:0:
239,228,24108,2,0,P|245:203|249:175,1,43.9999987201691
337,247,24284,2,0,P|343:293|348:355,1,87.9999974403381,0|4,0:0|0:3,0:0:0:0:
373,136,24637,2,0,P|380:116|386:100,3,21.9999993600845,8|0|0|0,0:0|0:0|0:0|0:0,0:0:0:0:
324,64,24814,2,0,P|314:43|307:22,1,43.9999987201691
431,40,24990,6,0,P|467:80|485:127,1,87.9999974403381,2|0,0:0|0:0,0:0:0:0:
503,187,25255,1,0,0:0:0:0:
503,187,25343,1,8,0:0:0:0:
370,228,25520,2,0,P|343:240|314:259,1,43.9999987201691,2|0,0:0|0:0,0:0:0:0:
285,160,25696,2,0,P|298:151|312:140,3,21.9999993600845
264,71,25873,2,0,P|273:58|282:43,3,21.9999993600845,4|0|0|0,0:3|0:0|0:0|0:0,0:0:0:0:
197,4,26049,1,2,0:0:0:0:
166,107,26226,2,0,P|166:140|171:183,1,59.9999987125397
78,265,26402,6,0,P|76:244|72:224,6,23.9999978370667,2|0|0|0|0|0|0,0:1|0:0|0:0|0:0|0:0|0:0|0:0,0:0:0:0:
162,190,26755,2,0,P|168:166|171:149,2,23.9999978370667,8|0|0,0:0|0:0|0:0,0:0:0:0:
70,99,26931,2,0,P|72:123|72:143,6,23.9999978370667,2|0|0|0|0|0|0,0:1|0:0|0:0|0:0|0:0|0:0|0:0,0:0:0:0:
156,59,27284,2,0,P|152:40|152:23,2,23.9999978370667,4|0|0,0:3|0:0|0:0,0:0:0:0:
268,126,27461,2,0,P|277:172|283:246,1,95.9999913482669,2|0,0:1|0:0,0:0:0:0:
327,49,27814,6,0,L|343:30,2,21.9999993600845,6|0|0,0:3|0:3|0:3,0:3:0:0:
156,59,27990,2,0,L|136:40,2,21.9999993600845,6|0|0,0:3|0:3|0:3,0:3:0:0:
242,135,28167,1,8,0:0:0:0:
342,33,28343,1,0,0:0:0:0:
372,50,28431,1,0,0:0:0:0:
407,47,28520,2,0,P|413:33|419:2,1,43.9999987201691
484,122,28696,2,0,P|490:148|492:180,1,43.9999987201691,4|0,0:3|0:0,0:0:0:0:
455,318,28873,2,0,P|447:274|445:231,1,87.9999974403381,8|0,0:0|0:0,0:0:0:0:
470,107,29226,5,4,0:3:0:0:
370,213,29402,1,0,0:0:0:0:
245,93,29578,2,0,P|248:109|252:129,2,21.9999993600845,8|0|0,0:0|0:0|0:0,0:0:0:0:
220,237,29755,1,0,0:0:0:0:
122,46,29931,2,0,P|119:35|116:25,2,21.9999993600845,0|0|0,0:0|0:3|0:0,0:0:0:0:
139,145,30108,2,0,P|134:173|124:203,1,43.9999987201691,4|0,0:3|0:0,0:0:0:0:
253,136,30284,2,0,P|249:111|245:97,3,21.9999993600845,8|0|0|0,0:0|0:0|0:0|0:0,0:0:0:0:
310,66,30461,2,0,L|315:18,1,43.9999987201691
395,93,30637,6,0,P|408:133|420:208,1,87.9999974403381,2|0,0:0|0:0,0:0:0:0:
439,334,30990,2,0,L|466:360,3,21.9999993600845,8|0|0|0,0:0|0:0|0:0|0:0,0:0:0:0:
416,322,31167,2,0,P|352:305|291:323,1,131.999996160507,2|0,0:0|0:0,0:0:0:0:
201,352,31520,2,0,L|183:339,3,21.9999993600845,4|0|0|0,0:3|0:0|0:0|0:0,0:0:0:0:
167,327,31696,2,0,B|129:315|129:315|96:311|50:337,1,119.999997425079,2|0,0:0|0:0,0:0:0:0:
23,158,32049,6,0,L|28:200,6,23.9999978370667,2|0|0|0|0|0|0,0:1|0:0|0:0|0:0|0:0|0:0|0:0,0:0:0:0:
101,81,32402,2,0,P|106:60|111:36,2,23.9999978370667,8|0|0,0:0|0:0|0:0,0:0:0:0:
229,67,32578,2,0,P|210:84|194:96,6,23.9999978370667,2|0|0|0|0|0|0,0:1|0:0|0:0|0:0|0:0|0:0|0:0,0:0:0:0:
290,150,32931,2,0,P|286:173|284:201,1,47.9999956741335,4|0,0:3|0:0,0:0:0:0:
313,318,33108,6,0,P|357:299|423:282,1,95.9999913482669,2|0,0:1|0:0,0:0:0:0:
284,197,33461,2,0,L|280:169,2,21.9999993600845,6|0|0,0:3|0:0|0:0,0:0:0:0:
219,290,33637,2,0,P|216:309|212:327,2,21.9999993600845,2|0|0,0:3|0:0|0:0,0:0:0:0:
164,168,33814,2,0,L|158:146,2,21.9999993600845,8|0|0,0:0|0:0|0:0,0:0:0:0:
330,102,33990,5,4,0:3:0:0:
351,100,34078,1,0,0:0:0:0:
369,112,34167,2,0,P|375:147|375:179,1,43.9999987201691
224,66,34343,1,4,0:3:0:0:
164,168,34520,2,0,P|154:195|144:224,1,49.9999970197678,8|0,0:0|0:0,0:0:0:0:
104,332,34696,1,0,0:0:0:0:
104,332,34784,1,0,0:0:0:0:
104,332,34873,6,0,P|88:292|79:258,1,43.9999987201691,4|0,0:3|0:0,0:0:0:0:
130,174,35049,2,0,P|141:195|148:217,1,43.9999987201691
45,128,35226,1,8,0:0:0:0:
123,35,35402,2,0,L|131:2,2,21.9999993600845
211,90,35578,2,0,P|221:116|231:149,1,43.9999987201691
288,19,35755,1,4,0:3:0:0:
383,83,35931,2,0,L|379:104,3,21.9999993600845,8|0|0|0,0:0|0:0|0:0|0:0,0:0:0:0:
427,48,36108,2,0,P|428:18|426:-16,1,43.9999987201691
333,113,36284,6,0,P|331:133|333:156,1,43.9999987201691,4|0,0:3|0:0,0:0:0:0:
371,268,36461,1,0,0:0:0:0:
453,204,36637,2,0,P|458:182|462:168,2,21.9999993600845,8|0|0,0:0|0:0|0:0,0:0:0:0:
355,282,36814,2,2,P|360:308|374:348,1,43.9999987201691
258,211,36990,2,0,L|251:185,3,21.9999993600845
334,157,37167,2,0,L|328:135,3,21.9999993600845
220,219,37343,2,0,P|168:210|138:202,1,59.9999987125397,8|0,0:0|0:0,0:0:0:0:
93,116,37520,2,0,P|49:85|25:65,1,59.9999987125397,8|0,0:0|0:0,0:0:0:0:
159,20,37696,6,0,P|166:3|168:-13,2,21.9999993600845,4|0|0,0:3|0:0|0:0,0:0:0:0:
191,130,37873,1,0,0:0:0:0:
266,36,38049,2,0,P|266:25|267:14,2,21.9999993600845,8|0|0,0:0|0:0|0:0,0:0:0:0:
285,207,38226,1,0,0:0:0:0:
370,49,38402,1,0,0:0:0:0:
386,194,38578,2,0,L|399:238,1,43.9999987201691,4|0,0:3|0:0,0:0:0:0:
279,114,38755,2,0,L|265:153,3,21.9999993600845,8|0|0|0,0:0|0:0|0:0|0:0,0:0:0:0:
378,31,38931,2,0,P|394:15|428:-6,1,43.9999987201691
267,25,39108,6,0,P|221:30|164:45,1,87.9999974403381,4|0,0:3|0:0,0:0:0:0:
56,170,39461,1,8,0:0:0:0:
31,55,39637,2,0,P|26:26|24:-1,1,43.9999987201691
167,0,39814,1,0,0:0:0:0:
137,158,39990,2,0,L|155:212,1,43.9999987201691,4|0,0:3|0:0,0:0:0:0:
197,89,40167,2,0,P|260:120|324:84,1,119.999997425079,8|0,0:0|0:0,0:0:0:0:
114,170,40520,6,0,L|124:205,2,21.9999993600845,4|0|0,0:0|0:0|0:0,0:0:0:0:
113,62,40696,1,0,0:0:0:0:
259,40,40873,1,8,0:0:0:0:
296,183,41049,2,0,P|292:213|286:237,1,43.9999987201691
181,319,41226,2,0,L|167:285,2,21.9999993600845
199,193,41402,1,4,0:3:0:0:
306,334,41578,2,0,P|309:350|309:362,3,21.9999993600845,8|0|0|0,0:0|0:0|0:0|0:0,0:0:0:0:
378,297,41755,2,0,P|371:273|366:235,1,43.9999987201691
450,141,41931,2,0,P|444:163|440:184,1,43.9999987201691,4|0,0:3|0:0,0:0:0:0:
488,260,42108,1,0,0:0:0:0:
331,169,42284,6,0,L|309:139,2,21.9999993600845,2|0|0,0:0|0:0|0:0,0:0:0:0:
377,85,42461,2,0,L|355:55,6,21.9999993600845,2|0|0|0|0|0|0,0:0|0:0|0:0|0:0|0:0|0:0|0:0,0:0:0:0:
343,41,42814,1,4,0:3:0:0:
179,142,42990,2,0,P|181:163|182:185,1,43.9999987201691,8|0,0:0|0:0,0:0:0:0:
115,74,43167,2,0,P|103:55|94:35,1,43.9999987201691
79,177,43343,6,0,P|74:225|91:288,1,87.9999974403381,4|0,0:3|0:0,0:0:0:0:
229,350,43696,1,8,0:0:0:0:
39,267,43873,1,0,0:0:0:0:
60,266,43961,1,0,0:0:0:0:
81,263,44049,1,0,0:0:0:0:
180,143,44226,1,0,0:0:0:0:
180,143,44402,2,0,P|190:176|195:200,1,43.9999987201691,8|0,0:0|0:0,0:0:0:0:
232,284,44578,2,0,P|226:308|211:336,1,43.9999987201691
88,365,44755,5,8,0:0:0:0:
17,245,44931,1,0,0:0:0:0:
12,223,45020,1,0,0:0:0:0:
13,201,45108,1,0,0:0:0:0:
202,372,45284,1,0,0:0:0:0:
229,350,45373,1,0,0:0:0:0:
240,319,45461,1,0,0:0:0:0:
232,284,45549,1,0,0:0:0:0:
214,244,45637,2,0,P|234:236|264:226,1,43.9999987201691
110,308,45814,1,8,0:0:0:0:
110,308,46167,6,0,P|114:348|122:382,1,59.9999987125397,4|0,0:3|0:0,0:0:0:0:
21,257,46520,2,0,P|24:228|20:195,1,59.9999987125397,8|0,0:0|0:3,0:0:0:0:
112,74,46873,2,0,P|108:103|111:133,1,59.9999987125397,0|4,0:0|0:3,0:0:0:0:
248,72,47226,1,8,0:0:0:0:
248,72,47578,6,0,P|266:128|251:185,1,119.999997425079,4|8,0:3|0:0,0:0:0:0:
185,288,48108,2,0,P|173:245|172:163,1,119.999997425079,0|4,0:0|0:3,0:0:0:0:
330,229,48637,1,8,0:0:0:0:
330,229,48990,6,0,P|375:222|464:216,1,119.999997425079,4|8,0:3|0:0,0:0:0:0:
305,340,49520,2,0,B|264:348|237:340|212:332|162:346,1,119.999997425079,4|4,0:3|0:3,0:0:0:0:
78,362,50049,1,8,0:0:0:0:
107,214,50226,1,0,0:0:0:0:
23,163,50402,6,0,P|8:222|37:284,1,119.999997425079,4|8,0:3|0:0,0:0:0:0:
178,157,50931,2,0,B|209:146|247:142|268:164|268:164|234:168,1,119.999997425079,4|4,0:3|0:3,0:0:0:0:
346,112,51461,1,8,0:0:0:0:
354,140,51549,1,0,0:0:0:0:
355,170,51637,1,0,0:0:0:0:
350,200,51726,1,0,0:0:0:0:
339,228,51814,6,0,P|377:226|420:231,1,59.9999987125397,4|0,0:3|0:0,0:0:0:0:
512,300,52167,2,0,P|474:298|431:303,1,59.9999987125397,8|0,0:0|0:0,0:0:0:0:
335,368,52520,2,0,P|365:369|395:368,1,59.9999987125397,0|4,0:0|0:3,0:0:0:0:
479,211,52873,1,8,0:0:0:0:
479,211,53226,6,0,P|480:153|477:85,1,119.999997425079,4|8,0:3|0:0,0:0:0:0:
300,61,53755,2,0,P|291:102|349:153,1,119.999997425079,0|4,0:0|0:3,0:0:0:0:
468,71,54284,1,8,0:0:0:0:
468,71,54637,6,0,P|439:64|399:61,1,59.9999987125397,4|0,0:3|0:0,0:0:0:0:
300,61,54990,1,8,0:0:0:0:
200,98,55167,2,0,P|169:94|128:87,1,59.9999987125397,4|0,0:3|0:0,0:0:0:0:
55,27,55520,1,4,0:3:0:0:
141,115,55696,2,0,P|151:165|156:215,1,89.9999980688095,8|0,0:0|0:0,0:0:0:0:
155,203,56049,1,4,0:3:0:0:
294,131,56226,5,0,1:0:0:0:
153,3,56402,1,8,0:0:0:0:
6,132,56578,1,0,1:0:0:0:
2,160,56667,1,0,1:0:0:0:
16,184,56755,1,0,0:0:0:0:
141,115,56931,2,0,P|146:92|159:53,1,39.9999976158142,0|0,1:0|0:0,0:0:0:0:
182,217,57108,2,0,P|204:256|220:300,1,79.9999952316285,0|0,1:1|1:1,1:0:0:0:
282,380,57461,5,4,0:3:0:0:
363,281,57637,1,0,0:0:0:0:
347,106,57814,2,0,P|339:150|335:193,1,59.9999987125397,8|0,0:0|0:0,0:0:0:0:
337,165,58078,1,0,0:0:0:0:
337,165,58167,1,0,0:0:0:0:
237,159,58343,1,4,0:3:0:0:
372,41,58520,1,8,0:0:0:0:
372,41,58873,6,0,P|343:34|302:28,1,59.9999987125397,4|0,0:3|0:0,0:0:0:0:
313,29,59137,1,0,0:0:0:0:
313,29,59226,1,8,0:0:0:0:
234,0,59402,1,0,0:0:0:0:
240,100,59578,2,0,P|240:142|231:182,1,59.9999987125397,0|4,0:0|0:3,0:0:0:0:
196,253,59931,1,8,0:0:0:0:
191,245,60284,5,4,0:3:0:0:
233,338,60461,1,0,0:0:0:0:
186,234,60637,1,0,0:0:0:0:
143,108,60814,2,0,P|207:118|263:96,1,119.999997425079,4|4,0:3|0:3,0:0:0:0:
358,0,61343,2,0,P|345:28|339:62,1,59.9999987125397,8|0,0:0|0:0,0:0:0:0:
434,137,61696,6,0,P|447:109|453:75,2,59.9999987125397,4|0|0,0:3|0:0|0:0,0:0:0:0:
280,234,62226,2,0,B|343:215|369:202|369:202|403:245,1,119.999997425079,4|0,0:3|0:0,0:0:0:0:
416,299,62755,1,8,0:0:0:0:
252,124,62931,1,0,0:0:0:0:
236,114,63020,1,0,0:0:0:0:
221,124,63108,6,0,P|213:165|212:195,1,59.9999987125397,4|0,0:3|0:0,0:0:0:0:
374,116,63461,1,8,0:0:0:0:
281,49,63637,2,0,P|225:29|157:55,1,119.999997425079,4|4,0:3|0:3,0:0:0:0:
96,106,64167,1,8,0:0:0:0:
96,106,64520,5,4,0:3:0:0:
87,187,64696,2,0,P|85:217|80:251,1,59.9999987125397,0|8,0:0|0:0,0:0:0:0:
195,188,65049,2,0,P|179:258|192:302,1,119.999997425079,4|4,0:3|0:3,0:0:0:0:
297,337,65578,1,8,0:0:0:0:
297,337,65931,6,0,P|340:329|384:329,1,59.9999987125397,4|0,0:3|0:0,0:0:0:0:
455,244,66284,1,8,0:0:0:0:
373,84,66461,2,0,P|415:137|393:182,1,119.999997425079,4|4,0:3|0:3,0:0:0:0:
340,249,66990,1,8,0:0:0:0:
201,68,67343,6,0,P|200:121|202:168,1,99.9999940395356,4|4,0:3|0:3,0:0:0:0:
202,168,68402,1,4,0:0:0:0:
333,131,68755,6,0,P|371:127|434:135,1,79.9999952316285,0|0,1:0|0:0,0:0:0:0:
412,130,69020,1,0,0:0:0:0:
412,130,69108,1,8,0:0:0:0:
287,214,69284,2,0,L|230:212,1,39.9999976158142
145,164,69461,1,0,0:0:0:0:
132,126,69549,1,0,0:0:0:0:
136,86,69637,1,4,0:3:0:0:
157,53,69726,1,0,0:0:0:0:
189,28,69814,2,0,P|146:28|86:18,1,79.9999952316285,8|0,0:0|0:0,0:0:0:0:
66,177,70167,6,0,P|111:167|169:164,1,79.9999952316285,0|0,1:0|0:0,0:0:0:0:
145,164,70431,1,0,0:0:0:0:
145,164,70520,1,8,0:0:0:0:
211,280,70696,2,0,P|156:298|80:271,1,119.999992847443
97,283,71049,1,4,0:3:0:0:
65,162,71226,2,0,L|65:70,1,79.9999952316285,8|0,0:0|0:0,0:0:0:0:
65,82,71490,1,0,0:0:0:0:
65,82,71578,5,0,1:0:0:0:
224,140,71755,2,0,P|228:162|235:182,1,39.9999976158142
301,105,71931,2,0,P|294:66|282:27,2,79.9999952316285,8|0|0,0:0|0:0|0:0,0:0:0:0:
331,204,72461,1,4,0:3:0:0:
224,140,72637,1,8,0:0:0:0:
186,126,72726,1,0,0:0:0:0:
146,126,72814,1,0,0:0:0:0:
109,140,72902,1,0,0:0:0:0:
83,170,72990,6,0,P|80:129|68:75,1,79.9999952316285,0|0,1:0|0:0,0:0:0:0:
207,36,73343,1,8,0:0:0:0:
172,211,73520,2,0,P|159:273|175:334,1,119.999992847443
171,327,73873,1,4,0:3:0:0:
270,268,74049,2,0,P|306:257|350:249,1,79.9999952316285,8|0,0:0|0:0,0:0:0:0:
485,382,74402,6,0,P|445:381|400:371,1,79.9999952316285,0|0,1:0|0:0,0:0:0:0:
406,373,74667,1,0,0:0:0:0:
406,373,74755,1,8,0:0:0:0:
438,248,74931,1,0,0:0:0:0:
450,210,75020,1,0,0:0:0:0:
451,170,75108,1,0,0:0:0:0:
438,132,75196,1,0,0:0:0:0:
410,104,75284,2,0,P|388:98|358:93,1,39.9999976158142,4|0,0:3|0:0,0:0:0:0:
262,91,75461,1,8,0:0:0:0:
211,216,75637,1,0,0:0:0:0:
117,124,75814,6,0,P|99:89|88:42,1,79.9999952316285,0|0,1:0|0:0,0:0:0:0:
88,49,76078,1,0,0:0:0:0:
88,49,76167,1,8,0:0:0:0:
224,21,76343,2,0,P|286:13|359:13,1,119.999992847443
343,12,76696,1,4,0:3:0:0:
396,179,76873,2,0,P|405:143|407:98,1,79.9999952316285,8|0,0:0|0:0,0:0:0:0:
263,164,77226,6,0,P|269:213|281:254,1,79.9999952316285,0|0,1:0|0:0,0:0:0:0:
276,242,77490,1,0,0:0:0:0:
276,242,77578,1,8,0:0:0:0:
408,102,77755,1,0,0:0:0:0:
486,194,77931,1,0,0:0:0:0:
502,230,78020,1,0,0:0:0:0:
506,270,78108,1,4,0:3:0:0:
500,309,78196,1,0,0:0:0:0:
482,344,78284,1,8,0:0:0:0:
392,264,78461,1,0,0:0:0:0:
304,346,78637,6,0,P|263:348|202:357,1,79.9999952316285,0|0,1:0|0:0,0:0:0:0:
224,181,78990,1,8,0:0:0:0:
312,261,79167,2,0,P|354:264|412:262,1,79.9999952316285,4|0,0:3|0:0,0:0:0:0:
336,117,79520,1,4,0:3:0:0:
289,252,79696,1,8,0:0:0:0:
420,170,79873,1,0,0:0:0:0:
314,116,80049,6,0,P|296:115|272:117,1,39.9999976158142,0|0,1:0|0:0,0:0:0:0:
215,184,80226,2,0,P|195:191|173:196,1,39.9999976158142
160,285,80402,2,0,P|140:302|125:322,1,39.9999976158142,8|0,0:0|0:0,0:0:0:0:
41,365,80578,2,0,P|53:320|41:266,1,79.9999952316285
42,268,80843,1,0,0:0:0:0:
31,250,80931,1,4,0:3:0:0:
23,231,81020,1,0,0:0:0:0:
20,211,81108,2,0,P|23:174|39:120,1,79.9999952316285,8|0,0:0|0:0,0:0:0:0:
184,50,81461,6,0,P|204:48|224:49,1,39.9999976158142,0|0,1:0|0:0,0:0:0:0:
288,112,81637,2,0,P|308:119|330:124,1,39.9999976158142
359,207,81814,2,0,P|377:223|394:244,1,39.9999976158142,8|0,0:0|0:0,0:0:0:0:
429,348,81990,2,0,P|369:333|306:329,1,119.999992847443
311,328,82343,1,4,0:3:0:0:
208,163,82520,2,0,P|199:211|213:256,1,79.9999952316285,8|0,0:0|0:0,0:0:0:0:
215,258,82784,1,0,0:0:0:0:
229,271,82873,5,0,1:0:0:0:
329,53,83049,1,0,0:0:0:0:
307,42,83137,1,0,0:0:0:0:
283,35,83226,2,0,L|195:32,1,79.9999952316285,8|0,0:0|0:0,0:0:0:0:
60,134,83578,1,0,0:0:0:0:
87,116,83667,1,0,0:0:0:0:
118,109,83755,1,4,0:3:0:0:
149,114,83843,1,0,0:0:0:0:
175,132,83931,2,0,P|173:165|166:197,1,39.9999976158142,8|0,0:0|0:0,0:0:0:0:
96,258,84108,2,0,P|103:290|115:320,1,39.9999976158142
212,338,84284,6,0,P|217:301|212:235,1,79.9999952316285,0|0,1:0|0:0,0:0:0:0:
175,132,84637,1,8,0:0:0:0:
234,51,84814,2,0,P|289:38|351:53,1,119.999992847443
362,67,85167,2,0,P|377:93|385:117,1,39.9999976158142,4|0,0:3|0:0,0:0:0:0:
447,171,85343,2,0,P|447:202|445:228,1,39.9999976158142,8|0,0:0|0:0,0:0:0:0:
349,260,85520,2,0,P|356:288|365:316,1,39.9999976158142
459,349,85696,5,0,1:0:0:0:
420,337,85784,1,0,0:0:0:0:
381,338,85873,1,0,0:0:0:0:
343,352,85961,1,0,0:0:0:0:
313,378,86049,2,0,P|314:347|312:321,1,39.9999976158142,8|0,0:0|0:0,0:0:0:0:
222,258,86226,2,0,P|219:285|222:314,1,39.9999976158142
163,362,86402,1,0,0:0:0:0:
125,376,86490,1,0,0:0:0:0:
86,376,86578,1,4,0:3:0:0:
49,361,86667,1,0,0:0:0:0:
30,325,86755,2,0,P|28:289|32:236,1,79.9999952316285,8|0,0:0|0:0,0:0:0:0:
31,107,87108,5,0,1:0:0:0:
23,145,87196,1,0,0:0:0:0:
46,176,87284,1,0,0:0:0:0:
84,180,87373,1,0,0:0:0:0:
116,155,87461,2,0,P|141:149|175:144,1,39.9999976158142,8|0,0:0|0:0,0:0:0:0:
286,102,87637,2,0,P|257:101|226:94,1,39.9999976158142
193,160,87814,1,0,0:0:0:0:
206,197,87902,1,0,0:0:0:0:
208,237,87990,1,4,0:3:0:0:
196,275,88078,1,0,0:0:0:0:
167,303,88167,2,0,P|209:295|257:292,1,79.9999952316285,8|0,0:0|0:0,0:0:0:0:
342,230,88520,5,0,1:0:0:0:
115,217,88696,1,0,0:0:0:0:
115,217,88784,1,0,0:0:0:0:
115,217,88873,1,8,0:0:0:0:
253,299,89049,1,0,0:0:0:0:
253,299,89137,1,0,0:0:0:0:
253,299,89226,1,0,0:0:0:0:
251,240,89314,1,0,0:0:0:0:
251,200,89402,1,4,0:3:0:0:
251,160,89490,1,0,0:0:0:0:
251,120,89578,1,8,0:0:0:0:
133,256,89755,1,0,0:0:0:0:
314,318,89931,5,0,1:0:0:0:
426,246,90108,2,0,L|461:219,2,26.6666650772095,4|4|4,0:3|0:3|0:3,0:0:0:0:
407,260,90284,1,0,1:0:0:0:
227,261,90461,1,0,1:0:0:0:
352,145,90637,2,0,L|385:117,2,26.6666650772095,4|4|4,0:3|0:3|0:3,0:0:0:0:
332,164,90814,1,0,1:0:0:0:
176,209,90990,1,0,1:0:0:0:
237,92,91167,1,0,1:0:0:0:
124,157,91343,6,0,L|25:144,1,87.9999974403381,4|0,0:0|0:0,0:0:0:0:
0,79,91608,1,0,0:0:0:0:
0,79,91696,1,8,0:0:0:0:
144,61,91873,1,0,0:0:0:0:
144,61,91961,1,0,0:0:0:0:
144,61,92049,2,0,P|161:48|180:28,1,43.9999987201691
237,92,92226,2,0,P|254:105|269:121,1,43.9999987201691,4|0,0:3|0:0,0:0:0:0:
340,29,92402,1,8,0:0:0:0:
462,176,92578,1,0,0:0:0:0:
356,135,92755,6,0,P|316:127|256:120,1,87.9999974403381,4|0,0:3|0:0,0:0:0:0:
116,196,93108,2,0,P|142:198|160:199,1,43.9999987201691,8|0,0:0|0:0,0:0:0:0:
272,312,93284,2,0,P|230:295|164:288,1,87.9999974403381
165,290,93549,1,0,0:0:0:0:
146,301,93637,1,4,0:3:0:0:
61,142,93814,1,8,0:0:0:0:
21,314,93990,1,0,0:0:0:0:
21,314,94078,1,0,0:0:0:0:
21,314,94167,5,4,0:3:0:0:
158,206,94343,1,0,0:0:0:0:
61,142,94520,2,0,P|46:125|35:106,1,43.9999987201691,8|0,0:0|0:0,0:0:0:0:
83,0,94696,2,0,P|106:36|125:80,1,87.9999974403381
254,20,95049,1,4,0:3:0:0:
254,20,95226,2,0,P|252:64|246:108,1,87.9999974403381,8|0,0:0|0:0,0:0:0:0:
343,194,95578,6,0,P|297:207|249:228,1,87.9999974403381,4|2,0:3|0:0,0:0:0:0:
166,295,95931,1,10,0:0:0:0:
284,363,96108,2,0,P|336:377|390:375,1,87.9999974403381,4|0,0:3|0:0,0:0:0:0:
439,369,96373,1,0,0:0:0:0:
465,359,96461,2,0,P|477:335|486:303,1,43.9999987201691,4|0,0:3|0:0,0:0:0:0:
512,232,96637,2,0,P|507:204|497:176,1,43.9999987201691,8|0,0:0|0:0,0:0:0:0:
395,116,96814,2,0,P|395:136|400:164,1,43.9999987201691
512,44,96990,6,0,L|409:32,1,87.9999974403381,4|0,0:3|0:0,0:0:0:0:
349,17,97255,1,0,0:0:0:0:
349,17,97343,1,8,0:0:0:0:
265,163,97520,1,0,0:0:0:0:
251,130,97608,1,0,0:0:0:0:
246,95,97696,1,0,0:0:0:0:
251,60,97784,1,0,0:0:0:0:
270,29,97873,2,0,P|239:25|207:23,1,43.9999987201691,4|0,0:3|0:0,0:0:0:0:
132,18,98049,1,8,0:0:0:0:
174,192,98226,1,0,0:0:0:0:
190,171,98314,1,0,0:0:0:0:
197,145,98402,5,4,0:3:0:0:
186,0,98578,1,0,0:0:0:0:
56,116,98755,1,8,0:0:0:0:
190,171,98931,2,0,P|236:159|295:161,1,87.9999974403381
297,164,99196,1,0,0:0:0:0:
315,176,99284,1,4,0:3:0:0:
163,360,99461,2,0,L|65:360,1,87.9999974403381,8|0,0:0|0:0,0:0:0:0:
7,339,99726,1,0,0:0:0:0:
7,339,99814,5,4,0:3:0:0:
142,260,99990,1,0,0:0:0:0:
241,323,100167,2,0,P|247:343|251:366,1,43.9999987201691,8|0,0:0|0:0,0:0:0:0:
314,270,100343,2,0,P|319:226|334:166,1,87.9999974403381,4|0,0:3|0:0,0:0:0:0:
381,129,100608,1,0,0:0:0:0:
381,129,100696,1,4,0:3:0:0:
512,263,100873,1,8,0:0:0:0:
423,342,101049,1,0,0:0:0:0:
432,171,101226,5,4,0:3:0:0:
399,363,101402,1,2,0:0:0:0:
492,281,101578,1,2,0:0:0:0:
355,223,101755,2,0,P|297:200|236:248,1,131.999996160507
247,254,102108,2,0,P|244:286|239:313,1,43.9999987201691,4|0,0:3|0:0,0:0:0:0:
161,345,102284,2,0,P|152:371|139:389,1,43.9999987201691,8|0,0:0|0:0,0:0:0:0:
44,368,102461,2,0,P|17:378|-14:382,1,43.9999987201691
3,261,102637,6,0,P|-2:224|1:161,1,87.9999974403381,4|0,0:3|0:0,0:0:0:0:
19,105,102902,1,0,0:0:0:0:
19,105,102990,1,8,0:0:0:0:
177,32,103167,1,0,0:0:0:0:
153,23,103255,1,0,0:0:0:0:
131,37,103343,2,0,P|130:66|135:96,1,43.9999987201691
259,48,103520,2,0,P|260:22|263:-11,1,43.9999987201691,4|0,0:3|0:0,0:0:0:0:
289,164,103696,1,8,0:0:0:0:
379,40,103873,1,0,0:0:0:0:
376,18,103961,1,0,0:0:0:0:
359,3,104049,5,4,0:3:0:0:
282,120,104226,2,0,P|285:150|292:172,1,43.9999987201691
388,196,104402,2,0,P|382:226|371:251,1,43.9999987201691,8|0,0:0|0:0,0:0:0:0:
316,367,104578,1,0,0:0:0:0:
339,331,104667,1,0,0:0:0:0:
378,313,104755,1,0,0:0:0:0:
422,312,104843,1,0,0:0:0:0:
460,333,104931,2,0,P|465:308|469:271,1,43.9999987201691,4|0,0:3|0:0,0:0:0:0:
496,144,105108,2,0,P|496:170|499:193,1,43.9999987201691,8|0,0:0|0:0,0:0:0:0:
408,74,105284,2,0,P|412:98|415:121,1,43.9999987201691
328,29,105461,6,0,P|319:78|303:124,1,87.9999974403381,4|0,0:3|0:0,0:0:0:0:
252,164,105726,1,0,0:0:0:0:
252,164,105814,1,8,0:0:0:0:
61,108,105990,2,0,P|115:115|172:109,1,87.9999974403381,4|0,0:3|0:0,0:0:0:0:
174,107,106255,1,0,0:0:0:0:
196,93,106343,1,4,0:3:0:0:
124,32,106520,1,8,0:0:0:0:
7,189,106696,2,0,L|50:183,1,43.9999987201691
176,256,106873,6,0,P|130:257|88:255,1,87.9999974403381,4|0,0:3|0:0,0:0:0:0:
18,271,107137,1,0,0:0:0:0:
18,271,107226,1,8,0:0:0:0:
86,365,107402,2,0,P|135:354|183:353,1,87.9999974403381,4|0,0:3|0:0,0:0:0:0:
243,374,107667,1,0,0:0:0:0:
267,379,107755,2,0,P|290:363|309:342,1,43.9999987201691,4|0,0:3|0:0,0:0:0:0:
336,210,107931,2,0,P|333:233|333:255,1,43.9999987201691,8|0,0:0|0:0,0:0:0:0:
413,326,108108,2,0,P|419:348|427:368,1,43.9999987201691
455,238,108284,6,0,P|462:193|447:148,1,87.9999974403381,4|0,0:3|0:0,0:0:0:0:
435,136,108549,1,0,0:0:0:0:
416,124,108637,1,8,0:0:0:0:
240,97,108814,2,0,P|247:123|258:147,1,43.9999987201691
303,32,108990,1,0,0:0:0:0:
264,13,109078,1,0,0:0:0:0:
221,13,109166,1,4,0:3:0:0:
182,34,109254,1,0,0:0:0:0:
156,69,109342,1,8,0:0:0:0:
48,72,109520,1,0,0:0:0:0:
48,72,109608,1,0,0:0:0:0:
48,72,109696,6,0,P|49:49|53:22,1,43.9999987201691,4|0,0:3|0:0,0:0:0:0:
149,104,109873,2,0,P|147:129|144:147,1,43.9999987201691
219,204,110049,2,0,P|211:232|192:258,1,43.9999987201691,8|0,0:0|0:0,0:0:0:0:
136,343,110226,1,0,0:0:0:0:
175,323,110314,1,0,0:0:0:0:
218,317,110402,1,0,0:0:0:0:
261,324,110490,1,0,0:0:0:0:
303,346,110578,2,0,P|316:328|330:291,1,43.9999987201691,4|0,0:3|0:0,0:0:0:0:
369,193,110755,2,0,P|351:170|331:148,1,43.9999987201691,8|0,0:0|0:0,0:0:0:0:
218,160,110931,2,0,P|199:176|189:193,1,43.9999987201691
86,272,111108,6,0,P|88:230|78:158,1,87.9999974403381,4|0,0:3|0:0,0:0:0:0:
33,76,111461,1,8,0:0:0:0:
175,0,111637,2,0,P|169:43|164:105,1,87.9999974403381
276,35,111990,1,4,0:3:0:0:
306,149,112167,2,0,P|312:203|314:251,1,87.9999974403381,8|0,0:0|0:0,0:0:0:0:
492,83,112520,5,4,0:3:0:0:
458,200,112696,1,0,0:0:0:0:
365,53,112873,1,0,0:0:0:0:
311,251,113049,1,0,0:0:0:0:
305,267,113402,5,4,0:3:0:0:
194,191,113578,2,0,L|149:161,1,39.9999976158142,12|0,0:0|0:0,0:0:0:0:
300,282,113931,5,4,0:3:0:0:
